osu file format v14

[General]
AudioFilename: 25 Harpuia.mp3
AudioLeadIn: 0
PreviewTime: 70826
Countdown: 0
SampleSet: Soft
StackLeniency: 0.7
Mode: 3
LetterboxInBreaks: 0
SpecialStyle: 0
WidescreenStoryboard: 0

[Editor]
Bookmarks: 181,2439,7600,14052,24375,34697,45020,57923,70826,85020,100504,113407
DistanceSpacing: 1.5
BeatDivisor: 4
GridSize: 32
TimelineZoom: 2.799999

[Metadata]
Title:Harpuia
TitleUnicode:Harpuia
Artist:BlackY
ArtistUnicode:BlackY
Creator:Ichigaki
Version:NOVICE
Source:SOUND VOLTEX II -infinite infection-
Tags:SDVX KAC2013 Original Song Contest OzzyOzRock
BeatmapID:707374
BeatmapSetID:295703

[Difficulty]
HPDrainRate:7
CircleSize:7
OverallDifficulty:7
ApproachRate:5
SliderMultiplier:1.4
SliderTickRate:1

[Events]
//Background and Video events
0,0,"harp.jpg",0,0
//Break Periods
//Storyboard Layer 0 (Background)
//Storyboard Layer 1 (Fail)
//Storyboard Layer 2 (Pass)
//Storyboard Layer 3 (Foreground)
//Storyboard Sound Samples
Sample,84743,0,"Crash.wav",40

[TimingPoints]
1196,322.58064516129,4,2,1,60,1,0
57970,-100,4,2,1,30,0,0
72163,-100,4,2,1,60,0,1
100550,-100,4,2,1,60,0,0

[HitObjects]
256,192,550,128,0,1196:0:0:0:0:
36,192,1196,1,8,0:0:0:0:
182,192,1437,1,8,0:0:0:0:
329,192,1679,1,8,0:0:0:0:
475,192,1841,1,8,0:0:0:0:
109,192,2002,1,2,0:0:0:0:
256,192,2083,1,2,0:0:0:0:
402,192,2163,1,2,0:0:0:40:Crash.wav
36,192,2486,1,4,0:0:0:0:
475,192,2486,1,2,0:0:0:0:
329,192,4421,1,4,0:0:0:0:
36,192,4421,1,2,0:0:0:0:
109,192,4744,1,2,0:0:0:0:
402,192,4744,1,4,0:0:0:0:
182,192,5066,1,2,0:0:0:0:
475,192,5066,1,4,0:0:0:0:
475,192,7002,1,2,0:0:0:0:
36,192,7002,128,4,7647:0:0:0:0:
256,192,7647,1,4,0:0:0:0:
475,192,7647,128,2,8937:0:0:0:0:
256,192,8937,1,4,0:0:0:0:
109,192,8937,128,2,10228:0:0:0:0:
329,192,10228,1,4,0:0:0:0:
475,192,10228,128,2,11518:0:0:0:0:
256,192,10712,1,4,0:0:0:0:
182,192,11195,1,4,0:0:0:0:
36,192,11518,128,0,12808:0:0:0:0:
256,192,11679,1,4,0:0:0:0:
402,192,11921,1,4,0:0:0:0:
329,192,12163,1,4,0:0:0:0:
182,192,12405,1,4,0:0:0:0:
256,192,12647,1,4,0:0:0:0:
475,192,12808,1,4,0:0:0:0:
402,192,12808,1,2,0:0:0:0:
256,192,13615,1,2,0:0:0:0:
36,192,13776,1,0,0:0:0:40:Crash.wav
402,192,13776,1,2,0:0:0:0:
475,192,14099,1,2,0:0:0:0:
109,192,14099,1,4,0:0:0:0:
329,192,14421,1,2,0:0:0:0:
256,192,14744,1,2,0:0:0:0:
36,192,14986,1,0,0:0:0:0:
402,192,15228,1,0,0:0:0:0:
109,192,15550,1,0,0:0:0:0:
475,192,16034,1,2,0:0:0:0:
329,192,16276,1,0,0:0:0:0:
182,192,16518,1,0,0:0:0:0:
402,192,16679,1,2,0:0:0:0:
36,192,16679,1,4,0:0:0:0:
256,192,17002,1,2,0:0:0:0:
475,192,17325,1,8,0:0:0:0:
182,192,17566,1,8,0:0:0:0:
329,192,17808,1,8,0:0:0:0:
402,192,18131,1,8,0:0:0:0:
36,192,18131,1,2,0:0:0:0:
475,192,18615,1,4,0:0:0:0:
256,192,18776,1,2,0:0:0:0:
109,192,18937,1,2,0:0:0:0:
329,192,19099,1,2,0:0:0:0:
475,192,19260,1,2,0:0:0:0:
36,192,19260,1,8,0:0:0:0:
256,192,19583,1,2,0:0:0:0:
109,192,19905,1,2,0:0:0:0:
329,192,20228,1,2,0:0:0:0:
182,192,20470,1,0,0:0:0:0:
475,192,20712,1,0,0:0:0:0:
329,192,20954,1,0,0:0:0:0:
36,192,21195,1,2,0:0:0:0:
256,192,21518,128,2,21841:0:0:0:0:
475,192,21841,1,4,0:0:0:0:
36,192,21841,1,2,0:0:0:0:
182,192,22083,1,0,0:0:0:0:
402,192,22325,1,0,0:0:0:0:
256,192,22647,1,0,0:0:0:0:
182,192,22970,1,0,0:0:0:0:
36,192,23131,1,4,0:0:0:0:
475,192,23131,1,2,0:0:0:0:
329,192,23292,1,2,0:0:0:0:
109,192,23454,1,2,0:0:0:0:
256,192,23615,1,2,0:0:0:0:
475,192,23776,128,2,24099:0:0:0:0:
256,192,24099,1,0,0:0:0:40:Crash.wav
36,192,24099,128,2,24421:0:0:0:0:
475,192,24421,1,4,0:0:0:0:
402,192,24421,1,2,0:0:0:0:
109,192,24744,1,2,0:0:0:0:
329,192,25066,1,2,0:0:0:0:
36,192,25308,1,0,0:0:0:0:
475,192,25550,1,0,0:0:0:0:
256,192,25873,1,0,0:0:0:0:
475,192,26357,1,2,0:0:0:0:
329,192,26599,1,0,0:0:0:0:
182,192,26841,1,2,0:0:0:0:
36,192,27002,1,4,0:0:0:0:
402,192,27002,1,2,0:0:0:0:
256,192,27405,1,2,0:0:0:0:
109,192,27647,1,2,0:0:0:0:
475,192,27647,1,8,0:0:0:0:
182,192,27889,1,8,0:0:0:0:
402,192,28131,1,8,0:0:0:0:
256,192,28373,1,8,0:0:0:0:
36,192,28615,1,8,0:0:0:0:
475,192,28857,1,8,0:0:0:0:
182,192,29099,1,8,0:0:0:0:
329,192,29341,1,8,0:0:0:0:
475,192,29583,1,4,0:0:0:0:
36,192,29583,1,2,0:0:0:0:
256,192,29825,1,0,0:0:0:0:
402,192,30066,1,2,0:0:0:0:
109,192,30228,1,2,0:0:0:0:
329,192,30550,128,2,30873:0:0:0:0:
475,192,30873,1,4,0:0:0:0:
36,192,30873,1,2,0:0:0:0:
402,192,31195,1,2,0:0:0:0:
109,192,31437,1,0,0:0:0:0:
329,192,31679,1,2,0:0:0:0:
182,192,31921,1,2,0:0:0:0:
36,192,32163,1,2,0:0:0:0:
475,192,32163,1,4,0:0:0:0:
329,192,32405,1,2,0:0:0:0:
182,192,32647,1,2,0:0:0:0:
402,192,32808,1,4,0:0:0:0:
109,192,32808,1,2,0:0:0:0:
256,192,33131,128,0,33454:0:0:0:0:
475,192,33454,1,4,0:0:0:0:
402,192,33454,1,2,0:0:0:0:
109,192,33695,1,0,0:0:0:0:
256,192,33937,1,2,0:0:0:0:
402,192,34099,1,4,0:0:0:0:
36,192,34099,1,0,0:0:0:0:
475,192,34421,1,0,0:0:0:40:Crash.wav
182,192,34421,1,2,0:0:0:0:
329,192,34744,1,2,0:0:0:0:
36,192,34744,1,4,0:0:0:0:
109,192,35066,1,8,0:0:0:0:
402,192,35147,1,0,0:0:0:0:
256,192,35308,1,0,0:0:0:0:
182,192,35470,1,0,0:0:0:0:
36,192,35631,1,0,0:0:0:0:
329,192,35873,1,2,0:0:0:0:
182,192,36034,1,2,0:0:0:0:
475,192,36195,1,0,0:0:0:0:
329,192,36357,1,8,0:0:0:0:
109,192,36437,1,0,0:0:0:0:
256,192,36599,1,2,0:0:0:0:
402,192,36760,1,0,0:0:0:0:
182,192,36921,1,0,0:0:0:0:
256,192,37163,1,8,0:0:0:0:
36,192,37325,1,2,0:0:0:0:
109,192,37647,1,8,0:0:0:0:
329,192,37728,1,0,0:0:0:0:
182,192,37889,1,0,0:0:0:0:
402,192,38050,1,0,0:0:0:0:
256,192,38212,1,0,0:0:0:0:
109,192,38454,1,2,0:0:0:0:
402,192,38615,1,2,0:0:0:0:
182,192,38776,1,0,0:0:0:0:
36,192,38937,1,8,0:0:0:0:
329,192,39018,1,0,0:0:0:0:
475,192,39179,1,2,0:0:0:0:
256,192,39341,1,0,0:0:0:0:
109,192,39502,1,0,0:0:0:0:
329,192,39744,1,8,0:0:0:0:
36,192,39905,1,2,0:0:0:0:
182,192,40228,1,8,0:0:0:0:
402,192,40308,1,0,0:0:0:0:
109,192,40470,1,0,0:0:0:0:
329,192,40631,1,0,0:0:0:0:
182,192,40792,1,0,0:0:0:0:
402,192,41034,1,2,0:0:0:0:
256,192,41195,1,2,0:0:0:0:
36,192,41357,1,0,0:0:0:0:
475,192,41518,1,8,0:0:0:0:
182,192,41599,1,0,0:0:0:0:
329,192,41760,1,2,0:0:0:0:
36,192,41921,1,0,0:0:0:0:
402,192,42083,1,0,0:0:0:0:
256,192,42325,1,8,0:0:0:0:
109,192,42486,1,2,0:0:0:0:
182,192,42808,1,8,0:0:0:0:
402,192,42889,1,0,0:0:0:0:
36,192,43050,1,0,0:0:0:0:
256,192,43212,1,0,0:0:0:0:
402,192,43454,1,8,0:0:0:0:
109,192,43615,1,2,0:0:0:0:
475,192,43776,1,2,0:0:0:0:
329,192,43937,1,0,0:0:0:0:
36,192,44018,1,2,0:0:0:0:
182,192,44260,1,0,0:0:0:0:
475,192,44502,1,0,0:0:0:0:
109,192,44663,1,0,0:0:0:0:
256,192,44905,1,8,0:0:0:0:
36,192,45066,1,4,0:0:0:0:
475,192,45389,1,2,0:0:0:0:
182,192,45389,1,8,0:0:0:0:
329,192,45873,1,2,0:0:0:0:
36,192,45873,1,8,0:0:0:0:
182,192,46357,1,2,0:0:0:0:
402,192,46357,1,8,0:0:0:0:
109,192,46841,1,8,0:0:0:0:
329,192,46841,1,2,0:0:0:0:
182,192,47325,1,8,0:0:0:0:
475,192,47325,1,2,0:0:0:0:
329,192,47486,1,8,0:0:0:0:
36,192,47566,1,2,0:0:0:0:
475,192,47970,1,2,0:0:0:0:
256,192,47970,1,8,0:0:0:0:
402,192,48454,1,8,0:0:0:0:
36,192,48454,1,2,0:0:0:0:
109,192,48937,1,2,0:0:0:0:
329,192,48937,1,8,0:0:0:0:
182,192,49421,1,2,0:0:0:0:
475,192,49421,1,8,0:0:0:0:
36,192,49690,1,8,0:0:0:0:
329,192,49798,1,8,0:0:0:0:
109,192,49905,1,8,0:0:0:0:
402,192,50013,1,8,0:0:0:0:
182,192,50120,1,8,0:0:0:0:
475,192,50228,1,8,0:0:0:0:
256,192,50550,1,8,0:0:0:0:
109,192,50873,1,2,0:0:0:0:
329,192,51195,1,8,0:0:0:0:
182,192,51518,1,2,0:0:0:0:
475,192,51518,1,4,0:0:0:0:
256,192,51841,1,8,0:0:0:0:
109,192,52163,1,2,0:0:0:0:
329,192,52486,1,8,0:0:0:0:
475,192,52808,1,4,0:0:0:0:
36,192,52808,1,2,0:0:0:0:
182,192,53131,1,2,0:0:0:0:
256,192,53454,1,4,0:0:0:0:
475,192,53454,1,2,0:0:0:0:
329,192,53776,1,2,0:0:0:0:
475,192,54099,1,2,0:0:0:0:
36,192,54099,1,8,0:0:0:0:
182,192,54341,1,0,0:0:0:0:
402,192,54583,1,2,0:0:0:0:
36,192,54825,1,2,0:0:0:0:
329,192,54986,1,2,0:0:0:0:
256,192,55228,1,2,0:0:0:0:
36,192,55389,1,2,0:0:0:0:
402,192,55389,1,4,0:0:0:0:
475,192,55712,128,0,57970:0:0:0:0:
109,192,56679,1,0,0:0:0:0:
256,192,57647,1,0,0:0:0:40:Crash.wav
36,192,57970,1,0,0:0:0:0:
329,192,58615,1,0,0:0:0:0:
109,192,59260,1,0,0:0:0:0:
402,192,59905,1,0,0:0:0:0:
182,192,60550,1,0,0:0:0:0:
256,192,61195,1,0,0:0:0:0:
329,192,61518,1,0,0:0:0:0:
475,192,61841,1,0,0:0:0:0:
109,192,62486,1,0,0:0:0:0:
256,192,63131,1,0,0:0:0:0:
402,192,63776,1,0,0:0:0:0:
182,192,64421,1,0,0:0:0:0:
36,192,65066,1,0,0:0:0:0:
182,192,65389,1,0,0:0:0:0:
402,192,65712,1,0,0:0:0:0:
329,192,66357,1,0,0:0:0:0:
256,192,67002,1,0,0:0:0:0:
36,192,67647,1,0,0:0:0:0:
182,192,67970,1,0,0:0:0:0:
475,192,68292,1,0,0:0:0:0:
329,192,69260,1,0,0:0:0:0:
109,192,69583,1,0,0:0:0:0:
256,192,70228,128,0,70873:0:0:0:0:
36,192,70873,1,8,0:0:0:0:
475,192,70873,1,2,0:0:0:0:
182,192,71115,1,8,0:0:0:0:
329,192,71357,1,8,0:0:0:0:
475,192,71518,1,8,0:0:0:0:
109,192,71679,1,2,0:0:0:0:
256,192,71760,1,2,0:0:0:0:
402,192,71841,1,0,0:0:0:40:Crash.wav
475,192,72163,1,4,0:0:0:0:
36,192,72163,1,2,0:0:0:0:
256,192,72486,1,2,0:0:0:0:
109,192,72808,1,2,0:0:0:0:
402,192,73131,1,2,0:0:0:0:
256,192,73454,1,2,0:0:0:0:
36,192,73776,1,2,0:0:0:0:
402,192,74099,1,2,0:0:0:0:
256,192,74421,1,2,0:0:0:0:
475,192,74744,1,2,0:0:0:0:
36,192,74744,1,8,0:0:0:0:
182,192,75066,1,2,0:0:0:0:
36,192,75389,1,8,0:0:0:0:
256,192,75631,1,8,0:0:0:0:
475,192,75873,1,8,0:0:0:0:
182,192,76034,1,2,0:0:0:0:
109,192,76276,1,0,0:0:0:0:
475,192,76518,1,2,0:0:0:0:
329,192,76679,128,8,77325:0:0:0:0:
36,192,77325,1,2,0:0:0:0:
109,192,77325,1,8,0:0:0:0:
256,192,77647,1,2,0:0:0:0:
475,192,77970,1,2,0:0:0:0:
182,192,78292,1,2,0:0:0:0:
402,192,78615,1,2,0:0:0:0:
109,192,78937,1,2,0:0:0:0:
329,192,79260,1,2,0:0:0:0:
36,192,79583,1,2,0:0:0:0:
182,192,79905,1,2,0:0:0:0:
329,192,80228,1,2,0:0:0:0:
109,192,80550,1,2,0:0:0:0:
256,192,80873,1,2,0:0:0:0:
402,192,81195,1,2,0:0:0:0:
329,192,81518,1,2,0:0:0:0:
36,192,81841,1,2,0:0:0:0:
182,192,82163,1,2,0:0:0:0:
475,192,82486,1,2,0:0:0:0:
109,192,82486,1,4,0:0:0:0:
329,192,82808,1,2,0:0:0:0:
256,192,83131,1,2,0:0:0:0:
109,192,83454,1,2,0:0:0:0:
475,192,83776,1,4,0:0:0:0:
36,192,83776,1,2,0:0:0:0:
256,192,83937,1,2,0:0:0:0:
402,192,84099,1,2,0:0:0:0:
182,192,84260,1,2,0:0:0:0:
329,192,84421,128,8,84744:0:0:0:0:
36,192,84744,128,2,85066:0:0:0:0:
475,192,85066,1,2,0:0:0:0:
256,192,85066,1,4,0:0:0:0:
182,192,85389,1,2,0:0:0:0:
36,192,85712,1,2,0:0:0:0:
256,192,85954,1,0,0:0:0:0:
475,192,86195,128,0,86679:0:0:0:0:
182,192,86679,1,2,0:0:0:0:
402,192,87002,1,2,0:0:0:0:
109,192,87244,1,0,0:0:0:0:
256,192,87486,1,2,0:0:0:0:
475,192,87647,1,2,0:0:0:0:
36,192,87647,1,4,0:0:0:0:
329,192,87970,1,2,0:0:0:0:
109,192,88292,1,4,0:0:0:0:
329,192,88534,1,4,0:0:0:0:
182,192,88776,1,4,0:0:0:0:
475,192,89018,1,4,0:0:0:0:
329,192,89260,1,4,0:0:0:0:
36,192,89502,1,4,0:0:0:0:
182,192,89744,1,4,0:0:0:0:
329,192,89986,1,4,0:0:0:0:
475,192,90228,1,2,0:0:0:0:
36,192,90228,1,4,0:0:0:0:
329,192,90550,1,2,0:0:0:0:
182,192,90712,1,2,0:0:0:0:
36,192,90792,1,0,0:0:0:0:
329,192,90954,1,0,0:0:0:0:
475,192,91034,1,2,0:0:0:0:
109,192,91276,1,0,0:0:0:0:
256,192,91437,1,0,0:0:0:0:
402,192,91599,1,0,0:0:0:0:
109,192,91841,1,2,0:0:0:0:
329,192,92002,1,2,0:0:0:0:
36,192,92083,1,0,0:0:0:0:
256,192,92325,1,2,0:0:0:0:
475,192,92405,1,0,0:0:0:0:
109,192,92566,128,2,92808:0:0:0:0:
475,192,92808,1,2,0:0:0:0:
329,192,92808,1,8,0:0:0:0:
256,192,93131,1,2,0:0:0:0:
109,192,93373,1,0,0:0:0:0:
402,192,93615,1,2,0:0:0:0:
256,192,93857,128,0,94099:0:0:0:0:
475,192,94099,1,2,0:0:0:0:
36,192,94099,1,8,0:0:0:0:
109,192,94421,1,8,0:0:0:0:
402,192,94421,1,2,0:0:0:0:
256,192,94744,1,8,0:0:0:0:
475,192,94744,1,2,0:0:0:0:
36,192,94905,128,2,95389:0:0:0:0:
402,192,95389,1,2,0:0:0:0:
109,192,95389,1,8,0:0:0:0:
182,192,95631,1,0,0:0:0:0:
329,192,95873,1,2,0:0:0:0:
475,192,96115,1,0,0:0:0:0:
256,192,96357,1,2,0:0:0:0:
182,192,96518,1,2,0:0:0:0:
475,192,96679,1,8,0:0:0:0:
36,192,96679,1,2,0:0:0:0:
329,192,96921,1,0,0:0:0:0:
182,192,97163,1,2,0:0:0:0:
402,192,97405,1,0,0:0:0:0:
109,192,97647,1,2,0:0:0:0:
475,192,97808,1,2,0:0:0:0:
329,192,97970,1,2,0:0:0:0:
36,192,97970,1,8,0:0:0:0:
256,192,98131,1,2,0:0:0:0:
109,192,98292,1,2,0:0:0:0:
329,192,98454,1,2,0:0:0:0:
36,192,98615,1,2,0:0:0:0:
475,192,98615,1,8,0:0:0:0:
256,192,98776,1,2,0:0:0:0:
182,192,98937,1,2,0:0:0:0:
329,192,99099,1,2,0:0:0:0:
36,192,99260,1,8,0:0:0:0:
402,192,99260,1,2,0:0:0:0:
109,192,99421,1,2,0:0:0:0:
475,192,99583,1,8,0:0:0:0:
182,192,99583,1,2,0:0:0:0:
329,192,99744,1,0,0:0:0:0:
36,192,99905,1,8,0:0:0:0:
256,192,99905,1,2,0:0:0:0:
329,192,100066,1,2,0:0:0:0:
182,192,100228,1,8,0:0:0:0:
402,192,100228,1,2,0:0:0:0:
109,192,100389,1,2,0:0:0:0:
36,192,100550,128,4,101841:0:0:0:0:
475,192,100550,128,2,104421:0:0:0:0:
256,192,104421,128,2,105389:0:0:0:0:
36,192,105389,1,0,0:0:0:40:Crash.wav
475,192,105389,1,2,0:0:0:0:
402,192,105712,1,4,0:0:0:0:
109,192,105712,1,2,0:0:0:0:
182,192,105954,1,2,0:0:0:0:
329,192,105954,1,4,0:0:0:0:
402,192,106195,1,2,0:0:0:0:
109,192,106195,1,4,0:0:0:0:
329,192,106679,1,4,0:0:0:0:
182,192,106679,1,2,0:0:0:0:
36,192,106921,1,4,0:0:0:0:
475,192,106921,1,2,0:0:0:0:
329,192,107163,1,2,0:0:0:0:
182,192,107163,1,4,0:0:0:0:
36,192,107647,1,4,0:0:0:0:
475,192,107647,1,2,0:0:0:0:
402,192,107889,1,2,0:0:0:0:
109,192,107889,1,4,0:0:0:0:
182,192,108131,1,4,0:0:0:0:
329,192,108131,1,2,0:0:0:0:
36,192,108292,128,2,113454:0:0:0:0:
475,192,108292,128,4,113454:0:0:0:0:
256,192,108292,1,0,0:0:0:0:
