osu file format v14

[General]
AudioFilename: 25 Harpuia.mp3
AudioLeadIn: 0
PreviewTime: 70826
Countdown: 0
SampleSet: Soft
StackLeniency: 0.7
Mode: 3
LetterboxInBreaks: 0
SpecialStyle: 0
WidescreenStoryboard: 0

[Editor]
Bookmarks: 181,2439,7600,14052,24375,34697,39905,45020,57923,70826,85020,100504,113407
DistanceSpacing: 1.5
BeatDivisor: 4
GridSize: 32
TimelineZoom: 2.499999

[Metadata]
Title:Harpuia
TitleUnicode:Harpuia
Artist:BlackY
ArtistUnicode:BlackY
Creator:Ichigaki
Version:INFINITE
Source:SOUND VOLTEX II -infinite infection-
Tags:SDVX KAC2013 Original Song Contest OzzyOzRock
BeatmapID:664217
BeatmapSetID:295703

[Difficulty]
HPDrainRate:8.6
CircleSize:7
OverallDifficulty:8
ApproachRate:5
SliderMultiplier:1.4
SliderTickRate:1

[Events]
//Background and Video events
0,0,"harp.jpg",0,0
//Break Periods
//Storyboard Layer 0 (Background)
//Storyboard Layer 1 (Fail)
//Storyboard Layer 2 (Pass)
//Storyboard Layer 3 (Foreground)
//Storyboard Sound Samples

[TimingPoints]
1196,322.58064516129,4,2,1,60,1,0
57970,-100,4,2,1,30,0,0
72163,-100,4,2,1,60,0,1
100550,-100,4,2,1,60,0,0
105711,-75.187969924812,4,2,1,60,0,0
105832,-114.942528735632,4,2,1,60,0,0
105953,-75.187969924812,4,2,1,60,0,0
106074,-114.942528735632,4,2,1,60,0,0
106195,-100,4,2,1,60,0,0
106679,-75.187969924812,4,2,1,60,0,0
106800,-114.942528735632,4,2,1,60,0,0
106921,-75.187969924812,4,2,1,60,0,0
107042,-114.942528735632,4,2,1,60,0,0
107163,-100,4,2,1,60,0,0
107647,-75.187969924812,4,2,1,60,0,0
107768,-114.942528735632,4,2,1,60,0,0
107889,-75.187969924812,4,2,1,60,0,0
108010,-114.942528735632,4,2,1,60,0,0
108131,-75.187969924812,4,2,1,60,0,0
108211,-114.942528735632,4,2,1,60,0,0
108292,-75.187969924812,4,2,1,60,0,0
109582,-133.333333333333,4,2,1,60,0,0

[HitObjects]
475,192,550,5,0,0:0:0:0:
402,192,577,1,0,0:0:0:0:
329,192,604,1,0,0:0:0:0:
256,192,631,1,0,0:0:0:0:
182,192,658,1,0,0:0:0:0:
109,192,685,1,0,0:0:0:0:
36,192,712,1,0,0:0:0:0:
329,192,739,1,0,0:0:0:0:
402,192,765,1,0,0:0:0:0:
475,192,792,1,0,0:0:0:0:
109,192,819,1,0,0:0:0:0:
182,192,846,1,0,0:0:0:0:
256,192,873,1,0,0:0:0:0:
329,192,900,1,0,0:0:0:0:
402,192,927,1,0,0:0:0:0:
475,192,954,1,0,0:0:0:0:
182,192,980,1,0,0:0:0:0:
109,192,1007,1,0,0:0:0:0:
36,192,1034,1,0,0:0:0:0:
402,192,1061,1,0,0:0:0:0:
329,192,1088,1,0,0:0:0:0:
256,192,1115,1,0,0:0:0:0:
182,192,1142,1,0,0:0:0:0:
109,192,1169,1,0,0:0:0:0:
402,192,1196,1,0,0:0:0:0:
36,192,1196,1,2,0:0:0:0:
475,192,1196,1,8,0:0:0:0:
329,192,1437,1,0,0:0:0:0:
36,192,1437,1,2,0:0:0:0:
256,192,1437,1,8,0:0:0:0:
109,192,1679,1,2,0:0:0:0:
182,192,1679,1,8,0:0:0:0:
402,192,1679,1,0,0:0:0:0:
475,192,1841,128,8,2002:0:0:0:0:
36,192,1841,128,0,2002:0:0:0:0:
256,192,1841,1,2,0:0:0:0:
182,192,2002,1,0,0:0:0:0:
329,192,2002,1,2,0:0:0:0:
329,192,2083,1,2,0:0:0:0:
182,192,2083,1,0,0:0:0:0:
109,192,2163,1,2,0:0:0:0:
402,192,2163,1,0,0:0:0:40:Crash.wav
475,192,2163,128,0,2486:0:0:0:0:
36,192,2163,128,0,2486:0:0:0:0:
402,192,2486,1,0,0:0:0:0:
109,192,2486,1,4,0:0:0:0:
329,192,2486,1,2,0:0:0:0:
256,192,2566,1,0,0:0:0:0:
475,192,2647,1,0,0:0:0:0:
182,192,2647,1,0,0:0:0:0:
109,192,2808,1,0,0:0:0:0:
402,192,2808,1,0,0:0:0:0:
182,192,2889,1,0,0:0:0:0:
256,192,2970,1,0,0:0:0:0:
329,192,2970,1,0,0:0:0:0:
64,192,3131,1,0,0:0:0:0:
475,192,3131,1,0,0:0:0:0:
109,192,3212,1,0,0:0:0:0:
182,192,3292,1,0,0:0:0:0:
402,192,3292,1,0,0:0:0:0:
320,192,3454,1,0,0:0:0:0:
36,192,3454,1,0,0:0:0:0:
256,192,3534,1,0,0:0:0:0:
475,192,3615,1,0,0:0:0:0:
182,192,3615,1,0,0:0:0:0:
109,192,3776,1,0,0:0:0:0:
36,192,3776,1,0,0:0:0:0:
256,192,3857,1,0,0:0:0:0:
448,192,3937,1,0,0:0:0:0:
402,192,3937,1,0,0:0:0:0:
36,192,4099,1,0,0:0:0:0:
109,192,4099,1,0,0:0:0:0:
475,192,4179,1,0,0:0:0:0:
402,192,4179,1,0,0:0:0:0:
256,192,4260,1,0,0:0:0:0:
475,192,4341,1,0,0:0:0:0:
402,192,4341,1,0,0:0:0:0:
36,192,4421,1,4,0:0:0:0:
109,192,4421,1,2,0:0:0:0:
182,192,4421,128,0,4744:0:0:0:0:
402,192,4744,1,2,0:0:0:0:
475,192,4744,1,4,0:0:0:0:
329,192,4744,128,0,5066:0:0:0:0:
109,192,5066,1,4,0:0:0:0:
36,192,5066,1,2,0:0:0:0:
182,192,5066,128,0,5389:0:0:0:0:
475,192,5389,1,0,0:0:0:0:
36,192,5389,128,0,6034:0:0:0:0:
329,192,5470,1,0,0:0:0:0:
182,192,5550,1,0,0:0:0:0:
402,192,5631,1,0,0:0:0:0:
256,192,5712,1,0,0:0:0:0:
475,192,5792,1,0,0:0:0:0:
329,192,5873,1,0,0:0:0:0:
182,192,5954,1,0,0:0:0:0:
402,192,6034,1,0,0:0:0:0:
256,192,6115,1,0,0:0:0:0:
475,192,6195,1,0,0:0:0:0:
329,192,6276,1,0,0:0:0:0:
182,192,6357,1,0,0:0:0:0:
36,192,6437,1,0,0:0:0:0:
256,192,6518,1,0,0:0:0:0:
109,192,6599,1,0,0:0:0:0:
329,192,6679,1,0,0:0:0:0:
182,192,6760,1,0,0:0:0:0:
402,192,6841,1,0,0:0:0:0:
256,192,6921,1,0,0:0:0:0:
448,192,7002,128,0,7647:0:0:0:0:
109,192,7002,1,4,0:0:0:0:
36,192,7002,1,2,0:0:0:0:
256,192,7083,1,0,0:0:0:0:
402,192,7163,1,0,0:0:0:0:
182,192,7244,1,0,0:0:0:0:
329,192,7325,1,0,0:0:0:0:
109,192,7405,1,0,0:0:0:0:
256,192,7486,1,0,0:0:0:0:
36,192,7566,1,0,0:0:0:0:
182,192,7647,1,4,0:0:0:0:
329,192,7647,1,2,0:0:0:0:
402,192,7647,1,0,0:0:0:0:
256,192,7728,1,0,0:0:0:0:
329,192,7808,1,0,0:0:0:0:
109,192,7808,1,0,0:0:0:0:
402,192,7970,1,0,0:0:0:0:
329,192,8050,1,0,0:0:0:0:
256,192,8131,1,0,0:0:0:0:
36,192,8131,1,0,0:0:0:0:
109,192,8292,1,0,0:0:0:0:
182,192,8373,1,0,0:0:0:0:
256,192,8454,1,0,0:0:0:0:
475,192,8454,1,0,0:0:0:0:
402,192,8534,1,0,0:0:0:0:
329,192,8615,1,0,0:0:0:0:
256,192,8695,1,0,0:0:0:0:
182,192,8776,1,0,0:0:0:0:
36,192,8776,1,0,0:0:0:0:
256,192,8857,1,0,0:0:0:0:
109,192,8937,1,4,0:0:0:0:
475,192,8937,1,2,0:0:0:0:
329,192,8937,1,0,0:0:0:0:
182,192,9018,1,0,0:0:0:0:
256,192,9099,1,0,0:0:0:0:
36,192,9099,1,0,0:0:0:0:
329,192,9179,1,0,0:0:0:0:
402,192,9260,1,0,0:0:0:0:
329,192,9341,1,0,0:0:0:0:
475,192,9421,1,0,0:0:0:0:
256,192,9421,1,0,0:0:0:0:
182,192,9502,1,0,0:0:0:0:
109,192,9583,1,0,0:0:0:0:
182,192,9663,1,0,0:0:0:0:
256,192,9744,1,0,0:0:0:0:
36,192,9744,1,0,0:0:0:0:
329,192,9825,1,0,0:0:0:0:
402,192,9905,1,0,0:0:0:0:
329,192,9986,1,0,0:0:0:0:
256,192,10066,1,0,0:0:0:0:
475,192,10066,1,0,0:0:0:0:
182,192,10147,1,0,0:0:0:0:
64,192,10228,1,4,0:0:0:0:
109,192,10228,1,2,0:0:0:0:
402,192,10228,1,0,0:0:0:0:
256,192,10308,1,0,0:0:0:0:
448,192,10389,1,0,0:0:0:0:
109,192,10389,1,0,0:0:0:0:
329,192,10470,1,0,0:0:0:0:
182,192,10550,1,0,0:0:0:0:
402,192,10631,1,0,0:0:0:0:
256,192,10712,5,2,0:0:0:0:
36,192,10712,1,0,0:0:0:0:
109,192,10712,1,4,0:0:0:0:
475,192,10792,1,0,0:0:0:0:
329,192,10873,1,0,0:0:0:0:
182,192,10873,1,0,0:0:0:0:
36,192,10954,1,0,0:0:0:0:
402,192,11034,1,0,0:0:0:0:
256,192,11034,1,0,0:0:0:0:
109,192,11115,1,0,0:0:0:0:
64,192,11195,1,0,0:0:0:0:
320,192,11195,1,4,0:0:0:0:
475,192,11195,1,2,0:0:0:0:
256,192,11276,1,0,0:0:0:0:
402,192,11357,1,0,0:0:0:0:
182,192,11357,1,0,0:0:0:0:
329,192,11437,1,0,0:0:0:0:
256,192,11518,1,0,0:0:0:0:
36,192,11518,1,0,0:0:0:0:
329,192,11599,1,0,0:0:0:0:
109,192,11679,1,0,0:0:0:0:
402,192,11679,1,2,0:0:0:0:
448,192,11679,1,4,0:0:0:0:
182,192,11760,1,0,0:0:0:0:
256,192,11841,1,0,0:0:0:0:
448,192,11921,1,0,0:0:0:0:
329,192,11921,1,4,0:0:0:0:
36,192,11921,1,2,0:0:0:0:
109,192,12002,1,0,0:0:0:0:
182,192,12083,1,0,0:0:0:0:
448,192,12163,1,0,0:0:0:0:
402,192,12163,1,2,0:0:0:0:
256,192,12163,1,4,0:0:0:0:
329,192,12244,1,0,0:0:0:0:
256,192,12325,1,0,0:0:0:0:
448,192,12405,1,0,0:0:0:0:
64,192,12405,1,2,0:0:0:0:
182,192,12405,1,4,0:0:0:0:
402,192,12486,1,0,0:0:0:0:
329,192,12566,1,0,0:0:0:0:
64,192,12647,1,2,0:0:0:0:
448,192,12647,1,0,0:0:0:0:
256,192,12647,1,4,0:0:0:0:
109,192,12728,1,0,0:0:0:0:
182,192,12808,1,4,0:0:0:0:
402,192,12808,1,2,0:0:0:0:
448,192,12808,1,0,0:0:0:0:
329,192,12889,1,0,0:0:0:0:
109,192,12970,1,0,0:0:0:0:
256,192,13050,1,0,0:0:0:0:
36,192,13131,1,0,0:0:0:0:
182,192,13212,1,0,0:0:0:0:
329,192,13292,1,0,0:0:0:0:
182,192,13373,1,0,0:0:0:0:
402,192,13454,1,0,0:0:0:0:
256,192,13534,1,0,0:0:0:0:
109,192,13615,1,2,0:0:0:0:
475,192,13615,1,0,0:0:0:0:
36,192,13615,1,0,0:0:0:0:
329,192,13695,1,0,0:0:0:0:
402,192,13776,1,0,0:0:0:60:Crash.wav
448,192,13776,1,0,0:0:0:0:
64,192,13776,1,2,0:0:0:0:
182,192,13776,1,0,0:0:0:0:
256,192,13857,1,0,0:0:0:0:
109,192,13937,1,0,0:0:0:0:
329,192,14018,1,0,0:0:0:0:
64,192,14099,1,0,0:0:0:0:
182,192,14099,1,2,0:0:0:0:
448,192,14099,1,8,0:0:0:0:
402,192,14179,1,0,0:0:0:0:
109,192,14260,1,0,0:0:0:0:
256,192,14260,1,0,0:0:0:0:
475,192,14421,1,0,0:0:0:0:
64,192,14421,1,2,0:0:0:0:
182,192,14502,1,0,0:0:0:0:
329,192,14583,1,0,0:0:0:0:
475,192,14744,1,2,0:0:0:0:
402,192,14744,1,0,0:0:0:0:
182,192,14825,1,0,0:0:0:0:
329,192,14905,1,0,0:0:0:0:
109,192,14986,1,0,0:0:0:0:
36,192,14986,1,0,0:0:0:0:
402,192,15066,1,0,0:0:0:0:
256,192,15066,1,2,0:0:0:0:
182,192,15147,1,0,0:0:0:0:
109,192,15228,1,0,0:0:0:0:
329,192,15228,1,0,0:0:0:0:
256,192,15389,1,0,0:0:0:0:
64,192,15389,1,2,0:0:0:0:
329,192,15470,1,0,0:0:0:0:
182,192,15550,1,0,0:0:0:0:
402,192,15550,1,0,0:0:0:0:
448,192,15712,1,0,0:0:0:0:
36,192,15712,1,2,0:0:0:0:
329,192,15792,1,0,0:0:0:0:
182,192,15873,1,0,0:0:0:0:
36,192,16034,1,0,0:0:0:0:
256,192,16034,1,2,0:0:0:0:
475,192,16115,1,0,0:0:0:0:
182,192,16115,1,0,0:0:0:0:
329,192,16195,1,0,0:0:0:0:
36,192,16276,1,0,0:0:0:0:
109,192,16276,1,0,0:0:0:0:
402,192,16357,1,2,0:0:0:0:
448,192,16357,1,0,0:0:0:0:
256,192,16437,1,0,0:0:0:0:
182,192,16518,1,0,0:0:0:0:
36,192,16518,1,0,0:0:0:0:
475,192,16679,1,2,0:0:0:0:
109,192,16679,1,4,0:0:0:0:
402,192,16679,1,0,0:0:0:0:
329,192,16679,1,0,0:0:0:0:
256,192,16841,1,0,0:0:0:0:
329,192,16921,1,0,0:0:0:0:
109,192,17002,1,2,0:0:0:0:
402,192,17002,1,0,0:0:0:0:
182,192,17083,1,0,0:0:0:0:
256,192,17163,1,0,0:0:0:0:
36,192,17163,1,0,0:0:0:0:
109,192,17325,1,2,0:0:0:0:
329,192,17325,1,8,0:0:0:0:
448,192,17325,1,0,0:0:0:0:
36,192,17325,1,0,0:0:0:0:
182,192,17486,1,0,0:0:0:0:
402,192,17566,1,0,0:0:0:0:
256,192,17566,1,8,0:0:0:0:
64,192,17566,1,2,0:0:0:0:
475,192,17566,1,0,0:0:0:0:
182,192,17808,1,2,0:0:0:0:
448,192,17808,1,0,0:0:0:0:
109,192,17808,1,8,0:0:0:0:
36,192,17808,1,0,0:0:0:0:
329,192,17970,1,0,0:0:0:0:
402,192,17970,1,2,0:0:0:0:
256,192,18050,1,0,0:0:0:0:
36,192,18131,1,8,0:0:0:0:
182,192,18131,1,2,0:0:0:0:
448,192,18131,1,0,0:0:0:0:
109,192,18131,1,0,0:0:0:0:
329,192,18292,1,2,0:0:0:0:
36,192,18292,1,0,0:0:0:0:
256,192,18373,1,0,0:0:0:0:
475,192,18454,1,2,0:0:0:0:
182,192,18454,1,0,0:0:0:0:
402,192,18534,1,2,0:0:0:0:
109,192,18534,1,0,0:0:0:0:
329,192,18615,1,4,0:0:0:0:
256,192,18615,1,2,0:0:0:0:
36,192,18615,1,0,0:0:0:0:
475,192,18695,1,2,0:0:0:0:
182,192,18695,1,0,0:0:0:0:
109,192,18776,1,2,0:0:0:0:
402,192,18776,1,0,0:0:0:0:
36,192,18857,1,2,0:0:0:0:
329,192,18857,1,0,0:0:0:0:
402,192,18937,1,0,0:0:0:0:
256,192,18937,1,2,0:0:0:0:
475,192,18937,1,4,0:0:0:0:
182,192,18978,1,2,0:0:0:0:
109,192,19018,1,2,0:0:0:0:
36,192,19058,1,2,0:0:0:0:
329,192,19099,1,0,0:0:0:0:
402,192,19099,1,2,0:0:0:0:
182,192,19179,1,2,0:0:0:0:
256,192,19179,1,0,0:0:0:0:
36,192,19260,1,8,0:0:0:0:
109,192,19260,1,2,0:0:0:0:
329,192,19260,1,0,0:0:0:0:
402,192,19300,1,0,0:0:0:0:
475,192,19341,1,0,0:0:0:0:
182,192,19421,1,0,0:0:0:0:
36,192,19583,1,0,0:0:0:0:
402,192,19583,1,2,0:0:0:0:
109,192,19663,1,0,0:0:0:0:
256,192,19744,1,0,0:0:0:0:
182,192,19905,1,2,0:0:0:0:
36,192,19905,1,0,0:0:0:0:
475,192,19905,1,0,0:0:0:0:
402,192,19986,1,0,0:0:0:0:
256,192,20066,1,0,0:0:0:0:
36,192,20228,1,0,0:0:0:0:
109,192,20228,1,2,0:0:0:0:
475,192,20228,1,0,0:0:0:0:
182,192,20308,1,0,0:0:0:0:
256,192,20389,1,0,0:0:0:0:
475,192,20470,1,0,0:0:0:0:
329,192,20470,1,0,0:0:0:0:
64,192,20550,1,0,0:0:0:0:
402,192,20550,1,0,0:0:0:0:
109,192,20550,1,2,0:0:0:0:
182,192,20631,1,0,0:0:0:0:
329,192,20712,1,0,0:0:0:0:
256,192,20712,1,0,0:0:0:0:
109,192,20873,1,2,0:0:0:0:
36,192,20873,1,0,0:0:0:0:
329,192,20954,1,0,0:0:0:0:
475,192,20954,1,0,0:0:0:0:
256,192,21034,1,0,0:0:0:0:
36,192,21195,1,2,0:0:0:0:
182,192,21195,1,0,0:0:0:0:
402,192,21195,1,0,0:0:0:0:
329,192,21276,1,0,0:0:0:0:
256,192,21357,1,0,0:0:0:0:
182,192,21518,1,0,0:0:0:0:
36,192,21518,1,2,0:0:0:0:
475,192,21518,1,0,0:0:0:0:
402,192,21599,1,2,0:0:0:0:
256,192,21599,1,0,0:0:0:0:
329,192,21679,1,2,0:0:0:0:
182,192,21679,1,0,0:0:0:0:
402,192,21760,1,2,0:0:0:0:
109,192,21760,1,0,0:0:0:0:
182,192,21841,1,0,0:0:0:0:
448,192,21841,1,4,0:0:0:0:
64,192,21841,1,2,0:0:0:0:
256,192,21921,1,0,0:0:0:0:
329,192,22002,1,0,0:0:0:0:
448,192,22083,1,0,0:0:0:0:
402,192,22083,1,0,0:0:0:0:
109,192,22163,1,2,0:0:0:0:
64,192,22163,1,0,0:0:0:0:
182,192,22244,1,0,0:0:0:0:
256,192,22325,1,0,0:0:0:0:
402,192,22325,1,0,0:0:0:0:
182,192,22486,1,0,0:0:0:0:
64,192,22486,1,2,0:0:0:0:
475,192,22486,1,0,0:0:0:0:
402,192,22566,1,0,0:0:0:0:
329,192,22647,1,0,0:0:0:0:
256,192,22647,1,0,0:0:0:0:
36,192,22808,1,2,0:0:0:0:
182,192,22808,1,0,0:0:0:0:
256,192,22889,1,0,0:0:0:0:
475,192,22970,1,0,0:0:0:0:
329,192,22970,1,0,0:0:0:0:
109,192,22970,1,0,0:0:0:0:
192,192,23131,1,4,0:0:0:0:
64,192,23131,1,2,0:0:0:0:
448,192,23131,1,0,0:0:0:0:
402,192,23131,1,0,0:0:0:0:
329,192,23212,1,0,0:0:0:0:
256,192,23292,1,2,0:0:0:0:
109,192,23292,1,0,0:0:0:0:
36,192,23373,1,0,0:0:0:0:
329,192,23454,1,2,0:0:0:0:
182,192,23454,1,0,0:0:0:0:
475,192,23534,1,0,0:0:0:0:
256,192,23615,1,2,0:0:0:0:
402,192,23615,1,0,0:0:0:0:
109,192,23695,1,0,0:0:0:0:
475,192,23776,128,0,23857:0:0:0:0:
329,192,23776,128,2,23857:0:0:0:0:
182,192,23857,128,2,23937:0:0:0:0:
36,192,23857,128,0,23937:0:0:0:0:
475,192,23937,128,0,24099:0:0:0:0:
329,192,23937,128,2,24099:0:0:0:0:
109,192,24099,1,2,0:0:0:0:
36,192,24099,1,0,0:0:0:40:Crash.wav
182,192,24099,1,0,0:0:0:0:
329,192,24179,1,2,0:0:0:0:
475,192,24179,1,0,0:0:0:0:
182,192,24260,1,2,0:0:0:0:
36,192,24260,1,0,0:0:0:0:
329,192,24341,1,2,0:0:0:0:
475,192,24341,1,0,0:0:0:0:
182,192,24421,1,0,0:0:0:0:
109,192,24421,1,0,0:0:0:0:
64,192,24421,1,4,0:0:0:0:
402,192,24421,1,2,0:0:0:0:
256,192,24502,1,0,0:0:0:0:
329,192,24583,1,0,0:0:0:0:
192,192,24744,1,0,0:0:0:0:
109,192,24744,1,2,0:0:0:0:
329,192,24825,1,0,0:0:0:0:
475,192,24905,1,0,0:0:0:0:
36,192,25066,1,2,0:0:0:0:
402,192,25066,1,0,0:0:0:0:
182,192,25066,1,0,0:0:0:0:
256,192,25147,1,0,0:0:0:0:
109,192,25228,1,0,0:0:0:0:
329,192,25308,1,0,0:0:0:0:
402,192,25308,1,0,0:0:0:0:
36,192,25389,1,2,0:0:0:0:
182,192,25389,1,0,0:0:0:0:
475,192,25470,1,0,0:0:0:0:
329,192,25550,1,0,0:0:0:0:
256,192,25550,1,0,0:0:0:0:
64,192,25712,1,2,0:0:0:0:
109,192,25712,1,0,0:0:0:0:
402,192,25712,1,0,0:0:0:0:
329,192,25792,1,0,0:0:0:0:
256,192,25873,1,0,0:0:0:0:
475,192,25873,1,0,0:0:0:0:
192,192,26034,1,0,0:0:0:0:
36,192,26034,1,2,0:0:0:0:
329,192,26115,1,0,0:0:0:0:
475,192,26195,1,0,0:0:0:0:
402,192,26357,1,0,0:0:0:0:
36,192,26357,1,2,0:0:0:0:
109,192,26357,1,0,0:0:0:0:
329,192,26437,1,0,0:0:0:0:
256,192,26518,1,0,0:0:0:0:
36,192,26599,1,0,0:0:0:0:
182,192,26599,1,0,0:0:0:0:
402,192,26679,1,0,0:0:0:0:
475,192,26679,1,2,0:0:0:0:
329,192,26679,1,0,0:0:0:0:
109,192,26760,1,0,0:0:0:0:
182,192,26841,1,2,0:0:0:0:
36,192,26841,1,0,0:0:0:0:
475,192,26921,1,0,0:0:0:0:
329,192,26921,1,0,0:0:0:0:
402,192,27002,1,4,0:0:0:0:
182,192,27002,1,0,0:0:0:0:
109,192,27002,1,0,0:0:0:0:
36,192,27002,1,2,0:0:0:0:
329,192,27163,1,2,0:0:0:0:
109,192,27163,1,0,0:0:0:0:
256,192,27244,1,2,0:0:0:0:
329,192,27325,1,2,0:0:0:0:
475,192,27325,1,0,0:0:0:0:
36,192,27405,1,0,0:0:0:0:
182,192,27405,1,2,0:0:0:0:
475,192,27486,1,0,0:0:0:0:
329,192,27486,1,2,0:0:0:0:
182,192,27566,1,2,0:0:0:0:
36,192,27566,1,0,0:0:0:0:
256,192,27647,1,2,0:0:0:0:
475,192,27647,1,8,0:0:0:0:
109,192,27647,1,0,0:0:0:0:
402,192,27647,1,0,0:0:0:0:
109,192,27889,1,2,0:0:0:0:
448,192,27889,1,8,0:0:0:0:
182,192,27889,1,0,0:0:0:0:
36,192,27889,1,0,0:0:0:0:
256,192,28131,1,2,0:0:0:0:
402,192,28131,1,8,0:0:0:0:
475,192,28131,1,0,0:0:0:0:
36,192,28131,1,0,0:0:0:0:
475,192,28373,1,8,0:0:0:0:
64,192,28373,1,0,0:0:0:0:
329,192,28373,1,0,0:0:0:0:
109,192,28373,1,2,0:0:0:0:
36,192,28615,1,0,0:0:0:0:
402,192,28615,1,2,0:0:0:0:
256,192,28615,1,8,0:0:0:0:
475,192,28615,1,0,0:0:0:0:
109,192,28776,1,2,0:0:0:0:
182,192,28803,1,2,0:0:0:0:
256,192,28830,1,2,0:0:0:0:
64,192,28857,1,0,0:0:0:0:
475,192,28857,1,8,0:0:0:0:
329,192,28857,1,2,0:0:0:0:
402,192,29018,1,2,0:0:0:0:
329,192,29038,1,2,0:0:0:0:
256,192,29058,1,2,0:0:0:0:
182,192,29079,1,2,0:0:0:0:
448,192,29099,1,8,0:0:0:0:
109,192,29099,1,2,0:0:0:0:
36,192,29099,1,0,0:0:0:0:
182,192,29260,1,2,0:0:0:0:
256,192,29280,1,2,0:0:0:0:
329,192,29300,1,2,0:0:0:0:
402,192,29320,1,2,0:0:0:0:
109,192,29341,1,8,0:0:0:0:
36,192,29341,1,0,0:0:0:0:
475,192,29341,1,2,0:0:0:0:
109,192,29583,1,0,0:0:0:0:
329,192,29583,1,4,0:0:0:0:
475,192,29583,1,0,0:0:0:0:
256,192,29583,1,2,0:0:0:0:
36,192,29744,1,0,0:0:0:0:
182,192,29744,1,2,0:0:0:0:
402,192,29744,1,0,0:0:0:0:
109,192,29825,1,0,0:0:0:0:
329,192,29825,1,0,0:0:0:0:
256,192,29905,1,2,0:0:0:0:
448,192,29905,1,0,0:0:0:0:
182,192,29986,1,0,0:0:0:0:
109,192,30066,1,2,0:0:0:0:
64,192,30066,1,0,0:0:0:0:
329,192,30066,1,0,0:0:0:0:
256,192,30228,1,2,0:0:0:0:
402,192,30228,1,0,0:0:0:0:
182,192,30308,1,0,0:0:0:0:
329,192,30389,1,0,0:0:0:0:
64,192,30389,1,0,0:0:0:0:
109,192,30389,1,2,0:0:0:0:
182,192,30550,1,2,0:0:0:0:
475,192,30550,1,0,0:0:0:0:
402,192,30631,1,0,0:0:0:0:
64,192,30712,1,0,0:0:0:0:
329,192,30712,1,2,0:0:0:0:
109,192,30712,1,0,0:0:0:0:
256,192,30792,1,0,0:0:0:0:
475,192,30873,1,4,0:0:0:0:
402,192,30873,1,2,0:0:0:0:
182,192,30873,1,0,0:0:0:0:
109,192,30873,1,0,0:0:0:0:
36,192,31034,1,2,0:0:0:0:
448,192,31034,1,0,0:0:0:0:
256,192,31034,1,0,0:0:0:0:
329,192,31115,1,0,0:0:0:0:
402,192,31195,1,2,0:0:0:0:
109,192,31195,1,0,0:0:0:0:
182,192,31276,1,0,0:0:0:0:
36,192,31357,1,0,0:0:0:0:
448,192,31357,1,0,0:0:0:0:
256,192,31357,1,2,0:0:0:0:
320,192,31437,1,0,0:0:0:0:
109,192,31437,1,0,0:0:0:0:
402,192,31518,1,2,0:0:0:0:
192,192,31518,1,0,0:0:0:0:
256,192,31599,1,0,0:0:0:0:
475,192,31679,1,0,0:0:0:0:
329,192,31679,1,2,0:0:0:0:
109,192,31679,1,0,0:0:0:0:
64,192,31841,1,0,0:0:0:0:
402,192,31841,1,2,0:0:0:0:
109,192,31921,1,0,0:0:0:0:
329,192,31921,1,2,0:0:0:0:
182,192,32002,1,0,0:0:0:0:
256,192,32002,1,2,0:0:0:0:
475,192,32002,1,0,0:0:0:0:
109,192,32083,1,0,0:0:0:0:
402,192,32083,1,2,0:0:0:0:
448,192,32163,1,0,0:0:0:0:
320,192,32163,1,2,0:0:0:0:
36,192,32163,1,4,0:0:0:0:
256,192,32163,1,0,0:0:0:0:
182,192,32244,1,2,0:0:0:0:
402,192,32244,1,0,0:0:0:0:
320,192,32325,1,2,0:0:0:0:
109,192,32325,1,0,0:0:0:0:
256,192,32405,1,2,0:0:0:0:
36,192,32405,1,0,0:0:0:0:
182,192,32486,1,2,0:0:0:0:
475,192,32486,1,0,0:0:0:0:
402,192,32566,1,0,0:0:0:0:
109,192,32566,1,2,0:0:0:0:
329,192,32647,1,0,0:0:0:0:
36,192,32647,1,2,0:0:0:0:
256,192,32728,1,2,0:0:0:0:
475,192,32728,1,0,0:0:0:0:
402,192,32808,1,0,0:0:0:0:
109,192,32808,1,4,0:0:0:0:
182,192,32808,1,2,0:0:0:0:
36,192,32808,1,0,0:0:0:0:
329,192,32889,1,2,0:0:0:0:
475,192,32889,1,0,0:0:0:0:
36,192,32970,1,0,0:0:0:0:
182,192,32970,1,2,0:0:0:0:
329,192,33050,1,0,0:0:0:0:
475,192,33050,1,2,0:0:0:0:
36,192,33131,1,2,0:0:0:0:
182,192,33131,1,0,0:0:0:0:
109,192,33212,1,0,0:0:0:0:
256,192,33212,1,2,0:0:0:0:
329,192,33292,1,2,0:0:0:0:
182,192,33292,1,0,0:0:0:0:
256,192,33373,1,0,0:0:0:0:
402,192,33373,1,2,0:0:0:0:
475,192,33454,1,4,0:0:0:0:
36,192,33454,1,0,0:0:0:0:
329,192,33454,1,2,0:0:0:0:
109,192,33494,1,2,0:0:0:0:
182,192,33534,1,2,0:0:0:0:
256,192,33575,1,2,0:0:0:0:
329,192,33615,1,2,0:0:0:0:
475,192,33615,1,0,0:0:0:0:
182,192,33695,1,0,0:0:0:0:
475,192,33776,1,4,0:0:0:0:
402,192,33776,1,2,0:0:0:0:
36,192,33776,1,0,0:0:0:0:
329,192,33816,1,2,0:0:0:0:
256,192,33857,1,2,0:0:0:0:
182,192,33897,1,2,0:0:0:0:
109,192,33937,1,2,0:0:0:0:
36,192,33937,1,0,0:0:0:0:
329,192,34018,1,0,0:0:0:0:
36,192,34099,1,4,0:0:0:0:
109,192,34099,1,2,0:0:0:0:
475,192,34099,1,0,0:0:0:0:
182,192,34139,1,2,0:0:0:0:
256,192,34179,1,2,0:0:0:0:
329,192,34220,1,2,0:0:0:0:
475,192,34260,1,0,0:0:0:0:
402,192,34260,1,2,0:0:0:0:
182,192,34300,1,2,0:0:0:0:
109,192,34341,1,2,0:0:0:0:
36,192,34381,1,2,0:0:0:0:
329,192,34421,1,0,0:0:0:40:Crash.wav
402,192,34421,1,2,0:0:0:0:
475,192,34421,1,0,0:0:0:0:
36,192,34583,1,0,0:0:0:0:
182,192,34583,1,2,0:0:0:0:
256,192,34623,1,2,0:0:0:0:
329,192,34663,1,2,0:0:0:0:
402,192,34704,1,2,0:0:0:0:
109,192,34744,1,2,0:0:0:0:
36,192,34744,1,0,0:0:0:0:
475,192,34744,128,4,34825:0:0:0:0:
182,192,34825,1,0,0:0:0:0:
475,192,34905,128,0,34986:0:0:0:0:
109,192,34905,1,0,0:0:0:0:
329,192,35066,128,0,35147:0:0:0:0:
36,192,35066,1,8,0:0:0:0:
402,192,35147,128,0,35228:0:0:0:0:
182,192,35228,1,0,0:0:0:0:
475,192,35308,128,0,35470:0:0:0:0:
109,192,35308,1,0,0:0:0:0:
182,192,35389,1,2,0:0:0:0:
109,192,35470,1,0,0:0:0:0:
329,192,35470,128,0,35550:0:0:0:0:
182,192,35550,1,2,0:0:0:0:
329,192,35631,128,0,35712:0:0:0:0:
36,192,35712,1,8,0:0:0:0:
402,192,35712,128,0,35873:0:0:0:0:
109,192,35792,1,0,0:0:0:0:
475,192,35873,128,0,36034:0:0:0:0:
182,192,35873,1,2,0:0:0:0:
109,192,35954,1,0,0:0:0:0:
329,192,36034,128,0,36195:0:0:0:0:
36,192,36034,1,2,0:0:0:0:
402,192,36195,128,0,36276:0:0:0:0:
109,192,36195,1,0,0:0:0:0:
182,192,36276,1,2,0:0:0:0:
329,192,36357,128,0,36437:0:0:0:0:
36,192,36357,1,8,0:0:0:0:
475,192,36437,128,0,36518:0:0:0:0:
109,192,36518,1,0,0:0:0:0:
402,192,36599,128,0,36760:0:0:0:0:
182,192,36599,1,2,0:0:0:0:
36,192,36679,1,8,0:0:0:0:
475,192,36760,128,0,36841:0:0:0:0:
109,192,36760,1,0,0:0:0:0:
182,192,36841,1,0,0:0:0:0:
36,192,36921,1,0,0:0:0:0:
329,192,36921,128,0,37083:0:0:0:0:
109,192,37002,1,8,0:0:0:0:
182,192,37083,1,0,0:0:0:0:
475,192,37083,128,0,37163:0:0:0:0:
402,192,37163,128,0,37244:0:0:0:0:
109,192,37163,1,8,0:0:0:0:
36,192,37244,1,0,0:0:0:0:
329,192,37244,128,0,37325:0:0:0:0:
182,192,37325,128,0,37405:0:0:0:0:
475,192,37325,1,2,0:0:0:0:
402,192,37405,1,0,0:0:0:0:
182,192,37486,128,0,37566:0:0:0:0:
329,192,37486,1,0,0:0:0:0:
109,192,37647,128,0,37728:0:0:0:0:
402,192,37647,1,8,0:0:0:0:
36,192,37728,128,0,37808:0:0:0:0:
475,192,37808,1,0,0:0:0:0:
109,192,37889,128,0,38050:0:0:0:0:
329,192,37970,1,2,0:0:0:0:
182,192,38050,128,0,38131:0:0:0:0:
475,192,38050,1,0,0:0:0:0:
402,192,38131,1,2,0:0:0:0:
182,192,38212,128,0,38292:0:0:0:0:
475,192,38292,1,8,0:0:0:0:
109,192,38292,128,0,38454:0:0:0:0:
329,192,38373,1,0,0:0:0:0:
36,192,38454,128,0,38615:0:0:0:0:
475,192,38454,1,2,0:0:0:0:
329,192,38534,1,0,0:0:0:0:
109,192,38615,128,0,38776:0:0:0:0:
402,192,38615,1,2,0:0:0:0:
475,192,38695,1,0,0:0:0:0:
329,192,38776,1,0,0:0:0:0:
182,192,38776,128,0,38857:0:0:0:0:
402,192,38857,1,2,0:0:0:0:
109,192,38937,128,0,39018:0:0:0:0:
329,192,38937,1,8,0:0:0:0:
36,192,39018,128,0,39099:0:0:0:0:
475,192,39018,1,0,0:0:0:0:
402,192,39099,1,0,0:0:0:0:
182,192,39179,128,0,39260:0:0:0:0:
329,192,39179,1,2,0:0:0:0:
402,192,39260,1,8,0:0:0:0:
36,192,39341,128,0,39421:0:0:0:0:
475,192,39341,1,0,0:0:0:0:
329,192,39421,1,0,0:0:0:0:
182,192,39502,128,0,39663:0:0:0:0:
402,192,39583,1,8,0:0:0:0:
329,192,39663,1,0,0:0:0:0:
109,192,39663,128,0,39744:0:0:0:0:
36,192,39744,128,0,39905:0:0:0:0:
475,192,39744,128,8,39905:0:0:0:0:
402,192,39905,128,0,39986:0:0:0:0:
182,192,39905,1,2,0:0:0:0:
182,192,40066,1,0,0:0:0:0:
402,192,40066,128,0,40147:0:0:0:0:
475,192,40228,128,0,40308:0:0:0:0:
36,192,40228,1,8,0:0:0:0:
329,192,40308,128,0,40389:0:0:0:0:
109,192,40308,1,0,0:0:0:0:
182,192,40389,1,0,0:0:0:0:
329,192,40470,128,0,40631:0:0:0:0:
36,192,40550,1,2,0:0:0:0:
475,192,40631,128,0,40712:0:0:0:0:
182,192,40631,1,0,0:0:0:0:
109,192,40712,1,2,0:0:0:0:
475,192,40792,128,0,40873:0:0:0:0:
182,192,40873,1,8,0:0:0:0:
402,192,40873,128,0,41034:0:0:0:0:
109,192,40954,1,0,0:0:0:0:
329,192,41034,128,0,41195:0:0:0:0:
36,192,41034,1,2,0:0:0:0:
109,192,41115,1,0,0:0:0:0:
402,192,41195,128,0,41357:0:0:0:0:
182,192,41195,1,2,0:0:0:0:
36,192,41276,1,0,0:0:0:0:
475,192,41357,128,0,41437:0:0:0:0:
109,192,41357,1,0,0:0:0:0:
36,192,41437,1,2,0:0:0:0:
329,192,41518,128,0,41599:0:0:0:0:
182,192,41518,1,8,0:0:0:0:
475,192,41599,128,0,41679:0:0:0:0:
36,192,41679,1,0,0:0:0:0:
402,192,41760,128,0,41921:0:0:0:0:
109,192,41760,1,2,0:0:0:0:
182,192,41841,1,8,0:0:0:0:
475,192,41921,128,0,42002:0:0:0:0:
36,192,42002,1,0,0:0:0:0:
329,192,42083,128,0,42244:0:0:0:0:
182,192,42083,1,0,0:0:0:0:
109,192,42163,1,8,0:0:0:0:
36,192,42244,1,0,0:0:0:0:
475,192,42244,128,0,42325:0:0:0:0:
182,192,42325,1,8,0:0:0:0:
402,192,42325,128,0,42405:0:0:0:0:
329,192,42405,128,0,42486:0:0:0:0:
109,192,42405,1,0,0:0:0:0:
36,192,42486,128,0,42566:0:0:0:0:
475,192,42486,1,2,0:0:0:0:
402,192,42647,1,0,0:0:0:0:
36,192,42647,128,0,42728:0:0:0:0:
329,192,42728,1,0,0:0:0:0:
182,192,42808,128,0,42889:0:0:0:0:
475,192,42808,1,8,0:0:0:0:
109,192,42889,128,0,42970:0:0:0:0:
402,192,42889,1,0,0:0:0:0:
329,192,42970,1,0,0:0:0:0:
36,192,43050,128,0,43131:0:0:0:0:
402,192,43131,1,2,0:0:0:0:
109,192,43131,128,0,43212:0:0:0:0:
182,192,43212,128,0,43292:0:0:0:0:
475,192,43212,1,0,0:0:0:0:
329,192,43292,1,2,0:0:0:0:
36,192,43373,128,0,43454:0:0:0:0:
402,192,43373,1,0,0:0:0:0:
182,192,43454,128,0,43534:0:0:0:0:
475,192,43454,1,8,0:0:0:0:
402,192,43534,1,0,0:0:0:0:
36,192,43615,128,0,43695:0:0:0:0:
329,192,43615,1,2,0:0:0:0:
182,192,43695,128,0,43776:0:0:0:0:
475,192,43776,1,2,0:0:0:0:
36,192,43776,128,0,43937:0:0:0:0:
329,192,43937,1,0,0:0:0:0:
402,192,44018,1,2,0:0:0:0:
182,192,44018,128,0,44179:0:0:0:0:
475,192,44099,1,8,0:0:0:0:
329,192,44179,1,0,0:0:0:0:
402,192,44260,1,0,0:0:0:0:
109,192,44260,128,0,44421:0:0:0:0:
475,192,44341,1,2,0:0:0:0:
329,192,44421,1,8,0:0:0:0:
36,192,44421,128,0,44502:0:0:0:0:
182,192,44502,128,0,44583:0:0:0:0:
402,192,44502,1,0,0:0:0:0:
475,192,44583,1,0,0:0:0:0:
109,192,44663,128,0,44825:0:0:0:0:
402,192,44744,1,8,0:0:0:0:
329,192,44825,1,0,0:0:0:0:
182,192,44825,128,0,44905:0:0:0:0:
36,192,44905,128,0,45066:0:0:0:0:
475,192,44905,128,8,45066:0:0:0:0:
109,192,45066,1,2,0:0:0:0:
402,192,45066,1,0,0:0:0:0:
256,192,45066,1,4,0:0:0:0:
329,192,45228,1,0,0:0:0:0:
182,192,45228,1,0,0:0:0:0:
475,192,45389,1,0,0:0:0:0:
402,192,45389,1,2,0:0:0:0:
109,192,45389,1,8,0:0:0:0:
36,192,45389,1,0,0:0:0:0:
182,192,45470,1,0,0:0:0:0:
329,192,45470,1,0,0:0:0:0:
256,192,45631,1,0,0:0:0:0:
402,192,45631,1,0,0:0:0:0:
329,192,45792,1,0,0:0:0:0:
36,192,45792,1,0,0:0:0:0:
109,192,45873,1,0,0:0:0:0:
402,192,45873,1,2,0:0:0:0:
182,192,45873,1,8,0:0:0:0:
475,192,45873,1,0,0:0:0:0:
256,192,45954,1,0,0:0:0:0:
36,192,45954,1,0,0:0:0:0:
329,192,46034,1,0,0:0:0:0:
402,192,46034,1,0,0:0:0:0:
182,192,46195,1,0,0:0:0:0:
36,192,46195,1,0,0:0:0:0:
402,192,46357,1,2,0:0:0:0:
475,192,46357,1,0,0:0:0:0:
109,192,46357,1,8,0:0:0:0:
256,192,46357,1,0,0:0:0:0:
329,192,46518,1,0,0:0:0:0:
182,192,46518,1,0,0:0:0:0:
402,192,46679,1,0,0:0:0:0:
36,192,46679,1,0,0:0:0:0:
329,192,46760,1,0,0:0:0:0:
109,192,46760,1,0,0:0:0:0:
402,192,46841,1,8,0:0:0:0:
256,192,46841,1,2,0:0:0:0:
182,192,46841,1,0,0:0:0:0:
475,192,46841,1,0,0:0:0:0:
36,192,46921,1,0,0:0:0:0:
109,192,46921,1,0,0:0:0:0:
329,192,47083,1,0,0:0:0:0:
402,192,47083,1,0,0:0:0:0:
256,192,47244,1,0,0:0:0:0:
182,192,47244,1,0,0:0:0:0:
475,192,47325,1,0,0:0:0:0:
36,192,47325,1,0,0:0:0:0:
402,192,47325,1,8,0:0:0:0:
329,192,47325,1,2,0:0:0:0:
109,192,47405,1,0,0:0:0:0:
182,192,47405,1,0,0:0:0:0:
475,192,47486,1,8,0:0:0:0:
329,192,47486,1,2,0:0:0:0:
402,192,47486,1,0,0:0:0:0:
109,192,47566,1,2,0:0:0:0:
36,192,47566,1,0,0:0:0:0:
256,192,47566,1,0,0:0:0:0:
182,192,47566,1,8,0:0:0:0:
402,192,47647,1,0,0:0:0:0:
475,192,47647,1,0,0:0:0:0:
109,192,47808,1,0,0:0:0:0:
256,192,47808,1,0,0:0:0:0:
36,192,47970,1,0,0:0:0:0:
182,192,47970,1,2,0:0:0:0:
402,192,47970,1,8,0:0:0:0:
109,192,47970,1,0,0:0:0:0:
475,192,48050,1,0,0:0:0:0:
256,192,48050,1,0,0:0:0:0:
109,192,48212,1,0,0:0:0:0:
402,192,48212,1,0,0:0:0:0:
329,192,48373,1,0,0:0:0:0:
36,192,48373,1,0,0:0:0:0:
256,192,48454,1,8,0:0:0:0:
402,192,48454,1,0,0:0:0:0:
109,192,48454,1,0,0:0:0:0:
182,192,48454,1,2,0:0:0:0:
475,192,48534,1,0,0:0:0:0:
36,192,48534,1,0,0:0:0:0:
182,192,48615,1,0,0:0:0:0:
329,192,48615,1,0,0:0:0:0:
109,192,48776,1,0,0:0:0:0:
402,192,48776,1,0,0:0:0:0:
182,192,48937,1,2,0:0:0:0:
36,192,48937,1,8,0:0:0:0:
475,192,48937,1,0,0:0:0:0:
329,192,48937,1,0,0:0:0:0:
109,192,49099,1,0,0:0:0:0:
402,192,49099,1,0,0:0:0:0:
36,192,49260,1,0,0:0:0:0:
256,192,49260,1,0,0:0:0:0:
329,192,49341,1,0,0:0:0:0:
109,192,49341,1,0,0:0:0:0:
182,192,49421,1,0,0:0:0:0:
256,192,49421,1,2,0:0:0:0:
475,192,49421,1,0,0:0:0:0:
402,192,49421,1,8,0:0:0:0:
36,192,49502,1,0,0:0:0:0:
109,192,49502,1,0,0:0:0:0:
182,192,49690,1,0,0:0:0:0:
475,192,49690,1,8,0:0:0:0:
256,192,49690,1,2,0:0:0:0:
109,192,49798,1,0,0:0:0:0:
182,192,49798,1,2,0:0:0:0:
402,192,49798,1,8,0:0:0:0:
109,192,49905,1,2,0:0:0:0:
36,192,49905,1,8,0:0:0:0:
329,192,49905,1,0,0:0:0:0:
475,192,50013,1,8,0:0:0:0:
182,192,50013,1,0,0:0:0:0:
402,192,50013,1,2,0:0:0:0:
329,192,50120,1,0,0:0:0:0:
402,192,50120,1,8,0:0:0:0:
109,192,50120,1,2,0:0:0:0:
36,192,50228,1,2,0:0:0:0:
256,192,50228,1,0,0:0:0:0:
182,192,50228,1,0,0:0:0:0:
475,192,50228,1,8,0:0:0:0:
329,192,50308,1,0,0:0:0:0:
109,192,50389,1,0,0:0:0:0:
402,192,50389,1,0,0:0:0:0:
36,192,50550,1,2,0:0:0:0:
475,192,50550,1,8,0:0:0:0:
256,192,50550,1,0,0:0:0:0:
402,192,50631,1,0,0:0:0:0:
182,192,50631,1,0,0:0:0:0:
329,192,50712,1,0,0:0:0:0:
36,192,50792,1,0,0:0:0:0:
256,192,50792,1,0,0:0:0:0:
109,192,50873,1,0,0:0:0:0:
475,192,50873,1,2,0:0:0:0:
402,192,50873,1,0,0:0:0:0:
182,192,50954,1,0,0:0:0:0:
329,192,50954,1,0,0:0:0:0:
402,192,51034,1,0,0:0:0:0:
109,192,51034,1,0,0:0:0:0:
36,192,51115,1,0,0:0:0:0:
475,192,51115,1,0,0:0:0:0:
182,192,51195,1,2,0:0:0:0:
256,192,51195,1,8,0:0:0:0:
329,192,51195,1,0,0:0:0:0:
109,192,51357,1,0,0:0:0:0:
402,192,51357,1,0,0:0:0:0:
329,192,51437,1,0,0:0:0:0:
475,192,51518,1,0,0:0:0:0:
402,192,51518,1,2,0:0:0:0:
36,192,51518,1,4,0:0:0:0:
109,192,51518,1,0,0:0:0:0:
182,192,51599,1,0,0:0:0:0:
402,192,51679,1,0,0:0:0:0:
109,192,51679,1,0,0:0:0:0:
475,192,51841,1,0,0:0:0:0:
329,192,51841,1,2,0:0:0:0:
36,192,51841,1,8,0:0:0:0:
109,192,51921,1,0,0:0:0:0:
256,192,51921,1,0,0:0:0:0:
329,192,52002,1,0,0:0:0:0:
402,192,52083,1,0,0:0:0:0:
182,192,52083,1,0,0:0:0:0:
475,192,52163,1,2,0:0:0:0:
256,192,52163,1,0,0:0:0:0:
36,192,52163,1,0,0:0:0:0:
329,192,52244,1,0,0:0:0:0:
109,192,52244,1,0,0:0:0:0:
182,192,52405,1,0,0:0:0:0:
256,192,52405,1,0,0:0:0:0:
329,192,52486,1,2,0:0:0:0:
36,192,52486,1,0,0:0:0:0:
475,192,52486,1,8,0:0:0:0:
182,192,52566,1,0,0:0:0:0:
109,192,52566,1,0,0:0:0:0:
256,192,52647,1,0,0:0:0:0:
402,192,52728,1,0,0:0:0:0:
329,192,52728,1,0,0:0:0:0:
36,192,52808,1,4,0:0:0:0:
109,192,52808,1,0,0:0:0:0:
475,192,52808,1,0,0:0:0:0:
182,192,52808,1,2,0:0:0:0:
402,192,52970,1,0,0:0:0:0:
329,192,52970,1,2,0:0:0:0:
256,192,53050,1,0,0:0:0:0:
475,192,53050,1,0,0:0:0:0:
109,192,53131,1,8,0:0:0:0:
182,192,53131,1,2,0:0:0:0:
256,192,53212,1,0,0:0:0:0:
36,192,53212,1,0,0:0:0:0:
329,192,53292,1,2,0:0:0:0:
402,192,53292,1,0,0:0:0:0:
36,192,53373,1,0,0:0:0:0:
109,192,53373,1,0,0:0:0:0:
475,192,53454,1,0,0:0:0:0:
402,192,53454,1,4,0:0:0:0:
256,192,53454,1,0,0:0:0:0:
182,192,53454,1,2,0:0:0:0:
109,192,53534,1,0,0:0:0:0:
329,192,53534,1,0,0:0:0:0:
36,192,53615,1,0,0:0:0:0:
256,192,53615,1,2,0:0:0:0:
475,192,53695,1,0,0:0:0:0:
182,192,53695,1,0,0:0:0:0:
402,192,53776,1,8,0:0:0:0:
109,192,53776,1,2,0:0:0:0:
256,192,53857,1,0,0:0:0:0:
36,192,53937,1,0,0:0:0:0:
329,192,53937,1,2,0:0:0:0:
109,192,54018,1,0,0:0:0:0:
402,192,54018,1,0,0:0:0:0:
182,192,54099,1,2,0:0:0:0:
475,192,54099,1,0,0:0:0:0:
36,192,54099,1,8,0:0:0:0:
256,192,54099,1,0,0:0:0:0:
402,192,54179,1,0,0:0:0:0:
109,192,54260,1,0,0:0:0:0:
329,192,54260,1,2,0:0:0:0:
182,192,54341,1,0,0:0:0:0:
402,192,54341,1,0,0:0:0:0:
36,192,54421,1,8,0:0:0:0:
329,192,54421,1,0,0:0:0:0:
475,192,54421,1,2,0:0:0:0:
256,192,54421,1,0,0:0:0:0:
109,192,54502,1,0,0:0:0:0:
182,192,54502,1,0,0:0:0:0:
329,192,54583,1,0,0:0:0:0:
256,192,54583,1,2,0:0:0:0:
475,192,54663,1,0,0:0:0:0:
402,192,54663,1,2,0:0:0:0:
36,192,54744,1,0,0:0:0:0:
182,192,54744,1,0,0:0:0:0:
256,192,54744,1,8,0:0:0:0:
109,192,54744,1,2,0:0:0:0:
475,192,54825,1,0,0:0:0:0:
402,192,54825,1,2,0:0:0:0:
256,192,54905,1,0,0:0:0:0:
329,192,54905,1,2,0:0:0:0:
36,192,54986,1,0,0:0:0:0:
182,192,54986,1,2,0:0:0:0:
402,192,55066,1,0,0:0:0:0:
475,192,55066,1,2,0:0:0:0:
109,192,55066,1,8,0:0:0:0:
329,192,55066,1,0,0:0:0:0:
256,192,55147,1,2,0:0:0:0:
36,192,55147,1,0,0:0:0:0:
109,192,55228,1,2,0:0:0:0:
329,192,55228,1,0,0:0:0:0:
402,192,55308,1,2,0:0:0:0:
182,192,55308,1,0,0:0:0:0:
36,192,55389,1,2,0:0:0:0:
475,192,55389,1,0,0:0:0:0:
109,192,55389,1,4,0:0:0:0:
256,192,55389,1,0,0:0:0:0:
109,192,55712,1,0,0:0:0:0:
256,192,55792,1,0,0:0:0:0:
402,192,55873,1,0,0:0:0:0:
182,192,55954,1,0,0:0:0:0:
329,192,56034,1,0,0:0:0:0:
475,192,56115,1,0,0:0:0:0:
256,192,56195,1,0,0:0:0:0:
109,192,56276,1,0,0:0:0:0:
329,192,56357,1,0,0:0:0:0:
182,192,56437,1,0,0:0:0:0:
402,192,56518,1,0,0:0:0:0:
256,192,56599,1,0,0:0:0:0:
36,192,56679,1,0,0:0:0:0:
475,192,56679,128,0,57970:0:0:0:0:
182,192,56760,1,0,0:0:0:0:
329,192,56841,1,0,0:0:0:0:
109,192,56921,1,0,0:0:0:0:
256,192,57002,1,0,0:0:0:0:
402,192,57083,1,0,0:0:0:0:
182,192,57163,1,0,0:0:0:0:
329,192,57244,1,0,0:0:0:0:
109,192,57325,1,0,0:0:0:0:
256,192,57405,1,0,0:0:0:0:
36,192,57486,1,0,0:0:0:0:
182,192,57566,1,0,0:0:0:0:
329,192,57647,1,0,0:0:0:40:Crash.wav
36,192,57647,128,0,57970:0:0:0:0:
402,192,57647,1,0,0:0:0:0:
182,192,57728,1,0,0:0:0:0:
329,192,57808,1,0,0:0:0:0:
182,192,57889,1,0,0:0:0:0:
402,192,57970,1,0,0:0:0:0:
256,192,57970,128,0,58615:0:0:0:0:
109,192,58131,1,0,0:0:0:0:
182,192,58292,1,0,0:0:0:0:
475,192,58454,1,0,0:0:0:0:
36,192,58615,1,0,0:0:0:0:
329,192,58615,128,0,59260:0:0:0:0:
182,192,58776,1,0,0:0:0:0:
109,192,58937,1,0,0:0:0:0:
256,192,59099,1,0,0:0:0:0:
475,192,59260,1,0,0:0:0:0:
109,192,59260,128,0,59905:0:0:0:0:
402,192,59421,1,0,0:0:0:0:
256,192,59583,1,0,0:0:0:0:
329,192,59744,1,0,0:0:0:0:
402,192,59905,128,0,60550:0:0:0:0:
36,192,59905,1,0,0:0:0:0:
182,192,60066,1,0,0:0:0:0:
256,192,60228,1,0,0:0:0:0:
36,192,60389,1,0,0:0:0:0:
475,192,60550,1,0,0:0:0:0:
182,192,60550,128,0,61195:0:0:0:0:
109,192,60712,1,0,0:0:0:0:
329,192,60873,1,0,0:0:0:0:
475,192,61034,1,0,0:0:0:0:
36,192,61195,1,0,0:0:0:0:
256,192,61195,128,0,61518:0:0:0:0:
402,192,61357,1,0,0:0:0:0:
109,192,61518,1,0,0:0:0:0:
475,192,61518,128,0,61841:0:0:0:0:
182,192,61679,1,0,0:0:0:0:
256,192,61841,1,0,0:0:0:0:
329,192,61841,128,0,62486:0:0:0:0:
36,192,62002,1,0,0:0:0:0:
182,192,62163,1,0,0:0:0:0:
109,192,62325,1,0,0:0:0:0:
36,192,62486,1,0,0:0:0:0:
475,192,62486,128,0,63131:0:0:0:0:
182,192,62647,1,0,0:0:0:0:
256,192,62808,1,0,0:0:0:0:
329,192,62970,1,0,0:0:0:0:
36,192,63131,1,0,0:0:0:0:
182,192,63131,128,0,63776:0:0:0:0:
402,192,63292,1,0,0:0:0:0:
109,192,63454,1,0,0:0:0:0:
256,192,63615,1,0,0:0:0:0:
36,192,63776,1,0,0:0:0:0:
402,192,63776,128,0,64421:0:0:0:0:
109,192,63937,1,0,0:0:0:0:
256,192,64099,1,0,0:0:0:0:
182,192,64260,1,0,0:0:0:0:
475,192,64421,1,0,0:0:0:0:
109,192,64421,128,0,65066:0:0:0:0:
329,192,64583,1,0,0:0:0:0:
256,192,64744,1,0,0:0:0:0:
402,192,64905,1,0,0:0:0:0:
36,192,65066,1,0,0:0:0:0:
329,192,65066,128,0,65389:0:0:0:0:
182,192,65228,1,0,0:0:0:0:
402,192,65389,128,0,65712:0:0:0:0:
256,192,65389,1,0,0:0:0:0:
109,192,65550,1,0,0:0:0:0:
182,192,65712,1,0,0:0:0:0:
475,192,65712,128,0,66357:0:0:0:0:
36,192,65873,1,0,0:0:0:0:
256,192,66034,1,0,0:0:0:0:
329,192,66195,1,0,0:0:0:0:
402,192,66357,1,0,0:0:0:0:
182,192,66357,128,0,67002:0:0:0:0:
36,192,66518,1,0,0:0:0:0:
329,192,66679,1,0,0:0:0:0:
475,192,66841,1,0,0:0:0:0:
256,192,67002,1,0,0:0:0:0:
36,192,67002,128,0,67647:0:0:0:0:
402,192,67163,1,0,0:0:0:0:
329,192,67325,1,0,0:0:0:0:
182,192,67486,1,0,0:0:0:0:
475,192,67647,1,0,0:0:0:0:
256,192,67647,128,0,67970:0:0:0:0:
36,192,67808,1,0,0:0:0:0:
402,192,67970,1,0,0:0:0:0:
109,192,67970,128,0,68292:0:0:0:0:
475,192,68131,1,0,0:0:0:0:
182,192,68292,1,0,0:0:0:0:
329,192,68292,128,0,69260:0:0:0:0:
36,192,68454,1,0,0:0:0:0:
475,192,68615,1,0,0:0:0:0:
109,192,68776,1,0,0:0:0:0:
182,192,68937,1,0,0:0:0:0:
36,192,69099,1,0,0:0:0:0:
475,192,69260,128,0,69583:0:0:0:0:
256,192,69260,1,0,0:0:0:0:
109,192,69421,1,0,0:0:0:0:
402,192,69583,1,0,0:0:0:0:
36,192,69583,128,0,70228:0:0:0:0:
329,192,69744,1,0,0:0:0:0:
182,192,69905,1,0,0:0:0:0:
256,192,70066,1,0,0:0:0:0:
475,192,70228,5,0,0:0:0:0:
402,192,70255,1,0,0:0:0:0:
329,192,70282,1,0,0:0:0:0:
256,192,70308,1,0,0:0:0:0:
182,192,70335,1,0,0:0:0:0:
109,192,70362,1,0,0:0:0:0:
36,192,70389,1,0,0:0:0:0:
329,192,70416,1,0,0:0:0:0:
402,192,70443,1,0,0:0:0:0:
475,192,70470,1,0,0:0:0:0:
109,192,70497,1,0,0:0:0:0:
182,192,70523,1,0,0:0:0:0:
256,192,70550,1,0,0:0:0:0:
329,192,70577,1,0,0:0:0:0:
402,192,70604,1,0,0:0:0:0:
475,192,70631,1,0,0:0:0:0:
182,192,70658,1,0,0:0:0:0:
109,192,70685,1,0,0:0:0:0:
36,192,70712,1,0,0:0:0:0:
402,192,70739,1,0,0:0:0:0:
329,192,70765,1,0,0:0:0:0:
256,192,70792,1,0,0:0:0:0:
182,192,70819,1,0,0:0:0:0:
109,192,70846,1,0,0:0:0:0:
475,192,70873,1,0,0:0:0:0:
36,192,70873,1,8,0:0:0:0:
402,192,70873,1,2,0:0:0:0:
256,192,71115,1,2,0:0:0:0:
36,192,71115,1,0,0:0:0:0:
109,192,71115,1,8,0:0:0:0:
329,192,71357,1,8,0:0:0:0:
402,192,71357,1,0,0:0:0:0:
182,192,71357,1,2,0:0:0:0:
475,192,71518,128,8,71679:0:0:0:0:
36,192,71518,128,0,71679:0:0:0:0:
256,192,71518,1,2,0:0:0:0:
182,192,71679,1,0,0:0:0:0:
329,192,71679,1,2,0:0:0:0:
329,192,71760,1,2,0:0:0:0:
182,192,71760,1,0,0:0:0:0:
109,192,71841,1,0,0:0:0:40:Crash.wav
402,192,71841,1,2,0:0:0:0:
36,192,71841,128,0,72163:0:0:0:0:
475,192,71841,128,0,72163:0:0:0:0:
182,192,72163,1,4,0:0:0:0:
329,192,72163,1,2,0:0:0:0:
402,192,72163,1,0,0:0:0:0:
109,192,72163,1,0,0:0:0:0:
256,192,72325,1,0,0:0:0:0:
402,192,72486,1,0,0:0:0:0:
36,192,72486,1,2,0:0:0:0:
109,192,72486,1,0,0:0:0:0:
475,192,72566,1,0,0:0:0:0:
182,192,72566,1,0,0:0:0:0:
329,192,72647,1,0,0:0:0:0:
36,192,72728,1,0,0:0:0:0:
402,192,72728,1,0,0:0:0:0:
109,192,72808,1,2,0:0:0:0:
256,192,72808,1,0,0:0:0:0:
475,192,72808,1,0,0:0:0:0:
182,192,72889,1,0,0:0:0:0:
329,192,72889,1,0,0:0:0:0:
402,192,72970,1,0,0:0:0:0:
256,192,73050,1,0,0:0:0:0:
109,192,73050,1,0,0:0:0:0:
475,192,73131,1,0,0:0:0:0:
182,192,73131,1,0,0:0:0:0:
36,192,73131,1,2,0:0:0:0:
329,192,73212,1,0,0:0:0:0:
109,192,73292,1,0,0:0:0:0:
256,192,73292,1,0,0:0:0:0:
182,192,73454,1,2,0:0:0:0:
475,192,73454,1,0,0:0:0:0:
402,192,73454,128,0,73615:0:0:0:0:
109,192,73615,1,0,0:0:0:0:
256,192,73615,1,0,0:0:0:0:
182,192,73776,1,2,0:0:0:0:
475,192,73776,1,0,0:0:0:0:
36,192,73776,128,0,73937:0:0:0:0:
329,192,73937,1,0,0:0:0:0:
402,192,73937,128,0,74260:0:0:0:0:
182,192,74099,1,2,0:0:0:0:
256,192,74099,1,0,0:0:0:0:
109,192,74099,1,0,0:0:0:0:
36,192,74260,1,0,0:0:0:0:
329,192,74260,128,0,74421:0:0:0:0:
182,192,74341,1,0,0:0:0:0:
109,192,74421,1,0,0:0:0:0:
256,192,74421,1,2,0:0:0:0:
475,192,74421,128,0,74583:0:0:0:0:
329,192,74583,1,0,0:0:0:0:
182,192,74583,128,0,74744:0:0:0:0:
402,192,74744,1,2,0:0:0:0:
475,192,74744,1,0,0:0:0:0:
109,192,74744,1,8,0:0:0:0:
36,192,74744,128,0,74905:0:0:0:0:
256,192,74905,1,0,0:0:0:0:
329,192,74986,1,0,0:0:0:0:
402,192,74986,1,0,0:0:0:0:
182,192,75066,1,2,0:0:0:0:
475,192,75066,1,0,0:0:0:0:
109,192,75228,1,0,0:0:0:0:
256,192,75228,1,0,0:0:0:0:
475,192,75389,1,0,0:0:0:0:
36,192,75389,1,8,0:0:0:0:
182,192,75389,1,2,0:0:0:0:
329,192,75389,1,0,0:0:0:0:
256,192,75550,1,0,0:0:0:0:
109,192,75631,1,0,0:0:0:0:
402,192,75631,1,2,0:0:0:0:
182,192,75631,1,8,0:0:0:0:
475,192,75631,1,0,0:0:0:0:
329,192,75792,1,0,0:0:0:0:
36,192,75873,1,8,0:0:0:0:
109,192,75873,1,0,0:0:0:0:
182,192,75873,1,2,0:0:0:0:
475,192,75873,1,0,0:0:0:0:
329,192,76034,1,0,0:0:0:0:
256,192,76034,1,2,0:0:0:0:
402,192,76034,1,0,0:0:0:0:
182,192,76195,1,2,0:0:0:0:
36,192,76195,1,0,0:0:0:0:
475,192,76195,1,0,0:0:0:0:
109,192,76195,1,8,0:0:0:0:
256,192,76276,1,0,0:0:0:0:
329,192,76276,1,0,0:0:0:0:
182,192,76357,1,2,0:0:0:0:
475,192,76357,1,0,0:0:0:0:
402,192,76357,1,0,0:0:0:0:
329,192,76518,1,2,0:0:0:0:
109,192,76518,1,0,0:0:0:0:
36,192,76518,1,0,0:0:0:0:
182,192,76599,1,0,0:0:0:0:
402,192,76599,1,2,0:0:0:0:
256,192,76679,1,0,0:0:0:0:
36,192,76679,1,8,0:0:0:0:
475,192,76679,1,2,0:0:0:0:
329,192,76760,1,0,0:0:0:0:
109,192,76760,1,2,0:0:0:0:
182,192,76841,1,2,0:0:0:0:
402,192,76841,1,0,0:0:0:0:
36,192,76921,1,0,0:0:0:0:
256,192,76921,1,2,0:0:0:0:
475,192,77002,1,2,0:0:0:0:
182,192,77002,1,0,0:0:0:0:
402,192,77042,1,2,0:0:0:0:
109,192,77042,1,0,0:0:0:0:
329,192,77083,1,2,0:0:0:0:
36,192,77083,1,0,0:0:0:0:
475,192,77123,1,0,0:0:0:0:
256,192,77123,1,2,0:0:0:0:
402,192,77163,1,0,0:0:0:0:
182,192,77163,1,2,0:0:0:0:
329,192,77244,1,0,0:0:0:0:
109,192,77244,1,2,0:0:0:0:
256,192,77325,1,0,0:0:0:0:
36,192,77325,1,2,0:0:0:0:
475,192,77325,1,8,0:0:0:0:
402,192,77325,1,0,0:0:0:0:
182,192,77486,1,0,0:0:0:0:
109,192,77486,1,0,0:0:0:0:
329,192,77647,1,0,0:0:0:0:
475,192,77647,1,0,0:0:0:0:
36,192,77647,1,2,0:0:0:0:
402,192,77728,1,0,0:0:0:0:
109,192,77728,1,0,0:0:0:0:
182,192,77808,1,0,0:0:0:0:
329,192,77889,1,0,0:0:0:0:
256,192,77889,1,0,0:0:0:0:
36,192,77970,1,2,0:0:0:0:
109,192,77970,1,0,0:0:0:0:
475,192,77970,1,0,0:0:0:0:
182,192,78050,1,0,0:0:0:0:
402,192,78050,1,0,0:0:0:0:
329,192,78131,1,0,0:0:0:0:
109,192,78292,1,2,0:0:0:0:
402,192,78292,1,0,0:0:0:0:
256,192,78292,1,0,0:0:0:0:
36,192,78454,1,0,0:0:0:0:
329,192,78454,1,0,0:0:0:0:
475,192,78615,1,0,0:0:0:0:
182,192,78615,1,2,0:0:0:0:
402,192,78615,1,0,0:0:0:0:
256,192,78695,1,0,0:0:0:0:
109,192,78776,1,0,0:0:0:0:
329,192,78776,1,0,0:0:0:0:
402,192,78857,1,0,0:0:0:0:
256,192,78937,1,0,0:0:0:0:
475,192,78937,1,0,0:0:0:0:
36,192,78937,1,2,0:0:0:0:
329,192,79018,1,0,0:0:0:0:
109,192,79018,1,0,0:0:0:0:
402,192,79099,1,0,0:0:0:0:
36,192,79179,1,0,0:0:0:0:
256,192,79179,1,0,0:0:0:0:
109,192,79260,1,2,0:0:0:0:
475,192,79260,1,0,0:0:0:0:
329,192,79260,1,0,0:0:0:0:
182,192,79341,1,0,0:0:0:0:
402,192,79341,1,0,0:0:0:0:
256,192,79421,1,0,0:0:0:0:
109,192,79583,1,0,0:0:0:0:
36,192,79583,1,2,0:0:0:0:
329,192,79583,128,0,79744:0:0:0:0:
402,192,79744,1,0,0:0:0:0:
182,192,79744,128,0,79905:0:0:0:0:
256,192,79905,1,0,0:0:0:0:
475,192,79905,1,2,0:0:0:0:
36,192,79905,128,0,80066:0:0:0:0:
402,192,80066,1,0,0:0:0:0:
182,192,80066,1,0,0:0:0:0:
109,192,80228,1,0,0:0:0:0:
36,192,80228,1,0,0:0:0:0:
475,192,80228,1,2,0:0:0:0:
402,192,80308,1,0,0:0:0:0:
182,192,80308,1,0,0:0:0:0:
256,192,80389,1,0,0:0:0:0:
329,192,80470,1,0,0:0:0:0:
36,192,80470,1,0,0:0:0:0:
109,192,80550,1,0,0:0:0:0:
475,192,80550,1,2,0:0:0:0:
402,192,80550,1,0,0:0:0:0:
182,192,80631,1,0,0:0:0:0:
256,192,80631,1,0,0:0:0:0:
329,192,80712,1,0,0:0:0:0:
475,192,80712,1,0,0:0:0:0:
109,192,80792,1,0,0:0:0:0:
36,192,80792,1,0,0:0:0:0:
402,192,80873,1,2,0:0:0:0:
475,192,80873,1,0,0:0:0:0:
182,192,80873,1,0,0:0:0:0:
109,192,80954,1,0,0:0:0:0:
329,192,80954,1,0,0:0:0:0:
36,192,81034,1,0,0:0:0:0:
256,192,81034,1,0,0:0:0:0:
109,192,81115,1,0,0:0:0:0:
329,192,81115,1,0,0:0:0:0:
475,192,81195,1,2,0:0:0:0:
402,192,81195,1,0,0:0:0:0:
182,192,81195,1,0,0:0:0:0:
36,192,81276,1,0,0:0:0:0:
329,192,81276,1,0,0:0:0:0:
475,192,81357,1,0,0:0:0:0:
182,192,81357,1,0,0:0:0:0:
109,192,81437,1,0,0:0:0:0:
402,192,81437,1,0,0:0:0:0:
36,192,81518,1,0,0:0:0:0:
256,192,81518,1,2,0:0:0:0:
329,192,81518,1,0,0:0:0:0:
475,192,81599,1,0,0:0:0:0:
182,192,81599,1,0,0:0:0:0:
402,192,81679,1,0,0:0:0:0:
329,192,81760,1,0,0:0:0:0:
109,192,81760,1,0,0:0:0:0:
182,192,81841,1,0,0:0:0:0:
475,192,81841,1,2,0:0:0:0:
36,192,81841,1,0,0:0:0:0:
256,192,81921,1,0,0:0:0:0:
329,192,82002,1,0,0:0:0:0:
109,192,82002,1,0,0:0:0:0:
402,192,82083,1,0,0:0:0:0:
475,192,82163,1,2,0:0:0:0:
36,192,82163,1,0,0:0:0:0:
182,192,82163,128,0,82325:0:0:0:0:
256,192,82325,1,0,0:0:0:0:
402,192,82325,1,0,0:0:0:0:
36,192,82486,1,0,0:0:0:0:
182,192,82486,1,2,0:0:0:0:
475,192,82486,1,4,0:0:0:0:
329,192,82486,128,0,82647:0:0:0:0:
109,192,82647,1,0,0:0:0:0:
256,192,82647,128,0,82808:0:0:0:0:
475,192,82808,1,0,0:0:0:0:
402,192,82808,1,2,0:0:0:0:
36,192,82808,1,0,0:0:0:0:
109,192,82970,1,0,0:0:0:0:
329,192,82970,128,0,83131:0:0:0:0:
402,192,83131,1,2,0:0:0:0:
475,192,83131,1,0,0:0:0:0:
182,192,83131,128,0,83292:0:0:0:0:
256,192,83292,1,0,0:0:0:0:
36,192,83292,1,0,0:0:0:0:
109,192,83454,1,0,0:0:0:0:
402,192,83454,1,2,0:0:0:0:
475,192,83454,128,0,83615:0:0:0:0:
256,192,83615,1,0,0:0:0:0:
36,192,83615,1,0,0:0:0:0:
182,192,83695,1,0,0:0:0:0:
109,192,83776,1,4,0:0:0:0:
329,192,83776,1,0,0:0:0:0:
475,192,83776,1,0,0:0:0:0:
402,192,83776,1,2,0:0:0:0:
256,192,83857,1,0,0:0:0:0:
182,192,83937,1,0,0:0:0:0:
36,192,83937,1,2,0:0:0:0:
475,192,83937,1,0,0:0:0:0:
329,192,84018,1,0,0:0:0:0:
402,192,84099,1,0,0:0:0:0:
36,192,84099,1,0,0:0:0:0:
109,192,84099,1,2,0:0:0:0:
256,192,84179,1,0,0:0:0:0:
475,192,84260,1,0,0:0:0:0:
329,192,84260,1,0,0:0:0:0:
36,192,84260,1,2,0:0:0:0:
109,192,84341,1,0,0:0:0:0:
182,192,84421,1,8,0:0:0:0:
475,192,84421,1,2,0:0:0:0:
402,192,84462,1,2,0:0:0:0:
329,192,84502,1,2,0:0:0:0:
36,192,84502,1,0,0:0:0:0:
109,192,84542,1,2,0:0:0:0:
182,192,84583,1,0,0:0:0:0:
475,192,84583,1,2,0:0:0:0:
402,192,84623,1,2,0:0:0:0:
329,192,84663,1,2,0:0:0:0:
36,192,84663,1,0,0:0:0:0:
109,192,84704,1,2,0:0:0:0:
402,192,84744,1,2,0:0:0:0:
475,192,84744,1,0,0:0:0:40:Crash.wav
182,192,84744,1,0,0:0:0:0:
109,192,84825,1,0,0:0:0:0:
36,192,84825,1,2,0:0:0:0:
329,192,84905,1,2,0:0:0:0:
402,192,84905,1,0,0:0:0:0:
182,192,84986,1,2,0:0:0:0:
109,192,84986,1,0,0:0:0:0:
475,192,85066,1,2,0:0:0:0:
402,192,85066,1,0,0:0:0:0:
256,192,85066,1,4,0:0:0:0:
36,192,85066,128,0,85228:0:0:0:0:
182,192,85228,1,0,0:0:0:0:
256,192,85308,1,0,0:0:0:0:
109,192,85389,1,0,0:0:0:0:
36,192,85389,1,2,0:0:0:0:
329,192,85389,128,0,85550:0:0:0:0:
182,192,85550,1,0,0:0:0:0:
109,192,85631,1,0,0:0:0:0:
475,192,85712,1,0,0:0:0:0:
402,192,85712,1,2,0:0:0:0:
36,192,85712,128,0,85873:0:0:0:0:
329,192,85873,1,0,0:0:0:0:
256,192,85954,1,0,0:0:0:0:
475,192,85954,128,0,86115:0:0:0:0:
36,192,86034,1,0,0:0:0:0:
182,192,86034,1,2,0:0:0:0:
256,192,86195,1,0,0:0:0:0:
109,192,86195,128,0,86357:0:0:0:0:
329,192,86276,1,0,0:0:0:0:
182,192,86357,1,0,0:0:0:0:
402,192,86357,1,2,0:0:0:0:
256,192,86437,128,0,86679:0:0:0:0:
475,192,86518,1,0,0:0:0:0:
402,192,86599,1,0,0:0:0:0:
329,192,86679,1,0,0:0:0:0:
109,192,86679,1,2,0:0:0:0:
36,192,86679,128,0,86841:0:0:0:0:
182,192,86841,1,0,0:0:0:0:
256,192,86921,1,0,0:0:0:0:
329,192,87002,1,2,0:0:0:0:
402,192,87002,1,0,0:0:0:0:
475,192,87002,128,0,87163:0:0:0:0:
182,192,87163,1,0,0:0:0:0:
256,192,87244,1,0,0:0:0:0:
109,192,87244,128,0,87405:0:0:0:0:
329,192,87325,1,2,0:0:0:0:
475,192,87325,1,0,0:0:0:0:
256,192,87486,1,2,0:0:0:0:
402,192,87486,128,0,87647:0:0:0:0:
36,192,87486,1,0,0:0:0:0:
182,192,87566,1,0,0:0:0:0:
329,192,87647,1,2,0:0:0:0:
475,192,87647,1,4,0:0:0:0:
109,192,87647,1,0,0:0:0:0:
36,192,87647,128,0,87808:0:0:0:0:
256,192,87728,1,0,0:0:0:0:
182,192,87808,1,2,0:0:0:0:
475,192,87808,1,0,0:0:0:0:
109,192,87889,1,2,0:0:0:0:
402,192,87889,1,0,0:0:0:0:
36,192,87970,1,0,0:0:0:0:
329,192,87970,1,2,0:0:0:0:
402,192,88050,1,0,0:0:0:0:
475,192,88050,1,2,0:0:0:0:
182,192,88131,1,2,0:0:0:0:
109,192,88131,1,0,0:0:0:0:
256,192,88212,1,2,0:0:0:0:
329,192,88212,1,0,0:0:0:0:
109,192,88292,1,0,0:0:0:0:
36,192,88292,1,4,0:0:0:0:
475,192,88292,1,0,0:0:0:0:
402,192,88292,1,2,0:0:0:0:
182,192,88373,1,0,0:0:0:0:
256,192,88454,1,0,0:0:0:0:
402,192,88534,1,4,0:0:0:0:
475,192,88534,1,0,0:0:0:0:
109,192,88534,1,0,0:0:0:0:
329,192,88534,1,2,0:0:0:0:
182,192,88615,1,0,0:0:0:0:
256,192,88695,1,0,0:0:0:0:
36,192,88776,1,2,0:0:0:0:
475,192,88776,1,0,0:0:0:0:
329,192,88776,1,4,0:0:0:0:
402,192,88776,1,0,0:0:0:0:
256,192,88857,1,0,0:0:0:0:
182,192,88937,1,0,0:0:0:0:
109,192,89018,1,0,0:0:0:0:
475,192,89018,1,0,0:0:0:0:
329,192,89018,1,4,0:0:0:0:
36,192,89018,1,2,0:0:0:0:
256,192,89099,1,0,0:0:0:0:
182,192,89179,1,0,0:0:0:0:
402,192,89260,1,4,0:0:0:0:
109,192,89260,1,0,0:0:0:0:
475,192,89260,1,0,0:0:0:0:
36,192,89260,1,2,0:0:0:0:
329,192,89341,1,0,0:0:0:0:
256,192,89421,1,2,0:0:0:0:
182,192,89448,1,2,0:0:0:0:
109,192,89475,1,2,0:0:0:0:
329,192,89502,1,2,0:0:0:0:
36,192,89502,1,0,0:0:0:0:
475,192,89502,1,4,0:0:0:0:
402,192,89502,1,0,0:0:0:0:
182,192,89583,1,0,0:0:0:0:
256,192,89663,1,2,0:0:0:0:
329,192,89683,1,2,0:0:0:0:
402,192,89704,1,2,0:0:0:0:
475,192,89724,1,2,0:0:0:0:
109,192,89744,1,0,0:0:0:0:
182,192,89744,1,4,0:0:0:0:
36,192,89744,1,2,0:0:0:0:
329,192,89825,1,0,0:0:0:0:
256,192,89905,1,2,0:0:0:0:
182,192,89925,1,2,0:0:0:0:
109,192,89945,1,2,0:0:0:0:
36,192,89966,1,2,0:0:0:0:
475,192,89986,1,4,0:0:0:0:
329,192,89986,1,2,0:0:0:0:
402,192,89986,1,0,0:0:0:0:
256,192,90066,1,2,0:0:0:0:
182,192,90147,1,2,0:0:0:0:
109,192,90228,1,2,0:0:0:0:
402,192,90228,1,4,0:0:0:0:
475,192,90228,1,0,0:0:0:0:
36,192,90228,1,0,0:0:0:0:
475,192,90389,1,0,0:0:0:0:
256,192,90389,1,2,0:0:0:0:
329,192,90389,1,0,0:0:0:0:
36,192,90550,1,0,0:0:0:0:
402,192,90550,1,2,0:0:0:0:
182,192,90550,1,0,0:0:0:0:
475,192,90712,1,0,0:0:0:0:
329,192,90712,1,0,0:0:0:0:
109,192,90712,1,2,0:0:0:0:
256,192,90792,1,0,0:0:0:0:
182,192,90792,1,0,0:0:0:0:
402,192,90873,1,0,0:0:0:0:
36,192,90873,1,2,0:0:0:0:
475,192,90873,1,0,0:0:0:0:
329,192,90954,1,0,0:0:0:0:
109,192,90954,1,0,0:0:0:0:
256,192,91034,1,0,0:0:0:0:
475,192,91034,1,2,0:0:0:0:
182,192,91034,1,0,0:0:0:0:
402,192,91115,1,0,0:0:0:0:
36,192,91115,1,0,0:0:0:0:
329,192,91195,1,0,0:0:0:0:
182,192,91195,1,2,0:0:0:0:
109,192,91195,1,0,0:0:0:0:
475,192,91276,1,0,0:0:0:0:
256,192,91276,1,0,0:0:0:0:
402,192,91357,1,0,0:0:0:0:
329,192,91357,1,0,0:0:0:0:
36,192,91357,1,2,0:0:0:0:
182,192,91437,1,0,0:0:0:0:
109,192,91437,1,0,0:0:0:0:
329,192,91518,1,0,0:0:0:0:
475,192,91518,1,4,0:0:0:0:
36,192,91518,1,2,0:0:0:0:
402,192,91518,1,0,0:0:0:0:
182,192,91599,1,0,0:0:0:0:
256,192,91599,1,0,0:0:0:0:
475,192,91679,1,0,0:0:0:0:
109,192,91679,1,2,0:0:0:0:
402,192,91679,1,0,0:0:0:0:
329,192,91760,1,0,0:0:0:0:
109,192,91841,1,2,0:0:0:0:
36,192,91841,1,0,0:0:0:0:
256,192,91841,1,0,0:0:0:0:
182,192,91921,1,0,0:0:0:0:
475,192,92002,1,0,0:0:0:0:
36,192,92002,1,2,0:0:0:0:
402,192,92002,1,0,0:0:0:0:
109,192,92083,1,0,0:0:0:0:
329,192,92083,1,0,0:0:0:0:
402,192,92163,1,0,0:0:0:0:
256,192,92163,1,0,0:0:0:0:
182,192,92163,1,2,0:0:0:0:
475,192,92244,1,0,0:0:0:0:
109,192,92325,1,0,0:0:0:0:
329,192,92325,1,0,0:0:0:0:
36,192,92325,1,2,0:0:0:0:
402,192,92405,1,0,0:0:0:0:
182,192,92405,1,0,0:0:0:0:
36,192,92486,1,2,0:0:0:0:
256,192,92486,1,0,0:0:0:0:
475,192,92486,1,0,0:0:0:0:
109,192,92566,1,0,0:0:0:0:
329,192,92566,1,2,0:0:0:0:
182,192,92647,1,2,0:0:0:0:
475,192,92647,1,0,0:0:0:0:
402,192,92647,1,0,0:0:0:0:
109,192,92728,1,2,0:0:0:0:
329,192,92728,1,0,0:0:0:0:
475,192,92808,1,0,0:0:0:0:
182,192,92808,1,0,0:0:0:0:
256,192,92808,1,2,0:0:0:0:
36,192,92808,1,8,0:0:0:0:
402,192,92889,1,0,0:0:0:0:
329,192,92889,1,0,0:0:0:0:
36,192,92970,1,2,0:0:0:0:
182,192,92970,1,0,0:0:0:0:
109,192,92970,1,0,0:0:0:0:
256,192,93050,1,0,0:0:0:0:
329,192,93131,1,0,0:0:0:0:
475,192,93131,1,0,0:0:0:0:
402,192,93131,1,2,0:0:0:0:
36,192,93212,1,0,0:0:0:0:
109,192,93212,1,0,0:0:0:0:
256,192,93292,1,0,0:0:0:0:
475,192,93292,1,2,0:0:0:0:
402,192,93292,1,0,0:0:0:0:
109,192,93373,1,0,0:0:0:0:
182,192,93373,1,0,0:0:0:0:
475,192,93454,1,2,0:0:0:0:
402,192,93454,1,8,0:0:0:0:
36,192,93454,1,0,0:0:0:0:
329,192,93454,1,0,0:0:0:0:
256,192,93534,1,0,0:0:0:0:
36,192,93615,1,0,0:0:0:0:
109,192,93615,1,0,0:0:0:0:
475,192,93615,1,2,0:0:0:0:
182,192,93695,1,0,0:0:0:0:
402,192,93695,1,0,0:0:0:0:
329,192,93776,1,2,0:0:0:0:
36,192,93776,1,0,0:0:0:0:
256,192,93776,1,0,0:0:0:0:
475,192,93857,1,0,0:0:0:0:
109,192,93857,1,0,0:0:0:0:
182,192,93937,1,0,0:0:0:0:
402,192,93937,1,2,0:0:0:0:
256,192,93937,1,0,0:0:0:0:
329,192,94018,1,0,0:0:0:0:
109,192,94018,1,0,0:0:0:0:
475,192,94099,1,2,0:0:0:0:
182,192,94099,1,0,0:0:0:0:
36,192,94099,1,0,0:0:0:0:
402,192,94099,1,8,0:0:0:0:
256,192,94179,1,0,0:0:0:0:
329,192,94179,1,0,0:0:0:0:
475,192,94260,1,2,0:0:0:0:
109,192,94260,1,0,0:0:0:0:
36,192,94260,1,0,0:0:0:0:
182,192,94341,1,0,0:0:0:0:
402,192,94341,1,0,0:0:0:0:
256,192,94421,1,0,0:0:0:0:
109,192,94421,1,0,0:0:0:0:
36,192,94421,1,8,0:0:0:0:
329,192,94421,1,2,0:0:0:0:
182,192,94502,1,0,0:0:0:0:
475,192,94502,1,0,0:0:0:0:
256,192,94583,1,0,0:0:0:0:
402,192,94583,1,2,0:0:0:0:
36,192,94583,1,0,0:0:0:0:
329,192,94663,1,0,0:0:0:0:
109,192,94663,1,0,0:0:0:0:
402,192,94744,1,8,0:0:0:0:
256,192,94744,1,0,0:0:0:0:
182,192,94744,1,0,0:0:0:0:
475,192,94744,1,2,0:0:0:0:
109,192,94825,1,0,0:0:0:0:
329,192,94825,1,0,0:0:0:0:
402,192,94905,1,2,0:0:0:0:
475,192,94905,1,0,0:0:0:0:
36,192,94905,1,0,0:0:0:0:
329,192,94986,1,0,0:0:0:0:
109,192,94986,1,0,0:0:0:0:
475,192,95066,1,0,0:0:0:0:
256,192,95066,1,0,0:0:0:0:
182,192,95066,1,0,0:0:0:0:
36,192,95066,1,2,0:0:0:0:
402,192,95147,1,0,0:0:0:0:
109,192,95147,1,2,0:0:0:0:
182,192,95228,1,2,0:0:0:0:
329,192,95228,1,0,0:0:0:0:
109,192,95308,1,2,0:0:0:0:
402,192,95308,1,0,0:0:0:0:
256,192,95389,1,0,0:0:0:0:
182,192,95389,1,2,0:0:0:0:
36,192,95389,1,8,0:0:0:0:
475,192,95389,1,0,0:0:0:0:
109,192,95550,1,0,0:0:0:0:
329,192,95550,1,2,0:0:0:0:
182,192,95631,1,0,0:0:0:0:
402,192,95631,1,0,0:0:0:0:
36,192,95712,1,0,0:0:0:0:
256,192,95712,1,2,0:0:0:0:
475,192,95712,1,0,0:0:0:0:
109,192,95792,1,0,0:0:0:0:
182,192,95873,1,2,0:0:0:0:
402,192,95873,1,0,0:0:0:0:
329,192,95873,1,0,0:0:0:0:
36,192,96034,1,0,0:0:0:0:
256,192,96034,1,0,0:0:0:0:
109,192,96034,1,2,0:0:0:0:
475,192,96034,1,8,0:0:0:0:
402,192,96115,1,0,0:0:0:0:
182,192,96115,1,0,0:0:0:0:
329,192,96195,1,0,0:0:0:0:
109,192,96195,1,2,0:0:0:0:
256,192,96276,1,0,0:0:0:0:
36,192,96357,1,0,0:0:0:0:
182,192,96357,1,2,0:0:0:0:
475,192,96357,1,0,0:0:0:0:
402,192,96437,1,0,0:0:0:0:
182,192,96518,1,0,0:0:0:0:
329,192,96518,1,0,0:0:0:0:
109,192,96518,1,2,0:0:0:0:
402,192,96679,1,0,0:0:0:0:
256,192,96679,1,0,0:0:0:0:
475,192,96679,1,8,0:0:0:0:
36,192,96679,1,2,0:0:0:0:
36,192,96841,1,2,0:0:0:0:
182,192,96841,1,0,0:0:0:0:
256,192,96921,1,0,0:0:0:0:
402,192,96921,1,0,0:0:0:0:
109,192,97002,1,2,0:0:0:0:
329,192,97002,1,0,0:0:0:0:
475,192,97002,1,0,0:0:0:0:
182,192,97083,1,0,0:0:0:0:
402,192,97163,1,0,0:0:0:0:
36,192,97163,1,2,0:0:0:0:
256,192,97163,1,0,0:0:0:0:
329,192,97325,1,8,0:0:0:0:
109,192,97325,1,2,0:0:0:0:
182,192,97325,1,0,0:0:0:0:
475,192,97325,1,0,0:0:0:0:
36,192,97405,1,0,0:0:0:0:
256,192,97405,1,0,0:0:0:0:
402,192,97486,1,0,0:0:0:0:
182,192,97486,1,2,0:0:0:0:
329,192,97566,1,0,0:0:0:0:
475,192,97647,1,0,0:0:0:0:
109,192,97647,1,2,0:0:0:0:
36,192,97647,1,0,0:0:0:0:
256,192,97728,1,2,0:0:0:0:
182,192,97728,1,0,0:0:0:0:
329,192,97808,1,2,0:0:0:0:
475,192,97808,128,0,97970:0:0:0:0:
402,192,97970,1,2,0:0:0:0:
182,192,97970,1,0,0:0:0:0:
36,192,97970,1,8,0:0:0:0:
256,192,98050,1,0,0:0:0:0:
109,192,98050,1,2,0:0:0:0:
329,192,98131,1,0,0:0:0:0:
182,192,98131,1,2,0:0:0:0:
256,192,98212,1,2,0:0:0:0:
402,192,98212,1,0,0:0:0:0:
475,192,98292,1,0,0:0:0:0:
329,192,98292,1,2,0:0:0:0:
109,192,98292,1,0,0:0:0:0:
256,192,98373,1,2,0:0:0:0:
36,192,98373,1,0,0:0:0:0:
402,192,98454,1,0,0:0:0:0:
182,192,98454,1,2,0:0:0:0:
109,192,98534,1,2,0:0:0:0:
329,192,98534,1,0,0:0:0:0:
475,192,98615,1,0,0:0:0:0:
256,192,98615,1,2,0:0:0:0:
36,192,98615,1,8,0:0:0:0:
109,192,98695,1,2,0:0:0:0:
402,192,98695,1,0,0:0:0:0:
329,192,98776,1,2,0:0:0:0:
182,192,98776,1,0,0:0:0:0:
256,192,98857,1,2,0:0:0:0:
36,192,98857,1,0,0:0:0:0:
475,192,98937,1,0,0:0:0:0:
329,192,98937,1,0,0:0:0:0:
109,192,98937,1,2,0:0:0:0:
402,192,99018,1,2,0:0:0:0:
182,192,99018,1,0,0:0:0:0:
36,192,99099,1,0,0:0:0:0:
256,192,99099,1,2,0:0:0:0:
109,192,99179,1,2,0:0:0:0:
329,192,99179,1,0,0:0:0:0:
182,192,99260,1,0,0:0:0:0:
402,192,99260,1,2,0:0:0:0:
475,192,99260,128,8,99421:0:0:0:0:
402,192,99421,1,2,0:0:0:0:
182,192,99421,1,0,0:0:0:0:
329,192,99502,1,2,0:0:0:0:
109,192,99502,1,0,0:0:0:0:
256,192,99583,1,2,0:0:0:0:
182,192,99583,128,0,99744:0:0:0:0:
36,192,99583,1,8,0:0:0:0:
256,192,99744,1,0,0:0:0:0:
36,192,99744,1,2,0:0:0:0:
109,192,99825,1,2,0:0:0:0:
329,192,99825,1,0,0:0:0:0:
402,192,99905,1,8,0:0:0:0:
182,192,99905,1,2,0:0:0:0:
475,192,99905,128,0,100066:0:0:0:0:
182,192,100066,1,2,0:0:0:0:
402,192,100066,1,0,0:0:0:0:
109,192,100147,1,2,0:0:0:0:
329,192,100147,1,0,0:0:0:0:
475,192,100228,1,8,0:0:0:0:
256,192,100228,1,2,0:0:0:0:
36,192,100228,128,0,100389:0:0:0:0:
475,192,100389,1,2,0:0:0:0:
256,192,100389,1,0,0:0:0:0:
402,192,100470,1,2,0:0:0:0:
182,192,100470,1,0,0:0:0:0:
475,192,100550,128,4,104421:0:0:0:0:
36,192,100550,128,0,101841:0:0:0:0:
109,192,100550,1,0,0:0:0:0:
329,192,100550,1,2,0:0:0:0:
402,192,101841,1,0,0:0:0:0:
182,192,101921,1,0,0:0:0:0:
182,192,102002,1,0,0:0:0:0:
329,192,102083,1,0,0:0:0:0:
256,192,102163,1,0,0:0:0:0:
109,192,102244,1,0,0:0:0:0:
109,192,102325,1,0,0:0:0:0:
256,192,102405,1,0,0:0:0:0:
182,192,102486,1,0,0:0:0:0:
36,192,102566,1,0,0:0:0:0:
36,192,102647,1,0,0:0:0:0:
182,192,102728,1,0,0:0:0:0:
256,192,102808,1,0,0:0:0:0:
402,192,102889,1,0,0:0:0:0:
402,192,102970,1,0,0:0:0:0:
109,192,103050,1,0,0:0:0:0:
182,192,103131,1,0,0:0:0:0:
329,192,103212,1,0,0:0:0:0:
329,192,103292,1,0,0:0:0:0:
36,192,103373,1,0,0:0:0:0:
109,192,103454,1,0,0:0:0:0:
256,192,103534,1,0,0:0:0:0:
256,192,103615,1,0,0:0:0:0:
402,192,103695,1,0,0:0:0:0:
329,192,103776,1,0,0:0:0:0:
182,192,103857,1,0,0:0:0:0:
182,192,103937,1,0,0:0:0:0:
329,192,104018,1,0,0:0:0:0:
256,192,104099,1,0,0:0:0:0:
109,192,104179,1,0,0:0:0:0:
109,192,104260,1,0,0:0:0:0:
182,192,104341,1,0,0:0:0:0:
256,192,104421,1,2,0:0:0:0:
36,192,104502,1,2,0:0:0:0:
329,192,104502,1,0,0:0:0:0:
109,192,104583,1,2,0:0:0:0:
402,192,104583,1,0,0:0:0:0:
182,192,104663,1,2,0:0:0:0:
475,192,104663,1,0,0:0:0:0:
256,192,104744,1,2,0:0:0:0:
182,192,104825,1,2,0:0:0:0:
109,192,104905,1,2,0:0:0:0:
402,192,104905,1,0,0:0:0:0:
36,192,104986,1,2,0:0:0:0:
329,192,104986,1,0,0:0:0:0:
256,192,105066,1,2,0:0:0:0:
182,192,105147,1,2,0:0:0:0:
475,192,105228,1,2,0:0:0:0:
109,192,105228,1,0,0:0:0:0:
182,192,105308,1,0,0:0:0:0:
402,192,105308,1,2,0:0:0:0:
475,192,105389,1,2,0:0:0:0:
329,192,105389,1,0,0:0:0:0:
36,192,105389,1,0,0:0:0:0:
256,192,105389,1,0,0:0:0:40:Crash.wav
109,192,105470,1,2,0:0:0:0:
182,192,105550,1,2,0:0:0:0:
256,192,105631,1,2,0:0:0:0:
109,192,105712,1,0,0:0:0:0:
475,192,105712,1,0,0:0:0:0:
36,192,105712,1,0,0:0:0:0:
402,192,105712,1,4,0:0:0:0:
329,192,105712,1,2,0:0:0:0:
36,192,105954,1,0,0:0:0:0:
475,192,105954,1,0,0:0:0:0:
109,192,105954,1,2,0:0:0:0:
182,192,105954,1,4,0:0:0:0:
402,192,105954,1,0,0:0:0:0:
329,192,106195,1,2,0:0:0:0:
475,192,106195,1,0,0:0:0:0:
402,192,106195,1,4,0:0:0:0:
109,192,106195,1,0,0:0:0:0:
36,192,106195,1,0,0:0:0:0:
182,192,106679,1,4,0:0:0:0:
329,192,106679,1,2,0:0:0:0:
36,192,106679,1,0,0:0:0:0:
402,192,106679,1,0,0:0:0:0:
109,192,106679,1,0,0:0:0:0:
182,192,106921,1,4,0:0:0:0:
329,192,106921,1,2,0:0:0:0:
109,192,106921,1,0,0:0:0:0:
402,192,106921,1,0,0:0:0:0:
475,192,106921,1,0,0:0:0:0:
36,192,107163,1,0,0:0:0:0:
329,192,107163,1,2,0:0:0:0:
402,192,107163,1,0,0:0:0:0:
182,192,107163,1,4,0:0:0:0:
109,192,107163,1,0,0:0:0:0:
475,192,107325,1,2,0:0:0:0:
402,192,107351,1,2,0:0:0:0:
329,192,107378,1,2,0:0:0:0:
256,192,107405,1,2,0:0:0:0:
182,192,107432,1,2,0:0:0:0:
109,192,107459,1,2,0:0:0:0:
36,192,107486,1,2,0:0:0:0:
475,192,107513,1,2,0:0:0:0:
402,192,107540,1,2,0:0:0:0:
329,192,107566,1,2,0:0:0:0:
256,192,107593,1,2,0:0:0:0:
182,192,107620,1,2,0:0:0:0:
36,192,107647,1,0,0:0:0:0:
402,192,107647,1,0,0:0:0:0:
475,192,107647,1,4,0:0:0:0:
109,192,107647,1,2,0:0:0:0:
329,192,107647,1,0,0:0:0:0:
402,192,107889,1,0,0:0:0:0:
329,192,107889,1,2,0:0:0:0:
182,192,107889,1,4,0:0:0:0:
109,192,107889,1,0,0:0:0:0:
36,192,107889,1,0,0:0:0:0:
109,192,108131,1,0,0:0:0:0:
475,192,108131,1,0,0:0:0:0:
182,192,108131,1,4,0:0:0:0:
329,192,108131,1,2,0:0:0:0:
402,192,108131,1,0,0:0:0:0:
402,192,108292,1,0,0:0:0:0:
109,192,108292,1,0,0:0:0:0:
36,192,108292,128,0,113454:0:0:0:0:
475,192,108292,128,0,113454:0:0:0:0:
329,192,108292,1,2,0:0:0:0:
182,192,108292,1,4,0:0:0:0:
