osu file format v14

[General]
AudioFilename: Fontana by BlackY.mp3
AudioLeadIn: 0
PreviewTime: 24714
Countdown: 0
SampleSet: Soft
StackLeniency: 0.7
Mode: 3
LetterboxInBreaks: 0
SpecialStyle: 0
WidescreenStoryboard: 1

[Editor]
DistanceSpacing: 1.2
BeatDivisor: 16
GridSize: 8
TimelineZoom: 1.3

[Metadata]
Title:Fontana Cut Ver.
TitleUnicode:Fontana Cut Ver.
Artist:BlackY
ArtistUnicode:BlackY
Creator:Doraemon
Version:Normal
Source:Classical Candy 3
Tags:m3 autumn 2015 c-09ab rttf record classical candy 3 romantic renaissance soundcloud chopin fantasie valentrixe
BeatmapID:2039153
BeatmapSetID:379731

[Difficulty]
HPDrainRate:8
CircleSize:4
OverallDifficulty:7
ApproachRate:5
SliderMultiplier:1.4
SliderTickRate:1

[Events]
//Background and Video events
0,0,"Dasar tukang intip.jpg",0,0
//Break Periods
//Storyboard Layer 0 (Background)
//Storyboard Layer 1 (Fail)
//Storyboard Layer 2 (Pass)
//Storyboard Layer 3 (Foreground)
//Storyboard Sound Samples

[TimingPoints]
-65,342.857142857143,4,2,1,30,1,0
24620,-100,4,2,1,30,0,1
35592,-100,4,2,1,30,0,0
52049,-100,4,2,1,30,0,1
68506,-100,4,2,1,30,0,0

[HitObjects]
448,192,0,128,0,2677:2:2:0:0:
320,192,1992,128,0,2677:2:2:0:0:
192,192,2677,5,2,2:2:0:0:
64,192,2677,1,0,2:2:0:0:
320,192,3020,1,2,2:2:0:0:
192,192,3363,1,0,2:2:0:0:
448,192,3363,1,2,2:2:0:0:
64,192,3706,1,2,2:2:0:0:
192,192,4049,1,0,2:2:0:0:
320,192,4049,1,2,2:2:0:0:
448,192,4392,1,2,2:2:0:0:
320,192,4735,1,2,2:2:0:0:
64,192,4735,1,0,2:2:0:0:
192,192,5077,1,2,2:2:0:0:
448,192,5420,1,2,2:2:0:0:
64,192,5420,1,0,2:2:0:0:
64,192,5763,1,2,2:2:0:0:
192,192,6106,1,0,2:2:0:0:
448,192,6106,1,2,2:2:0:0:
320,192,6449,1,2,2:2:0:0:
448,192,6792,1,2,2:2:0:0:
64,192,6792,1,0,2:2:0:0:
192,192,7135,1,2,2:2:0:0:
64,192,7477,1,0,2:2:0:0:
320,192,7477,1,2,2:2:0:0:
64,192,7820,1,2,2:2:0:0:
192,192,7820,1,0,2:2:0:0:
448,192,7992,1,2,2:2:0:0:
320,192,7992,1,0,2:2:0:0:
64,192,8163,1,2,2:2:0:0:
192,192,8163,1,0,2:2:0:0:
192,192,8506,1,2,2:2:0:0:
320,192,8849,1,0,2:2:0:0:
64,192,8849,1,2,2:2:0:0:
448,192,9192,1,2,2:2:0:0:
192,192,9535,1,0,2:2:0:0:
320,192,9535,1,2,2:2:0:0:
64,192,9877,1,2,2:2:0:0:
448,192,10220,1,2,2:2:0:0:
192,192,10220,1,0,2:2:0:0:
320,192,10563,1,2,2:2:0:0:
448,192,10906,1,0,2:2:0:0:
64,192,10906,1,2,2:2:0:0:
192,192,11249,1,2,2:2:0:0:
448,192,11592,1,2,2:2:0:0:
320,192,11592,1,0,2:2:0:0:
320,192,11935,1,2,2:2:0:0:
192,192,12277,1,0,2:2:0:0:
64,192,12277,1,2,2:2:0:0:
448,192,12620,1,2,2:2:0:0:
320,192,12620,1,0,2:2:0:0:
448,192,12877,1,2,2:2:0:0:
320,192,12963,1,2,2:2:0:0:
64,192,13135,1,2,2:2:0:0:
192,192,13135,1,2,2:2:0:0:
448,192,13306,1,2,2:2:0:0:
320,192,13392,1,2,2:2:0:0:
192,192,13477,1,2,2:2:0:0:
64,192,13563,1,2,2:2:0:0:
448,192,13649,128,2,13992:2:2:0:0:
320,192,13649,1,0,2:2:0:0:
320,192,13992,128,2,14335:2:2:0:0:
192,192,13992,1,0,2:2:0:0:
192,192,14335,128,2,14677:2:2:0:0:
64,192,14335,1,0,2:2:0:0:
320,192,14677,128,2,15020:2:2:0:0:
448,192,14677,1,0,2:2:0:0:
64,192,15020,1,2,2:2:0:0:
192,192,15020,1,0,2:2:0:0:
192,192,15363,1,0,2:2:0:0:
320,192,15363,1,2,2:2:0:0:
448,192,15706,1,2,2:2:0:0:
192,192,15706,1,0,2:2:0:0:
448,192,16049,1,2,2:2:0:0:
64,192,16049,1,0,2:2:0:0:
320,192,16392,128,2,16735:2:2:0:0:
192,192,16392,1,0,2:2:0:0:
192,192,16735,128,2,17077:2:2:0:0:
448,192,16735,1,0,2:2:0:0:
64,192,17077,128,2,17420:2:2:0:0:
320,192,17077,1,0,2:2:0:0:
192,192,17420,128,2,17763:2:2:0:0:
448,192,17420,1,0,2:2:0:0:
448,192,17763,1,2,2:2:0:0:
320,192,17763,1,0,2:2:0:0:
192,192,17935,1,0,2:2:0:0:
64,192,17935,1,2,2:2:0:0:
448,192,18106,1,2,2:2:0:0:
320,192,18106,1,0,2:2:0:0:
192,192,18449,1,2,2:2:0:0:
320,192,18535,1,2,2:2:0:0:
448,192,18620,1,2,2:2:0:0:
320,192,18792,1,2,2:2:0:0:
64,192,18792,1,2,2:2:0:0:
192,192,18963,128,2,19135:2:2:0:0:
448,192,19135,128,2,19477:2:2:0:0:
320,192,19135,1,0,2:2:0:0:
320,192,19477,128,2,19820:2:2:0:0:
192,192,19477,1,0,2:2:0:0:
64,192,19820,128,2,20163:2:2:0:0:
192,192,19820,1,0,2:2:0:0:
192,192,20163,128,2,20506:2:2:0:0:
320,192,20163,1,0,2:2:0:0:
448,192,20506,1,2,2:2:0:0:
320,192,20506,1,0,2:2:0:0:
64,192,20849,1,2,2:2:0:0:
320,192,20849,1,0,2:2:0:0:
192,192,21192,1,2,2:2:0:0:
320,192,21192,1,0,2:2:0:0:
448,192,21535,1,2,2:2:0:0:
192,192,21535,1,0,2:2:0:0:
448,192,21877,1,2,2:2:0:0:
64,192,21877,1,0,2:2:0:0:
320,192,22220,1,0,2:2:0:0:
448,192,22563,1,2,2:2:0:0:
192,192,22563,1,0,2:2:0:0:
64,192,22906,128,2,23249:2:2:0:0:
192,192,22906,1,0,2:2:0:0:
448,192,23249,1,2,2:2:0:0:
320,192,23420,1,2,2:2:0:0:
192,192,23420,1,2,2:2:0:0:
64,192,23592,1,4,2:2:0:0:
448,192,23592,1,4,2:2:0:0:
64,192,23935,128,2,24620:2:2:0:0:
192,192,23935,1,2,2:2:0:0:
320,192,24277,1,2,2:2:0:0:
192,192,24620,1,4,2:2:0:0:
448,192,24620,1,4,2:2:0:0:
320,192,24792,1,0,2:2:0:0:
64,192,24963,1,2,2:2:0:0:
192,192,24963,1,0,2:2:0:0:
448,192,25135,1,0,2:2:0:0:
64,192,25306,1,0,2:2:0:0:
320,192,25306,1,0,2:2:0:0:
192,192,25477,1,0,2:2:0:0:
448,192,25649,1,0,2:2:0:0:
64,192,25649,1,2,2:2:0:0:
320,192,25820,1,0,2:2:0:0:
64,192,25992,1,0,2:2:0:0:
192,192,25992,1,0,2:2:0:0:
448,192,26163,1,0,2:2:0:0:
64,192,26335,1,0,2:2:0:0:
320,192,26335,1,2,2:2:0:0:
64,192,26506,1,0,2:2:0:0:
192,192,26677,1,2,2:2:0:0:
448,192,26677,1,0,2:2:0:0:
320,192,26849,1,0,2:2:0:0:
320,192,27020,1,0,2:2:0:0:
448,192,27020,1,2,2:2:0:0:
192,192,27192,1,0,2:2:0:0:
192,192,27363,1,0,2:2:0:0:
64,192,27363,1,2,2:2:0:0:
448,192,27535,1,0,2:2:0:0:
64,192,27706,1,2,2:2:0:0:
320,192,27706,1,0,2:2:0:0:
64,192,27877,1,0,2:2:0:0:
448,192,28049,1,2,2:2:0:0:
192,192,28049,1,0,2:2:0:0:
64,192,28220,1,0,2:2:0:0:
320,192,28392,1,2,2:2:0:0:
192,192,28392,1,0,2:2:0:0:
448,192,28563,1,0,2:2:0:0:
320,192,28735,1,0,2:2:0:0:
448,192,28735,1,2,2:2:0:0:
192,192,28906,1,0,2:2:0:0:
64,192,29077,1,2,2:2:0:0:
320,192,29077,1,0,2:2:0:0:
192,192,29249,1,0,2:2:0:0:
448,192,29420,1,2,2:2:0:0:
320,192,29420,1,0,2:2:0:0:
192,192,29677,1,2,2:2:0:0:
64,192,29677,1,0,2:2:0:0:
448,192,29935,1,2,2:2:0:0:
320,192,30020,1,2,2:2:0:0:
192,192,30106,1,0,2:2:0:0:
64,192,30106,1,2,2:2:0:0:
448,192,30277,1,0,2:2:0:0:
320,192,30449,1,0,2:2:0:0:
64,192,30449,1,2,2:2:0:0:
192,192,30620,1,0,2:2:0:0:
448,192,30792,1,2,2:2:0:0:
64,192,30792,1,0,2:2:0:0:
192,192,30963,1,0,2:2:0:0:
320,192,31135,1,0,2:2:0:0:
448,192,31135,1,2,2:2:0:0:
64,192,31306,1,2,2:2:0:0:
192,192,31392,1,2,2:2:0:0:
448,192,31477,1,2,2:2:0:0:
320,192,31477,1,0,2:2:0:0:
192,192,31649,1,2,2:2:0:0:
64,192,31820,1,0,2:2:0:0:
448,192,31820,1,2,2:2:0:0:
192,192,31992,128,2,32163:2:2:0:0:
320,192,32163,1,0,2:2:0:0:
448,192,32163,1,2,2:2:0:0:
192,192,32420,1,2,2:2:0:0:
64,192,32420,1,0,2:2:0:0:
448,192,32677,1,2,2:2:0:0:
320,192,32763,1,2,2:2:0:0:
64,192,32849,1,12,2:2:0:0:
192,192,32849,1,2,2:2:0:0:
320,192,33020,1,2,2:2:0:0:
192,192,33192,1,2,2:2:0:0:
64,192,33363,1,2,2:2:0:0:
320,192,33535,1,4,2:2:0:0:
192,192,33535,1,0,2:2:0:0:
448,192,33706,1,2,2:2:0:0:
320,192,33877,1,2,2:2:0:0:
192,192,34049,1,2,2:2:0:0:
448,192,34220,1,4,2:2:0:0:
320,192,34220,1,2,2:2:0:0:
192,192,34392,1,0,2:2:0:0:
320,192,34563,1,2,2:2:0:0:
64,192,34563,1,4,2:2:0:0:
448,192,34735,1,0,2:2:0:0:
192,192,34906,1,2,2:2:0:0:
320,192,34906,1,4,2:2:0:0:
64,192,35077,1,0,2:2:0:0:
192,192,35249,1,2,2:2:0:0:
448,192,35249,1,4,2:2:0:0:
320,192,35420,1,0,2:2:0:0:
64,192,35592,1,0,2:2:0:0:
448,192,35592,1,2,2:2:0:0:
320,192,35935,1,0,2:2:0:0:
64,192,36277,1,0,2:2:0:0:
192,192,36620,1,0,2:2:0:0:
64,192,36963,1,4,2:2:0:0:
320,192,36963,1,2,2:2:0:0:
320,192,37306,1,2,2:2:0:0:
192,192,37306,1,4,2:2:0:0:
192,192,37649,1,2,2:2:0:0:
448,192,37649,1,4,2:2:0:0:
64,192,37992,1,4,2:2:0:0:
320,192,37992,1,2,2:2:0:0:
320,192,38335,1,2,2:2:0:0:
448,192,38335,1,4,2:2:0:0:
192,192,38677,1,0,2:2:0:0:
64,192,39020,1,0,2:2:0:0:
320,192,39363,1,0,2:2:0:0:
192,192,39706,1,4,2:2:0:0:
448,192,39706,1,2,2:2:0:0:
448,192,40049,1,2,2:2:0:0:
64,192,40049,1,4,2:2:0:0:
448,192,40392,1,4,2:2:0:0:
192,192,40392,1,2,2:2:0:0:
64,192,40735,1,4,2:2:0:0:
320,192,40735,1,2,2:2:0:0:
448,192,41077,1,2,2:2:0:0:
320,192,41077,1,4,2:2:0:0:
192,192,41420,1,0,2:2:0:0:
64,192,41763,1,0,2:2:0:0:
448,192,42106,1,0,2:2:0:0:
64,192,42449,1,2,2:2:0:0:
192,192,42449,1,4,2:2:0:0:
320,192,42792,1,4,2:2:0:0:
64,192,42792,1,2,2:2:0:0:
192,192,43135,1,4,2:2:0:0:
320,192,43135,1,2,2:2:0:0:
448,192,43477,1,2,2:2:0:0:
192,192,43477,1,4,2:2:0:0:
64,192,43820,1,4,2:2:0:0:
448,192,43820,1,2,2:2:0:0:
64,192,44163,1,2,2:2:0:0:
192,192,44163,1,4,2:2:0:0:
448,192,44506,1,2,2:2:0:0:
320,192,44506,1,4,2:2:0:0:
448,192,44849,1,2,2:2:0:0:
192,192,44849,1,4,2:2:0:0:
320,192,45192,1,4,2:2:0:0:
64,192,45192,1,2,2:2:0:0:
192,192,45535,1,4,2:2:0:0:
320,192,45535,1,2,2:2:0:0:
192,192,45877,1,2,2:2:0:0:
64,192,45877,1,4,2:2:0:0:
448,192,46220,1,4,2:2:0:0:
64,192,46220,1,2,2:2:0:0:
448,192,46563,1,2,2:2:0:0:
320,192,46563,1,4,2:2:0:0:
320,192,46906,1,2,2:2:0:0:
192,192,46906,1,4,2:2:0:0:
192,192,47249,1,4,2:2:0:0:
64,192,47249,1,2,2:2:0:0:
448,192,47592,1,2,2:2:0:0:
320,192,47592,1,4,2:2:0:0:
320,192,47935,1,4,2:2:0:0:
192,192,47935,1,2,2:2:0:0:
64,192,48277,1,4,2:2:0:0:
320,192,48277,1,2,2:2:0:0:
192,192,48620,1,4,2:2:0:0:
448,192,48620,1,2,2:2:0:0:
64,192,48963,1,4,2:2:0:0:
192,192,48963,1,2,2:2:0:0:
448,192,49306,1,2,2:2:0:0:
320,192,49306,1,4,2:2:0:0:
320,192,49649,1,2,2:2:0:0:
192,192,49649,1,4,2:2:0:0:
192,192,49992,1,4,2:2:0:0:
448,192,49992,1,2,2:2:0:0:
320,192,50335,1,4,2:2:0:0:
64,192,50335,1,2,2:2:0:0:
448,192,50677,1,2,2:2:0:0:
320,192,50677,1,4,2:2:0:0:
64,192,51020,1,2,2:2:0:0:
192,192,51020,1,4,2:2:0:0:
320,192,51363,1,4,2:2:0:0:
64,192,51363,1,2,2:2:0:0:
192,192,51706,1,4,2:2:0:0:
448,192,51706,1,2,2:2:0:0:
64,192,52049,1,4,2:2:0:0:
448,192,52049,1,2,2:2:0:0:
192,192,52220,1,0,2:2:0:0:
320,192,52392,1,0,2:2:0:0:
448,192,52563,1,0,2:2:0:0:
320,192,52735,1,0,2:2:0:0:
192,192,52906,1,0,2:2:0:0:
64,192,53077,1,0,2:2:0:0:
192,192,53249,1,0,2:2:0:0:
64,192,53420,1,0,2:2:0:0:
320,192,53420,1,0,2:2:0:0:
448,192,53592,1,0,2:2:0:0:
320,192,53763,1,0,2:2:0:0:
192,192,53935,1,0,2:2:0:0:
64,192,54106,1,0,2:2:0:0:
192,192,54277,1,0,2:2:0:0:
320,192,54449,1,0,2:2:0:0:
448,192,54620,1,0,2:2:0:0:
320,192,54792,1,0,2:2:0:0:
192,192,54792,1,2,2:2:0:0:
64,192,54963,1,0,2:2:0:0:
192,192,55135,1,0,2:2:0:0:
320,192,55306,1,0,2:2:0:0:
448,192,55477,1,2,2:2:0:0:
320,192,55649,1,0,2:2:0:0:
192,192,55820,1,0,2:2:0:0:
64,192,55992,1,0,2:2:0:0:
448,192,56163,1,0,2:2:0:0:
192,192,56163,1,2,2:2:0:0:
320,192,56335,1,0,2:2:0:0:
192,192,56506,1,0,2:2:0:0:
320,192,56677,1,0,2:2:0:0:
192,192,56849,1,0,2:2:0:0:
64,192,57020,1,0,2:2:0:0:
448,192,57192,1,2,2:2:0:0:
192,192,57192,1,0,2:2:0:0:
320,192,57363,1,0,2:2:0:0:
64,192,57363,1,2,2:2:0:0:
448,192,57535,1,2,2:2:0:0:
192,192,57535,1,0,2:2:0:0:
64,192,57877,1,2,2:2:0:0:
320,192,58220,1,0,2:2:0:0:
192,192,58220,1,2,2:2:0:0:
448,192,58563,1,2,2:2:0:0:
192,192,58906,1,0,2:2:0:0:
64,192,58906,1,2,2:2:0:0:
320,192,59249,1,2,2:2:0:0:
448,192,59592,1,2,2:2:0:0:
192,192,59592,1,0,2:2:0:0:
64,192,59935,1,2,2:2:0:0:
320,192,60277,1,0,2:2:0:0:
448,192,60277,1,2,2:2:0:0:
320,192,60620,1,2,2:2:0:0:
192,192,60963,1,0,2:2:0:0:
64,192,60963,1,2,2:2:0:0:
192,192,61306,1,2,2:2:0:0:
64,192,61649,1,2,2:2:0:0:
320,192,61649,1,0,2:2:0:0:
64,192,61992,1,2,2:2:0:0:
448,192,62335,1,2,2:2:0:0:
320,192,62335,1,0,2:2:0:0:
192,192,62506,1,2,2:2:0:0:
320,192,62677,1,2,2:2:0:0:
448,192,62849,1,2,2:2:0:0:
64,192,63020,1,2,2:2:0:0:
192,192,63020,1,4,2:2:0:0:
320,192,63192,1,2,2:2:0:0:
448,192,63363,1,2,2:2:0:0:
320,192,63535,1,2,2:2:0:0:
192,192,63706,1,2,2:2:0:0:
64,192,63877,1,2,2:2:0:0:
320,192,64049,1,2,2:2:0:0:
192,192,64220,1,2,2:2:0:0:
320,192,64392,1,4,2:2:0:0:
64,192,64392,1,2,2:2:0:0:
448,192,64563,1,2,2:2:0:0:
320,192,64735,1,2,2:2:0:0:
192,192,64906,1,2,2:2:0:0:
64,192,65077,1,2,2:2:0:0:
192,192,65249,1,2,2:2:0:0:
320,192,65420,1,2,2:2:0:0:
448,192,65592,1,2,2:2:0:0:
64,192,65763,1,2,2:2:0:0:
192,192,65763,1,4,2:2:0:0:
320,192,66106,1,0,2:2:0:0:
192,192,66449,1,2,2:2:0:0:
64,192,66449,128,4,68506:2:2:0:0:
320,192,66620,1,0,2:2:0:0:
448,192,66792,1,0,2:2:0:0:
320,192,66963,1,0,2:2:0:0:
192,192,67135,1,0,2:2:0:0:
448,192,67306,1,0,2:2:0:0:
320,192,67477,1,0,2:2:0:0:
192,192,67649,1,0,2:2:0:0:
448,192,67820,1,0,2:2:0:0:
320,192,67992,1,0,2:2:0:0:
192,192,68163,1,0,2:2:0:0:
320,192,68335,1,0,2:2:0:0:
192,192,68506,1,2,2:2:0:0:
448,192,68506,1,2,2:2:0:0:
320,192,68849,1,2,2:2:0:0:
448,192,68849,1,4,2:2:0:0:
64,192,69020,1,0,2:2:0:0:
448,192,69192,1,2,2:2:0:0:
192,192,69192,1,4,2:2:0:0:
320,192,69363,1,0,2:2:0:0:
448,192,69535,1,2,2:2:0:0:
64,192,69535,1,4,2:2:0:0:
192,192,69706,1,0,2:2:0:0:
64,192,69877,1,2,2:2:0:0:
320,192,69877,1,4,2:2:0:0:
448,192,70049,1,0,2:2:0:0:
64,192,70220,1,4,2:2:0:0:
192,192,70220,1,2,2:2:0:0:
320,192,70392,1,0,2:2:0:0:
448,192,70563,1,2,2:2:0:0:
192,192,70563,1,4,2:2:0:0:
64,192,70735,1,0,2:2:0:0:
320,192,70906,1,4,2:2:0:0:
448,192,70906,1,2,2:2:0:0:
64,192,71077,1,4,2:2:0:0:
320,192,71249,1,2,2:2:0:0:
192,192,71249,1,2,2:2:0:0:
448,192,71420,1,4,2:2:0:0:
192,192,71592,1,2,2:2:0:0:
320,192,71592,1,2,2:2:0:0:
64,192,71763,1,4,2:2:0:0:
320,192,71935,1,0,2:2:0:0:
192,192,71935,1,2,2:2:0:0:
448,192,72106,1,4,2:2:0:0:
192,192,72277,1,2,2:2:0:0:
320,192,72277,1,0,2:2:0:0:
64,192,72449,1,4,2:2:0:0:
320,192,72620,1,2,2:2:0:0:
192,192,72620,1,0,2:2:0:0:
448,192,72792,1,4,2:2:0:0:
192,192,72963,1,2,2:2:0:0:
320,192,72963,1,0,2:2:0:0:
64,192,73135,1,4,2:2:0:0:
320,192,73306,128,2,73992:2:2:0:0:
192,192,73306,128,2,73992:2:2:0:0:
64,192,73992,1,4,2:2:0:0:
448,192,73992,1,4,2:2:0:0:
