osu file format v14

[General]
AudioFilename: audio.mp3
AudioLeadIn: 0
PreviewTime: 42980
Countdown: 0
SampleSet: Soft
StackLeniency: 0.7
Mode: 3
LetterboxInBreaks: 0
SpecialStyle: 0
WidescreenStoryboard: 0

[Editor]
Bookmarks: 356,21689,43022,64355,75022,91022,112355,132355,152355,164355,185689,196355,199022,212355,233689,244355,265689
DistanceSpacing: 1.2
BeatDivisor: 4
GridSize: 4
TimelineZoom: 1.8

[Metadata]
Title:Fontana
TitleUnicode:Fontana
Artist:BlackY
ArtistUnicode:BlackY
Creator:FAMoss
Version:Fantaisie Impromptu
Source:osu!
Tags:frederic frédéric fryderyk franciszek chopin op. 66 op.66 featured artist fa mappers' guild mg hardcore electronic instrumental piano GABRiELLA BlackY's BEATFLOOR AsterhYthm 2 -Another Lights- BYBF-0007 track 8 virtuoso pianist Fantaisie-Impromptu Fantazja-Impromptu
BeatmapID:2912700
BeatmapSetID:1413062

[Difficulty]
HPDrainRate:9.2
CircleSize:4
OverallDifficulty:8.6
ApproachRate:5
SliderMultiplier:1.4
SliderTickRate:1

[Events]
//Background and Video events
0,0,"pexels-matthias-cooper-580865.jpg",0,0
//Break Periods
//Storyboard Layer 0 (Background)
//Storyboard Layer 1 (Fail)
//Storyboard Layer 2 (Pass)
//Storyboard Layer 3 (Foreground)
//Storyboard Layer 4 (Overlay)
//Storyboard Sound Samples
Sample,102939,0,"LR_Snare Fast.wav",50
Sample,103522,0,"LR_Snare Fast.wav",50
Sample,103605,0,"LR_Snare Fast.wav",50
Sample,224272,0,"LR_Snare Fast.wav",50
Sample,224939,0,"LR_Snare Fast.wav",50
Sample,225105,0,"LR_Snare Fast.wav",50
Sample,225272,0,"LR_Snare Fast.wav",50

[TimingPoints]
356,333.333333333333,4,2,1,60,1,0
43022,-100,4,2,1,60,0,1
63022,-100,4,2,1,60,0,0
64355,-100,4,2,1,60,0,1
75022,-100,4,2,1,60,0,0
91022,-100,4,2,1,60,0,1
112355,-100,4,2,1,60,0,0
112439,-100,4,2,1,30,0,0
149689,-100,4,2,1,50,0,0
152355,-100,4,2,1,60,0,0
164355,-100,4,2,1,60,0,1
185689,-100,4,2,1,60,0,0
191022,-100,4,2,1,40,0,0
193689,-100,4,2,1,50,0,0
197689,-100,4,2,1,60,0,0
212355,-100,4,2,1,60,0,1
233689,-100,4,2,1,60,0,0
264355,-100,4,2,1,40,0,0

[HitObjects]
64,192,356,5,2,0:0:0:0:
320,192,356,1,4,0:0:0:0:
448,192,356,1,0,0:0:0:0:
192,192,439,1,0,0:0:0:0:
320,192,522,1,0,0:0:0:0:
192,192,605,1,0,0:0:0:0:
64,192,689,1,2,0:0:0:0:
448,192,689,1,0,0:0:0:0:
320,192,772,1,0,0:0:0:0:
192,192,855,1,0,0:0:0:0:
192,192,939,1,0,0:0:0:0:
320,192,1022,1,2,0:0:0:0:
448,192,1022,1,0,0:0:0:0:
64,192,1105,1,0,0:0:0:0:
320,192,1189,1,0,0:0:0:0:
192,192,1272,1,0,0:0:0:0:
64,192,1355,1,2,0:0:0:0:
448,192,1355,1,0,0:0:0:0:
320,192,1439,1,0,0:0:0:0:
192,192,1522,1,0,0:0:0:0:
192,192,1605,1,0,0:0:0:0:
64,192,1689,1,2,0:0:0:0:
448,192,1689,1,0,0:0:0:0:
320,192,1772,1,0,0:0:0:0:
192,192,1855,1,0,0:0:0:0:
320,192,1939,1,0,0:0:0:0:
64,192,2022,1,2,0:0:0:0:
448,192,2022,1,0,0:0:0:0:
192,192,2105,1,0,0:0:0:0:
320,192,2189,1,0,0:0:0:0:
320,192,2272,1,0,0:0:0:0:
64,192,2355,1,2,0:0:0:0:
192,192,2355,1,0,0:0:0:0:
448,192,2439,1,0,0:0:0:0:
192,192,2522,1,0,0:0:0:0:
320,192,2605,1,0,0:0:0:0:
64,192,2689,1,2,0:0:0:0:
448,192,2689,1,0,0:0:0:0:
192,192,2772,1,0,0:0:0:0:
320,192,2855,1,0,0:0:0:0:
320,192,2939,1,0,0:0:0:0:
64,192,3022,1,2,0:0:0:0:
448,192,3022,1,0,0:0:0:0:
192,192,3105,1,0,0:0:0:0:
320,192,3189,1,0,0:0:0:0:
192,192,3272,1,0,0:0:0:0:
64,192,3355,1,2,0:0:0:0:
448,192,3355,1,0,0:0:0:0:
320,192,3439,1,0,0:0:0:0:
64,192,3522,1,0,0:0:0:0:
64,192,3605,1,0,0:0:0:0:
320,192,3689,1,2,0:0:0:0:
448,192,3689,1,0,0:0:0:0:
192,192,3772,1,0,0:0:0:0:
320,192,3855,1,0,0:0:0:0:
192,192,3939,1,0,0:0:0:0:
64,192,4022,1,2,0:0:0:0:
448,192,4022,1,0,0:0:0:0:
320,192,4105,1,0,0:0:0:0:
192,192,4189,1,0,0:0:0:0:
192,192,4272,1,0,0:0:0:0:
64,192,4355,1,2,0:0:0:0:
448,192,4355,1,0,0:0:0:0:
320,192,4439,1,0,0:0:0:0:
192,192,4522,1,0,0:0:0:0:
320,192,4605,1,0,0:0:0:0:
64,192,4689,1,2,0:0:0:0:
448,192,4689,1,0,0:0:0:0:
192,192,4772,1,0,0:0:0:0:
448,192,4855,1,0,0:0:0:0:
448,192,4939,1,0,0:0:0:0:
64,192,5022,1,2,0:0:0:0:
192,192,5022,1,0,0:0:0:0:
320,192,5105,1,0,0:0:0:0:
192,192,5189,1,0,0:0:0:0:
320,192,5272,1,0,0:0:0:0:
64,192,5355,1,2,0:0:0:0:
448,192,5355,1,0,0:0:0:0:
192,192,5439,1,0,0:0:0:0:
320,192,5522,1,0,0:0:0:0:
320,192,5605,1,0,0:0:0:0:
64,192,5689,1,2,0:0:0:0:
448,192,5689,1,0,0:0:0:0:
192,192,5772,1,0,0:0:0:0:
320,192,5855,1,0,0:0:0:0:
192,192,5939,1,0,0:0:0:0:
64,192,6022,1,2,0:0:0:0:
448,192,6022,1,0,0:0:0:0:
320,192,6105,1,0,0:0:0:0:
192,192,6189,1,0,0:0:0:0:
192,192,6272,1,0,0:0:0:0:
320,192,6355,1,2,0:0:0:0:
448,192,6355,1,0,0:0:0:0:
64,192,6439,1,0,0:0:0:0:
320,192,6522,1,0,0:0:0:0:
192,192,6605,1,0,0:0:0:0:
64,192,6689,1,2,0:0:0:0:
448,192,6689,1,0,0:0:0:0:
320,192,6772,1,0,0:0:0:0:
192,192,6855,1,0,0:0:0:0:
192,192,6939,1,0,0:0:0:0:
64,192,7022,1,2,0:0:0:0:
448,192,7022,1,0,0:0:0:0:
320,192,7105,1,0,0:0:0:0:
192,192,7189,1,0,0:0:0:0:
320,192,7272,1,0,0:0:0:0:
64,192,7355,1,2,0:0:0:0:
448,192,7355,1,0,0:0:0:0:
192,192,7439,1,0,0:0:0:0:
320,192,7522,1,0,0:0:0:0:
320,192,7605,1,0,0:0:0:0:
64,192,7689,1,2,0:0:0:0:
192,192,7689,1,0,0:0:0:0:
448,192,7772,1,0,0:0:0:0:
192,192,7855,1,0,0:0:0:0:
320,192,7939,1,0,0:0:0:0:
64,192,8022,1,2,0:0:0:0:
448,192,8022,1,0,0:0:0:0:
192,192,8105,1,0,0:0:0:0:
320,192,8189,1,0,0:0:0:0:
320,192,8272,1,0,0:0:0:0:
64,192,8355,1,2,0:0:0:0:
448,192,8355,1,0,0:0:0:0:
192,192,8439,1,0,0:0:0:0:
320,192,8522,1,0,0:0:0:0:
192,192,8605,1,0,0:0:0:0:
64,192,8689,1,2,0:0:0:0:
448,192,8689,1,0,0:0:0:0:
320,192,8772,1,0,0:0:0:0:
64,192,8855,1,0,0:0:0:0:
64,192,8939,1,0,0:0:0:0:
320,192,9022,1,2,0:0:0:0:
448,192,9022,1,0,0:0:0:0:
192,192,9105,1,0,0:0:0:0:
320,192,9189,1,0,0:0:0:0:
192,192,9272,1,0,0:0:0:0:
64,192,9355,1,2,0:0:0:0:
448,192,9355,1,0,0:0:0:0:
320,192,9439,1,0,0:0:0:0:
192,192,9522,1,0,0:0:0:0:
192,192,9605,1,0,0:0:0:0:
64,192,9689,1,2,0:0:0:0:
448,192,9689,1,0,0:0:0:0:
320,192,9772,1,0,0:0:0:0:
192,192,9814,1,0,0:0:0:0:
64,192,9855,1,0,0:0:0:0:
320,192,9939,1,0,0:0:0:0:
64,192,10022,1,2,0:0:0:0:
448,192,10022,1,0,0:0:0:0:
192,192,10105,1,0,0:0:0:0:
448,192,10189,1,2,0:0:0:0:
320,192,10230,1,2,0:0:0:0:
192,192,10272,1,2,0:0:0:0:
64,192,10314,1,2,0:0:0:0:
320,192,10355,1,2,0:0:0:0:
448,192,10355,1,0,0:0:0:0:
64,192,10439,1,2,0:0:0:0:
192,192,10439,1,0,0:0:0:0:
448,192,10522,1,0,0:0:0:0:
64,192,10605,1,2,0:0:0:0:
192,192,10605,1,0,0:0:0:0:
320,192,10689,1,2,0:0:0:0:
448,192,10689,1,0,0:0:0:0:
192,192,10772,1,0,0:0:0:0:
64,192,10855,1,2,0:0:0:0:
448,192,10855,1,0,0:0:0:0:
320,192,10939,1,0,0:0:0:0:
64,192,11022,1,4,0:0:0:0:
192,192,11022,1,2,0:0:0:0:
448,192,11022,1,8,0:0:0:0:
320,192,11189,1,0,0:0:0:0:
192,192,11272,1,0,0:0:0:0:
64,192,11355,1,2,0:0:0:0:
320,192,11355,1,8,0:0:0:0:
448,192,11355,1,0,0:0:0:0:
448,192,11522,1,0,0:0:0:0:
320,192,11605,1,0,0:0:0:0:
64,192,11689,1,2,0:0:0:0:
192,192,11689,1,8,0:0:0:0:
448,192,11689,1,0,0:0:0:0:
320,192,11855,1,0,0:0:0:0:
192,192,11939,1,0,0:0:0:0:
64,192,12022,1,2,0:0:0:0:
320,192,12022,1,8,0:0:0:0:
448,192,12022,1,0,0:0:0:0:
448,192,12189,1,0,0:0:0:0:
192,192,12272,1,0,0:0:0:0:
64,192,12355,1,2,0:0:0:0:
320,192,12355,1,8,0:0:0:0:
448,192,12355,1,0,0:0:0:0:
192,192,12522,1,0,0:0:0:0:
320,192,12605,1,0,0:0:0:0:
64,192,12689,1,2,0:0:0:0:
192,192,12689,1,8,0:0:0:0:
448,192,12689,1,0,0:0:0:0:
64,192,12855,1,0,0:0:0:0:
192,192,12939,1,0,0:0:0:0:
64,192,13022,1,2,0:0:0:0:
320,192,13022,1,8,0:0:0:0:
448,192,13022,1,0,0:0:0:0:
192,192,13189,1,0,0:0:0:0:
320,192,13272,1,0,0:0:0:0:
64,192,13355,1,2,0:0:0:0:
192,192,13355,1,8,0:0:0:0:
448,192,13355,1,0,0:0:0:0:
64,192,13522,1,0,0:0:0:0:
320,192,13605,1,0,0:0:0:0:
64,192,13689,1,2,0:0:0:0:
192,192,13689,1,8,0:0:0:0:
448,192,13689,1,0,0:0:0:0:
320,192,13855,1,0,0:0:0:0:
192,192,13939,1,0,0:0:0:0:
64,192,14022,1,2,0:0:0:0:
320,192,14022,1,8,0:0:0:0:
448,192,14022,1,0,0:0:0:0:
448,192,14189,1,0,0:0:0:0:
320,192,14272,1,0,0:0:0:0:
64,192,14355,1,2,0:0:0:0:
192,192,14355,1,8,0:0:0:0:
448,192,14355,1,0,0:0:0:0:
320,192,14522,1,0,0:0:0:0:
192,192,14605,1,0,0:0:0:0:
64,192,14689,1,2,0:0:0:0:
320,192,14689,1,8,0:0:0:0:
448,192,14689,1,0,0:0:0:0:
448,192,14855,1,0,0:0:0:0:
192,192,14939,1,0,0:0:0:0:
64,192,15022,1,2,0:0:0:0:
320,192,15022,1,8,0:0:0:0:
448,192,15022,1,0,0:0:0:0:
192,192,15189,1,0,0:0:0:0:
320,192,15272,1,0,0:0:0:0:
64,192,15355,1,2,0:0:0:0:
192,192,15355,1,8,0:0:0:0:
448,192,15355,1,0,0:0:0:0:
64,192,15522,1,0,0:0:0:0:
192,192,15605,1,0,0:0:0:0:
64,192,15689,1,2,0:0:0:0:
320,192,15689,1,8,0:0:0:0:
448,192,15689,1,0,0:0:0:0:
192,192,15855,1,0,0:0:0:0:
320,192,15939,1,0,0:0:0:0:
64,192,16022,1,2,0:0:0:0:
192,192,16022,1,8,0:0:0:0:
448,192,16022,1,0,0:0:0:0:
64,192,16189,1,0,0:0:0:0:
320,192,16272,1,0,0:0:0:0:
64,192,16355,1,2,0:0:0:0:
192,192,16355,1,8,0:0:0:0:
448,192,16355,1,0,0:0:0:0:
192,192,16522,1,8,0:0:0:0:
320,192,16522,1,0,0:0:0:0:
448,192,16522,1,0,0:0:0:0:
64,192,16689,1,2,0:0:0:0:
320,192,16689,1,8,0:0:0:0:
448,192,16689,1,0,0:0:0:0:
64,192,16855,1,8,0:0:0:0:
192,192,16855,1,0,0:0:0:0:
320,192,16855,1,0,0:0:0:0:
64,192,17022,1,2,0:0:0:0:
192,192,17022,1,8,0:0:0:0:
448,192,17022,1,0,0:0:0:0:
192,192,17189,1,8,0:0:0:0:
320,192,17189,1,0,0:0:0:0:
448,192,17189,1,0,0:0:0:0:
64,192,17355,1,2,0:0:0:0:
320,192,17355,1,8,0:0:0:0:
448,192,17355,1,0,0:0:0:0:
64,192,17522,1,8,0:0:0:0:
192,192,17522,1,0,0:0:0:0:
320,192,17522,1,0,0:0:0:0:
64,192,17689,1,2,0:0:0:0:
192,192,17689,1,8,0:0:0:0:
448,192,17689,1,0,0:0:0:0:
192,192,17855,1,8,0:0:0:0:
320,192,17855,1,0,0:0:0:0:
448,192,17855,1,0,0:0:0:0:
64,192,18022,1,2,0:0:0:0:
320,192,18022,1,8,0:0:0:0:
448,192,18022,1,0,0:0:0:0:
64,192,18189,1,8,0:0:0:0:
192,192,18189,1,0,0:0:0:0:
320,192,18189,1,0,0:0:0:0:
64,192,18355,1,2,0:0:0:0:
192,192,18355,1,8,0:0:0:0:
448,192,18355,1,0,0:0:0:0:
192,192,18522,1,8,0:0:0:0:
320,192,18522,1,0,0:0:0:0:
448,192,18522,1,0,0:0:0:0:
64,192,18689,1,2,0:0:0:0:
320,192,18689,1,8,0:0:0:0:
448,192,18689,1,0,0:0:0:0:
64,192,18855,1,8,0:0:0:0:
192,192,18855,1,0,0:0:0:0:
320,192,18855,1,0,0:0:0:0:
64,192,19022,1,2,0:0:0:0:
448,192,19022,1,8,0:0:0:0:
320,192,19105,1,8,0:0:0:0:
192,192,19189,1,8,0:0:0:0:
320,192,19272,1,8,0:0:0:0:
64,192,19355,1,2,0:0:0:0:
448,192,19355,1,8,0:0:0:0:
192,192,19439,1,8,0:0:0:0:
320,192,19522,1,8,0:0:0:0:
64,192,19605,1,8,0:0:0:0:
192,192,19605,1,2,0:0:0:0:
320,192,19689,1,2,0:0:0:0:
448,192,19689,1,8,0:0:0:0:
192,192,19772,1,8,0:0:0:0:
64,192,19855,1,8,0:0:0:0:
448,192,19855,1,2,0:0:0:0:
320,192,19939,1,8,0:0:0:0:
64,192,20022,1,2,0:0:0:0:
192,192,20022,1,8,0:0:0:0:
320,192,20105,1,8,0:0:0:0:
448,192,20105,1,2,0:0:0:0:
192,192,20189,1,8,0:0:0:0:
64,192,20189,1,2,0:0:0:0:
320,192,20272,1,8,0:0:0:0:
448,192,20272,1,0,0:0:0:0:
192,192,20355,1,8,0:0:0:0:
64,192,20355,1,0,0:0:0:0:
448,192,20439,1,8,0:0:0:0:
320,192,20439,1,0,0:0:0:0:
192,192,20522,1,8,0:0:0:0:
64,192,20522,1,0,0:0:0:0:
448,192,20605,1,8,0:0:0:0:
320,192,20605,1,0,0:0:0:0:
64,192,20689,1,8,0:0:0:0:
192,192,20689,1,0,0:0:0:0:
320,192,20772,1,8,0:0:0:0:
448,192,20772,1,0,0:0:0:0:
64,192,20855,1,8,0:0:0:0:
192,192,20855,1,0,0:0:0:0:
320,192,20939,1,8,0:0:0:0:
448,192,20939,1,0,0:0:0:0:
192,192,21022,1,8,0:0:0:0:
64,192,21022,1,0,0:0:0:0:
320,192,21064,1,8,0:0:0:0:
448,192,21105,1,8,0:0:0:0:
64,192,21147,1,8,0:0:0:0:
192,192,21189,1,8,0:0:0:0:
448,192,21230,1,8,0:0:0:0:
320,192,21272,1,8,0:0:0:0:
192,192,21314,1,8,0:0:0:0:
64,192,21355,1,8,0:0:0:0:
448,192,21397,1,8,0:0:0:0:
320,192,21439,1,8,0:0:0:0:
64,192,21480,1,8,0:0:0:0:
192,192,21522,1,8,0:0:0:0:
320,192,21564,1,8,0:0:0:0:
448,192,21605,1,8,0:0:0:0:
192,192,21647,1,8,0:0:0:0:
64,192,21689,1,2,0:0:0:0:
320,192,21689,1,4,0:0:0:0:
448,192,21689,1,0,0:0:0:70:wind.wav
192,192,21855,1,0,0:0:0:0:
320,192,21939,1,0,0:0:0:0:
64,192,22022,1,2,0:0:0:0:
192,192,22022,1,0,0:0:0:0:
448,192,22022,1,0,0:0:0:0:
320,192,22189,1,0,0:0:0:0:
192,192,22272,1,0,0:0:0:0:
64,192,22355,1,2,0:0:0:0:
448,192,22355,1,0,0:0:0:0:
192,192,22522,1,0,0:0:0:0:
320,192,22605,1,0,0:0:0:0:
64,192,22689,1,2,0:0:0:0:
192,192,22689,1,0,0:0:0:0:
448,192,22689,1,0,0:0:0:0:
320,192,22855,1,0,0:0:0:0:
192,192,22939,1,0,0:0:0:0:
64,192,23022,1,2,0:0:0:0:
448,192,23022,1,0,0:0:0:0:
192,192,23189,1,0,0:0:0:0:
320,192,23272,1,0,0:0:0:0:
64,192,23355,1,2,0:0:0:0:
192,192,23355,1,0,0:0:0:0:
448,192,23355,1,0,0:0:0:0:
320,192,23522,1,0,0:0:0:0:
192,192,23605,1,0,0:0:0:0:
64,192,23689,1,2,0:0:0:0:
448,192,23689,1,0,0:0:0:0:
192,192,23855,1,0,0:0:0:0:
320,192,23939,1,0,0:0:0:0:
64,192,24022,1,2,0:0:0:0:
192,192,24022,1,0,0:0:0:0:
448,192,24022,1,0,0:0:0:0:
320,192,24189,1,0,0:0:0:0:
192,192,24272,1,0,0:0:0:0:
64,192,24355,1,2,0:0:0:0:
448,192,24355,1,0,0:0:0:0:
192,192,24522,1,0,0:0:0:0:
320,192,24605,1,0,0:0:0:0:
64,192,24689,1,2,0:0:0:0:
192,192,24689,1,0,0:0:0:0:
448,192,24689,1,0,0:0:0:0:
320,192,24855,1,0,0:0:0:0:
192,192,24939,1,0,0:0:0:0:
64,192,25022,1,2,0:0:0:0:
448,192,25022,1,0,0:0:0:0:
192,192,25189,1,0,0:0:0:0:
320,192,25272,1,0,0:0:0:0:
64,192,25355,1,2,0:0:0:0:
192,192,25355,1,0,0:0:0:0:
448,192,25355,1,0,0:0:0:0:
320,192,25522,1,0,0:0:0:0:
192,192,25605,1,0,0:0:0:0:
64,192,25689,1,2,0:0:0:0:
448,192,25689,1,0,0:0:0:0:
192,192,25855,1,0,0:0:0:0:
320,192,25939,1,0,0:0:0:0:
64,192,26022,1,2,0:0:0:0:
192,192,26022,1,0,0:0:0:0:
448,192,26022,1,0,0:0:0:0:
448,192,26189,1,0,0:0:0:0:
320,192,26272,1,0,0:0:0:0:
64,192,26355,1,2,0:0:0:0:
192,192,26355,1,0,0:0:0:0:
320,192,26522,1,0,0:0:0:0:
192,192,26605,1,0,0:0:0:0:
64,192,26689,1,2,0:0:0:0:
320,192,26689,1,0,0:0:0:0:
448,192,26689,1,0,0:0:0:0:
192,192,26855,1,0,0:0:0:0:
320,192,26939,1,0,0:0:0:0:
64,192,27022,1,2,0:0:0:0:
448,192,27022,1,0,0:0:0:0:
320,192,27189,1,0,0:0:0:0:
192,192,27272,1,0,0:0:0:0:
64,192,27355,1,2,0:0:0:0:
320,192,27355,1,0,0:0:0:0:
448,192,27355,1,0,0:0:0:0:
192,192,27522,1,0,0:0:0:0:
320,192,27605,1,0,0:0:0:0:
64,192,27689,1,2,0:0:0:0:
448,192,27689,1,0,0:0:0:0:
320,192,27855,1,0,0:0:0:0:
192,192,27939,1,0,0:0:0:0:
64,192,28022,1,2,0:0:0:0:
320,192,28022,1,0,0:0:0:0:
448,192,28022,1,0,0:0:0:0:
192,192,28189,1,0,0:0:0:0:
320,192,28272,1,0,0:0:0:0:
64,192,28355,1,2,0:0:0:0:
448,192,28355,1,0,0:0:0:0:
320,192,28522,1,0,0:0:0:0:
192,192,28605,1,0,0:0:0:0:
64,192,28689,1,2,0:0:0:0:
320,192,28689,1,0,0:0:0:0:
448,192,28689,1,0,0:0:0:0:
192,192,28855,1,0,0:0:0:0:
320,192,28939,1,0,0:0:0:0:
64,192,29022,1,2,0:0:0:0:
448,192,29022,1,0,0:0:0:0:
320,192,29189,1,0,0:0:0:0:
192,192,29272,1,0,0:0:0:0:
64,192,29355,1,2,0:0:0:0:
320,192,29355,1,0,0:0:0:0:
448,192,29355,1,0,0:0:0:0:
192,192,29522,1,0,0:0:0:0:
320,192,29605,1,0,0:0:0:0:
64,192,29689,1,2,0:0:0:0:
448,192,29689,1,0,0:0:0:0:
320,192,29855,1,0,0:0:0:0:
192,192,29939,1,0,0:0:0:0:
64,192,30022,1,2,0:0:0:0:
320,192,30022,1,0,0:0:0:0:
448,192,30022,1,0,0:0:0:0:
192,192,30189,1,0,0:0:0:0:
320,192,30272,1,0,0:0:0:0:
64,192,30355,1,2,0:0:0:0:
448,192,30355,1,0,0:0:0:0:
320,192,30522,1,0,0:0:0:0:
192,192,30605,1,0,0:0:0:0:
64,192,30689,1,2,0:0:0:0:
320,192,30689,1,0,0:0:0:0:
448,192,30689,1,0,0:0:0:0:
192,192,30855,1,0,0:0:0:0:
320,192,30939,1,0,0:0:0:0:
64,192,31022,1,2,0:0:0:0:
448,192,31022,1,0,0:0:0:0:
320,192,31189,1,0,0:0:0:0:
192,192,31272,1,0,0:0:0:0:
64,192,31355,1,2,0:0:0:0:
320,192,31355,1,0,0:0:0:0:
448,192,31355,1,0,0:0:0:0:
64,192,31522,1,0,0:0:0:0:
192,192,31605,1,0,0:0:0:0:
320,192,31689,1,2,0:0:0:0:
448,192,31689,1,0,0:0:0:0:
64,192,31772,1,0,0:0:0:0:
448,192,31855,1,0,0:0:0:0:
64,192,31939,1,2,0:0:0:0:
192,192,31939,1,0,0:0:0:0:
448,192,32022,1,0,0:0:0:0:
64,192,32105,1,0,0:0:0:0:
320,192,32189,1,2,0:0:0:0:
448,192,32189,1,0,0:0:0:0:
192,192,32272,1,0,0:0:0:0:
64,192,32355,1,8,0:0:0:0:
320,192,32355,1,2,0:0:0:0:
448,192,32355,1,4,0:0:0:0:
192,192,32522,1,2,0:0:0:0:
320,192,32522,1,0,0:0:0:0:
64,192,32689,1,8,0:0:0:0:
192,192,32689,1,2,0:0:0:0:
448,192,32689,1,0,0:0:0:0:
320,192,32855,1,2,0:0:0:0:
448,192,32855,1,0,0:0:0:0:
64,192,33022,1,8,0:0:0:0:
192,192,33022,1,2,0:0:0:0:
320,192,33022,1,0,0:0:0:0:
64,192,33189,1,2,0:0:0:0:
448,192,33189,1,0,0:0:0:0:
192,192,33355,1,8,0:0:0:0:
320,192,33355,1,2,0:0:0:0:
448,192,33355,1,0,0:0:0:0:
64,192,33522,1,2,0:0:0:0:
320,192,33522,1,0,0:0:0:0:
64,192,33689,1,8,0:0:0:0:
192,192,33689,1,2,0:0:0:0:
448,192,33689,1,0,0:0:0:0:
192,192,33855,1,2,0:0:0:0:
320,192,33855,1,0,0:0:0:0:
64,192,34022,1,8,0:0:0:0:
320,192,34022,1,2,0:0:0:0:
448,192,34022,1,0,0:0:0:0:
64,192,34189,1,2,0:0:0:0:
192,192,34189,1,0,0:0:0:0:
192,192,34355,1,8,0:0:0:0:
320,192,34355,1,2,0:0:0:0:
448,192,34355,1,0,0:0:0:0:
64,192,34522,1,2,0:0:0:0:
448,192,34522,1,0,0:0:0:0:
64,192,34689,1,8,0:0:0:0:
192,192,34689,1,2,0:0:0:0:
320,192,34689,1,0,0:0:0:0:
192,192,34855,1,2,0:0:0:0:
448,192,34855,1,0,0:0:0:0:
64,192,35022,1,8,0:0:0:0:
320,192,35022,1,2,0:0:0:0:
448,192,35022,1,4,0:0:0:0:
192,192,35189,1,2,0:0:0:0:
320,192,35189,1,0,0:0:0:0:
64,192,35355,1,8,0:0:0:0:
192,192,35355,1,2,0:0:0:0:
448,192,35355,1,0,0:0:0:0:
320,192,35522,1,2,0:0:0:0:
448,192,35522,1,0,0:0:0:0:
64,192,35689,1,8,0:0:0:0:
192,192,35689,1,2,0:0:0:0:
320,192,35689,1,0,0:0:0:0:
64,192,35855,1,2,0:0:0:0:
448,192,35855,1,0,0:0:0:0:
192,192,36022,1,8,0:0:0:0:
320,192,36022,1,2,0:0:0:0:
448,192,36022,1,0,0:0:0:0:
64,192,36189,1,2,0:0:0:0:
320,192,36189,1,0,0:0:0:0:
64,192,36355,1,8,0:0:0:0:
192,192,36355,1,2,0:0:0:0:
448,192,36355,1,0,0:0:0:0:
192,192,36522,1,2,0:0:0:0:
320,192,36522,1,0,0:0:0:0:
64,192,36689,1,8,0:0:0:0:
320,192,36689,1,2,0:0:0:0:
448,192,36689,1,0,0:0:0:0:
64,192,36855,1,2,0:0:0:0:
192,192,36855,1,0,0:0:0:0:
320,192,37022,1,8,0:0:0:0:
448,192,37022,1,2,0:0:0:0:
64,192,37105,1,2,0:0:0:0:
192,192,37105,1,0,0:0:0:0:
320,192,37189,1,0,0:0:0:0:
64,192,37272,1,2,0:0:0:0:
192,192,37272,1,0,0:0:0:0:
320,192,37355,1,8,0:0:0:0:
448,192,37355,1,2,0:0:0:0:
192,192,37522,1,2,0:0:0:0:
64,192,37522,1,0,0:0:0:0:
64,192,37689,1,8,0:0:0:0:
448,192,37689,1,4,0:0:0:0:
320,192,37689,1,2,0:0:0:0:
192,192,37772,1,2,0:0:0:0:
320,192,37855,1,8,0:0:0:0:
448,192,37855,1,2,0:0:0:0:
64,192,37939,1,2,0:0:0:0:
192,192,37939,1,0,0:0:0:0:
320,192,38022,1,8,0:0:0:0:
448,192,38022,1,2,0:0:0:0:
64,192,38105,1,2,0:0:0:0:
192,192,38105,1,0,0:0:0:0:
320,192,38189,1,8,0:0:0:0:
448,192,38189,1,2,0:0:0:0:
64,192,38272,1,2,0:0:0:0:
192,192,38272,1,0,0:0:0:0:
320,192,38355,1,10,0:0:0:0:
448,192,38355,1,4,0:0:0:0:
64,192,38439,1,2,0:0:0:0:
192,192,38439,1,0,0:0:0:0:
320,192,38522,1,8,0:0:0:0:
448,192,38522,1,2,0:0:0:0:
64,192,38605,1,2,0:0:0:0:
192,192,38605,1,0,0:0:0:0:
320,192,38689,1,8,0:0:0:0:
448,192,38689,1,2,0:0:0:0:
64,192,38772,1,2,0:0:0:0:
192,192,38772,1,0,0:0:0:0:
320,192,38855,1,8,0:0:0:0:
448,192,38855,1,2,0:0:0:0:
192,192,38939,1,2,0:0:0:0:
64,192,39022,1,8,0:0:0:0:
448,192,39022,1,4,0:0:0:0:
320,192,39022,1,2,0:0:0:0:
192,192,39105,1,2,0:0:0:0:
320,192,39189,1,2,0:0:0:0:
448,192,39189,1,8,0:0:0:0:
64,192,39272,1,2,0:0:0:0:
192,192,39272,1,0,0:0:0:0:
320,192,39355,1,6,0:0:0:0:
448,192,39355,1,8,0:0:0:0:
64,192,39439,1,2,0:0:0:0:
192,192,39439,1,0,0:0:0:0:
320,192,39522,1,2,0:0:0:0:
448,192,39522,1,8,0:0:0:0:
64,192,39605,1,2,0:0:0:0:
192,192,39605,1,0,0:0:0:0:
320,192,39689,1,6,0:0:0:0:
448,192,39689,1,8,0:0:0:0:
64,192,39772,1,2,0:0:0:0:
192,192,39772,1,0,0:0:0:0:
320,192,39855,1,2,0:0:0:0:
448,192,39855,1,8,0:0:0:0:
64,192,39939,1,2,0:0:0:0:
192,192,39939,1,0,0:0:0:0:
320,192,40022,1,10,0:0:0:0:
448,192,40022,1,4,0:0:0:0:
64,192,40105,1,2,0:0:0:0:
192,192,40105,1,0,0:0:0:0:
320,192,40189,1,8,0:0:0:0:
448,192,40189,1,2,0:0:0:0:
64,192,40272,1,2,0:0:0:0:
192,192,40272,1,0,0:0:0:0:
320,192,40355,128,2,42355:0:0:0:0:
448,192,40355,1,0,0:0:0:0:
64,192,42355,1,0,0:0:0:0:
192,192,42467,1,0,0:0:0:0:
448,192,42522,1,0,0:0:0:0:
320,192,42633,1,0,0:0:0:0:
64,192,42689,1,0,0:0:0:0:
192,192,42772,1,0,0:0:0:0:
320,192,42855,1,0,0:0:0:0:
64,192,43022,1,2,0:0:0:0:
192,192,43022,1,4,0:0:0:0:
448,192,43022,1,0,0:0:0:70:wind.wav
320,192,43105,1,0,0:0:0:0:
192,192,43189,1,0,0:0:0:0:
320,192,43272,1,0,0:0:0:0:
64,192,43355,1,2,0:0:0:0:
448,192,43355,1,0,0:0:0:0:
192,192,43439,1,0,0:0:0:0:
448,192,43522,1,0,0:0:0:0:
320,192,43605,1,0,0:0:0:0:
64,192,43689,1,2,0:0:0:0:
192,192,43689,1,0,0:0:0:0:
320,192,43772,1,0,0:0:0:0:
192,192,43855,1,0,0:0:0:0:
320,192,43939,1,0,0:0:0:0:
64,192,44022,1,2,0:0:0:0:
448,192,44022,1,0,0:0:0:0:
192,192,44105,1,0,0:0:0:0:
320,192,44189,1,0,0:0:0:0:
448,192,44272,1,0,0:0:0:0:
64,192,44355,1,2,0:0:0:0:
192,192,44355,1,0,0:0:0:0:
320,192,44439,1,0,0:0:0:0:
192,192,44522,1,0,0:0:0:0:
320,192,44605,1,0,0:0:0:0:
64,192,44689,1,2,0:0:0:0:
448,192,44689,1,0,0:0:0:0:
192,192,44772,1,0,0:0:0:0:
448,192,44855,1,0,0:0:0:0:
320,192,44939,1,0,0:0:0:0:
64,192,45022,1,2,0:0:0:0:
192,192,45022,1,0,0:0:0:0:
320,192,45105,1,0,0:0:0:0:
192,192,45189,1,0,0:0:0:0:
320,192,45272,1,0,0:0:0:0:
64,192,45355,1,2,0:0:0:0:
448,192,45355,1,0,0:0:0:0:
192,192,45439,1,0,0:0:0:0:
320,192,45522,1,0,0:0:0:0:
448,192,45605,1,0,0:0:0:0:
64,192,45689,1,2,0:0:0:0:
192,192,45689,1,0,0:0:0:0:
320,192,45772,1,0,0:0:0:0:
64,192,45855,1,0,0:0:0:0:
192,192,45939,1,0,0:0:0:0:
320,192,46022,1,2,0:0:0:0:
448,192,46022,1,0,0:0:0:0:
192,192,46105,1,0,0:0:0:0:
448,192,46189,1,0,0:0:0:0:
320,192,46272,1,0,0:0:0:0:
64,192,46355,1,2,0:0:0:0:
192,192,46355,1,0,0:0:0:0:
448,192,46439,1,0,0:0:0:0:
64,192,46522,1,0,0:0:0:0:
320,192,46605,1,0,0:0:0:0:
64,192,46689,1,2,0:0:0:0:
448,192,46689,1,0,0:0:0:0:
192,192,46772,1,0,0:0:0:0:
448,192,46855,1,0,0:0:0:0:
64,192,46939,1,0,0:0:0:0:
320,192,47022,1,2,0:0:0:0:
448,192,47022,1,0,0:0:0:0:
192,192,47105,1,0,0:0:0:0:
320,192,47189,1,0,0:0:0:0:
448,192,47272,1,0,0:0:0:0:
64,192,47355,1,2,0:0:0:0:
192,192,47355,1,0,0:0:0:0:
320,192,47439,1,0,0:0:0:0:
192,192,47522,1,0,0:0:0:0:
64,192,47605,1,0,0:0:0:0:
320,192,47689,1,2,0:0:0:0:
448,192,47689,1,0,0:0:0:0:
192,192,47772,1,0,0:0:0:0:
448,192,47855,1,0,0:0:0:0:
320,192,47939,1,0,0:0:0:0:
64,192,48022,1,2,0:0:0:0:
192,192,48022,1,0,0:0:0:0:
320,192,48105,1,0,0:0:0:0:
192,192,48189,1,2,0:0:0:0:
64,192,48189,1,0,0:0:0:0:
320,192,48272,1,0,0:0:0:0:
64,192,48355,1,2,0:0:0:0:
448,192,48355,1,0,0:0:0:0:
192,192,48439,1,0,0:0:0:0:
320,192,48522,1,0,0:0:0:0:
192,192,48605,1,0,0:0:0:0:
64,192,48689,1,2,0:0:0:0:
448,192,48689,1,0,0:0:0:0:
320,192,48772,1,0,0:0:0:0:
64,192,48855,1,0,0:0:0:0:
192,192,48939,1,0,0:0:0:0:
320,192,49022,1,2,0:0:0:0:
448,192,49022,1,0,0:0:0:0:
192,192,49105,1,0,0:0:0:0:
320,192,49189,1,0,0:0:0:0:
192,192,49272,1,0,0:0:0:0:
64,192,49355,1,2,0:0:0:0:
448,192,49355,1,0,0:0:0:0:
320,192,49439,1,0,0:0:0:0:
192,192,49522,1,0,0:0:0:0:
64,192,49605,1,0,0:0:0:0:
320,192,49689,1,2,0:0:0:0:
448,192,49689,1,0,0:0:0:0:
192,192,49772,1,0,0:0:0:0:
320,192,49855,1,0,0:0:0:0:
192,192,49939,1,0,0:0:0:0:
64,192,50022,1,2,0:0:0:0:
448,192,50022,1,0,0:0:0:0:
320,192,50105,1,0,0:0:0:0:
64,192,50189,1,0,0:0:0:0:
192,192,50272,1,0,0:0:0:0:
320,192,50355,1,2,0:0:0:0:
448,192,50355,1,0,0:0:0:0:
192,192,50439,1,0,0:0:0:0:
320,192,50522,1,0,0:0:0:0:
192,192,50605,1,0,0:0:0:0:
64,192,50689,1,2,0:0:0:0:
448,192,50689,1,0,0:0:0:0:
320,192,50772,1,0,0:0:0:0:
192,192,50855,1,0,0:0:0:0:
64,192,50939,1,0,0:0:0:0:
320,192,51022,1,2,0:0:0:0:
448,192,51022,1,0,0:0:0:0:
192,192,51105,1,0,0:0:0:0:
448,192,51189,1,0,0:0:0:0:
320,192,51272,1,0,0:0:0:0:
64,192,51355,1,2,0:0:0:0:
192,192,51355,1,0,0:0:0:0:
320,192,51439,1,0,0:0:0:0:
64,192,51522,1,0,0:0:0:0:
192,192,51605,1,0,0:0:0:0:
320,192,51689,1,2,0:0:0:0:
448,192,51689,1,0,0:0:0:0:
64,192,51772,1,0,0:0:0:0:
448,192,51855,1,0,0:0:0:0:
192,192,51939,1,0,0:0:0:0:
64,192,52022,1,2,0:0:0:0:
448,192,52022,1,0,0:0:0:0:
320,192,52105,1,0,0:0:0:0:
64,192,52189,1,0,0:0:0:0:
448,192,52272,1,0,0:0:0:0:
64,192,52355,1,2,0:0:0:0:
192,192,52355,1,0,0:0:0:0:
320,192,52439,1,0,0:0:0:0:
192,192,52522,1,0,0:0:0:0:
64,192,52605,1,0,0:0:0:0:
320,192,52689,1,2,0:0:0:0:
448,192,52689,1,0,0:0:0:0:
192,192,52772,1,0,0:0:0:0:
320,192,52855,1,0,0:0:0:0:
64,192,52939,1,2,0:0:0:0:
192,192,52939,1,0,0:0:0:0:
320,192,53022,1,2,0:0:0:0:
448,192,53022,1,0,0:0:0:0:
192,192,53105,1,0,0:0:0:0:
64,192,53189,1,2,0:0:0:0:
448,192,53189,1,0,0:0:0:0:
320,192,53272,1,0,0:0:0:0:
64,192,53355,1,2,0:0:0:0:
192,192,53355,1,0,0:0:0:0:
320,192,53439,1,2,0:0:0:0:
448,192,53439,1,0,0:0:0:0:
64,192,53522,1,2,0:0:0:0:
192,192,53522,1,0,0:0:0:0:
320,192,53605,1,2,0:0:0:0:
448,192,53605,1,0,0:0:0:0:
64,192,53689,1,2,0:0:0:0:
192,192,53689,1,0,0:0:0:0:
320,192,53772,1,0,0:0:0:0:
448,192,53855,1,0,0:0:0:0:
192,192,53939,1,0,0:0:0:0:
320,192,54022,1,2,0:0:0:0:
448,192,54022,1,0,0:0:0:0:
192,192,54105,1,0,0:0:0:0:
64,192,54189,1,0,0:0:0:0:
320,192,54272,1,0,0:0:0:0:
64,192,54355,1,2,0:0:0:0:
192,192,54355,1,0,0:0:0:0:
320,192,54439,1,0,0:0:0:0:
448,192,54522,1,0,0:0:0:0:
192,192,54605,1,0,0:0:0:0:
320,192,54689,1,2,0:0:0:0:
448,192,54689,1,0,0:0:0:0:
192,192,54772,1,0,0:0:0:0:
64,192,54855,1,0,0:0:0:0:
320,192,54939,1,0,0:0:0:0:
64,192,55022,1,2,0:0:0:0:
192,192,55022,1,0,0:0:0:0:
320,192,55105,1,0,0:0:0:0:
64,192,55189,1,0,0:0:0:0:
192,192,55272,1,0,0:0:0:0:
320,192,55355,1,2,0:0:0:0:
448,192,55355,1,0,0:0:0:0:
192,192,55439,1,0,0:0:0:0:
448,192,55522,1,0,0:0:0:0:
320,192,55605,1,0,0:0:0:0:
64,192,55689,1,2,0:0:0:0:
192,192,55689,1,0,0:0:0:0:
320,192,55772,1,0,0:0:0:0:
64,192,55855,1,0,0:0:0:0:
192,192,55939,1,0,0:0:0:0:
320,192,56022,1,2,0:0:0:0:
448,192,56022,1,0,0:0:0:0:
192,192,56105,1,0,0:0:0:0:
448,192,56189,1,0,0:0:0:0:
320,192,56272,1,0,0:0:0:0:
64,192,56355,1,2,0:0:0:0:
192,192,56355,1,0,0:0:0:0:
320,192,56439,1,0,0:0:0:0:
448,192,56522,1,0,0:0:0:0:
192,192,56605,1,0,0:0:0:0:
320,192,56689,1,2,0:0:0:0:
448,192,56689,1,0,0:0:0:0:
192,192,56772,1,0,0:0:0:0:
64,192,56855,1,0,0:0:0:0:
320,192,56939,1,0,0:0:0:0:
64,192,57022,1,2,0:0:0:0:
192,192,57022,1,0,0:0:0:0:
320,192,57105,1,0,0:0:0:0:
448,192,57189,1,0,0:0:0:0:
192,192,57272,1,0,0:0:0:0:
320,192,57355,1,2,0:0:0:0:
448,192,57355,1,0,0:0:0:0:
192,192,57439,1,0,0:0:0:0:
64,192,57522,1,0,0:0:0:0:
320,192,57605,1,0,0:0:0:0:
64,192,57689,1,2,0:0:0:0:
192,192,57689,1,0,0:0:0:0:
320,192,57772,1,0,0:0:0:0:
64,192,57855,1,2,0:0:0:0:
448,192,57855,1,0,0:0:0:0:
192,192,57939,1,0,0:0:0:0:
320,192,58022,1,2,0:0:0:0:
448,192,58022,1,0,0:0:0:0:
192,192,58105,1,0,0:0:0:0:
448,192,58189,1,0,0:0:0:0:
320,192,58272,1,0,0:0:0:0:
64,192,58355,1,2,0:0:0:0:
192,192,58355,1,0,0:0:0:0:
320,192,58439,1,2,0:0:0:0:
448,192,58439,1,0,0:0:0:0:
64,192,58522,1,2,0:0:0:0:
192,192,58522,1,0,0:0:0:0:
320,192,58605,1,0,0:0:0:0:
64,192,58689,1,2,0:0:0:0:
448,192,58689,1,0,0:0:0:0:
192,192,58772,1,0,0:0:0:0:
448,192,58855,1,2,0:0:0:0:
320,192,58897,1,2,0:0:0:0:
64,192,58939,1,2,0:0:0:0:
192,192,58980,1,2,0:0:0:0:
320,192,59022,1,2,0:0:0:0:
448,192,59022,1,0,0:0:0:0:
192,192,59105,1,0,0:0:0:0:
64,192,59189,1,0,0:0:0:0:
320,192,59272,1,0,0:0:0:0:
64,192,59355,1,2,0:0:0:0:
192,192,59355,1,0,0:0:0:0:
320,192,59439,1,0,0:0:0:0:
448,192,59522,1,0,0:0:0:0:
192,192,59605,1,0,0:0:0:0:
320,192,59689,1,2,0:0:0:0:
448,192,59689,1,0,0:0:0:0:
192,192,59772,1,0,0:0:0:0:
64,192,59855,1,0,0:0:0:0:
320,192,59939,1,0,0:0:0:0:
64,192,60022,1,2,0:0:0:0:
192,192,60022,1,0,0:0:0:0:
320,192,60105,1,0,0:0:0:0:
448,192,60189,1,0,0:0:0:0:
192,192,60272,1,0,0:0:0:0:
320,192,60355,1,2,0:0:0:0:
448,192,60355,1,0,0:0:0:0:
192,192,60439,1,0,0:0:0:0:
448,192,60522,1,0,0:0:0:0:
320,192,60605,1,0,0:0:0:0:
64,192,60689,1,2,0:0:0:0:
192,192,60689,1,0,0:0:0:0:
320,192,60772,1,0,0:0:0:0:
64,192,60855,1,0,0:0:0:0:
192,192,60939,1,0,0:0:0:0:
320,192,61022,1,2,0:0:0:0:
448,192,61022,1,0,0:0:0:0:
192,192,61105,1,0,0:0:0:0:
448,192,61189,1,0,0:0:0:0:
320,192,61272,1,0,0:0:0:0:
64,192,61355,1,2,0:0:0:0:
192,192,61355,1,0,0:0:0:0:
320,192,61439,1,0,0:0:0:0:
64,192,61522,1,0,0:0:0:0:
192,192,61605,1,0,0:0:0:0:
320,192,61689,1,2,0:0:0:0:
448,192,61689,1,0,0:0:0:0:
64,192,61772,1,0,0:0:0:0:
320,192,61855,1,0,0:0:0:0:
64,192,61939,1,0,0:0:0:0:
448,192,62022,1,0,0:0:0:0:
192,192,62105,1,0,0:0:0:0:
320,192,62189,1,0,0:0:0:0:
192,192,62272,1,0,0:0:0:0:
64,192,62355,1,2,0:0:0:0:
448,192,62355,1,0,0:0:0:0:
320,192,62439,1,0,0:0:0:0:
64,192,62522,1,0,0:0:0:0:
192,192,62605,1,0,0:0:0:0:
448,192,62689,1,2,0:0:0:0:
320,192,62689,1,0,0:0:0:0:
192,192,62772,1,2,0:0:0:0:
64,192,62772,1,0,0:0:0:0:
448,192,62855,1,2,0:0:0:0:
320,192,62855,1,0,0:0:0:0:
192,192,62939,1,2,0:0:0:0:
64,192,62939,1,0,0:0:0:0:
448,192,63022,1,2,0:0:0:0:
320,192,63022,1,0,0:0:0:0:
192,192,63105,1,0,0:0:0:0:
64,192,63189,1,2,0:0:0:0:
448,192,63189,1,0,0:0:0:0:
320,192,63272,1,0,0:0:0:0:
64,192,63355,1,2,0:0:0:0:
192,192,63355,1,4,0:0:0:0:
448,192,63355,1,0,0:0:0:0:
320,192,63439,1,0,0:0:0:0:
192,192,63522,1,0,0:0:0:0:
320,192,63605,1,0,0:0:0:0:
448,192,63689,1,0,0:0:0:0:
64,192,63689,1,0,0:0:0:0:
192,192,63772,1,0,0:0:0:0:
320,192,63855,1,0,0:0:0:0:
192,192,63939,1,0,0:0:0:0:
320,192,64022,1,2,0:0:0:0:
448,192,64022,1,0,0:0:0:0:
64,192,64105,1,2,0:0:0:0:
192,192,64105,1,0,0:0:0:0:
320,192,64189,1,2,0:0:0:0:
448,192,64189,1,0,0:0:0:0:
192,192,64272,1,2,0:0:0:0:
64,192,64355,1,4,0:0:0:0:
320,192,64355,1,2,0:0:0:0:
448,192,64355,1,0,0:0:0:70:wind.wav
192,192,64439,1,0,0:0:0:0:
320,192,64522,1,0,0:0:0:0:
192,192,64605,1,0,0:0:0:0:
64,192,64689,1,2,0:0:0:0:
320,192,64689,1,0,0:0:0:0:
448,192,64689,1,0,0:0:0:0:
192,192,64772,1,0,0:0:0:0:
448,192,64855,1,0,0:0:0:0:
320,192,64939,1,0,0:0:0:0:
64,192,65022,1,2,0:0:0:0:
192,192,65022,1,0,0:0:0:0:
448,192,65105,1,0,0:0:0:0:
320,192,65189,1,0,0:0:0:0:
192,192,65272,1,0,0:0:0:0:
64,192,65355,1,2,0:0:0:0:
320,192,65355,1,0,0:0:0:0:
448,192,65355,1,0,0:0:0:0:
192,192,65439,1,0,0:0:0:0:
448,192,65522,1,0,0:0:0:0:
64,192,65605,1,0,0:0:0:0:
320,192,65689,1,2,0:0:0:0:
448,192,65689,1,0,0:0:0:0:
192,192,65772,1,0,0:0:0:0:
320,192,65855,1,0,0:0:0:0:
192,192,65939,1,0,0:0:0:0:
64,192,66022,1,2,0:0:0:0:
320,192,66022,1,0,0:0:0:0:
448,192,66022,1,0,0:0:0:0:
192,192,66105,1,0,0:0:0:0:
448,192,66189,1,0,0:0:0:0:
320,192,66272,1,0,0:0:0:0:
64,192,66355,1,2,0:0:0:0:
192,192,66355,1,0,0:0:0:0:
448,192,66439,1,0,0:0:0:0:
320,192,66522,1,0,0:0:0:0:
192,192,66605,1,0,0:0:0:0:
64,192,66689,1,2,0:0:0:0:
320,192,66689,1,0,0:0:0:0:
448,192,66689,1,0,0:0:0:0:
192,192,66772,1,0,0:0:0:0:
448,192,66855,1,0,0:0:0:0:
64,192,66939,1,0,0:0:0:0:
320,192,67022,1,2,0:0:0:0:
448,192,67022,1,0,0:0:0:0:
192,192,67105,1,0,0:0:0:0:
64,192,67189,1,0,0:0:0:0:
320,192,67272,1,0,0:0:0:0:
64,192,67355,1,2,0:0:0:0:
192,192,67355,1,0,0:0:0:0:
448,192,67355,1,0,0:0:0:0:
320,192,67439,1,0,0:0:0:0:
192,192,67522,1,0,0:0:0:0:
320,192,67605,1,0,0:0:0:0:
64,192,67689,1,2,0:0:0:0:
448,192,67689,1,0,0:0:0:0:
192,192,67772,1,0,0:0:0:0:
448,192,67855,1,0,0:0:0:0:
192,192,67939,1,0,0:0:0:0:
64,192,68022,1,2,0:0:0:0:
320,192,68022,1,0,0:0:0:0:
448,192,68022,1,0,0:0:0:0:
192,192,68105,1,0,0:0:0:0:
320,192,68189,1,0,0:0:0:0:
448,192,68272,1,0,0:0:0:0:
64,192,68355,1,2,0:0:0:0:
192,192,68355,1,0,0:0:0:0:
320,192,68439,1,0,0:0:0:0:
64,192,68522,1,0,0:0:0:0:
320,192,68605,1,0,0:0:0:0:
64,192,68689,1,2,0:0:0:0:
192,192,68689,1,0,0:0:0:0:
448,192,68689,1,0,0:0:0:0:
320,192,68772,1,0,0:0:0:0:
192,192,68855,1,0,0:0:0:0:
448,192,68939,1,0,0:0:0:0:
64,192,69022,1,2,0:0:0:0:
192,192,69022,1,0,0:0:0:0:
320,192,69105,1,0,0:0:0:0:
448,192,69189,1,0,0:0:0:0:
64,192,69272,1,2,0:0:0:0:
192,192,69272,1,0,0:0:0:0:
448,192,69355,1,0,0:0:0:0:
320,192,69439,1,0,0:0:0:0:
64,192,69522,1,2,0:0:0:0:
192,192,69522,1,0,0:0:0:0:
320,192,69605,1,2,0:0:0:0:
448,192,69605,1,0,0:0:0:0:
64,192,69689,1,2,0:0:0:0:
192,192,69689,1,0,0:0:0:0:
320,192,69772,1,0,0:0:0:0:
192,192,69855,1,0,0:0:0:0:
320,192,69939,1,0,0:0:0:0:
64,192,70022,1,2,0:0:0:0:
192,192,70022,1,0,0:0:0:0:
448,192,70022,1,0,0:0:0:0:
320,192,70105,1,0,0:0:0:0:
64,192,70189,1,0,0:0:0:0:
192,192,70272,1,0,0:0:0:0:
320,192,70355,1,2,0:0:0:0:
448,192,70355,1,0,0:0:0:0:
64,192,70439,1,0,0:0:0:0:
192,192,70522,1,0,0:0:0:0:
320,192,70605,1,0,0:0:0:0:
64,192,70689,1,2,0:0:0:0:
192,192,70689,1,0,0:0:0:0:
448,192,70689,1,0,0:0:0:0:
320,192,70772,1,0,0:0:0:0:
64,192,70855,1,2,0:0:0:0:
192,192,70855,1,0,0:0:0:0:
320,192,70939,1,2,0:0:0:0:
448,192,70939,1,0,0:0:0:0:
64,192,71022,1,2,0:0:0:0:
192,192,71022,1,0,0:0:0:0:
320,192,71105,1,0,0:0:0:0:
64,192,71189,1,2,0:0:0:0:
448,192,71189,1,0,0:0:0:0:
192,192,71272,1,0,0:0:0:0:
64,192,71355,1,2,0:0:0:0:
320,192,71355,1,0,0:0:0:0:
448,192,71355,1,0,0:0:0:0:
192,192,71439,1,0,0:0:0:0:
448,192,71522,1,0,0:0:0:0:
320,192,71605,1,0,0:0:0:0:
64,192,71689,1,2,0:0:0:0:
192,192,71689,1,0,0:0:0:0:
448,192,71772,1,0,0:0:0:0:
192,192,71855,1,0,0:0:0:0:
320,192,71939,1,2,0:0:0:0:
448,192,71939,1,0,0:0:0:0:
64,192,72022,1,0,0:0:0:0:
320,192,72105,1,0,0:0:0:0:
64,192,72189,1,2,0:0:0:0:
192,192,72189,1,0,0:0:0:0:
320,192,72272,1,2,0:0:0:0:
64,192,72355,1,2,0:0:0:0:
192,192,72355,1,4,0:0:0:0:
448,192,72355,1,0,0:0:0:0:
320,192,72439,1,0,0:0:0:0:
64,192,72522,1,2,0:0:0:0:
192,192,72522,1,0,0:0:0:0:
320,192,72605,1,0,0:0:0:0:
64,192,72689,1,2,0:0:0:0:
192,192,72689,1,0,0:0:0:0:
320,192,72772,1,0,0:0:0:0:
64,192,72855,1,2,0:0:0:0:
448,192,72855,1,0,0:0:0:0:
192,192,72939,1,0,0:0:0:0:
64,192,73022,1,2,0:0:0:0:
320,192,73022,1,4,0:0:0:0:
448,192,73022,1,0,0:0:0:0:
192,192,73105,1,0,0:0:0:0:
448,192,73189,1,2,0:0:0:0:
320,192,73189,1,0,0:0:0:0:
192,192,73272,1,0,0:0:0:0:
448,192,73355,1,2,0:0:0:0:
320,192,73355,1,0,0:0:0:0:
192,192,73439,1,0,0:0:0:0:
448,192,73522,1,2,0:0:0:0:
64,192,73522,1,0,0:0:0:0:
320,192,73605,1,0,0:0:0:0:
192,192,73689,1,4,0:0:0:0:
448,192,73689,1,0,0:0:0:0:
64,192,73689,1,2,0:0:0:0:
320,192,73772,1,0,0:0:0:0:
64,192,73855,1,2,0:0:0:0:
448,192,73855,1,0,0:0:0:0:
192,192,73939,1,2,0:0:0:0:
64,192,74022,1,2,0:0:0:0:
320,192,74022,1,4,0:0:0:0:
448,192,74022,1,0,0:0:0:0:
192,192,74105,1,0,0:0:0:0:
448,192,74189,1,2,0:0:0:0:
64,192,74189,1,0,0:0:0:0:
320,192,74272,1,2,0:0:0:0:
192,192,74355,1,4,0:0:0:0:
64,192,74355,1,2,0:0:0:0:
448,192,74397,1,2,0:0:0:0:
320,192,74439,1,2,0:0:0:0:
192,192,74480,1,2,0:0:0:0:
64,192,74522,1,2,0:0:0:0:
448,192,74522,1,0,0:0:0:0:
320,192,74605,1,2,0:0:0:0:
64,192,74689,1,2,0:0:0:0:
192,192,74689,1,4,0:0:0:0:
448,192,74689,1,0,0:0:0:0:
320,192,74772,1,0,0:0:0:0:
64,192,74855,1,2,0:0:0:0:
448,192,74855,1,0,0:0:0:0:
192,192,74939,1,2,0:0:0:0:
64,192,75022,1,4,0:0:0:0:
320,192,75022,1,2,0:0:0:0:
448,192,75022,1,0,0:0:0:80:G#6S_Ab6S_s.wav
192,192,75189,1,0,0:0:0:80:C6S_s.wav
320,192,75272,1,0,0:0:0:80:C#6S_Db6S_s.wav
64,192,75355,1,0,0:0:0:40:F#6S_Gb6S_s.wav
448,192,75355,1,0,0:0:0:40:F#6S_Gb6S_s.wav
64,192,75522,1,0,0:0:0:80:C6S_s.wav
192,192,75605,1,0,0:0:0:80:C#6S_Db6S_s.wav
320,192,75689,1,0,0:0:0:40:F6S_s.wav
448,192,75689,1,0,0:0:0:40:F6S_s.wav
64,192,75855,1,0,0:0:0:80:C6S_s.wav
448,192,75939,1,0,0:0:0:80:C#6S_Db6S_s.wav
64,192,76022,1,0,0:0:0:40:F#6S_Gb6S_s.wav
192,192,76022,1,0,0:0:0:40:F#6S_Gb6S_s.wav
320,192,76189,1,0,0:0:0:80:C6S_s.wav
192,192,76272,1,0,0:0:0:80:C#6S_Db6S_s.wav
64,192,76355,1,2,0:0:0:0:
320,192,76355,1,8,0:0:0:0:
448,192,76355,1,4,0:0:0:0:
64,192,76522,1,2,0:0:0:0:
192,192,76522,1,0,0:0:0:0:
320,192,76605,1,2,0:0:0:0:
64,192,76689,1,2,0:0:0:0:
192,192,76689,1,8,0:0:0:0:
448,192,76689,1,4,0:0:0:0:
320,192,76855,1,2,0:0:0:0:
448,192,76855,1,0,0:0:0:0:
192,192,76939,1,2,0:0:0:0:
64,192,77022,1,2,0:0:0:0:
320,192,77022,1,8,0:0:0:0:
448,192,77022,1,4,0:0:0:0:
192,192,77105,1,2,0:0:0:0:
64,192,77189,1,2,0:0:0:0:
448,192,77189,1,0,0:0:0:0:
320,192,77272,1,2,0:0:0:0:
64,192,77355,1,2,0:0:0:0:
192,192,77355,1,8,0:0:0:0:
448,192,77355,1,4,0:0:0:0:
64,192,77522,1,2,0:0:0:0:
192,192,77522,1,0,0:0:0:0:
320,192,77605,1,2,0:0:0:0:
64,192,77689,1,2,0:0:0:0:
192,192,77689,1,4,0:0:0:0:
448,192,77689,1,0,0:0:0:80:G#6S_Ab6S_s.wav
320,192,77855,1,0,0:0:0:80:C6S_s.wav
192,192,77939,1,0,0:0:0:80:C#6S_Db6S_s.wav
448,192,78022,1,0,0:0:0:40:F#6S_Gb6S_s.wav
64,192,78022,1,0,0:0:0:40:F#6S_Gb6S_s.wav
448,192,78189,1,0,0:0:0:80:C6S_s.wav
320,192,78272,1,0,0:0:0:80:C#6S_Db6S_s.wav
192,192,78355,1,0,0:0:0:40:F6S_s.wav
64,192,78355,1,0,0:0:0:40:F6S_s.wav
448,192,78522,1,0,0:0:0:80:C6S_s.wav
64,192,78605,1,0,0:0:0:80:C#6S_Db6S_s.wav
448,192,78689,1,0,0:0:0:40:F#6S_Gb6S_s.wav
320,192,78689,1,0,0:0:0:40:F#6S_Gb6S_s.wav
192,192,78855,1,0,0:0:0:80:C6S_s.wav
320,192,78939,1,0,0:0:0:80:C#6S_Db6S_s.wav
64,192,79022,1,4,0:0:0:0:
192,192,79022,1,8,0:0:0:0:
448,192,79022,1,2,0:0:0:0:
320,192,79189,1,2,0:0:0:0:
448,192,79189,1,0,0:0:0:0:
192,192,79272,1,2,0:0:0:0:
64,192,79355,1,4,0:0:0:0:
320,192,79355,1,8,0:0:0:0:
448,192,79355,1,2,0:0:0:0:
64,192,79522,1,2,0:0:0:0:
192,192,79522,1,0,0:0:0:0:
320,192,79605,1,2,0:0:0:0:
64,192,79689,1,12,0:0:0:0:
192,192,79689,1,2,0:0:0:0:
448,192,79730,1,2,0:0:0:0:
320,192,79772,1,2,0:0:0:0:
192,192,79814,1,2,0:0:0:0:
64,192,79855,1,2,0:0:0:0:
448,192,79855,1,0,0:0:0:0:
320,192,79939,1,2,0:0:0:0:
64,192,80022,1,4,0:0:0:0:
192,192,80022,1,8,0:0:0:0:
448,192,80022,1,2,0:0:0:0:
320,192,80105,1,2,0:0:0:0:
64,192,80189,1,2,0:0:0:0:
448,192,80189,1,0,0:0:0:0:
192,192,80272,1,2,0:0:0:0:
64,192,80355,1,4,0:0:0:0:
320,192,80355,1,2,0:0:0:0:
448,192,80355,1,0,0:0:0:80:G#6S_Ab6S_s.wav
192,192,80522,1,0,0:0:0:80:C6S_s.wav
320,192,80605,1,0,0:0:0:80:C#6S_Db6S_s.wav
448,192,80689,1,0,0:0:0:40:F#6S_Gb6S_s.wav
64,192,80689,1,0,0:0:0:40:F#6S_Gb6S_s.wav
64,192,80855,1,0,0:0:0:80:C6S_s.wav
192,192,80939,1,0,0:0:0:80:C#6S_Db6S_s.wav
448,192,81022,1,0,0:0:0:40:F6S_s.wav
320,192,81022,1,0,0:0:0:40:F6S_s.wav
64,192,81189,1,0,0:0:0:80:C6S_s.wav
448,192,81272,1,0,0:0:0:80:C#6S_Db6S_s.wav
192,192,81355,1,0,0:0:0:40:F#6S_Gb6S_s.wav
64,192,81355,1,0,0:0:0:40:F#6S_Gb6S_s.wav
320,192,81522,1,0,0:0:0:80:C6S_s.wav
192,192,81605,1,0,0:0:0:80:C#6S_Db6S_s.wav
64,192,81689,1,4,0:0:0:0:
320,192,81689,1,8,0:0:0:0:
448,192,81689,1,2,0:0:0:0:
64,192,81855,1,2,0:0:0:0:
192,192,81855,1,0,0:0:0:0:
320,192,81939,1,2,0:0:0:0:
64,192,82022,1,4,0:0:0:0:
192,192,82022,1,8,0:0:0:0:
448,192,82022,1,2,0:0:0:0:
320,192,82189,1,2,0:0:0:0:
448,192,82189,1,0,0:0:0:0:
192,192,82272,1,2,0:0:0:0:
64,192,82355,1,4,0:0:0:0:
320,192,82355,1,8,0:0:0:0:
448,192,82355,1,2,0:0:0:0:
192,192,82439,1,2,0:0:0:0:
64,192,82522,1,2,0:0:0:0:
448,192,82522,1,0,0:0:0:0:
320,192,82605,1,2,0:0:0:0:
64,192,82689,1,4,0:0:0:0:
192,192,82689,1,8,0:0:0:0:
448,192,82689,1,2,0:0:0:0:
64,192,82855,1,2,0:0:0:0:
192,192,82855,1,0,0:0:0:0:
320,192,82939,1,2,0:0:0:0:
64,192,83022,1,4,0:0:0:0:
192,192,83022,1,2,0:0:0:0:
448,192,83022,1,8,0:0:0:0:
320,192,83189,1,0,0:0:0:0:
192,192,83272,1,0,0:0:0:0:
64,192,83355,1,8,0:0:0:0:
320,192,83355,1,0,0:0:0:0:
448,192,83355,1,0,0:0:0:0:
448,192,83522,1,0,0:0:0:0:
320,192,83605,1,0,0:0:0:0:
64,192,83689,1,8,0:0:0:0:
192,192,83689,1,2,0:0:0:0:
448,192,83689,1,4,0:0:0:0:
192,192,83855,1,0,0:0:0:0:
320,192,83939,1,0,0:0:0:0:
64,192,84022,1,8,0:0:0:0:
192,192,84022,1,0,0:0:0:0:
448,192,84022,1,0,0:0:0:0:
64,192,84189,1,0,0:0:0:0:
192,192,84272,1,0,0:0:0:0:
64,192,84355,1,2,0:0:0:0:
320,192,84355,1,8,0:0:0:0:
448,192,84355,1,4,0:0:0:0:
320,192,84522,1,0,0:0:0:0:
192,192,84605,1,0,0:0:0:0:
64,192,84689,1,2,0:0:0:0:
320,192,84689,1,8,0:0:0:0:
448,192,84689,1,4,0:0:0:0:
448,192,84855,1,0,0:0:0:0:
320,192,84939,1,0,0:0:0:0:
64,192,85022,1,8,0:0:0:0:
192,192,85022,1,0,0:0:0:0:
448,192,85022,1,0,0:0:0:0:
192,192,85189,1,0,0:0:0:0:
320,192,85272,1,0,0:0:0:0:
64,192,85355,1,8,0:0:0:0:
192,192,85355,1,0,0:0:0:0:
448,192,85355,1,0,0:0:0:0:
64,192,85522,1,0,0:0:0:0:
192,192,85605,1,0,0:0:0:0:
64,192,85689,1,2,0:0:0:0:
320,192,85689,1,8,0:0:0:0:
448,192,85689,1,0,0:0:0:0:
320,192,85855,1,0,0:0:0:0:
192,192,85939,1,0,0:0:0:0:
64,192,86022,1,8,0:0:0:0:
320,192,86022,1,2,0:0:0:0:
448,192,86022,1,4,0:0:0:0:
64,192,86189,1,2,0:0:0:0:
192,192,86189,1,0,0:0:0:0:
320,192,86272,1,2,0:0:0:0:
64,192,86355,1,8,0:0:0:0:
192,192,86355,1,2,0:0:0:0:
448,192,86355,1,0,0:0:0:0:
320,192,86522,1,0,0:0:0:0:
192,192,86605,1,0,0:0:0:0:
64,192,86689,1,8,0:0:0:0:
320,192,86689,1,2,0:0:0:0:
448,192,86689,1,0,0:0:0:0:
192,192,86855,1,0,0:0:0:0:
320,192,86939,1,0,0:0:0:0:
64,192,87022,1,8,0:0:0:0:
192,192,87022,1,2,0:0:0:0:
448,192,87022,1,0,0:0:0:0:
320,192,87189,1,0,0:0:0:0:
192,192,87272,1,2,0:0:0:0:
64,192,87355,1,8,0:0:0:0:
320,192,87355,1,2,0:0:0:0:
448,192,87355,1,4,0:0:0:0:
192,192,87522,1,2,0:0:0:0:
64,192,87522,1,0,0:0:0:0:
320,192,87605,1,2,0:0:0:0:
64,192,87689,1,2,0:0:0:0:
192,192,87689,1,8,0:0:0:0:
448,192,87689,1,0,0:0:0:0:
320,192,87855,1,2,0:0:0:0:
448,192,87855,1,0,0:0:0:0:
192,192,87939,1,0,0:0:0:0:
64,192,88022,1,2,0:0:0:0:
320,192,88022,1,8,0:0:0:0:
448,192,88022,1,0,0:0:0:0:
64,192,88189,1,8,0:0:0:0:
192,192,88189,1,2,0:0:0:0:
320,192,88272,1,2,0:0:0:0:
64,192,88355,1,2,0:0:0:0:
192,192,88355,1,4,0:0:0:0:
448,192,88355,1,8,0:0:0:0:
320,192,88439,1,8,0:0:0:0:
64,192,88522,1,2,0:0:0:0:
448,192,88522,1,0,0:0:0:0:
192,192,88605,1,8,0:0:0:0:
64,192,88689,1,8,0:0:0:0:
320,192,88689,1,2,0:0:0:0:
448,192,88689,1,4,0:0:0:0:
192,192,88772,1,8,0:0:0:0:
320,192,88855,1,2,0:0:0:0:
448,192,88855,1,0,0:0:0:0:
192,192,88939,1,8,0:0:0:0:
64,192,89022,1,2,0:0:0:0:
320,192,89022,1,4,0:0:0:0:
448,192,89022,1,8,0:0:0:0:
192,192,89105,1,8,0:0:0:0:
64,192,89189,1,2,0:0:0:0:
448,192,89189,1,0,0:0:0:0:
320,192,89272,1,8,0:0:0:0:
64,192,89355,1,2,0:0:0:0:
192,192,89355,1,4,0:0:0:0:
448,192,89355,1,8,0:0:0:0:
320,192,89439,1,8,0:0:0:0:
64,192,89522,1,2,0:0:0:0:
192,192,89522,1,0,0:0:0:0:
320,192,89605,1,8,0:0:0:0:
448,192,89605,1,0,0:0:0:0:
64,192,89689,1,6,0:0:0:0:
192,192,89689,1,8,0:0:0:0:
320,192,89772,1,2,0:0:0:0:
448,192,89772,1,8,0:0:0:0:
64,192,89855,1,2,0:0:0:0:
192,192,89855,1,0,0:0:0:0:
320,192,89939,1,2,0:0:0:0:
448,192,89939,1,8,0:0:0:0:
64,192,90022,1,6,0:0:0:0:
192,192,90022,1,8,0:0:0:0:
320,192,90105,1,2,0:0:0:0:
448,192,90105,1,8,0:0:0:0:
64,192,90189,1,2,0:0:0:0:
192,192,90189,1,0,0:0:0:0:
320,192,90272,1,2,0:0:0:0:
448,192,90272,1,8,0:0:0:0:
64,192,90355,1,6,0:0:0:0:
192,192,90355,1,8,0:0:0:0:
320,192,90439,1,2,0:0:0:0:
448,192,90439,1,8,0:0:0:0:
64,192,90522,1,2,0:0:0:0:
192,192,90522,1,8,0:0:0:0:
320,192,90605,1,2,0:0:0:0:
448,192,90605,1,8,0:0:0:0:
64,192,90689,1,6,0:0:0:0:
192,192,90689,1,8,0:0:0:0:
320,192,90772,1,2,0:0:0:0:
448,192,90772,1,8,0:0:0:0:
64,192,90855,1,2,0:0:0:0:
192,192,90855,1,8,0:0:0:0:
320,192,90939,1,10,0:0:0:0:
64,192,91022,1,2,0:0:0:0:
192,192,91022,1,4,0:0:0:0:
448,192,91022,1,0,0:0:0:70:wind.wav
320,192,91105,1,0,0:0:0:0:
192,192,91189,1,0,0:0:0:0:
320,192,91272,1,0,0:0:0:0:
64,192,91355,1,2,0:0:0:0:
192,192,91355,1,0,0:0:0:0:
448,192,91355,1,0,0:0:0:0:
320,192,91439,1,0,0:0:0:0:
64,192,91522,1,0,0:0:0:0:
192,192,91605,1,0,0:0:0:0:
320,192,91689,1,2,0:0:0:0:
448,192,91689,1,0,0:0:0:0:
64,192,91772,1,0,0:0:0:0:
192,192,91855,1,0,0:0:0:0:
320,192,91939,1,0,0:0:0:0:
64,192,92022,1,2,0:0:0:0:
192,192,92022,1,0,0:0:0:0:
448,192,92022,1,0,0:0:0:0:
320,192,92105,1,0,0:0:0:0:
64,192,92189,1,0,0:0:0:0:
448,192,92272,1,0,0:0:0:0:
64,192,92355,1,2,0:0:0:0:
192,192,92355,1,0,0:0:0:0:
320,192,92439,1,0,0:0:0:0:
192,192,92522,1,0,0:0:0:0:
320,192,92605,1,0,0:0:0:0:
64,192,92689,1,2,0:0:0:0:
192,192,92689,1,0,0:0:0:0:
448,192,92689,1,0,0:0:0:0:
320,192,92772,1,0,0:0:0:0:
64,192,92855,1,0,0:0:0:0:
192,192,92939,1,0,0:0:0:0:
320,192,93022,1,2,0:0:0:0:
448,192,93022,1,0,0:0:0:0:
64,192,93105,1,0,0:0:0:0:
192,192,93189,1,0,0:0:0:0:
320,192,93272,1,0,0:0:0:0:
64,192,93355,1,2,0:0:0:0:
192,192,93355,1,0,0:0:0:0:
448,192,93355,1,0,0:0:0:0:
320,192,93439,1,0,0:0:0:0:
64,192,93522,1,0,0:0:0:0:
448,192,93605,1,0,0:0:0:0:
64,192,93689,1,2,0:0:0:0:
192,192,93689,1,0,0:0:0:0:
320,192,93772,1,0,0:0:0:0:
448,192,93855,1,0,0:0:0:0:
192,192,93939,1,0,0:0:0:0:
64,192,94022,1,2,0:0:0:0:
320,192,94022,1,0,0:0:0:0:
448,192,94022,1,0,0:0:0:0:
192,192,94105,1,0,0:0:0:0:
320,192,94189,1,0,0:0:0:0:
192,192,94272,1,0,0:0:0:0:
64,192,94355,1,2,0:0:0:0:
448,192,94355,1,0,0:0:0:0:
320,192,94439,1,0,0:0:0:0:
64,192,94522,1,0,0:0:0:0:
320,192,94605,1,0,0:0:0:0:
64,192,94689,1,2,0:0:0:0:
192,192,94689,1,0,0:0:0:0:
448,192,94689,1,0,0:0:0:0:
320,192,94772,1,0,0:0:0:0:
192,192,94855,1,0,0:0:0:0:
64,192,94939,1,0,0:0:0:0:
320,192,95022,1,2,0:0:0:0:
448,192,95022,1,0,0:0:0:0:
192,192,95105,1,0,0:0:0:0:
448,192,95189,1,0,0:0:0:0:
192,192,95272,1,0,0:0:0:0:
64,192,95355,1,2,0:0:0:0:
320,192,95355,1,0,0:0:0:0:
448,192,95355,1,0,0:0:0:0:
192,192,95439,1,0,0:0:0:0:
320,192,95522,1,0,0:0:0:0:
64,192,95605,1,0,0:0:0:0:
320,192,95689,1,2,0:0:0:0:
448,192,95689,1,0,0:0:0:0:
192,192,95772,1,0,0:0:0:0:
64,192,95855,1,0,0:0:0:0:
320,192,95939,1,0,0:0:0:0:
64,192,96022,1,2,0:0:0:0:
192,192,96022,1,0,0:0:0:0:
448,192,96022,1,0,0:0:0:0:
320,192,96105,1,0,0:0:0:0:
64,192,96189,1,2,0:0:0:0:
448,192,96189,1,0,0:0:0:0:
192,192,96272,1,0,0:0:0:0:
320,192,96355,1,2,0:0:0:0:
448,192,96355,1,0,0:0:0:0:
192,192,96439,1,0,0:0:0:0:
320,192,96522,1,0,0:0:0:0:
192,192,96605,1,0,0:0:0:0:
64,192,96689,1,2,0:0:0:0:
320,192,96689,1,0,0:0:0:0:
448,192,96689,1,0,0:0:0:0:
192,192,96772,1,0,0:0:0:0:
448,192,96855,1,0,0:0:0:0:
320,192,96939,1,0,0:0:0:0:
64,192,97022,1,2,0:0:0:0:
192,192,97022,1,0,0:0:0:0:
448,192,97105,1,0,0:0:0:0:
320,192,97189,1,0,0:0:0:0:
192,192,97272,1,0,0:0:0:0:
64,192,97355,1,2,0:0:0:0:
320,192,97355,1,0,0:0:0:0:
448,192,97355,1,0,0:0:0:0:
192,192,97439,1,0,0:0:0:0:
448,192,97522,1,0,0:0:0:0:
64,192,97605,1,0,0:0:0:0:
320,192,97689,1,2,0:0:0:0:
448,192,97689,1,0,0:0:0:0:
192,192,97772,1,0,0:0:0:0:
64,192,97855,1,0,0:0:0:0:
320,192,97939,1,0,0:0:0:0:
64,192,98022,1,2,0:0:0:0:
192,192,98022,1,0,0:0:0:0:
448,192,98022,1,0,0:0:0:0:
320,192,98105,1,0,0:0:0:0:
64,192,98189,1,0,0:0:0:0:
192,192,98272,1,0,0:0:0:0:
320,192,98355,1,2,0:0:0:0:
448,192,98355,1,0,0:0:0:0:
64,192,98439,1,0,0:0:0:0:
192,192,98522,1,0,0:0:0:0:
320,192,98605,1,0,0:0:0:0:
64,192,98689,1,2,0:0:0:0:
192,192,98689,1,0,0:0:0:0:
448,192,98689,1,0,0:0:0:0:
320,192,98772,1,0,0:0:0:0:
448,192,98855,1,0,0:0:0:0:
192,192,98939,1,0,0:0:0:0:
320,192,99022,1,2,0:0:0:0:
448,192,99022,1,0,0:0:0:0:
64,192,99105,1,0,0:0:0:0:
192,192,99189,1,0,0:0:0:0:
320,192,99272,1,0,0:0:0:0:
64,192,99355,1,2,0:0:0:0:
192,192,99355,1,0,0:0:0:0:
448,192,99355,1,0,0:0:0:0:
320,192,99439,1,0,0:0:0:0:
64,192,99522,1,0,0:0:0:0:
192,192,99605,1,0,0:0:0:0:
320,192,99689,1,2,0:0:0:0:
448,192,99689,1,0,0:0:0:0:
192,192,99772,1,0,0:0:0:0:
320,192,99855,1,0,0:0:0:0:
192,192,99939,1,0,0:0:0:0:
64,192,100022,1,2,0:0:0:0:
320,192,100022,1,0,0:0:0:0:
448,192,100022,1,0,0:0:0:0:
192,192,100105,1,0,0:0:0:0:
448,192,100189,1,0,0:0:0:0:
320,192,100272,1,0,0:0:0:0:
64,192,100355,1,2,0:0:0:0:
192,192,100355,1,0,0:0:0:0:
320,192,100439,1,0,0:0:0:0:
192,192,100522,1,0,0:0:0:0:
320,192,100605,1,0,0:0:0:0:
64,192,100689,1,2,0:0:0:0:
192,192,100689,1,0,0:0:0:0:
448,192,100689,1,0,0:0:0:0:
320,192,100772,1,0,0:0:0:0:
64,192,100855,1,0,0:0:0:0:
192,192,100939,1,0,0:0:0:0:
320,192,101022,1,2,0:0:0:0:
448,192,101022,1,0,0:0:0:0:
64,192,101105,1,2,0:0:0:0:
192,192,101105,1,0,0:0:0:0:
320,192,101189,1,0,0:0:0:0:
64,192,101272,1,2,0:0:0:0:
192,192,101272,1,0,0:0:0:0:
320,192,101355,1,2,0:0:0:0:
448,192,101355,1,0,0:0:0:0:
192,192,101439,1,0,0:0:0:0:
64,192,101522,1,2,0:0:0:0:
448,192,101522,1,0,0:0:0:0:
320,192,101605,1,0,0:0:0:0:
64,192,101689,1,2,0:0:0:0:
192,192,101689,1,4,0:0:0:0:
448,192,101689,1,0,0:0:0:0:
320,192,101772,1,0,0:0:0:50:LR_Snare Fast.wav
64,192,101855,1,2,0:0:0:0:
192,192,101855,1,0,0:0:0:50:LR_Snare Fast.wav
320,192,101939,1,0,0:0:0:50:LR_Snare Fast.wav
64,192,102022,1,2,0:0:0:0:
448,192,102022,1,0,0:0:0:50:LR_Snare Fast.wav
192,192,102105,1,0,0:0:0:50:LR_Snare Fast.wav
320,192,102189,1,2,0:0:0:0:
448,192,102189,1,0,0:0:0:50:LR_Snare Fast.wav
192,192,102272,1,0,0:0:0:50:LR_Snare Fast.wav
320,192,102355,1,2,0:0:0:0:
448,192,102355,1,0,0:0:0:50:LR_Snare Fast.wav
192,192,102439,1,0,0:0:0:50:LR_Snare Fast.wav
64,192,102522,1,2,0:0:0:0:
448,192,102522,1,0,0:0:0:50:LR_Snare Fast.wav
320,192,102605,1,0,0:0:0:50:LR_Snare Fast.wav
64,192,102689,1,2,0:0:0:0:
192,192,102689,1,0,0:0:0:50:LR_Snare Fast.wav
320,192,102772,1,0,0:0:0:50:LR_Snare Fast.wav
64,192,102855,1,2,0:0:0:0:
192,192,102855,1,0,0:0:0:50:LR_Snare Fast.wav
320,192,102939,1,2,0:0:0:0:
64,192,103022,1,2,0:0:0:0:
192,192,103022,1,4,0:0:0:0:
448,192,103022,1,0,0:0:0:0:
320,192,103105,1,0,0:0:0:50:LR_Snare Fast.wav
64,192,103189,1,2,0:0:0:0:
448,192,103189,1,0,0:0:0:50:LR_Snare Fast.wav
192,192,103272,1,0,0:0:0:50:LR_Snare Fast.wav
320,192,103355,1,2,0:0:0:0:
448,192,103355,1,0,0:0:0:50:LR_Snare Fast.wav
192,192,103439,1,0,0:0:0:50:LR_Snare Fast.wav
448,192,103522,1,2,0:0:0:0:
64,192,103522,1,0,0:0:0:0:
320,192,103564,1,2,0:0:0:0:
192,192,103605,1,2,0:0:0:0:
64,192,103647,1,2,0:0:0:0:
320,192,103689,1,2,0:0:0:0:
448,192,103689,1,0,0:0:0:50:LR_Snare Fast.wav
64,192,103772,1,2,0:0:0:0:
192,192,103772,1,0,0:0:0:50:LR_Snare Fast.wav
320,192,103855,1,2,0:0:0:0:
448,192,103855,1,0,0:0:0:50:LR_Snare Fast.wav
64,192,103939,1,2,0:0:0:0:
192,192,103939,1,0,0:0:0:50:LR_Snare Fast.wav
320,192,104022,1,2,0:0:0:0:
448,192,104022,1,0,0:0:0:50:LR_Snare Fast.wav
192,192,104105,1,0,0:0:0:50:LR_Snare Fast.wav
64,192,104189,1,2,0:0:0:0:
448,192,104189,1,0,0:0:0:50:LR_Snare Fast.wav
320,192,104272,1,0,0:0:0:50:LR_Snare Fast.wav
64,192,104355,1,2,0:0:0:0:
192,192,104355,1,4,0:0:0:0:
448,192,104355,1,0,0:0:0:0:
320,192,104439,1,0,0:0:0:50:LR_Snare Fast.wav
64,192,104522,1,0,0:0:0:50:LR_Snare Fast.wav
448,192,104522,1,0,0:0:0:0:
192,192,104605,1,0,0:0:0:50:LR_Snare Fast.wav
320,192,104689,1,8,0:0:0:0:
448,192,104689,1,0,0:0:0:0:
192,192,104772,1,8,0:0:0:0:
64,192,104772,1,0,0:0:0:0:
320,192,104855,1,8,0:0:0:0:
448,192,104855,1,0,0:0:0:0:
192,192,104939,1,8,0:0:0:0:
64,192,105022,1,2,0:0:0:0:
320,192,105022,1,4,0:0:0:0:
448,192,105022,1,8,0:0:0:0:
192,192,105105,1,8,0:0:0:0:
64,192,105189,1,8,0:0:0:0:
448,192,105189,1,0,0:0:0:0:
320,192,105272,1,8,0:0:0:0:
64,192,105355,1,8,0:0:0:0:
192,192,105355,1,0,0:0:0:0:
320,192,105439,1,8,0:0:0:0:
448,192,105439,1,0,0:0:0:0:
64,192,105522,1,8,0:0:0:0:
192,192,105522,1,0,0:0:0:0:
320,192,105605,1,8,0:0:0:0:
64,192,105689,1,8,0:0:0:0:
448,192,105689,1,0,0:0:0:0:
192,192,105772,1,8,0:0:0:0:
320,192,105855,1,8,0:0:0:0:
448,192,105855,1,0,0:0:0:0:
192,192,105939,1,8,0:0:0:0:
320,192,106022,1,8,0:0:0:0:
448,192,106022,1,0,0:0:0:0:
192,192,106105,1,8,0:0:0:0:
320,192,106189,1,8,0:0:0:0:
448,192,106189,1,0,0:0:0:0:
192,192,106272,1,8,0:0:0:0:
448,192,106355,1,8,0:0:0:0:
320,192,106355,1,0,0:0:0:0:
64,192,106397,1,8,0:0:0:0:
192,192,106439,1,8,0:0:0:0:
320,192,106480,1,8,0:0:0:0:
448,192,106522,1,8,0:0:0:0:
64,192,106564,1,8,0:0:0:0:
192,192,106605,1,8,0:0:0:0:
448,192,106647,1,8,0:0:0:0:
320,192,106689,1,8,0:0:0:0:
192,192,106730,1,8,0:0:0:0:
64,192,106772,1,8,0:0:0:0:
448,192,106814,1,8,0:0:0:0:
320,192,106855,1,8,0:0:0:0:
192,192,106897,1,8,0:0:0:0:
64,192,106939,1,8,0:0:0:0:
320,192,106980,1,8,0:0:0:0:
64,192,107022,128,2,107272:0:0:0:0:
448,192,107022,128,0,107272:0:0:0:0:
64,192,107355,1,2,0:0:0:0:
320,192,107355,1,4,0:0:0:0:
448,192,107355,1,8,0:0:0:0:
192,192,107439,1,8,0:0:0:0:
320,192,107522,1,8,0:0:0:0:
192,192,107605,1,8,0:0:0:0:
64,192,107689,1,2,0:0:0:0:
320,192,107689,1,4,0:0:0:0:
448,192,107689,1,8,0:0:0:0:
192,192,107772,1,8,0:0:0:0:
448,192,107855,1,8,0:0:0:0:
320,192,107939,1,8,0:0:0:0:
64,192,108022,1,2,0:0:0:0:
192,192,108022,1,4,0:0:0:0:
448,192,108022,1,8,0:0:0:0:
320,192,108105,1,8,0:0:0:0:
192,192,108189,1,8,0:0:0:0:
320,192,108272,1,8,0:0:0:0:
64,192,108355,1,2,0:0:0:0:
192,192,108355,1,4,0:0:0:0:
448,192,108355,1,8,0:0:0:0:
320,192,108439,1,8,0:0:0:0:
64,192,108522,1,8,0:0:0:0:
192,192,108605,1,8,0:0:0:0:
64,192,108689,1,2,0:0:0:0:
320,192,108689,1,4,0:0:0:0:
448,192,108689,1,8,0:0:0:0:
192,192,108772,1,8,0:0:0:0:
320,192,108855,1,8,0:0:0:0:
192,192,108939,1,8,0:0:0:0:
64,192,109022,1,2,0:0:0:0:
320,192,109022,1,4,0:0:0:0:
448,192,109022,1,8,0:0:0:0:
192,192,109105,1,8,0:0:0:0:
448,192,109189,1,8,0:0:0:0:
320,192,109272,1,8,0:0:0:0:
64,192,109355,1,2,0:0:0:0:
192,192,109355,1,4,0:0:0:0:
448,192,109355,1,8,0:0:0:0:
320,192,109439,1,8,0:0:0:0:
64,192,109522,1,2,0:0:0:0:
192,192,109522,1,8,0:0:0:0:
320,192,109605,1,10,0:0:0:0:
64,192,109689,1,2,0:0:0:0:
192,192,109689,1,4,0:0:0:0:
448,192,109689,1,8,0:0:0:0:
320,192,109772,1,8,0:0:0:0:
64,192,109855,1,2,0:0:0:0:
448,192,109855,1,8,0:0:0:0:
192,192,109939,1,8,0:0:0:0:
64,192,110022,1,2,0:0:0:0:
320,192,110022,1,4,0:0:0:0:
448,192,110022,1,8,0:0:0:0:
192,192,110105,1,8,0:0:0:0:
320,192,110189,1,2,0:0:0:0:
448,192,110189,1,8,0:0:0:0:
192,192,110272,1,8,0:0:0:0:
64,192,110355,1,2,0:0:0:0:
320,192,110355,1,4,0:0:0:0:
448,192,110355,1,8,0:0:0:0:
192,192,110439,1,8,0:0:0:0:
64,192,110522,1,2,0:0:0:0:
448,192,110522,1,8,0:0:0:0:
320,192,110605,1,8,0:0:0:0:
64,192,110689,1,4,0:0:0:0:
192,192,110689,1,2,0:0:0:0:
448,192,110689,1,8,0:0:0:0:
320,192,110772,1,8,0:0:0:0:
64,192,110855,1,2,0:0:0:0:
192,192,110855,1,8,0:0:0:0:
320,192,110939,1,8,0:0:0:0:
448,192,110939,1,0,0:0:0:0:
64,192,111022,1,6,0:0:0:0:
192,192,111022,1,8,0:0:0:0:
320,192,111105,1,2,0:0:0:0:
448,192,111105,1,8,0:0:0:0:
64,192,111189,1,2,0:0:0:0:
192,192,111189,1,8,0:0:0:0:
320,192,111272,1,2,0:0:0:0:
448,192,111272,1,8,0:0:0:0:
64,192,111355,1,6,0:0:0:0:
192,192,111355,1,8,0:0:0:0:
320,192,111439,1,2,0:0:0:0:
448,192,111439,1,8,0:0:0:0:
64,192,111522,1,2,0:0:0:0:
192,192,111522,1,8,0:0:0:0:
320,192,111605,1,10,0:0:0:0:
64,192,111689,1,2,0:0:0:0:
192,192,111689,1,4,0:0:0:0:
448,192,111689,1,8,0:0:0:0:
320,192,111772,1,8,0:0:0:0:
192,192,111855,1,8,0:0:0:0:
64,192,111939,1,8,0:0:0:0:
320,192,112022,1,8,0:0:0:0:
448,192,112022,1,0,0:0:0:0:
192,192,112105,1,8,0:0:0:0:
64,192,112189,1,8,0:0:0:0:
448,192,112189,1,0,0:0:0:0:
320,192,112272,1,8,0:0:0:0:
64,192,112355,1,6,0:0:0:0:
192,192,112355,1,0,0:0:0:80:C#3S_Db3S_s.wav
448,192,112355,1,0,0:0:0:70:wind.wav
320,192,112522,1,0,0:0:0:80:G#3S_Ab3S_s.wav
192,192,112689,1,0,0:0:0:80:C#4S_Db4S_s.wav
64,192,112855,1,0,0:0:0:80:F4S_s.wav
448,192,113022,1,0,0:0:0:80:G#4S_Ab4S_s.wav
320,192,113189,1,0,0:0:0:80:C#5S_Db5S_s.wav
192,192,113355,1,0,0:0:0:80:F5S_s.wav
64,192,113522,1,0,0:0:0:80:C#5S_Db5S_s.wav
448,192,113689,1,0,0:0:0:80:G#4S_Ab4S_s.wav
320,192,113855,1,0,0:0:0:80:F4S_s.wav
64,192,114022,1,0,0:0:0:80:C#4S_Db4S_s.wav
192,192,114189,1,0,0:0:0:80:G#3S_Ab3S_s.wav
320,192,114355,1,0,0:0:0:80:C#3S_Db3S_s.wav
448,192,114522,1,0,0:0:0:80:G#3S_Ab3S_s.wav
64,192,114689,1,0,0:0:0:80:C#4S_Db4S_s.wav
192,192,114855,1,0,0:0:0:80:F4S_s.wav
320,192,115022,1,0,0:0:0:80:G#4S_Ab4S_s.wav
448,192,115189,1,0,0:0:0:80:C#5S_Db5S_s.wav
192,192,115355,1,0,0:0:0:80:F5S_s.wav
64,192,115522,1,0,0:0:0:80:C#5S_Db5S_s.wav
320,192,115689,1,0,0:0:0:80:G#4S_Ab4S_s.wav
448,192,115855,1,0,0:0:0:80:F4S_s.wav
192,192,116022,1,0,0:0:0:80:C#4S_Db4S_s.wav
64,192,116189,1,0,0:0:0:80:G#3S_Ab3S_s.wav
320,192,116355,1,0,0:0:0:40:G#5S_Ab5S.wav
448,192,116355,1,0,0:0:0:40:G#5S_Ab5S.wav
64,192,116522,1,0,0:0:0:80:G#4S_Ab4S_s.wav
192,192,116689,1,0,0:0:0:80:C5S_s.wav
320,192,116855,1,0,0:0:0:80:D#5S_Eb5S_s.wav
448,192,117022,1,0,0:0:0:80:C5S_s.wav
64,192,117189,1,0,0:0:0:80:G#4S_Ab4S_s.wav
448,192,117272,1,0,0:0:0:80:A#5S_Bb5S_s.wav
320,192,117314,1,0,0:0:0:80:C6S_s.wav
64,192,117355,1,0,0:0:0:40:A#5S_Bb5S_s.wav
192,192,117355,1,0,0:0:0:40:A#5S_Bb5S_s.wav
320,192,117522,1,0,0:0:0:80:G#4S_Ab4S_s.wav
64,192,117605,1,0,0:0:0:40:G#5S_Ab5S_s.wav
448,192,117605,1,0,0:0:0:40:G#5S_Ab5S_s.wav
192,192,117689,1,0,0:0:0:80:C5S_s.wav
320,192,117855,1,0,0:0:0:40:C#6S_Db6S_s.wav
448,192,117855,1,0,0:0:0:40:C#6S_Db6S_s.wav
192,192,118022,1,0,0:0:0:80:C5S_s.wav
448,192,118105,1,0,0:0:0:40:D#6S_Eb6S_s.wav
64,192,118105,1,0,0:0:0:40:D#6S_Eb6S_s.wav
320,192,118189,1,0,0:0:0:80:G#4S_Ab4S_s.wav
192,192,118355,1,0,0:0:0:40:F6S.wav
64,192,118355,1,0,0:0:0:40:F6S.wav
448,192,118522,1,0,0:0:0:80:G#4S_Ab4S_s.wav
320,192,118689,1,0,0:0:0:80:C#5S_Db5S_s.wav
64,192,118855,1,0,0:0:0:80:F5S_s.wav
192,192,119022,1,0,0:0:0:80:C#5S_Db5S_s.wav
320,192,119189,1,0,0:0:0:80:G#4S_Ab4S_s.wav
64,192,119355,1,0,0:0:0:40:G#6S_Ab6S.wav
192,192,119355,1,0,0:0:0:40:G#6S_Ab6S.wav
320,192,119522,1,0,0:0:0:80:G#4S_Ab4S_s.wav
192,192,119689,1,0,0:0:0:80:F5S_s.wav
448,192,119855,1,0,0:0:0:80:G#5S_Ab5S.wav
320,192,120022,1,0,0:0:0:80:F5S_s.wav
64,192,120189,1,0,0:0:0:80:G#4S_Ab4S_s.wav
320,192,120355,1,0,0:0:0:40:F#6S_Gb6S.wav
448,192,120355,1,0,0:0:0:40:F#6S_Gb6S.wav
192,192,120522,1,0,0:0:0:80:D#5S_Eb5S_s.wav
448,192,120689,1,0,0:0:0:80:G#4S_Ab4S_s.wav
192,192,120855,1,0,0:0:0:40:F6S.wav
64,192,120855,1,0,0:0:0:40:F6S.wav
320,192,121022,1,0,0:0:0:80:C#5S_Db5S_s.wav
448,192,121189,1,0,0:0:0:80:G#4S_Ab4S_s.wav
64,192,121355,1,0,0:0:0:80:D#6S_Eb6S.wav
320,192,121430,1,0,0:0:0:80:F6S_s.wav
192,192,121522,1,0,0:0:0:80:D#5S_Eb5S_s.wav
448,192,121605,1,0,0:0:0:80:D#6S_Eb6S_s.wav
64,192,121652,1,0,0:0:0:80:C#6S_Db6S_s.wav
320,192,121744,1,0,0:0:0:80:D#6S_Eb6S_s.wav
192,192,121855,1,0,0:0:0:40:F6S_s.wav
64,192,121855,1,0,0:0:0:40:F6S_s.wav
320,192,122022,1,0,0:0:0:80:G#4S_Ab4S_s.wav
448,192,122133,1,0,0:0:0:40:C#6S_Db6S_s.wav
64,192,122133,1,0,0:0:0:40:C#6S_Db6S_s.wav
192,192,122189,1,0,0:0:0:80:C#4S_Db4S_s.wav
448,192,122355,1,0,0:0:0:40:G#5S_Ab5S.wav
320,192,122355,1,0,0:0:0:40:G#5S_Ab5S.wav
192,192,122522,1,0,0:0:0:80:D#4S_Eb4S_s.wav
448,192,122689,1,0,0:0:0:80:G#4S_Ab4S_s.wav
64,192,122855,1,0,0:0:0:80:C5S_s.wav
320,192,123022,1,0,0:0:0:80:G#4S_Ab4S_s.wav
192,192,123189,1,0,0:0:0:80:D#4S_Eb4S_s.wav
448,192,123355,1,0,0:0:0:40:A#5S_Bb5S.wav
64,192,123355,1,0,0:0:0:40:A#5S_Bb5S.wav
320,192,123522,1,0,0:0:0:80:F#4S_Gb4S_s.wav
192,192,123689,1,0,0:0:0:80:A#4S_Bb4S_s.wav
64,192,123855,1,0,0:0:0:80:C#5S_Db5S_s.wav
448,192,124022,1,0,0:0:0:80:A#4S_Bb4S_s.wav
320,192,124189,1,0,0:0:0:80:F#4S_Gb4S_s.wav
64,192,124355,1,0,0:0:0:80:A#3S_Bb3S_s.wav
448,192,124522,1,0,0:0:0:80:F4S_s.wav
192,192,124689,1,0,0:0:0:80:A#4S_Bb4S_s.wav
320,192,124855,1,0,0:0:0:80:D5S_s.wav
448,192,125022,1,0,0:0:0:80:F4S_s.wav
64,192,125207,1,0,0:0:0:80:B5S_s.wav
192,192,125300,1,0,0:0:0:80:C#6S_Db6S_s.wav
448,192,125355,1,0,0:0:0:80:B5S_s.wav
320,192,125522,1,0,0:0:0:80:A#4S_Bb4S_s.wav
64,192,125605,1,0,0:0:0:40:A#5S_Bb5S_s.wav
448,192,125605,1,0,0:0:0:40:A#5S_Bb5S_s.wav
192,192,125689,1,0,0:0:0:80:D5S_s.wav
448,192,125855,1,0,0:0:0:80:D#6S_Eb6S_s.wav
320,192,125855,1,0,0:0:0:40:D#6S_Eb6S_s.wav
192,192,126022,1,0,0:0:0:80:D5S_s.wav
64,192,126105,1,0,0:0:0:40:F6S_s.wav
448,192,126105,1,0,0:0:0:40:F6S_s.wav
320,192,126189,1,0,0:0:0:80:A#4S_Bb4S_s.wav
64,192,126355,1,0,0:0:0:40:F#6S_Gb6S.wav
192,192,126355,1,0,0:0:0:40:F#6S_Gb6S.wav
320,192,126522,1,0,0:0:0:80:F#5S_Gb5S_s.wav
192,192,126689,1,0,0:0:0:80:A#4S_Bb4S_s.wav
64,192,126855,1,0,0:0:0:40:F6S.wav
320,192,126855,1,0,0:0:0:40:F6S.wav
448,192,127022,1,0,0:0:0:80:F5S_s.wav
192,192,127189,1,0,0:0:0:80:A4S_s.wav
448,192,127355,1,0,0:0:0:40:D#6S_Eb6S.wav
320,192,127355,1,0,0:0:0:40:D#6S_Eb6S.wav
64,192,127522,1,0,0:0:0:80:D#5S_Eb5S_s.wav
320,192,127689,1,0,0:0:0:80:A#4S_Bb4S_s.wav
192,192,127855,1,0,0:0:0:40:F6S.wav
448,192,127855,1,0,0:0:0:40:F6S.wav
320,192,128022,1,0,0:0:0:80:F5S_s.wav
192,192,128189,1,0,0:0:0:80:C5S_s.wav
64,192,128355,1,0,0:0:0:40:C#6S_Db6S.wav
448,192,128355,1,0,0:0:0:40:C#6S_Db6S.wav
320,192,128522,1,0,0:0:0:80:G#4S_Ab4S_s.wav
192,192,128689,1,0,0:0:0:80:C#5S_Db5S_s.wav
64,192,128855,1,0,0:0:0:80:F5S_s.wav
448,192,129022,1,0,0:0:0:80:C6S_s.wav
320,192,129105,1,0,0:0:0:80:C#6S_Db6S_s.wav
64,192,129189,1,0,0:0:0:80:D#6S_Eb6S_s.wav
192,192,129272,1,0,0:0:0:80:C#6S_Db6S_s.wav
320,192,129355,1,0,0:0:0:40:F6S.wav
448,192,129355,1,0,0:0:0:40:F6S.wav
64,192,129522,1,0,0:0:0:80:G4S_s.wav
192,192,129689,1,0,0:0:0:80:C#5S_Db5S_s.wav
320,192,129855,1,0,0:0:0:80:D#5S_Eb5S_s.wav
64,192,130022,1,0,0:0:0:80:C#5S_Db5S_s.wav
448,192,130105,1,0,0:0:0:40:D#6S_Eb6S_s.wav
320,192,130105,1,0,0:0:0:40:D#6S_Eb6S_s.wav
192,192,130189,1,0,0:0:0:80:G4S_s.wav
448,192,130355,1,0,0:0:0:40:D#6S_Eb6S.wav
320,192,130355,1,0,0:0:0:40:D#6S_Eb6S.wav
192,192,130522,1,0,0:0:0:80:D#4S_Eb4S_s.wav
64,192,130689,1,0,0:0:0:80:G#4S_Ab4S_s.wav
320,192,130855,1,0,0:0:0:80:C5S_s.wav
448,192,131022,1,0,0:0:0:80:G#4S_Ab4S_s.wav
192,192,131189,1,0,0:0:0:80:D#4S_Eb4S_s.wav
64,192,131355,1,0,0:0:0:80:G#3S_Ab3S_s.wav
320,192,131522,1,0,0:0:0:80:D#4S_Eb4S_s.wav
192,192,131689,1,0,0:0:0:80:F#4S_Gb4S_s.wav
64,192,131855,1,0,0:0:0:80:A#4S_Bb4S_s.wav
448,192,132022,1,0,0:0:0:80:F#4S_Gb4S_s.wav
320,192,132189,1,0,0:0:0:80:D#4S_Eb4S_s.wav
64,192,132355,1,0,0:0:0:30:LR_NBell_G#5.wav
192,192,132355,1,0,0:0:0:80:G#5S_Ab5S.wav
448,192,132522,1,0,0:0:0:80:D#4S_Eb4S_s.wav
320,192,132689,1,0,0:0:0:80:G#4S_Ab4S_s.wav
192,192,132855,1,0,0:0:0:80:C5S_s.wav
64,192,133022,1,0,0:0:0:80:G#4S_Ab4S_s.wav
448,192,133189,1,0,0:0:0:80:D#4S_Eb4S_s.wav
64,192,133272,1,0,0:0:0:80:A#5S_Bb5S_s.wav
192,192,133314,1,0,0:0:0:80:C6S_s.wav
320,192,133355,1,0,0:0:0:30:LR_NBell_A#5.wav
448,192,133355,1,0,0:0:0:80:A#5S_Bb5S_s.wav
192,192,133522,1,0,0:0:0:80:G#4S_Ab4S_s.wav
64,192,133605,1,0,0:0:0:30:LR_NBell_G#5.wav
448,192,133605,1,0,0:0:0:80:G#5S_Ab5S_s.wav
320,192,133689,1,0,0:0:0:80:C5S_s.wav
192,192,133855,1,0,0:0:0:80:C#6S_Db6S_s.wav
64,192,133855,1,0,0:0:0:30:LR_NBell_C#6.wav
64,192,134105,1,0,0:0:0:30:LR_NBell_D#6.wav
448,192,134105,1,0,0:0:0:80:D#6S_Eb6S_s.wav
192,192,134189,1,0,0:0:0:80:C#4S_Db4S_s.wav
320,192,134355,1,0,0:0:0:30:LR_NBell_F6.wav
448,192,134355,1,0,0:0:0:80:F6S_s.wav
64,192,134522,1,0,0:0:0:80:G#4S_Ab4S_s.wav
192,192,134689,1,0,0:0:0:80:C#5S_Db5S_s.wav
448,192,134855,1,0,0:0:0:80:F5S_s.wav
64,192,135022,1,0,0:0:0:80:C#5S_Db5S_s.wav
192,192,135189,1,0,0:0:0:80:G#4S_Ab4S_s.wav
448,192,135355,1,0,0:0:0:80:G#6S_Ab6S_s.wav
320,192,135355,1,0,0:0:0:30:LR_NBell_G#6.wav
192,192,135522,1,0,0:0:0:80:G#4S_Ab4S_s.wav
320,192,135689,1,0,0:0:0:80:F5S_s.wav
64,192,135855,1,0,0:0:0:80:G#5S_Ab5S.wav
192,192,136022,1,0,0:0:0:80:F5S_s.wav
448,192,136189,1,0,0:0:0:80:G#4S_Ab4S_s.wav
64,192,136355,1,0,0:0:0:30:LR_NBell_F#6.wav
192,192,136355,1,0,0:0:0:80:F#6S_Gb6S_s.wav
320,192,136522,1,0,0:0:0:80:D#5S_Eb5S_s.wav
64,192,136689,1,0,0:0:0:80:G#4S_Ab4S_s.wav
448,192,136855,1,0,0:0:0:80:F6S_s.wav
192,192,136855,1,0,0:0:0:30:LR_NBell_F6.wav
320,192,137022,1,0,0:0:0:80:C#5S_Db5S_s.wav
64,192,137189,1,0,0:0:0:80:G#4S_Ab4S_s.wav
448,192,137355,1,0,0:0:0:30:LR_NBell_D#6.wav
320,192,137355,1,0,0:0:0:80:D#6S_Eb6S_s.wav
192,192,137430,1,0,0:0:0:80:F6S_s.wav
320,192,137522,1,0,0:0:0:80:C5S_s.wav
64,192,137605,1,0,0:0:0:80:D#6S_Eb6S_s.wav
448,192,137652,1,0,0:0:0:80:C#6S_Db6S_s.wav
192,192,137744,1,0,0:0:0:80:D#6S_Eb6S_s.wav
448,192,137855,1,0,0:0:0:80:F6S_s.wav
320,192,137855,1,0,0:0:0:30:LR_NBell_F6.wav
192,192,138022,1,0,0:0:0:80:G#4S_Ab4S_s.wav
64,192,138133,1,0,0:0:0:30:LR_NBell_C#6.wav
448,192,138133,1,0,0:0:0:80:C#6S_Db6S_s.wav
320,192,138189,1,0,0:0:0:80:F4S_s.wav
192,192,138355,1,0,0:0:0:80:G#5S_Ab5S_s.wav
64,192,138355,1,0,0:0:0:30:LR_NBell_G#5.wav
320,192,138522,1,0,0:0:0:80:D#4S_Eb4S_s.wav
64,192,138689,1,0,0:0:0:80:G#4S_Ab4S_s.wav
448,192,138855,1,0,0:0:0:80:C5S_s.wav
192,192,139022,1,0,0:0:0:80:G#4S_Ab4S_s.wav
320,192,139189,1,0,0:0:0:80:D#4S_Eb4S_s.wav
448,192,139355,1,0,0:0:0:80:A#5S_Bb5S_s.wav
64,192,139355,1,0,0:0:0:30:LR_NBell_A#5.wav
192,192,139522,1,0,0:0:0:80:F#4S_Gb4S_s.wav
320,192,139689,1,0,0:0:0:80:A#4S_Bb4S_s.wav
448,192,139855,1,0,0:0:0:80:C#5S_Db5S_s.wav
64,192,140022,1,0,0:0:0:80:A#4S_Bb4S_s.wav
192,192,140189,1,0,0:0:0:80:F#4S_Gb4S_s.wav
448,192,140355,1,0,0:0:0:80:A#3S_Bb3S_s.wav
320,192,140522,1,0,0:0:0:80:F4S_s.wav
64,192,140689,1,0,0:0:0:80:A#4S_Bb4S_s.wav
192,192,140855,1,0,0:0:0:80:D5S_s.wav
320,192,141022,1,0,0:0:0:80:A#4S_Bb4S_s.wav
448,192,141207,1,0,0:0:0:80:B5S_s.wav
320,192,141300,1,0,0:0:0:80:A#5S_Bb5S_s.wav
64,192,141355,1,0,0:0:0:30:LR_NBell_B5.wav
192,192,141355,1,0,0:0:0:80:B5S_s.wav
320,192,141522,1,0,0:0:0:80:A#4S_Bb4S_s.wav
64,192,141605,1,0,0:0:0:30:LR_NBell_A#5.wav
448,192,141605,1,0,0:0:0:80:A#5S_Bb5S_s.wav
192,192,141689,1,0,0:0:0:80:D5S_s.wav
320,192,141855,1,0,0:0:0:30:LR_NBell_D#6.wav
448,192,141855,1,0,0:0:0:80:D#6S_Eb6S_s.wav
192,192,142022,1,0,0:0:0:80:D5S_s.wav
448,192,142105,1,0,0:0:0:30:LR_NBell_F6.wav
64,192,142105,1,0,0:0:0:30:LR_NBell_F6.wav
320,192,142189,1,0,0:0:0:80:A#4S_Bb4S_s.wav
192,192,142355,1,0,0:0:0:80:F#6S_Gb6S_s.wav
64,192,142355,1,0,0:0:0:30:LR_NBell_F#6.wav
320,192,142522,1,0,0:0:0:80:F#5S_Gb5S_s.wav
64,192,142689,1,0,0:0:0:80:A#4S_Bb4S_s.wav
192,192,142855,1,0,0:0:0:30:LR_NBell_F6.wav
448,192,142855,1,0,0:0:0:80:F6S_s.wav
320,192,143022,1,0,0:0:0:80:F5S_s.wav
448,192,143189,1,0,0:0:0:80:A4S_s.wav
192,192,143355,1,0,0:0:0:80:D#6S_Eb6S_s.wav
64,192,143355,1,0,0:0:0:30:LR_NBell_D#6.wav
320,192,143522,1,0,0:0:0:80:D#5S_Eb5S_s.wav
192,192,143689,1,0,0:0:0:80:A#4S_Bb4S_s.wav
64,192,143855,1,0,0:0:0:30:LR_NBell_F6.wav
320,192,143855,1,0,0:0:0:80:F6S_s.wav
448,192,144022,1,0,0:0:0:80:F5S_s.wav
192,192,144189,1,0,0:0:0:80:C5S_s.wav
64,192,144355,1,0,0:0:0:30:LR_NBell_C#6.wav
448,192,144355,1,0,0:0:0:80:C#6S_Db6S_s.wav
320,192,144522,1,0,0:0:0:80:G#4S_Ab4S_s.wav
192,192,144689,1,0,0:0:0:80:C#5S_Db5S_s.wav
448,192,144855,1,0,0:0:0:80:F5S_s.wav
64,192,145022,1,0,0:0:0:80:G5S_s.wav
192,192,145105,1,0,0:0:0:80:G#5S_Ab5S_s.wav
448,192,145189,1,0,0:0:0:80:A#5S_Bb5S_s.wav
320,192,145272,1,0,0:0:0:80:G#5S_Ab5S_s.wav
64,192,145355,1,0,0:0:0:30:LR_NBell_F6.wav
192,192,145355,1,0,0:0:0:80:F6S_s.wav
448,192,145522,1,0,0:0:0:80:G#4S_Ab4S_s.wav
320,192,145689,1,0,0:0:0:80:C5S_s.wav
192,192,145855,1,0,0:0:0:80:F#5S_Gb5S_s.wav
448,192,146022,1,0,0:0:0:80:C5S_s.wav
192,192,146105,1,0,0:0:0:80:D#6S_Eb6S_s.wav
64,192,146105,1,0,0:0:0:30:LR_NBell_D#6.wav
320,192,146189,1,0,0:0:0:80:G#4S_Ab4S_s.wav
192,192,146355,1,0,0:0:0:80:D#6S_Eb6S_s.wav
64,192,146355,1,0,0:0:0:30:LR_NBell_D#6.wav
320,192,146522,1,0,0:0:0:80:G#4S_Ab4S_s.wav
192,192,146730,1,0,0:0:0:80:C5S_s.wav
64,192,146967,1,0,0:0:0:80:F#5S_Gb5S_s.wav
192,192,147189,1,0,0:0:0:80:C5S_s.wav
320,192,147439,1,0,0:0:0:80:G#4S_Ab4S_s.wav
448,192,147744,1,0,0:0:0:80:C#4S_Db4S_s.wav
320,192,148078,1,0,0:0:0:80:G#4S_Ab4S_s.wav
192,192,148411,1,0,0:0:0:80:C5S_s.wav
64,192,148772,1,0,0:0:0:80:F#5S_Gb5S_s.wav
192,192,149244,1,0,0:0:0:80:C5S_s.wav
320,192,149689,1,0,0:0:0:80:G#4S_Ab4S_s.wav
64,192,152355,1,10,0:0:0:0:
320,192,152355,1,0,0:0:0:70:wind.wav
448,192,152355,1,4,0:0:0:0:
192,192,152522,1,0,0:0:0:0:
320,192,152605,1,0,0:0:0:0:
64,192,152689,1,8,0:0:0:0:
192,192,152689,1,0,0:0:0:0:
448,192,152689,1,0,0:0:0:0:
64,192,152855,1,0,0:0:0:0:
192,192,152939,1,0,0:0:0:0:
64,192,153022,1,8,0:0:0:0:
320,192,153022,1,0,0:0:0:0:
448,192,153022,1,0,0:0:0:0:
192,192,153189,1,0,0:0:0:0:
320,192,153272,1,0,0:0:0:0:
64,192,153355,1,8,0:0:0:0:
192,192,153355,1,0,0:0:0:0:
448,192,153355,1,0,0:0:0:0:
64,192,153522,1,0,0:0:0:0:
320,192,153605,1,0,0:0:0:0:
64,192,153689,1,8,0:0:0:0:
192,192,153689,1,0,0:0:0:0:
448,192,153689,1,0,0:0:0:0:
320,192,153855,1,0,0:0:0:0:
192,192,153939,1,0,0:0:0:0:
64,192,154022,1,8,0:0:0:0:
320,192,154022,1,0,0:0:0:0:
448,192,154022,1,0,0:0:0:0:
448,192,154189,1,0,0:0:0:0:
320,192,154272,1,0,0:0:0:0:
64,192,154355,1,8,0:0:0:0:
192,192,154355,1,0,0:0:0:0:
448,192,154355,1,0,0:0:0:0:
320,192,154522,1,0,0:0:0:0:
192,192,154605,1,0,0:0:0:0:
64,192,154689,1,8,0:0:0:0:
320,192,154689,1,0,0:0:0:0:
448,192,154689,1,0,0:0:0:0:
64,192,154855,1,8,0:0:0:0:
448,192,154855,1,0,0:0:0:0:
192,192,154855,1,0,0:0:0:0:
64,192,155022,1,8,0:0:0:0:
320,192,155022,1,0,0:0:0:0:
448,192,155022,1,0,0:0:0:0:
192,192,155189,1,0,0:0:0:0:
320,192,155272,1,0,0:0:0:0:
64,192,155355,1,8,0:0:0:0:
192,192,155355,1,0,0:0:0:0:
448,192,155355,1,0,0:0:0:0:
64,192,155522,1,0,0:0:0:0:
192,192,155605,1,0,0:0:0:0:
64,192,155689,1,8,0:0:0:0:
320,192,155689,1,0,0:0:0:0:
448,192,155689,1,0,0:0:0:0:
192,192,155855,1,0,0:0:0:0:
320,192,155939,1,0,0:0:0:0:
64,192,156022,1,8,0:0:0:0:
192,192,156022,1,0,0:0:0:0:
448,192,156022,1,0,0:0:0:0:
64,192,156189,1,0,0:0:0:0:
320,192,156272,1,0,0:0:0:0:
64,192,156355,1,8,0:0:0:0:
192,192,156355,1,0,0:0:0:0:
448,192,156355,1,0,0:0:0:0:
320,192,156522,1,0,0:0:0:0:
192,192,156605,1,0,0:0:0:0:
64,192,156689,1,8,0:0:0:0:
320,192,156689,1,0,0:0:0:0:
448,192,156689,1,0,0:0:0:0:
448,192,156855,1,0,0:0:0:0:
320,192,156939,1,0,0:0:0:0:
64,192,157022,1,8,0:0:0:0:
192,192,157022,1,0,0:0:0:0:
448,192,157022,1,0,0:0:0:0:
320,192,157189,1,0,0:0:0:0:
192,192,157272,1,0,0:0:0:0:
64,192,157355,1,8,0:0:0:0:
320,192,157355,1,0,0:0:0:0:
448,192,157355,1,0,0:0:0:0:
64,192,157522,1,8,0:0:0:0:
448,192,157522,1,0,0:0:0:0:
192,192,157522,1,0,0:0:0:0:
64,192,157689,1,2,0:0:0:0:
320,192,157689,1,8,0:0:0:0:
448,192,157689,1,4,0:0:0:0:
64,192,157855,1,8,0:0:0:0:
192,192,157855,1,0,0:0:0:0:
320,192,157855,1,0,0:0:0:0:
64,192,158022,1,2,0:0:0:0:
192,192,158022,1,8,0:0:0:0:
448,192,158022,1,0,0:0:0:0:
192,192,158189,1,8,0:0:0:0:
320,192,158189,1,0,0:0:0:0:
448,192,158189,1,0,0:0:0:0:
64,192,158355,1,2,0:0:0:0:
320,192,158355,1,8,0:0:0:0:
448,192,158355,1,0,0:0:0:0:
64,192,158522,1,8,0:0:0:0:
192,192,158522,1,0,0:0:0:0:
320,192,158522,1,0,0:0:0:0:
64,192,158689,1,2,0:0:0:0:
192,192,158689,1,8,0:0:0:0:
448,192,158689,1,0,0:0:0:0:
192,192,158855,1,8,0:0:0:0:
320,192,158855,1,2,0:0:0:0:
448,192,158855,1,0,0:0:0:0:
64,192,159022,1,2,0:0:0:0:
320,192,159022,1,8,0:0:0:0:
448,192,159022,1,4,0:0:0:0:
64,192,159189,1,8,0:0:0:0:
192,192,159189,1,0,0:0:0:0:
320,192,159189,1,0,0:0:0:0:
64,192,159355,1,2,0:0:0:0:
192,192,159355,1,8,0:0:0:0:
448,192,159355,1,0,0:0:0:0:
192,192,159522,1,8,0:0:0:0:
320,192,159522,1,0,0:0:0:0:
448,192,159522,1,0,0:0:0:0:
64,192,159689,1,2,0:0:0:0:
320,192,159689,1,8,0:0:0:0:
448,192,159689,1,0,0:0:0:0:
64,192,159855,1,8,0:0:0:0:
192,192,159855,1,0,0:0:0:0:
320,192,159939,1,8,0:0:0:0:
448,192,159939,1,0,0:0:0:0:
64,192,160022,1,2,0:0:0:0:
192,192,160022,1,8,0:0:0:0:
192,192,160189,1,8,0:0:0:0:
320,192,160189,1,0,0:0:0:0:
448,192,160189,1,0,0:0:0:0:
64,192,160355,1,2,0:0:0:0:
320,192,160355,1,8,0:0:0:0:
448,192,160355,1,4,0:0:0:0:
192,192,160439,1,8,0:0:0:0:
320,192,160522,1,8,0:0:0:0:
448,192,160522,1,2,0:0:0:0:
64,192,160689,1,2,0:0:0:0:
192,192,160689,1,8,0:0:0:0:
448,192,160689,1,0,0:0:0:0:
320,192,160772,1,8,0:0:0:0:
64,192,160855,1,8,0:0:0:0:
192,192,160855,1,2,0:0:0:0:
64,192,161022,1,4,0:0:0:0:
320,192,161022,1,8,0:0:0:0:
448,192,161022,1,2,0:0:0:0:
192,192,161105,1,8,0:0:0:0:
320,192,161189,1,2,0:0:0:0:
448,192,161189,1,8,0:0:0:0:
64,192,161355,1,2,0:0:0:0:
192,192,161355,1,8,0:0:0:0:
448,192,161355,1,0,0:0:0:0:
320,192,161439,1,8,0:0:0:0:
64,192,161522,1,8,0:0:0:0:
192,192,161522,1,2,0:0:0:0:
64,192,161689,1,4,0:0:0:0:
320,192,161689,1,8,0:0:0:0:
448,192,161689,1,2,0:0:0:0:
192,192,161772,1,8,0:0:0:0:
320,192,161855,1,2,0:0:0:0:
448,192,161855,1,8,0:0:0:0:
192,192,161939,1,8,0:0:0:0:
64,192,162022,1,4,0:0:0:0:
320,192,162022,1,8,0:0:0:0:
448,192,162022,1,2,0:0:0:0:
192,192,162105,1,8,0:0:0:0:
320,192,162189,1,2,0:0:0:0:
448,192,162189,1,8,0:0:0:0:
192,192,162272,1,8,0:0:0:0:
320,192,162355,1,12,0:0:0:0:
448,192,162355,1,2,0:0:0:0:
64,192,162355,1,0,0:0:0:0:
192,192,162439,1,10,0:0:0:0:
320,192,162522,1,2,0:0:0:0:
448,192,162522,1,8,0:0:0:0:
64,192,162605,1,8,0:0:0:0:
192,192,162605,1,2,0:0:0:0:
320,192,162689,1,12,0:0:0:0:
448,192,162689,1,2,0:0:0:0:
64,192,162772,1,8,0:0:0:0:
192,192,162772,1,2,0:0:0:0:
320,192,162855,1,8,0:0:0:0:
448,192,162855,1,2,0:0:0:0:
192,192,162939,1,10,0:0:0:0:
64,192,163022,1,8,0:0:0:0:
320,192,163022,1,4,0:0:0:0:
448,192,163022,1,2,0:0:0:0:
192,192,163355,1,0,0:0:0:0:
448,192,163439,1,0,0:0:0:0:
64,192,163522,1,0,0:0:0:0:
320,192,163605,1,0,0:0:0:0:
64,192,163689,1,4,0:0:0:0:
192,192,163689,1,2,0:0:0:0:
448,192,163689,1,0,0:0:0:0:
64,192,164022,1,0,0:0:0:0:
448,192,164022,1,0,0:0:0:0:
192,192,164105,1,0,0:0:0:0:
320,192,164189,1,0,0:0:0:0:
192,192,164272,1,0,0:0:0:0:
64,192,164355,1,2,0:0:0:0:
320,192,164355,1,4,0:0:0:0:
448,192,164355,1,0,0:0:0:70:wind.wav
192,192,164522,1,0,0:0:0:0:
64,192,164689,1,2,0:0:0:0:
320,192,164689,1,0,0:0:0:0:
448,192,164689,1,0,0:0:0:0:
64,192,164855,1,0,0:0:0:0:
192,192,164939,1,0,0:0:0:0:
320,192,165022,1,2,0:0:0:0:
448,192,165022,1,0,0:0:0:0:
192,192,165189,1,0,0:0:0:0:
64,192,165355,1,2,0:0:0:0:
320,192,165355,1,0,0:0:0:0:
448,192,165355,1,0,0:0:0:0:
448,192,165522,1,0,0:0:0:0:
64,192,165689,1,2,0:0:0:0:
192,192,165689,1,0,0:0:0:0:
320,192,165855,1,0,0:0:0:0:
64,192,166022,1,2,0:0:0:0:
192,192,166022,1,0,0:0:0:0:
448,192,166022,1,0,0:0:0:0:
64,192,166189,1,0,0:0:0:0:
320,192,166355,1,2,0:0:0:0:
448,192,166355,1,0,0:0:0:0:
192,192,166522,1,0,0:0:0:0:
64,192,166689,1,2,0:0:0:0:
320,192,166689,1,0,0:0:0:0:
448,192,166689,1,0,0:0:0:0:
448,192,166855,1,0,0:0:0:0:
64,192,167022,1,2,0:0:0:0:
192,192,167022,1,0,0:0:0:0:
320,192,167189,1,0,0:0:0:0:
64,192,167355,1,2,0:0:0:0:
192,192,167355,1,0,0:0:0:0:
448,192,167355,1,0,0:0:0:0:
192,192,167522,1,0,0:0:0:0:
64,192,167689,1,2,0:0:0:0:
448,192,167689,1,0,0:0:0:0:
320,192,167855,1,0,0:0:0:0:
192,192,167939,1,0,0:0:0:0:
64,192,168022,1,2,0:0:0:0:
320,192,168022,1,0,0:0:0:0:
448,192,168022,1,0,0:0:0:0:
448,192,168189,1,0,0:0:0:0:
64,192,168355,1,2,0:0:0:0:
192,192,168355,1,0,0:0:0:0:
320,192,168522,1,0,0:0:0:0:
64,192,168689,1,2,0:0:0:0:
192,192,168689,1,0,0:0:0:0:
448,192,168689,1,0,0:0:0:0:
64,192,168855,1,0,0:0:0:0:
320,192,169022,1,2,0:0:0:0:
448,192,169022,1,0,0:0:0:0:
192,192,169189,1,0,0:0:0:0:
64,192,169355,1,2,0:0:0:0:
320,192,169355,1,0,0:0:0:0:
448,192,169355,1,0,0:0:0:0:
320,192,169522,1,2,0:0:0:0:
448,192,169522,1,0,0:0:0:0:
192,192,169605,1,2,0:0:0:0:
64,192,169689,1,4,0:0:0:0:
320,192,169689,1,2,0:0:0:0:
448,192,169689,1,0,0:0:0:0:
192,192,169855,1,0,0:0:0:0:
64,192,170022,1,2,0:0:0:0:
320,192,170022,1,0,0:0:0:0:
448,192,170022,1,0,0:0:0:0:
320,192,170189,1,0,0:0:0:0:
192,192,170272,1,0,0:0:0:0:
64,192,170355,1,2,0:0:0:0:
448,192,170355,1,0,0:0:0:0:
320,192,170522,1,0,0:0:0:0:
64,192,170689,1,2,0:0:0:0:
192,192,170689,1,0,0:0:0:0:
448,192,170689,1,0,0:0:0:0:
64,192,170855,1,0,0:0:0:0:
320,192,171022,1,2,0:0:0:0:
448,192,171022,1,0,0:0:0:0:
192,192,171189,1,0,0:0:0:0:
64,192,171355,1,2,0:0:0:0:
320,192,171355,1,0,0:0:0:0:
448,192,171355,1,0,0:0:0:0:
320,192,171522,1,0,0:0:0:0:
64,192,171689,1,2,0:0:0:0:
448,192,171689,1,0,0:0:0:0:
192,192,171855,1,0,0:0:0:0:
64,192,172022,1,2,0:0:0:0:
320,192,172022,1,0,0:0:0:0:
448,192,172022,1,0,0:0:0:0:
448,192,172189,1,0,0:0:0:0:
64,192,172355,1,2,0:0:0:0:
192,192,172355,1,0,0:0:0:0:
320,192,172522,1,0,0:0:0:0:
64,192,172689,1,2,0:0:0:0:
192,192,172689,1,0,0:0:0:0:
448,192,172689,1,0,0:0:0:0:
320,192,172772,1,0,0:0:0:0:
64,192,172855,1,0,0:0:0:0:
192,192,172939,1,0,0:0:0:0:
320,192,173022,1,2,0:0:0:0:
448,192,173022,1,0,0:0:0:0:
192,192,173189,1,0,0:0:0:0:
64,192,173355,1,2,0:0:0:0:
320,192,173355,1,0,0:0:0:0:
448,192,173355,1,0,0:0:0:0:
192,192,173522,1,0,0:0:0:0:
64,192,173689,1,2,0:0:0:0:
192,192,173689,1,0,0:0:0:0:
320,192,173855,1,0,0:0:0:0:
64,192,174022,1,2,0:0:0:0:
192,192,174022,1,0,0:0:0:0:
448,192,174022,1,0,0:0:0:0:
64,192,174189,1,2,0:0:0:0:
192,192,174189,1,0,0:0:0:0:
320,192,174272,1,2,0:0:0:0:
448,192,174272,1,0,0:0:0:0:
64,192,174355,1,2,0:0:0:0:
192,192,174355,1,0,0:0:0:0:
320,192,174522,128,0,174605:0:0:0:0:
320,192,174689,128,0,174772:0:0:0:0:
320,192,174855,128,0,175022:0:0:0:0:
64,192,175022,1,4,0:0:0:0:
192,192,175022,1,2,0:0:0:0:
448,192,175022,1,0,0:0:0:0:
320,192,175189,1,0,0:0:0:0:
64,192,175355,1,2,0:0:0:0:
192,192,175355,1,0,0:0:0:0:
448,192,175355,1,0,0:0:0:0:
448,192,175522,1,0,0:0:0:0:
320,192,175605,1,0,0:0:0:0:
64,192,175689,1,2,0:0:0:0:
192,192,175689,1,0,0:0:0:0:
320,192,175855,1,0,0:0:0:0:
64,192,176022,1,2,0:0:0:0:
192,192,176022,1,0,0:0:0:0:
448,192,176022,1,0,0:0:0:0:
64,192,176189,1,0,0:0:0:0:
320,192,176355,1,2,0:0:0:0:
448,192,176355,1,0,0:0:0:0:
192,192,176522,1,0,0:0:0:0:
64,192,176689,1,2,0:0:0:0:
320,192,176689,1,0,0:0:0:0:
448,192,176689,1,0,0:0:0:0:
448,192,176855,1,0,0:0:0:0:
64,192,177022,1,2,0:0:0:0:
192,192,177022,1,0,0:0:0:0:
320,192,177189,1,0,0:0:0:0:
64,192,177355,1,2,0:0:0:0:
192,192,177355,1,0,0:0:0:0:
448,192,177355,1,0,0:0:0:0:
64,192,177522,1,0,0:0:0:0:
320,192,177689,1,2,0:0:0:0:
448,192,177689,1,0,0:0:0:0:
192,192,177855,1,0,0:0:0:0:
64,192,178022,1,2,0:0:0:0:
320,192,178022,1,0,0:0:0:0:
448,192,178022,1,0,0:0:0:0:
320,192,178189,1,0,0:0:0:0:
64,192,178355,1,2,0:0:0:0:
448,192,178355,1,0,0:0:0:0:
192,192,178522,1,0,0:0:0:0:
320,192,178605,1,0,0:0:0:0:
64,192,178689,1,2,0:0:0:0:
192,192,178689,1,0,0:0:0:0:
448,192,178689,1,0,0:0:0:0:
64,192,178855,1,0,0:0:0:0:
320,192,179022,1,2,0:0:0:0:
448,192,179022,1,0,0:0:0:0:
192,192,179189,1,0,0:0:0:0:
64,192,179355,1,2,0:0:0:0:
320,192,179355,1,0,0:0:0:0:
448,192,179355,1,0,0:0:0:0:
448,192,179522,1,0,0:0:0:0:
64,192,179689,1,2,0:0:0:0:
192,192,179689,1,0,0:0:0:0:
320,192,179855,1,2,0:0:0:0:
448,192,179855,1,0,0:0:0:0:
64,192,180022,1,2,0:0:0:0:
192,192,180022,1,0,0:0:0:0:
320,192,180105,1,2,0:0:0:0:
448,192,180105,1,0,0:0:0:0:
64,192,180189,1,2,0:0:0:0:
192,192,180189,1,0,0:0:0:0:
320,192,180272,1,2,0:0:0:0:
64,192,180355,1,4,0:0:0:0:
192,192,180355,1,8,0:0:0:0:
448,192,180355,1,2,0:0:0:0:
320,192,180522,1,0,0:0:0:0:
64,192,180689,1,2,0:0:0:0:
192,192,180689,1,8,0:0:0:0:
448,192,180689,1,0,0:0:0:0:
192,192,180855,1,0,0:0:0:0:
320,192,180939,1,0,0:0:0:0:
64,192,181022,1,2,0:0:0:0:
192,192,181022,1,8,0:0:0:0:
448,192,181022,1,0,0:0:0:0:
320,192,181189,1,0,0:0:0:0:
64,192,181355,1,2,0:0:0:0:
192,192,181355,1,8,0:0:0:0:
448,192,181355,1,0,0:0:0:0:
192,192,181522,1,0,0:0:0:0:
64,192,181689,1,2,0:0:0:0:
320,192,181689,1,8,0:0:0:0:
448,192,181689,1,4,0:0:0:0:
320,192,181855,1,0,0:0:0:0:
64,192,182022,1,8,0:0:0:0:
192,192,182022,1,2,0:0:0:0:
448,192,182022,1,0,0:0:0:0:
192,192,182189,1,0,0:0:0:0:
64,192,182355,1,8,0:0:0:0:
320,192,182355,1,2,0:0:0:0:
448,192,182355,1,0,0:0:0:0:
320,192,182522,1,0,0:0:0:0:
64,192,182689,1,8,0:0:0:0:
192,192,182689,1,2,0:0:0:0:
448,192,182689,1,0,0:0:0:0:
320,192,182855,1,2,0:0:0:0:
448,192,182855,1,0,0:0:0:0:
192,192,182939,1,2,0:0:0:0:
64,192,183022,1,4,0:0:0:0:
320,192,183022,1,8,0:0:0:0:
448,192,183022,1,2,0:0:0:0:
64,192,183189,1,8,0:0:0:0:
192,192,183189,1,2,0:0:0:0:
448,192,183189,1,0,0:0:0:0:
64,192,183355,1,2,0:0:0:0:
192,192,183355,1,8,0:0:0:0:
320,192,183355,1,0,0:0:0:0:
192,192,183522,1,2,0:0:0:0:
320,192,183522,1,8,0:0:0:0:
448,192,183522,1,0,0:0:0:0:
320,192,183689,1,10,0:0:0:0:
448,192,183689,1,4,0:0:0:0:
64,192,183772,1,2,0:0:0:0:
192,192,183772,1,0,0:0:0:0:
320,192,183855,1,2,0:0:0:0:
448,192,183855,1,8,0:0:0:0:
64,192,183939,1,2,0:0:0:0:
192,192,183939,1,0,0:0:0:0:
320,192,184022,1,8,0:0:0:0:
448,192,184022,1,2,0:0:0:0:
64,192,184105,1,2,0:0:0:0:
192,192,184105,1,0,0:0:0:0:
320,192,184189,1,8,0:0:0:0:
448,192,184189,1,2,0:0:0:0:
192,192,184272,1,2,0:0:0:0:
64,192,184355,1,4,0:0:0:0:
320,192,184355,1,2,0:0:0:0:
448,192,184355,1,0,0:0:0:0:
192,192,184439,1,8,0:0:0:0:
320,192,184522,1,8,0:0:0:0:
448,192,184605,1,8,0:0:0:0:
64,192,184689,1,4,0:0:0:0:
192,192,184689,1,8,0:0:0:0:
320,192,184772,1,8,0:0:0:0:
192,192,184855,1,8,0:0:0:0:
64,192,184939,1,8,0:0:0:0:
320,192,185022,1,4,0:0:0:0:
448,192,185022,1,8,0:0:0:0:
192,192,185105,1,8,0:0:0:0:
320,192,185189,1,8,0:0:0:0:
192,192,185272,1,8,0:0:0:0:
64,192,185355,1,4,0:0:0:0:
448,192,185355,1,8,0:0:0:0:
320,192,185439,1,8,0:0:0:0:
192,192,185522,1,8,0:0:0:0:
320,192,185605,1,8,0:0:0:0:
64,192,185689,1,6,0:0:0:0:
192,192,185689,1,0,0:0:0:80:G#5S_Ab5S_s.wav
448,192,185689,1,0,0:0:0:70:wind.wav
320,192,185772,1,0,0:0:0:80:A5S_s.wav
192,192,185855,1,0,0:0:0:80:G#5S_Ab5S_s.wav
64,192,185939,1,0,0:0:0:30:G5S_s.wav
448,192,186022,1,0,0:0:0:80:G#5S_Ab5S_s.wav
320,192,186105,1,0,0:0:0:80:C#6S_Db6S_s.wav
192,192,186189,1,0,0:0:0:80:E6S_s.wav
64,192,186272,1,0,0:0:0:80:D#6S_Eb6S_s.wav
448,192,186355,1,0,0:0:0:80:C#4S_Db4S_s.wav
320,192,186439,1,0,0:0:0:80:C#6S_Db6S_s.wav
64,192,186522,1,0,0:0:0:80:D#6S_Eb6S_s.wav
192,192,186605,1,0,0:0:0:80:C#6S_Db6S_s.wav
448,192,186689,1,0,0:0:0:80:C6S_s.wav
320,192,186772,1,0,0:0:0:80:C#6S_Db6S_s.wav
64,192,186855,1,0,0:0:0:80:E6S_s.wav
192,192,186939,1,0,0:0:0:80:G#6S_Ab6S_s.wav
448,192,187022,1,0,0:0:0:80:G#5S_Ab5S_s.wav
320,192,187105,1,0,0:0:0:80:A5S_s.wav
192,192,187189,1,0,0:0:0:80:G#5S_Ab5S_s.wav
64,192,187272,1,0,0:0:0:80:G5S_s.wav
448,192,187355,1,0,0:0:0:80:G#5S_Ab5S_s.wav
320,192,187439,1,0,0:0:0:80:C#6S_Db6S_s.wav
192,192,187522,1,0,0:0:0:80:E6S_s.wav
64,192,187605,1,0,0:0:0:80:D#6S_Eb6S_s.wav
448,192,187689,1,0,0:0:0:80:C#4S_Db4S_s.wav
320,192,187772,1,0,0:0:0:80:C#6S_Db6S_s.wav
64,192,187855,1,0,0:0:0:80:D#6S_Eb6S_s.wav
192,192,187939,1,0,0:0:0:80:C#6S_Db6S_s.wav
448,192,188022,1,0,0:0:0:80:C6S_s.wav
320,192,188105,1,0,0:0:0:80:C#6S_Db6S_s.wav
64,192,188189,1,0,0:0:0:80:E6S_s.wav
192,192,188272,1,0,0:0:0:80:G#6S_Ab6S_s.wav
448,192,188355,1,0,0:0:0:80:D#4S_Eb4S_s.wav
320,192,188439,1,0,0:0:0:80:A5S_s.wav
64,192,188522,1,0,0:0:0:80:C#6S_Db6S_s.wav
192,192,188605,1,0,0:0:0:80:D#6S_Eb6S_s.wav
320,192,188689,1,0,0:0:0:80:F#6S_Gb6S_s.wav
448,192,188772,1,0,0:0:0:80:A6S_s.wav
64,192,188855,1,0,0:0:0:80:C#7S_Db7S_s.wav
320,192,188939,1,0,0:0:0:80:D#7S_Eb7S_s.wav
192,192,189022,1,0,0:0:0:80:B7S_s.wav
448,192,189105,1,0,0:0:0:80:A7S_s.wav
64,192,189189,1,0,0:0:0:80:G#7S_Ab7S_s.wav
320,192,189272,1,0,0:0:0:80:F#7S_Gb7S_s.wav
192,192,189355,1,0,0:0:0:80:E7S_s.wav
448,192,189439,1,0,0:0:0:80:D#7S_Eb7S_s.wav
64,192,189522,1,0,0:0:0:80:F#7S_Gb7S_s.wav
320,192,189605,1,0,0:0:0:80:C#7S_Db7S_s.wav
448,192,189689,1,0,0:0:0:80:C7S_s.wav
192,192,189772,1,0,0:0:0:80:D#7S_Eb7S_s.wav
320,192,189855,1,0,0:0:0:80:A6S_s.wav
64,192,189939,1,0,0:0:0:80:G#6S_Ab6S_s.wav
448,192,190022,1,0,0:0:0:80:F#6S_Gb6S_s.wav
192,192,190105,1,0,0:0:0:80:A6S_s.wav
320,192,190189,1,0,0:0:0:80:E6S_s.wav
64,192,190272,1,0,0:0:0:80:D#6S_Eb6S_s.wav
448,192,190355,1,0,0:0:0:80:F#6S_Gb6S_s.wav
192,192,190439,1,0,0:0:0:80:C#6S_Db6S_s.wav
320,192,190522,1,0,0:0:0:80:C6S_s.wav
448,192,190605,1,0,0:0:0:80:D#6S_Eb6S_s.wav
64,192,190689,1,0,0:0:0:80:A5S_s.wav
192,192,190772,1,0,0:0:0:80:G#5S_Ab5S_s.wav
320,192,190855,1,2,0:0:0:0:
448,192,190855,1,0,0:0:0:80:B5S_s.wav
192,192,190939,1,0,0:0:0:0:
64,192,191022,1,2,0:0:0:0:
320,192,191022,1,4,0:0:0:0:
448,192,191022,1,8,0:0:0:0:
192,192,191105,1,8,0:0:0:0:
320,192,191189,1,8,0:0:0:0:
448,192,191272,1,8,0:0:0:0:
64,192,191355,1,8,0:0:0:0:
192,192,191355,1,0,0:0:0:0:
320,192,191439,1,8,0:0:0:0:
192,192,191522,1,8,0:0:0:0:
64,192,191605,1,8,0:0:0:0:
320,192,191689,1,8,0:0:0:0:
448,192,191689,1,0,0:0:0:0:
192,192,191772,1,8,0:0:0:0:
320,192,191855,1,8,0:0:0:0:
448,192,191939,1,8,0:0:0:0:
64,192,192022,1,8,0:0:0:0:
192,192,192022,1,0,0:0:0:0:
320,192,192105,1,8,0:0:0:0:
192,192,192189,1,8,0:0:0:0:
64,192,192272,1,8,0:0:0:0:
320,192,192355,1,4,0:0:0:0:
448,192,192355,1,8,0:0:0:0:
192,192,192439,1,8,0:0:0:0:
448,192,192522,1,8,0:0:0:0:
320,192,192605,1,8,0:0:0:0:
64,192,192689,1,8,0:0:0:0:
192,192,192689,1,0,0:0:0:0:
320,192,192772,1,8,0:0:0:0:
64,192,192855,1,8,0:0:0:0:
192,192,192939,1,8,0:0:0:0:
320,192,193022,1,8,0:0:0:0:
448,192,193022,1,0,0:0:0:0:
192,192,193105,1,8,0:0:0:0:
448,192,193189,1,8,0:0:0:0:
320,192,193272,1,8,0:0:0:0:
64,192,193355,1,8,0:0:0:0:
192,192,193355,1,0,0:0:0:0:
320,192,193439,1,8,0:0:0:0:
64,192,193522,1,8,0:0:0:0:
192,192,193605,1,8,0:0:0:0:
320,192,193689,1,8,0:0:0:0:
448,192,193689,1,4,0:0:0:0:
64,192,193772,1,8,0:0:0:0:
192,192,193855,1,8,0:0:0:0:
320,192,193939,1,8,0:0:0:0:
64,192,194022,1,8,0:0:0:0:
448,192,194022,1,0,0:0:0:0:
192,192,194105,1,8,0:0:0:0:
448,192,194189,1,8,0:0:0:0:
320,192,194272,1,8,0:0:0:0:
64,192,194355,1,8,0:0:0:0:
192,192,194355,1,4,0:0:0:0:
448,192,194439,1,8,0:0:0:0:
64,192,194522,1,8,0:0:0:0:
320,192,194522,1,0,0:0:0:0:
192,192,194605,1,8,0:0:0:0:
64,192,194689,1,8,0:0:0:0:
448,192,194689,1,0,0:0:0:0:
320,192,194772,1,8,0:0:0:0:
64,192,194855,1,8,0:0:0:0:
448,192,194855,1,0,0:0:0:0:
192,192,194939,1,8,0:0:0:0:
320,192,195022,1,4,0:0:0:0:
448,192,195022,1,8,0:0:0:0:
192,192,195105,1,8,0:0:0:0:
64,192,195189,1,8,0:0:0:0:
320,192,195189,1,0,0:0:0:0:
448,192,195272,1,8,0:0:0:0:
64,192,195355,1,4,0:0:0:0:
192,192,195355,1,8,0:0:0:0:
320,192,195439,1,8,0:0:0:0:
192,192,195522,1,8,0:0:0:0:
448,192,195522,1,0,0:0:0:0:
64,192,195605,1,8,0:0:0:0:
320,192,195689,1,8,0:0:0:0:
448,192,195689,1,4,0:0:0:0:
192,192,195772,1,8,0:0:0:0:
64,192,195855,1,8,0:0:0:0:
320,192,195855,1,0,0:0:0:0:
448,192,195939,1,8,0:0:0:0:
64,192,196022,1,4,0:0:0:0:
192,192,196022,1,8,0:0:0:0:
320,192,196105,1,8,0:0:0:0:
192,192,196189,1,8,0:0:0:0:
448,192,196189,1,0,0:0:0:0:
64,192,196272,1,8,0:0:0:0:
320,192,196355,1,0,0:0:0:40:G#6S_Ab6S_s.wav
448,192,196355,1,0,0:0:0:40:G#6S_Ab6S_s.wav
192,192,196467,1,0,0:0:0:80:C6S_s.wav
448,192,196578,1,0,0:0:0:80:C#6S_Db6S_s.wav
192,192,196689,1,0,0:0:0:40:F#6S_Gb6S_s.wav
64,192,196689,1,0,0:0:0:40:F#6S_Gb6S_s.wav
320,192,196800,1,0,0:0:0:80:C6S_s.wav
192,192,196911,1,0,0:0:0:80:C#6S_Db6S_s.wav
64,192,197022,1,0,0:0:0:40:F6S_s.wav
448,192,197022,1,0,0:0:0:40:F6S_s.wav
320,192,197133,1,0,0:0:0:80:C6S_s.wav
64,192,197244,1,0,0:0:0:80:C#6S_Db6S_s.wav
320,192,197355,1,0,0:0:0:40:F#6S_Gb6S_s.wav
448,192,197355,1,0,0:0:0:40:F#6S_Gb6S_s.wav
192,192,197467,1,0,0:0:0:80:C6S_s.wav
320,192,197578,1,0,0:0:0:80:C#6S_Db6S_s.wav
64,192,197689,1,2,0:0:0:0:
192,192,197689,1,8,0:0:0:0:
448,192,197689,1,4,0:0:0:0:
320,192,197855,1,2,0:0:0:0:
448,192,197855,1,0,0:0:0:0:
192,192,197939,1,2,0:0:0:0:
64,192,198022,1,2,0:0:0:0:
320,192,198022,1,8,0:0:0:0:
448,192,198022,1,4,0:0:0:0:
64,192,198189,1,2,0:0:0:0:
192,192,198189,1,0,0:0:0:0:
320,192,198272,1,2,0:0:0:0:
64,192,198355,1,10,0:0:0:0:
192,192,198355,1,4,0:0:0:0:
448,192,198397,1,2,0:0:0:0:
320,192,198439,1,2,0:0:0:0:
192,192,198480,1,2,0:0:0:0:
64,192,198522,1,2,0:0:0:0:
448,192,198522,1,0,0:0:0:0:
320,192,198605,1,2,0:0:0:0:
64,192,198689,1,2,0:0:0:0:
192,192,198689,1,8,0:0:0:0:
448,192,198689,1,4,0:0:0:0:
320,192,198772,1,2,0:0:0:0:
64,192,198855,1,2,0:0:0:0:
192,192,198855,1,0,0:0:0:0:
320,192,198939,1,2,0:0:0:0:
64,192,199022,1,2,0:0:0:0:
192,192,199022,1,4,0:0:0:0:
448,192,199022,1,0,0:0:0:70:wind.wav
320,192,199189,1,0,0:0:0:0:
192,192,199272,1,0,0:0:0:0:
64,192,199355,1,2,0:0:0:0:
320,192,199355,1,0,0:0:0:0:
448,192,199355,1,0,0:0:0:0:
64,192,199522,1,0,0:0:0:0:
192,192,199605,1,0,0:0:0:0:
320,192,199689,1,2,0:0:0:0:
448,192,199689,1,0,0:0:0:0:
64,192,199855,1,0,0:0:0:0:
192,192,199939,1,0,0:0:0:0:
64,192,200022,1,2,0:0:0:0:
320,192,200022,1,0,0:0:0:0:
448,192,200022,1,0,0:0:0:0:
320,192,200189,1,0,0:0:0:0:
192,192,200272,1,0,0:0:0:0:
64,192,200355,1,8,0:0:0:0:
320,192,200355,1,2,0:0:0:0:
448,192,200355,1,0,0:0:0:0:
64,192,200522,1,2,0:0:0:0:
192,192,200522,1,0,0:0:0:0:
320,192,200605,1,2,0:0:0:0:
64,192,200689,1,4,0:0:0:0:
192,192,200689,1,8,0:0:0:0:
448,192,200689,1,2,0:0:0:0:
320,192,200855,1,2,0:0:0:0:
448,192,200855,1,0,0:0:0:0:
192,192,200939,1,2,0:0:0:0:
320,192,201022,1,4,0:0:0:0:
448,192,201022,1,2,0:0:0:0:
64,192,201022,1,8,0:0:0:0:
192,192,201105,1,2,0:0:0:0:
64,192,201189,1,2,0:0:0:0:
448,192,201230,1,2,0:0:0:0:
320,192,201272,1,2,0:0:0:0:
192,192,201314,1,2,0:0:0:0:
64,192,201355,1,12,0:0:0:0:
448,192,201355,1,2,0:0:0:0:
320,192,201439,1,2,0:0:0:0:
448,192,201522,1,2,0:0:0:0:
64,192,201564,1,2,0:0:0:0:
192,192,201605,1,2,0:0:0:0:
320,192,201647,1,2,0:0:0:0:
64,192,201689,1,4,0:0:0:0:
192,192,201689,1,2,0:0:0:0:
448,192,201689,1,0,0:0:0:0:
320,192,201855,1,0,0:0:0:0:
192,192,201939,1,0,0:0:0:0:
64,192,202022,1,2,0:0:0:0:
320,192,202022,1,0,0:0:0:0:
448,192,202022,1,0,0:0:0:0:
64,192,202189,1,0,0:0:0:0:
192,192,202272,1,0,0:0:0:0:
320,192,202355,1,2,0:0:0:0:
448,192,202355,1,0,0:0:0:0:
320,192,202522,1,0,0:0:0:0:
64,192,202605,1,2,0:0:0:0:
192,192,202605,1,0,0:0:0:0:
320,192,202689,1,2,0:0:0:0:
448,192,202689,1,0,0:0:0:0:
64,192,202855,1,2,0:0:0:0:
192,192,202855,1,0,0:0:0:0:
320,192,202939,1,0,0:0:0:0:
64,192,203022,1,4,0:0:0:0:
192,192,203022,1,8,0:0:0:0:
448,192,203022,1,2,0:0:0:0:
320,192,203189,1,2,0:0:0:0:
448,192,203189,1,0,0:0:0:0:
192,192,203272,1,0,0:0:0:0:
64,192,203355,1,4,0:0:0:0:
320,192,203355,1,8,0:0:0:0:
448,192,203355,1,2,0:0:0:0:
192,192,203439,1,2,0:0:0:0:
64,192,203522,1,2,0:0:0:0:
448,192,203522,1,0,0:0:0:0:
320,192,203605,1,2,0:0:0:0:
64,192,203689,1,4,0:0:0:0:
192,192,203689,1,8,0:0:0:0:
448,192,203689,1,2,0:0:0:0:
320,192,203772,1,2,0:0:0:0:
64,192,203855,1,2,0:0:0:0:
448,192,203855,1,0,0:0:0:0:
192,192,203939,1,2,0:0:0:0:
64,192,204022,1,4,0:0:0:0:
320,192,204022,1,8,0:0:0:0:
448,192,204022,1,2,0:0:0:0:
192,192,204189,1,2,0:0:0:0:
448,192,204230,1,2,0:0:0:0:
320,192,204272,1,2,0:0:0:0:
192,192,204314,1,2,0:0:0:0:
64,192,204355,1,4,0:0:0:0:
320,192,204355,1,2,0:0:0:0:
448,192,204355,1,8,0:0:0:0:
192,192,204522,1,0,0:0:0:0:
320,192,204605,1,0,0:0:0:0:
64,192,204689,1,8,0:0:0:0:
192,192,204689,1,0,0:0:0:0:
448,192,204689,1,0,0:0:0:0:
64,192,204855,1,0,0:0:0:0:
192,192,204939,1,0,0:0:0:0:
64,192,205022,1,8,0:0:0:0:
320,192,205022,1,2,0:0:0:0:
448,192,205022,1,4,0:0:0:0:
320,192,205189,1,0,0:0:0:0:
192,192,205272,1,0,0:0:0:0:
64,192,205355,1,8,0:0:0:0:
320,192,205355,1,0,0:0:0:0:
448,192,205355,1,0,0:0:0:0:
448,192,205522,1,0,0:0:0:0:
320,192,205605,1,0,0:0:0:0:
64,192,205689,1,2,0:0:0:0:
192,192,205689,1,8,0:0:0:0:
448,192,205689,1,4,0:0:0:0:
192,192,205855,1,0,0:0:0:0:
320,192,205939,1,0,0:0:0:0:
64,192,206022,1,2,0:0:0:0:
192,192,206022,1,8,0:0:0:0:
448,192,206022,1,4,0:0:0:0:
64,192,206189,1,0,0:0:0:0:
192,192,206272,1,0,0:0:0:0:
64,192,206355,1,8,0:0:0:0:
320,192,206355,1,0,0:0:0:0:
448,192,206355,1,0,0:0:0:0:
320,192,206522,1,0,0:0:0:0:
192,192,206605,1,0,0:0:0:0:
64,192,206689,1,8,0:0:0:0:
320,192,206689,1,0,0:0:0:0:
448,192,206689,1,0,0:0:0:0:
448,192,206855,1,0,0:0:0:0:
320,192,206939,1,0,0:0:0:0:
64,192,207022,1,2,0:0:0:0:
192,192,207022,1,8,0:0:0:0:
448,192,207022,1,0,0:0:0:0:
64,192,207189,1,2,0:0:0:0:
192,192,207189,1,0,0:0:0:0:
320,192,207272,1,0,0:0:0:0:
64,192,207355,1,8,0:0:0:0:
192,192,207355,1,2,0:0:0:0:
448,192,207355,1,4,0:0:0:0:
320,192,207522,1,2,0:0:0:0:
448,192,207522,1,0,0:0:0:0:
192,192,207605,1,2,0:0:0:0:
64,192,207689,1,8,0:0:0:0:
320,192,207689,1,2,0:0:0:0:
448,192,207689,1,0,0:0:0:0:
64,192,207855,1,2,0:0:0:0:
192,192,207855,1,0,0:0:0:0:
320,192,207939,1,0,0:0:0:0:
64,192,208022,1,8,0:0:0:0:
192,192,208022,1,2,0:0:0:0:
448,192,208022,1,0,0:0:0:0:
320,192,208189,1,2,0:0:0:0:
448,192,208189,1,0,0:0:0:0:
192,192,208272,1,0,0:0:0:0:
64,192,208355,1,8,0:0:0:0:
320,192,208355,1,2,0:0:0:0:
448,192,208355,1,0,0:0:0:0:
64,192,208522,1,2,0:0:0:0:
192,192,208522,1,0,0:0:0:0:
320,192,208605,1,2,0:0:0:0:
64,192,208689,1,8,0:0:0:0:
192,192,208689,1,2,0:0:0:0:
448,192,208689,1,4,0:0:0:0:
320,192,208855,1,2,0:0:0:0:
448,192,208855,1,0,0:0:0:0:
192,192,208939,1,2,0:0:0:0:
64,192,209022,1,2,0:0:0:0:
320,192,209022,1,8,0:0:0:0:
448,192,209022,1,0,0:0:0:0:
64,192,209189,1,2,0:0:0:0:
192,192,209189,1,0,0:0:0:0:
320,192,209272,1,0,0:0:0:0:
64,192,209355,1,2,0:0:0:0:
192,192,209355,1,8,0:0:0:0:
448,192,209355,1,0,0:0:0:0:
64,192,209522,1,8,0:0:0:0:
192,192,209522,1,2,0:0:0:0:
320,192,209605,1,2,0:0:0:0:
64,192,209689,1,2,0:0:0:0:
192,192,209689,1,4,0:0:0:0:
448,192,209689,1,8,0:0:0:0:
320,192,209772,1,8,0:0:0:0:
64,192,209855,1,2,0:0:0:0:
448,192,209855,1,0,0:0:0:0:
192,192,209939,1,8,0:0:0:0:
64,192,210022,1,8,0:0:0:0:
320,192,210022,1,2,0:0:0:0:
448,192,210022,1,4,0:0:0:0:
192,192,210105,1,8,0:0:0:0:
320,192,210189,1,2,0:0:0:0:
448,192,210189,1,0,0:0:0:0:
192,192,210272,1,8,0:0:0:0:
64,192,210355,1,2,0:0:0:0:
320,192,210355,1,4,0:0:0:0:
448,192,210355,1,8,0:0:0:0:
192,192,210439,1,8,0:0:0:0:
64,192,210522,1,2,0:0:0:0:
448,192,210522,1,0,0:0:0:0:
320,192,210605,1,8,0:0:0:0:
64,192,210689,1,2,0:0:0:0:
192,192,210689,1,4,0:0:0:0:
448,192,210689,1,8,0:0:0:0:
320,192,210772,1,8,0:0:0:0:
64,192,210855,1,2,0:0:0:0:
192,192,210855,1,0,0:0:0:0:
320,192,210939,1,8,0:0:0:0:
448,192,210939,1,0,0:0:0:0:
64,192,211022,1,6,0:0:0:0:
192,192,211022,1,8,0:0:0:0:
320,192,211105,1,2,0:0:0:0:
448,192,211105,1,8,0:0:0:0:
64,192,211189,1,2,0:0:0:0:
192,192,211189,1,0,0:0:0:0:
320,192,211272,1,2,0:0:0:0:
448,192,211272,1,8,0:0:0:0:
64,192,211355,1,6,0:0:0:0:
192,192,211355,1,8,0:0:0:0:
320,192,211439,1,2,0:0:0:0:
448,192,211439,1,8,0:0:0:0:
64,192,211522,1,2,0:0:0:0:
192,192,211522,1,0,0:0:0:0:
320,192,211605,1,2,0:0:0:0:
448,192,211605,1,8,0:0:0:0:
64,192,211689,1,6,0:0:0:0:
192,192,211689,1,8,0:0:0:0:
320,192,211772,1,2,0:0:0:0:
448,192,211772,1,8,0:0:0:0:
64,192,211855,1,2,0:0:0:0:
192,192,211855,1,8,0:0:0:0:
320,192,211939,1,2,0:0:0:0:
448,192,211939,1,8,0:0:0:0:
64,192,212022,1,6,0:0:0:0:
192,192,212022,1,8,0:0:0:0:
320,192,212105,1,2,0:0:0:0:
448,192,212105,1,8,0:0:0:0:
64,192,212189,1,2,0:0:0:0:
192,192,212189,1,8,0:0:0:0:
320,192,212272,1,10,0:0:0:0:
64,192,212355,1,2,0:0:0:0:
192,192,212355,1,4,0:0:0:0:
448,192,212355,1,0,0:0:0:70:wind.wav
320,192,212439,1,0,0:0:0:0:
192,192,212522,1,0,0:0:0:0:
320,192,212605,1,0,0:0:0:0:
64,192,212689,1,2,0:0:0:0:
192,192,212689,1,0,0:0:0:0:
448,192,212689,1,0,0:0:0:0:
320,192,212772,1,0,0:0:0:0:
64,192,212855,1,0,0:0:0:0:
192,192,212939,1,0,0:0:0:0:
320,192,213022,1,2,0:0:0:0:
448,192,213022,1,0,0:0:0:0:
64,192,213105,1,0,0:0:0:0:
192,192,213189,1,0,0:0:0:0:
320,192,213272,1,0,0:0:0:0:
64,192,213355,1,2,0:0:0:0:
192,192,213355,1,0,0:0:0:0:
448,192,213355,1,0,0:0:0:0:
320,192,213439,1,0,0:0:0:0:
64,192,213522,1,0,0:0:0:0:
448,192,213605,1,0,0:0:0:0:
64,192,213689,1,2,0:0:0:0:
192,192,213689,1,0,0:0:0:0:
320,192,213772,1,0,0:0:0:0:
192,192,213855,1,0,0:0:0:0:
320,192,213939,1,0,0:0:0:0:
64,192,214022,1,2,0:0:0:0:
192,192,214022,1,0,0:0:0:0:
448,192,214022,1,0,0:0:0:0:
320,192,214105,1,0,0:0:0:0:
64,192,214189,1,0,0:0:0:0:
192,192,214272,1,0,0:0:0:0:
320,192,214355,1,2,0:0:0:0:
448,192,214355,1,0,0:0:0:0:
64,192,214439,1,0,0:0:0:0:
192,192,214522,1,0,0:0:0:0:
320,192,214605,1,0,0:0:0:0:
64,192,214689,1,2,0:0:0:0:
192,192,214689,1,0,0:0:0:0:
448,192,214689,1,0,0:0:0:0:
320,192,214772,1,0,0:0:0:0:
64,192,214855,1,0,0:0:0:0:
448,192,214939,1,0,0:0:0:0:
64,192,215022,1,2,0:0:0:0:
192,192,215022,1,0,0:0:0:0:
320,192,215105,1,0,0:0:0:0:
448,192,215189,1,0,0:0:0:0:
192,192,215272,1,0,0:0:0:0:
64,192,215355,1,2,0:0:0:0:
320,192,215355,1,0,0:0:0:0:
448,192,215355,1,0,0:0:0:0:
192,192,215439,1,0,0:0:0:0:
320,192,215522,1,0,0:0:0:0:
192,192,215605,1,0,0:0:0:0:
64,192,215689,1,2,0:0:0:0:
448,192,215689,1,0,0:0:0:0:
320,192,215772,1,0,0:0:0:0:
64,192,215855,1,0,0:0:0:0:
320,192,215939,1,0,0:0:0:0:
64,192,216022,1,2,0:0:0:0:
192,192,216022,1,0,0:0:0:0:
448,192,216022,1,0,0:0:0:0:
320,192,216105,1,0,0:0:0:0:
192,192,216189,1,0,0:0:0:0:
64,192,216272,1,0,0:0:0:0:
320,192,216355,1,2,0:0:0:0:
448,192,216355,1,0,0:0:0:0:
192,192,216439,1,0,0:0:0:0:
448,192,216522,1,0,0:0:0:0:
192,192,216605,1,0,0:0:0:0:
64,192,216689,1,2,0:0:0:0:
320,192,216689,1,0,0:0:0:0:
448,192,216689,1,0,0:0:0:0:
192,192,216772,1,0,0:0:0:0:
320,192,216855,1,0,0:0:0:0:
64,192,216939,1,0,0:0:0:0:
320,192,217022,1,2,0:0:0:0:
448,192,217022,1,0,0:0:0:0:
192,192,217105,1,0,0:0:0:0:
64,192,217189,1,0,0:0:0:0:
320,192,217272,1,2,0:0:0:0:
448,192,217272,1,0,0:0:0:0:
64,192,217355,1,2,0:0:0:0:
192,192,217355,1,0,0:0:0:0:
320,192,217439,1,0,0:0:0:0:
64,192,217522,1,2,0:0:0:0:
448,192,217522,1,0,0:0:0:0:
192,192,217605,1,0,0:0:0:0:
64,192,217689,1,2,0:0:0:0:
320,192,217689,1,4,0:0:0:0:
448,192,217689,1,0,0:0:0:0:
192,192,217772,1,0,0:0:0:0:
320,192,217855,1,0,0:0:0:0:
192,192,217939,1,0,0:0:0:0:
64,192,218022,1,2,0:0:0:0:
320,192,218022,1,0,0:0:0:0:
448,192,218022,1,0,0:0:0:0:
192,192,218105,1,0,0:0:0:0:
448,192,218189,1,0,0:0:0:0:
320,192,218272,1,0,0:0:0:0:
64,192,218355,1,2,0:0:0:0:
192,192,218355,1,0,0:0:0:0:
448,192,218439,1,0,0:0:0:0:
64,192,218522,1,0,0:0:0:0:
320,192,218605,1,0,0:0:0:0:
64,192,218689,1,2,0:0:0:0:
192,192,218689,1,0,0:0:0:0:
448,192,218689,1,0,0:0:0:0:
320,192,218772,1,0,0:0:0:0:
192,192,218855,1,0,0:0:0:0:
320,192,218939,1,0,0:0:0:0:
64,192,219022,1,2,0:0:0:0:
192,192,219022,1,4,0:0:0:0:
448,192,219022,1,0,0:0:0:0:
320,192,219105,1,0,0:0:0:0:
64,192,219189,1,0,0:0:0:0:
192,192,219272,1,0,0:0:0:0:
64,192,219355,1,2,0:0:0:0:
320,192,219355,1,0,0:0:0:0:
448,192,219355,1,0,0:0:0:0:
192,192,219439,1,0,0:0:0:0:
448,192,219522,1,0,0:0:0:0:
320,192,219605,1,0,0:0:0:0:
64,192,219689,1,2,0:0:0:0:
192,192,219689,1,0,0:0:0:0:
448,192,219772,1,0,0:0:0:0:
320,192,219855,1,0,0:0:0:0:
64,192,219939,1,2,0:0:0:0:
192,192,219939,1,0,0:0:0:0:
448,192,220022,1,0,0:0:0:0:
320,192,220105,1,0,0:0:0:0:
64,192,220189,1,2,0:0:0:0:
192,192,220189,1,0,0:0:0:0:
320,192,220272,1,0,0:0:0:0:
64,192,220355,1,2,0:0:0:0:
192,192,220355,1,4,0:0:0:0:
448,192,220355,1,0,0:0:0:0:
320,192,220439,1,0,0:0:0:0:
64,192,220522,1,0,0:0:0:0:
192,192,220605,1,0,0:0:0:0:
64,192,220689,1,2,0:0:0:0:
320,192,220689,1,0,0:0:0:0:
448,192,220689,1,0,0:0:0:0:
192,192,220772,1,0,0:0:0:0:
448,192,220855,1,0,0:0:0:0:
320,192,220939,1,0,0:0:0:0:
64,192,221022,1,2,0:0:0:0:
192,192,221022,1,4,0:0:0:0:
448,192,221022,1,0,0:0:0:0:
320,192,221105,1,0,0:0:0:0:
64,192,221189,1,0,0:0:0:0:
192,192,221272,1,0,0:0:0:0:
64,192,221355,1,2,0:0:0:0:
320,192,221355,1,0,0:0:0:0:
448,192,221355,1,0,0:0:0:0:
192,192,221439,1,0,0:0:0:0:
320,192,221522,1,0,0:0:0:0:
192,192,221605,1,0,0:0:0:0:
64,192,221689,1,2,0:0:0:0:
320,192,221689,1,4,0:0:0:0:
448,192,221689,1,0,0:0:0:0:
192,192,221772,1,0,0:0:0:0:
448,192,221855,1,0,0:0:0:0:
320,192,221939,1,0,0:0:0:0:
64,192,222022,1,2,0:0:0:0:
192,192,222022,1,4,0:0:0:0:
448,192,222022,1,0,0:0:0:0:
320,192,222105,1,0,0:0:0:0:
64,192,222189,1,0,0:0:0:0:
192,192,222272,1,0,0:0:0:0:
320,192,222355,1,2,0:0:0:0:
448,192,222355,1,4,0:0:0:0:
64,192,222439,1,2,0:0:0:0:
192,192,222439,1,0,0:0:0:0:
320,192,222522,1,0,0:0:0:0:
64,192,222605,1,2,0:0:0:0:
192,192,222605,1,0,0:0:0:0:
320,192,222689,1,2,0:0:0:0:
448,192,222689,1,4,0:0:0:0:
192,192,222772,1,0,0:0:0:0:
320,192,222855,1,2,0:0:0:0:
448,192,222855,1,0,0:0:0:0:
192,192,222939,1,0,0:0:0:0:
448,192,223022,1,2,0:0:0:0:
320,192,223022,1,4,0:0:0:0:
64,192,223022,1,0,0:0:0:0:
192,192,223105,1,0,0:0:0:50:LR_Snare Fast.wav
448,192,223189,1,2,0:0:0:0:
320,192,223189,1,0,0:0:0:50:LR_Snare Fast.wav
192,192,223272,1,0,0:0:0:50:LR_Snare Fast.wav
448,192,223355,1,2,0:0:0:0:
64,192,223355,1,0,0:0:0:50:LR_Snare Fast.wav
320,192,223439,1,0,0:0:0:50:LR_Snare Fast.wav
192,192,223522,1,2,0:0:0:0:
64,192,223522,1,0,0:0:0:50:LR_Snare Fast.wav
320,192,223605,1,0,0:0:0:50:LR_Snare Fast.wav
448,192,223689,1,2,0:0:0:0:
192,192,223689,1,0,0:0:0:50:LR_Snare Fast.wav
64,192,223689,1,0,0:0:0:0:
320,192,223772,1,0,0:0:0:50:LR_Snare Fast.wav
448,192,223855,1,2,0:0:0:0:
64,192,223855,1,0,0:0:0:50:LR_Snare Fast.wav
192,192,223939,1,0,0:0:0:50:LR_Snare Fast.wav
448,192,224022,1,2,0:0:0:0:
320,192,224022,1,0,0:0:0:50:LR_Snare Fast.wav
64,192,224105,1,0,0:0:0:50:LR_Snare Fast.wav
448,192,224189,1,2,0:0:0:0:
320,192,224189,1,0,0:0:0:50:LR_Snare Fast.wav
192,192,224272,1,2,0:0:0:0:
448,192,224355,1,2,0:0:0:0:
320,192,224355,1,4,0:0:0:0:
64,192,224355,1,0,0:0:0:0:
192,192,224439,1,0,0:0:0:50:LR_Snare Fast.wav
448,192,224522,1,2,0:0:0:0:
64,192,224522,1,0,0:0:0:50:LR_Snare Fast.wav
320,192,224605,1,0,0:0:0:50:LR_Snare Fast.wav
192,192,224689,1,2,0:0:0:0:
64,192,224689,1,0,0:0:0:50:LR_Snare Fast.wav
320,192,224772,1,0,0:0:0:50:LR_Snare Fast.wav
64,192,224855,1,2,0:0:0:0:
192,192,224855,1,0,0:0:0:50:LR_Snare Fast.wav
448,192,224897,1,2,0:0:0:0:
320,192,224939,1,2,0:0:0:0:
192,192,224980,1,2,0:0:0:0:
64,192,225022,1,2,0:0:0:0:
320,192,225022,1,0,0:0:0:50:LR_Snare Fast.wav
448,192,225022,1,0,0:0:0:0:
192,192,225105,1,2,0:0:0:0:
64,192,225189,1,2,0:0:0:0:
448,192,225189,1,0,0:0:0:50:LR_Snare Fast.wav
320,192,225272,1,2,0:0:0:0:
64,192,225355,1,2,0:0:0:0:
192,192,225355,1,0,0:0:0:50:LR_Snare Fast.wav
448,192,225355,1,0,0:0:0:0:
320,192,225439,1,0,0:0:0:50:LR_Snare Fast.wav
64,192,225522,1,2,0:0:0:0:
448,192,225522,1,0,0:0:0:50:LR_Snare Fast.wav
192,192,225605,1,0,0:0:0:50:LR_Snare Fast.wav
64,192,225689,1,2,0:0:0:0:
320,192,225689,1,4,0:0:0:0:
448,192,225689,1,0,0:0:0:0:
192,192,225772,1,0,0:0:0:50:LR_Snare Fast.wav
64,192,225855,1,0,0:0:0:50:LR_Snare Fast.wav
448,192,225855,1,0,0:0:0:0:
320,192,225939,1,0,0:0:0:50:LR_Snare Fast.wav
64,192,226022,1,8,0:0:0:0:
192,192,226022,1,0,0:0:0:0:
320,192,226105,1,8,0:0:0:0:
448,192,226105,1,0,0:0:0:0:
64,192,226189,1,8,0:0:0:0:
192,192,226189,1,0,0:0:0:0:
320,192,226272,1,8,0:0:0:0:
64,192,226355,1,2,0:0:0:0:
192,192,226355,1,4,0:0:0:0:
448,192,226355,1,8,0:0:0:0:
320,192,226439,1,8,0:0:0:0:
64,192,226522,1,8,0:0:0:0:
448,192,226522,1,0,0:0:0:0:
192,192,226605,1,8,0:0:0:0:
320,192,226689,1,8,0:0:0:0:
448,192,226689,1,0,0:0:0:0:
192,192,226772,1,8,0:0:0:0:
64,192,226772,1,0,0:0:0:0:
320,192,226855,1,8,0:0:0:0:
448,192,226855,1,0,0:0:0:0:
192,192,226939,1,8,0:0:0:0:
64,192,227022,1,8,0:0:0:0:
448,192,227022,1,0,0:0:0:0:
320,192,227105,1,8,0:0:0:0:
64,192,227189,1,0,0:0:0:0:
192,192,227189,1,8,0:0:0:0:
320,192,227272,1,8,0:0:0:0:
64,192,227355,1,0,0:0:0:0:
192,192,227355,1,8,0:0:0:0:
320,192,227439,1,8,0:0:0:0:
64,192,227522,1,0,0:0:0:0:
192,192,227522,1,8,0:0:0:0:
320,192,227605,1,8,0:0:0:0:
192,192,227689,1,0,0:0:0:0:
64,192,227689,1,8,0:0:0:0:
448,192,227730,1,8,0:0:0:0:
320,192,227772,1,8,0:0:0:0:
192,192,227814,1,8,0:0:0:0:
64,192,227855,1,8,0:0:0:0:
448,192,227897,1,8,0:0:0:0:
320,192,227939,1,8,0:0:0:0:
64,192,227980,1,8,0:0:0:0:
192,192,228022,1,8,0:0:0:0:
320,192,228064,1,8,0:0:0:0:
448,192,228105,1,8,0:0:0:0:
64,192,228147,1,8,0:0:0:0:
192,192,228189,1,8,0:0:0:0:
320,192,228230,1,8,0:0:0:0:
448,192,228272,1,8,0:0:0:0:
192,192,228314,1,8,0:0:0:0:
64,192,228355,128,0,228605:0:0:0:0:
448,192,228355,128,2,228605:0:0:0:0:
448,192,228689,1,2,0:0:0:0:
192,192,228689,1,4,0:0:0:0:
64,192,228689,1,8,0:0:0:0:
320,192,228772,1,8,0:0:0:0:
192,192,228855,1,8,0:0:0:0:
320,192,228939,1,8,0:0:0:0:
64,192,229022,1,2,0:0:0:0:
192,192,229022,1,4,0:0:0:0:
448,192,229022,1,8,0:0:0:0:
320,192,229105,1,8,0:0:0:0:
64,192,229189,1,8,0:0:0:0:
192,192,229272,1,8,0:0:0:0:
64,192,229355,1,2,0:0:0:0:
320,192,229355,1,4,0:0:0:0:
448,192,229355,1,8,0:0:0:0:
192,192,229439,1,8,0:0:0:0:
320,192,229522,1,8,0:0:0:0:
192,192,229605,1,8,0:0:0:0:
64,192,229689,1,2,0:0:0:0:
320,192,229689,1,4,0:0:0:0:
448,192,229689,1,8,0:0:0:0:
192,192,229772,1,8,0:0:0:0:
448,192,229855,1,8,0:0:0:0:
320,192,229939,1,8,0:0:0:0:
64,192,230022,1,2,0:0:0:0:
192,192,230022,1,4,0:0:0:0:
448,192,230022,1,8,0:0:0:0:
320,192,230105,1,8,0:0:0:0:
192,192,230189,1,8,0:0:0:0:
320,192,230272,1,8,0:0:0:0:
64,192,230355,1,2,0:0:0:0:
192,192,230355,1,4,0:0:0:0:
448,192,230355,1,8,0:0:0:0:
320,192,230439,1,8,0:0:0:0:
64,192,230522,1,8,0:0:0:0:
192,192,230605,1,8,0:0:0:0:
64,192,230689,1,2,0:0:0:0:
320,192,230689,1,4,0:0:0:0:
448,192,230689,1,8,0:0:0:0:
192,192,230772,1,8,0:0:0:0:
320,192,230855,1,2,0:0:0:0:
448,192,230855,1,8,0:0:0:0:
192,192,230939,1,10,0:0:0:0:
64,192,231022,1,2,0:0:0:0:
320,192,231022,1,4,0:0:0:0:
448,192,231022,1,8,0:0:0:0:
192,192,231105,1,8,0:0:0:0:
64,192,231189,1,2,0:0:0:0:
448,192,231189,1,8,0:0:0:0:
320,192,231272,1,8,0:0:0:0:
64,192,231355,1,2,0:0:0:0:
192,192,231355,1,4,0:0:0:0:
448,192,231355,1,8,0:0:0:0:
320,192,231439,1,8,0:0:0:0:
64,192,231522,1,2,0:0:0:0:
192,192,231522,1,8,0:0:0:0:
320,192,231605,1,8,0:0:0:0:
64,192,231689,1,2,0:0:0:0:
192,192,231689,1,4,0:0:0:0:
448,192,231689,1,8,0:0:0:0:
320,192,231772,1,8,0:0:0:0:
64,192,231855,1,2,0:0:0:0:
448,192,231855,1,8,0:0:0:0:
192,192,231939,1,8,0:0:0:0:
64,192,232022,1,4,0:0:0:0:
320,192,232022,1,2,0:0:0:0:
448,192,232022,1,8,0:0:0:0:
192,192,232105,1,8,0:0:0:0:
320,192,232189,1,2,0:0:0:0:
448,192,232189,1,8,0:0:0:0:
192,192,232272,1,8,0:0:0:0:
64,192,232272,1,0,0:0:0:0:
320,192,232355,1,6,0:0:0:0:
448,192,232355,1,8,0:0:0:0:
64,192,232439,1,2,0:0:0:0:
192,192,232439,1,8,0:0:0:0:
320,192,232522,1,2,0:0:0:0:
448,192,232522,1,8,0:0:0:0:
64,192,232605,1,2,0:0:0:0:
192,192,232605,1,8,0:0:0:0:
320,192,232689,1,6,0:0:0:0:
448,192,232689,1,8,0:0:0:0:
64,192,232772,1,2,0:0:0:0:
192,192,232772,1,8,0:0:0:0:
320,192,232855,1,2,0:0:0:0:
448,192,232855,1,8,0:0:0:0:
192,192,232939,1,10,0:0:0:0:
64,192,233022,1,2,0:0:0:0:
320,192,233022,1,4,0:0:0:0:
448,192,233022,1,8,0:0:0:0:
192,192,233105,1,8,0:0:0:0:
320,192,233189,1,8,0:0:0:0:
448,192,233272,1,8,0:0:0:0:
64,192,233355,1,8,0:0:0:0:
192,192,233439,1,8,0:0:0:0:
320,192,233522,1,8,0:0:0:0:
192,192,233605,1,8,0:0:0:0:
64,192,233689,1,4,0:0:0:0:
320,192,233689,1,2,0:0:0:0:
448,192,233689,1,0,0:0:0:70:wind.wav
192,192,233855,1,2,0:0:0:0:
448,192,233855,1,0,0:0:0:0:
64,192,234022,1,2,0:0:0:0:
192,192,234022,1,0,0:0:0:0:
320,192,234022,1,0,0:0:0:0:
64,192,234189,1,2,0:0:0:0:
448,192,234189,1,0,0:0:0:0:
192,192,234355,1,2,0:0:0:0:
320,192,234355,1,0,0:0:0:0:
448,192,234355,1,0,0:0:0:0:
64,192,234522,1,2,0:0:0:0:
320,192,234522,1,0,0:0:0:0:
64,192,234689,1,2,0:0:0:0:
192,192,234689,1,0,0:0:0:0:
448,192,234689,1,0,0:0:0:0:
192,192,234855,1,2,0:0:0:0:
320,192,234855,1,0,0:0:0:0:
64,192,235022,1,2,0:0:0:0:
320,192,235022,1,0,0:0:0:0:
448,192,235022,1,0,0:0:0:0:
192,192,235189,1,2,0:0:0:0:
448,192,235189,1,0,0:0:0:0:
64,192,235355,1,2,0:0:0:0:
192,192,235355,1,0,0:0:0:0:
320,192,235355,1,0,0:0:0:0:
64,192,235522,1,2,0:0:0:0:
448,192,235522,1,0,0:0:0:0:
320,192,235689,1,2,0:0:0:0:
448,192,235689,1,0,0:0:0:0:
64,192,235772,1,2,0:0:0:0:
192,192,235772,1,0,0:0:0:0:
320,192,235855,1,2,0:0:0:0:
448,192,235855,1,0,0:0:0:0:
64,192,236022,1,2,0:0:0:0:
192,192,236022,1,0,0:0:0:0:
320,192,236022,1,0,0:0:0:0:
64,192,236189,1,2,0:0:0:0:
192,192,236189,1,0,0:0:0:0:
320,192,236272,1,2,0:0:0:0:
64,192,236355,1,4,0:0:0:0:
192,192,236355,1,2,0:0:0:0:
448,192,236355,1,0,0:0:0:0:
64,192,236522,1,2,0:0:0:0:
320,192,236522,1,0,0:0:0:0:
192,192,236689,1,2,0:0:0:0:
320,192,236689,1,0,0:0:0:0:
448,192,236689,1,0,0:0:0:0:
64,192,236855,1,2,0:0:0:0:
448,192,236855,1,0,0:0:0:0:
64,192,237022,1,2,0:0:0:0:
192,192,237022,1,0,0:0:0:0:
320,192,237022,1,0,0:0:0:0:
192,192,237189,1,2,0:0:0:0:
448,192,237189,1,0,0:0:0:0:
64,192,237355,1,2,0:0:0:0:
320,192,237355,1,0,0:0:0:0:
448,192,237355,1,0,0:0:0:0:
192,192,237522,1,2,0:0:0:0:
320,192,237522,1,0,0:0:0:0:
64,192,237689,1,2,0:0:0:0:
192,192,237689,1,0,0:0:0:0:
448,192,237689,1,0,0:0:0:0:
64,192,237855,1,2,0:0:0:0:
320,192,237855,1,0,0:0:0:0:
192,192,238022,1,2,0:0:0:0:
320,192,238022,1,0,0:0:0:0:
448,192,238022,1,0,0:0:0:0:
64,192,238189,1,2,0:0:0:0:
448,192,238189,1,0,0:0:0:0:
192,192,238230,1,2,0:0:0:0:
320,192,238272,1,2,0:0:0:0:
448,192,238314,1,2,0:0:0:0:
64,192,238355,1,2,0:0:0:0:
192,192,238355,1,0,0:0:0:0:
320,192,238439,1,2,0:0:0:0:
448,192,238439,1,0,0:0:0:0:
64,192,238522,1,2,0:0:0:0:
192,192,238522,1,0,0:0:0:0:
320,192,238605,1,2,0:0:0:0:
448,192,238605,1,0,0:0:0:0:
64,192,238689,1,2,0:0:0:0:
192,192,238689,1,0,0:0:0:0:
64,192,238855,1,2,0:0:0:0:
448,192,238855,1,0,0:0:0:0:
320,192,238897,1,2,0:0:0:0:
192,192,238939,1,2,0:0:0:0:
64,192,238980,1,2,0:0:0:0:
320,192,239022,1,6,0:0:0:0:
448,192,239022,1,8,0:0:0:0:
64,192,239189,1,2,0:0:0:0:
192,192,239189,1,0,0:0:0:0:
320,192,239189,1,0,0:0:0:0:
64,192,239355,1,2,0:0:0:0:
192,192,239355,1,8,0:0:0:0:
448,192,239355,1,0,0:0:0:0:
192,192,239522,1,2,0:0:0:0:
320,192,239522,1,0,0:0:0:0:
448,192,239522,1,0,0:0:0:0:
64,192,239689,1,2,0:0:0:0:
320,192,239689,1,8,0:0:0:0:
448,192,239689,1,0,0:0:0:0:
64,192,239855,1,2,0:0:0:0:
192,192,239855,1,0,0:0:0:0:
320,192,239855,1,0,0:0:0:0:
64,192,240022,1,2,0:0:0:0:
192,192,240022,1,8,0:0:0:0:
448,192,240022,1,0,0:0:0:0:
192,192,240189,1,2,0:0:0:0:
320,192,240189,1,0,0:0:0:0:
448,192,240189,1,0,0:0:0:0:
64,192,240355,1,4,0:0:0:0:
320,192,240355,1,2,0:0:0:0:
448,192,240355,1,8,0:0:0:0:
64,192,240522,1,2,0:0:0:0:
192,192,240522,1,0,0:0:0:0:
320,192,240522,1,0,0:0:0:0:
64,192,240689,1,2,0:0:0:0:
192,192,240689,1,8,0:0:0:0:
448,192,240689,1,0,0:0:0:0:
192,192,240855,1,2,0:0:0:0:
320,192,240855,1,0,0:0:0:0:
448,192,240855,1,0,0:0:0:0:
64,192,241022,1,2,0:0:0:0:
320,192,241022,1,8,0:0:0:0:
448,192,241022,1,0,0:0:0:0:
64,192,241189,1,2,0:0:0:0:
192,192,241189,1,0,0:0:0:0:
320,192,241189,1,0,0:0:0:0:
64,192,241355,1,2,0:0:0:0:
192,192,241355,1,8,0:0:0:0:
448,192,241355,1,0,0:0:0:0:
192,192,241522,1,2,0:0:0:0:
320,192,241522,1,0,0:0:0:0:
448,192,241522,1,0,0:0:0:0:
320,192,241689,1,2,0:0:0:0:
448,192,241689,1,4,0:0:0:0:
64,192,241772,1,2,0:0:0:0:
192,192,241772,1,0,0:0:0:0:
320,192,241855,1,2,0:0:0:0:
448,192,241855,1,0,0:0:0:0:
64,192,241939,1,2,0:0:0:0:
192,192,241939,1,0,0:0:0:0:
320,192,242022,1,2,0:0:0:0:
448,192,242022,1,0,0:0:0:0:
64,192,242105,1,2,0:0:0:0:
192,192,242105,1,0,0:0:0:0:
320,192,242189,1,2,0:0:0:0:
448,192,242189,1,0,0:0:0:0:
64,192,242272,1,2,0:0:0:0:
192,192,242272,1,0,0:0:0:0:
320,192,242355,1,2,0:0:0:0:
448,192,242355,1,4,0:0:0:0:
64,192,242439,1,2,0:0:0:0:
192,192,242439,1,0,0:0:0:0:
320,192,242522,1,2,0:0:0:0:
448,192,242522,1,0,0:0:0:0:
64,192,242605,1,2,0:0:0:0:
192,192,242605,1,0,0:0:0:0:
320,192,242689,1,2,0:0:0:0:
448,192,242689,1,0,0:0:0:0:
64,192,242772,1,2,0:0:0:0:
192,192,242772,1,0,0:0:0:0:
320,192,242855,1,2,0:0:0:0:
448,192,242855,1,0,0:0:0:0:
64,192,242939,1,2,0:0:0:0:
192,192,242939,1,0,0:0:0:0:
320,192,243022,1,4,0:0:0:0:
448,192,243022,1,8,0:0:0:0:
192,192,243105,1,8,0:0:0:0:
320,192,243189,1,8,0:0:0:0:
448,192,243189,1,0,0:0:0:0:
192,192,243272,1,8,0:0:0:0:
320,192,243355,1,8,0:0:0:0:
448,192,243355,1,4,0:0:0:0:
192,192,243439,1,8,0:0:0:0:
320,192,243522,1,8,0:0:0:0:
448,192,243522,1,0,0:0:0:0:
192,192,243605,1,8,0:0:0:0:
64,192,243689,1,8,0:0:0:0:
448,192,243689,1,4,0:0:0:0:
320,192,243772,1,8,0:0:0:0:
64,192,243855,1,8,0:0:0:0:
192,192,243855,1,0,0:0:0:0:
320,192,243939,1,8,0:0:0:0:
64,192,244022,1,8,0:0:0:0:
192,192,244022,1,4,0:0:0:0:
320,192,244105,1,8,0:0:0:0:
64,192,244189,1,8,0:0:0:0:
192,192,244189,1,0,0:0:0:0:
320,192,244272,1,8,0:0:0:0:
64,192,244355,1,2,0:0:0:0:
192,192,244355,1,4,0:0:0:0:
448,192,244355,1,0,0:0:0:70:wind.wav
320,192,244522,1,0,0:0:0:0:
192,192,244605,1,0,0:0:0:0:
64,192,244689,1,2,0:0:0:0:
448,192,244689,1,0,0:0:0:0:
192,192,244855,1,0,0:0:0:0:
320,192,244939,1,0,0:0:0:0:
64,192,245022,1,2,0:0:0:0:
448,192,245022,1,0,0:0:0:0:
320,192,245189,1,0,0:0:0:0:
192,192,245272,1,0,0:0:0:0:
64,192,245355,1,2,0:0:0:0:
448,192,245355,1,0,0:0:0:0:
192,192,245522,1,0,0:0:0:0:
320,192,245605,1,0,0:0:0:0:
64,192,245689,1,2,0:0:0:0:
448,192,245689,1,0,0:0:0:0:
320,192,245855,1,0,0:0:0:0:
192,192,245939,1,0,0:0:0:0:
64,192,246022,1,2,0:0:0:0:
448,192,246022,1,0,0:0:0:0:
192,192,246189,1,0,0:0:0:0:
320,192,246272,1,0,0:0:0:0:
64,192,246355,1,2,0:0:0:0:
448,192,246355,1,0,0:0:0:0:
320,192,246522,1,0,0:0:0:0:
192,192,246605,1,0,0:0:0:0:
64,192,246689,1,2,0:0:0:0:
448,192,246689,1,0,0:0:0:0:
192,192,246855,1,0,0:0:0:0:
320,192,246939,1,0,0:0:0:0:
64,192,247022,1,2,0:0:0:0:
448,192,247022,1,0,0:0:0:0:
448,192,247189,1,0,0:0:0:0:
320,192,247272,1,0,0:0:0:0:
64,192,247355,1,2,0:0:0:0:
192,192,247355,1,0,0:0:0:0:
64,192,247522,1,0,0:0:0:0:
192,192,247605,1,0,0:0:0:0:
320,192,247689,1,2,0:0:0:0:
448,192,247689,1,0,0:0:0:0:
448,192,247855,1,0,0:0:0:0:
320,192,247939,1,0,0:0:0:0:
64,192,248022,1,2,0:0:0:0:
192,192,248022,1,0,0:0:0:0:
64,192,248189,1,0,0:0:0:0:
192,192,248272,1,0,0:0:0:0:
320,192,248355,1,2,0:0:0:0:
448,192,248355,1,0,0:0:0:0:
448,192,248522,1,0,0:0:0:0:
320,192,248605,1,0,0:0:0:0:
64,192,248689,1,2,0:0:0:0:
192,192,248689,1,0,0:0:0:0:
64,192,248855,1,0,0:0:0:0:
192,192,248939,1,0,0:0:0:0:
320,192,249022,1,2,0:0:0:0:
448,192,249022,1,0,0:0:0:0:
448,192,249189,1,0,0:0:0:0:
320,192,249272,1,0,0:0:0:0:
64,192,249355,1,2,0:0:0:0:
192,192,249355,1,0,0:0:0:0:
64,192,249522,1,0,0:0:0:0:
192,192,249605,1,0,0:0:0:0:
320,192,249689,1,2,0:0:0:0:
448,192,249689,1,0,0:0:0:0:
320,192,249855,1,0,0:0:0:0:
192,192,249939,1,0,0:0:0:0:
64,192,250022,1,2,0:0:0:0:
448,192,250022,1,0,0:0:0:0:
192,192,250189,1,0,0:0:0:0:
320,192,250272,1,0,0:0:0:0:
64,192,250355,1,2,0:0:0:0:
448,192,250355,1,0,0:0:0:0:
320,192,250522,1,0,0:0:0:0:
192,192,250605,1,0,0:0:0:0:
64,192,250689,1,2,0:0:0:0:
448,192,250689,1,0,0:0:0:0:
192,192,250855,1,0,0:0:0:0:
320,192,250939,1,0,0:0:0:0:
64,192,251022,1,2,0:0:0:0:
448,192,251022,1,0,0:0:0:0:
320,192,251189,1,0,0:0:0:0:
192,192,251272,1,0,0:0:0:0:
64,192,251355,1,2,0:0:0:0:
448,192,251355,1,0,0:0:0:0:
192,192,251522,1,0,0:0:0:0:
320,192,251605,1,0,0:0:0:0:
64,192,251689,1,2,0:0:0:0:
448,192,251689,1,0,0:0:0:0:
320,192,251855,1,0,0:0:0:0:
192,192,251939,1,0,0:0:0:0:
64,192,252022,1,2,0:0:0:0:
448,192,252022,1,0,0:0:0:0:
192,192,252189,1,0,0:0:0:0:
320,192,252272,1,0,0:0:0:0:
64,192,252355,1,2,0:0:0:0:
448,192,252355,1,0,0:0:0:0:
448,192,252522,1,0,0:0:0:0:
320,192,252605,1,0,0:0:0:0:
64,192,252689,1,2,0:0:0:0:
192,192,252689,1,0,0:0:0:0:
64,192,252855,1,0,0:0:0:0:
192,192,252939,1,0,0:0:0:0:
320,192,253022,1,2,0:0:0:0:
448,192,253022,1,0,0:0:0:0:
448,192,253189,1,0,0:0:0:0:
320,192,253272,1,0,0:0:0:0:
64,192,253355,1,2,0:0:0:0:
192,192,253355,1,0,0:0:0:0:
64,192,253522,1,0,0:0:0:0:
192,192,253605,1,0,0:0:0:0:
320,192,253689,1,2,0:0:0:0:
448,192,253689,1,0,0:0:0:0:
448,192,253855,1,0,0:0:0:0:
320,192,253939,1,0,0:0:0:0:
64,192,254022,1,2,0:0:0:0:
192,192,254022,1,0,0:0:0:0:
64,192,254189,1,0,0:0:0:0:
192,192,254272,1,0,0:0:0:0:
320,192,254355,1,2,0:0:0:0:
448,192,254355,1,0,0:0:0:0:
448,192,254522,1,0,0:0:0:0:
320,192,254605,1,0,0:0:0:0:
192,192,254689,1,0,0:0:0:0:
64,192,254855,1,0,0:0:0:0:
192,192,254939,1,0,0:0:0:0:
64,192,255022,1,2,0:0:0:0:
320,192,255022,1,4,0:0:0:0:
448,192,255022,1,0,0:0:0:0:
320,192,255189,1,0,0:0:0:0:
192,192,255272,1,0,0:0:0:0:
64,192,255355,1,2,0:0:0:0:
448,192,255355,1,0,0:0:0:0:
192,192,255522,1,0,0:0:0:0:
320,192,255605,1,0,0:0:0:0:
64,192,255689,1,2,0:0:0:0:
448,192,255689,1,0,0:0:0:0:
320,192,255855,1,0,0:0:0:0:
192,192,255939,1,0,0:0:0:0:
64,192,256022,1,2,0:0:0:0:
448,192,256022,1,0,0:0:0:0:
192,192,256189,1,0,0:0:0:0:
320,192,256272,1,0,0:0:0:0:
64,192,256355,1,2,0:0:0:0:
448,192,256355,1,0,0:0:0:0:
320,192,256522,1,0,0:0:0:0:
192,192,256605,1,0,0:0:0:0:
64,192,256689,1,2,0:0:0:0:
448,192,256689,1,0,0:0:0:0:
192,192,256855,1,0,0:0:0:0:
320,192,256939,1,0,0:0:0:0:
64,192,257022,1,2,0:0:0:0:
448,192,257022,1,0,0:0:0:0:
320,192,257189,1,0,0:0:0:0:
192,192,257272,1,0,0:0:0:0:
64,192,257355,1,2,0:0:0:0:
448,192,257355,1,0,0:0:0:0:
192,192,257522,1,0,0:0:0:0:
320,192,257605,1,0,0:0:0:0:
64,192,257689,1,2,0:0:0:0:
448,192,257689,1,0,0:0:0:0:
448,192,257855,1,0,0:0:0:0:
320,192,257939,1,0,0:0:0:0:
64,192,258022,1,2,0:0:0:0:
192,192,258022,1,0,0:0:0:0:
64,192,258189,1,0,0:0:0:0:
192,192,258272,1,0,0:0:0:0:
320,192,258355,1,2,0:0:0:0:
448,192,258355,1,0,0:0:0:0:
448,192,258522,1,0,0:0:0:0:
320,192,258605,1,0,0:0:0:0:
64,192,258689,1,2,0:0:0:0:
192,192,258689,1,0,0:0:0:0:
64,192,258855,1,0,0:0:0:0:
192,192,258939,1,0,0:0:0:0:
320,192,259022,1,2,0:0:0:0:
448,192,259022,1,0,0:0:0:0:
448,192,259189,1,0,0:0:0:0:
320,192,259272,1,0,0:0:0:0:
64,192,259355,1,2,0:0:0:0:
192,192,259355,1,0,0:0:0:0:
64,192,259522,1,0,0:0:0:0:
192,192,259605,1,0,0:0:0:0:
320,192,259689,1,2,0:0:0:0:
448,192,259689,1,0,0:0:0:0:
448,192,259855,1,0,0:0:0:0:
320,192,259939,1,0,0:0:0:0:
64,192,260022,1,2,0:0:0:0:
192,192,260022,1,0,0:0:0:0:
64,192,260189,1,0,0:0:0:0:
192,192,260272,1,0,0:0:0:0:
320,192,260355,1,2,0:0:0:0:
448,192,260355,1,0,0:0:0:0:
320,192,260522,1,0,0:0:0:0:
192,192,260605,1,0,0:0:0:0:
64,192,260689,1,2,0:0:0:0:
448,192,260689,1,0,0:0:0:0:
192,192,260855,1,0,0:0:0:0:
320,192,260939,1,0,0:0:0:0:
64,192,261022,1,2,0:0:0:0:
448,192,261022,1,0,0:0:0:0:
320,192,261189,1,0,0:0:0:0:
192,192,261272,1,0,0:0:0:0:
64,192,261355,1,2,0:0:0:0:
448,192,261355,1,0,0:0:0:0:
192,192,261522,1,0,0:0:0:0:
320,192,261605,1,0,0:0:0:0:
64,192,261689,1,2,0:0:0:0:
448,192,261689,1,0,0:0:0:0:
320,192,261855,1,0,0:0:0:0:
192,192,261939,1,0,0:0:0:0:
64,192,262022,1,2,0:0:0:0:
448,192,262022,1,0,0:0:0:0:
192,192,262189,1,0,0:0:0:0:
320,192,262272,1,0,0:0:0:0:
64,192,262355,1,2,0:0:0:0:
448,192,262355,1,0,0:0:0:0:
320,192,262522,1,0,0:0:0:0:
192,192,262605,1,0,0:0:0:0:
64,192,262689,1,2,0:0:0:0:
448,192,262689,1,0,0:0:0:0:
192,192,262855,1,0,0:0:0:0:
320,192,262939,1,0,0:0:0:0:
64,192,263022,1,2,0:0:0:0:
448,192,263022,1,0,0:0:0:0:
448,192,263189,1,0,0:0:0:0:
320,192,263272,1,0,0:0:0:0:
64,192,263355,1,2,0:0:0:0:
192,192,263355,1,0,0:0:0:0:
64,192,263522,1,0,0:0:0:0:
192,192,263605,1,0,0:0:0:0:
320,192,263689,1,2,0:0:0:0:
448,192,263689,1,0,0:0:0:0:
448,192,263855,1,0,0:0:0:0:
320,192,263939,1,0,0:0:0:0:
64,192,264022,1,2,0:0:0:0:
192,192,264022,1,0,0:0:0:0:
64,192,264189,1,0,0:0:0:0:
192,192,264272,1,0,0:0:0:0:
320,192,264355,1,2,0:0:0:0:
448,192,264355,1,0,0:0:0:0:
64,192,264439,1,0,0:0:0:0:
448,192,264522,1,0,0:0:0:0:
320,192,264605,1,0,0:0:0:0:
192,192,264689,1,0,0:0:0:0:
448,192,264772,1,0,0:0:0:0:
64,192,264855,1,0,0:0:0:0:
192,192,264939,1,0,0:0:0:0:
320,192,265022,1,0,0:0:0:0:
64,192,265105,1,0,0:0:0:0:
448,192,265189,1,0,0:0:0:0:
320,192,265272,1,0,0:0:0:0:
64,192,265355,1,0,0:0:0:0:
448,192,265439,1,0,0:0:0:0:
192,192,265522,1,0,0:0:0:0:
320,192,265605,1,0,0:0:0:0:
64,192,265689,1,4,0:0:0:0:
448,192,265689,1,0,0:0:0:80:G#3S_Ab3S_s.wav
192,192,265772,1,0,0:0:0:80:F#4S_Gb4S_s.wav
448,192,265855,1,0,0:0:0:80:G#4S_Ab4S_s.wav
320,192,265911,1,0,0:0:0:80:C5S_s.wav
192,192,265967,128,0,267355:0:0:0:80:D#5S_Eb5S.wav
64,192,267355,1,0,0:0:0:80:C#3S_Db3S_s.wav
448,192,267411,1,0,0:0:0:80:G#3S_Ab3S_s.wav
192,192,267467,1,0,0:0:0:80:F4S_s.wav
320,192,267522,128,0,273522:0:0:0:80:C#5S_Db5S.wav
