osu file format v14

[General]
AudioFilename: FlowerR.mp3
AudioLeadIn: 0
PreviewTime: 296686
Countdown: 0
SampleSet: Soft
StackLeniency: 0.7
Mode: 3
LetterboxInBreaks: 0
SpecialStyle: 0
WidescreenStoryboard: 0

[Editor]
Bookmarks: 216,22804,39745,43980,45392,51039,73627,84921,96215,101863,108921,111745,113157,124451,130098,135745,152686,158333,169627,180921,197863,203510,220451,226098,237392,240215,250098,251510,272686,274098,285392,296686,307980,319274,330568,341863,353157,358804,364451
DistanceSpacing: 1
BeatDivisor: 4
GridSize: 4
TimelineZoom: 1.3

[Metadata]
Title:FLOWER -SPRING Long VER.-
TitleUnicode:FLOWER -SPRING Long VER.-
Artist:BlackY
ArtistUnicode:BlackY
Creator:Kawawa
Version:As Flowers Bloom And Fall
Source:REFLEC BEAT
Tags:DJ YOSHITAKA Piano Marathon TRANCE CORE jubeat knit APPEND BeatStream
BeatmapID:1330572
BeatmapSetID:300685

[Difficulty]
HPDrainRate:8.6
CircleSize:7
OverallDifficulty:8.3
ApproachRate:5
SliderMultiplier:1.4
SliderTickRate:1

[Events]
//Background and Video events
0,0,"22.jpg",0,0
//Break Periods
2,45592,49839
//Storyboard Layer 0 (Background)
//Storyboard Layer 1 (Fail)
//Storyboard Layer 2 (Pass)
//Storyboard Layer 3 (Foreground)
//Storyboard Sound Samples

[TimingPoints]
216,352.941176470588,4,2,1,20,1,0
43980,-100,4,2,1,20,0,1
45392,-133.333333333333,4,2,1,20,0,0
73627,-100,4,2,1,20,0,0
84215,-62.5,4,2,1,20,0,0
84260,-125,4,2,1,20,0,0
84392,-100,4,2,1,20,0,0
84480,-62.5,4,2,1,20,0,0
84524,-125,4,2,1,20,0,0
84657,-100,4,2,1,20,0,0
84921,-62.5,4,2,1,20,0,0
84965,-125,4,2,1,20,0,0
85098,-100,4,2,1,20,0,0
94804,-62.5,4,2,1,20,0,0
94848,-125,4,2,1,20,0,0
94980,-62.5,4,2,1,20,0,0
95024,-125,4,2,1,20,0,0
95157,-100,4,2,1,20,0,0
95510,-62.5,4,2,1,20,0,0
95554,-125,4,2,1,20,0,0
95686,-100,4,2,1,20,0,0
95774,-62.5,4,2,1,20,0,0
95796,-125,4,2,1,20,0,0
95863,-100,4,2,1,20,0,0
96039,-62.5,4,2,1,20,0,0
96083,-125,4,2,1,20,0,0
96215,-62.5,4,2,1,20,0,0
96260,-125,4,2,1,20,0,0
96392,-100,4,2,1,20,0,0
98510,-62.5,4,2,1,20,0,0
98532,-125,4,2,1,20,0,0
98598,-100,4,2,1,20,0,0
98863,-62.5,4,2,1,20,0,0
98907,-125,4,2,1,20,0,0
99039,-62.5,4,2,1,20,0,0
99083,-125,4,2,1,20,0,0
99215,-100,4,2,1,20,0,0
100451,-62.5,4,2,1,20,0,0
100495,-125,4,2,1,20,0,0
100627,-100,4,2,1,20,0,0
101157,-62.5,4,2,1,20,0,0
101201,-125,4,2,1,20,0,0
101333,-100,4,2,1,20,0,0
101863,-62.5,4,2,1,20,0,1
101907,-125,4,2,1,20,0,1
102039,-100,4,2,1,20,0,1
102568,-62.5,4,2,1,20,0,1
102613,-125,4,2,1,20,0,1
102745,-100,4,2,1,20,0,1
103274,-62.5,4,2,1,20,0,1
103318,-125,4,2,1,20,0,1
103451,-100,4,2,1,20,0,1
103980,-62.5,4,2,1,20,0,1
104024,-125,4,2,1,20,0,1
104157,-100,4,2,1,20,0,1
104686,-62.5,4,2,1,20,0,1
104730,-125,4,2,1,20,0,1
104863,-100,4,2,1,20,0,1
105039,-62.5,4,2,1,20,0,1
105083,-125,4,2,1,20,0,1
105215,-100,4,2,1,20,0,1
105392,-62.5,4,2,1,20,0,1
105436,-125,4,2,1,20,0,1
105568,-100,4,2,1,20,0,1
105745,-62.5,4,2,1,20,0,1
105789,-125,4,2,1,20,0,1
105921,-100,4,2,1,20,0,1
106098,-62.5,4,2,1,20,0,1
106120,-125,4,2,1,20,0,1
106186,-100,4,2,1,20,0,1
106274,-62.5,4,2,1,20,0,1
106296,-125,4,2,1,20,0,1
106363,-100,4,2,1,20,0,1
106451,-62.5,4,2,1,20,0,1
106473,-125,4,2,1,20,0,1
106539,-100,4,2,1,20,0,1
106627,-62.5,4,2,1,20,0,1
106649,-125,4,2,1,20,0,1
106715,-100,4,2,1,20,0,1
106804,-62.5,4,2,1,20,0,1
106826,-125,4,2,1,20,0,1
106892,-100,4,2,1,20,0,1
106980,-62.5,4,2,1,20,0,1
107002,-125,4,2,1,20,0,1
107068,-100,4,2,1,20,0,1
107157,-62.5,4,2,1,20,0,1
107179,-125,4,2,1,20,0,1
107245,-100,4,2,1,20,0,1
107333,-62.5,4,2,1,20,0,1
107355,-125,4,2,1,20,0,1
107421,-100,4,2,1,20,0,1
107510,-55.5555555555556,4,2,1,20,0,1
107554,-500,4,2,1,20,0,1
107598,-55.5555555555556,4,2,1,20,0,1
107642,-500,4,2,1,20,0,1
107686,-55.5555555555556,4,2,1,20,0,1
107730,-500,4,2,1,20,0,1
107774,-55.5555555555556,4,2,1,20,0,1
107818,-500,4,2,1,20,0,1
107863,-55.5555555555556,4,2,1,20,0,1
107907,-500,4,2,1,20,0,1
107951,-55.5555555555556,4,2,1,20,0,1
107995,-500,4,2,1,20,0,1
108039,-55.5555555555556,4,2,1,20,0,1
108083,-500,4,2,1,20,0,1
108127,-55.5555555555556,4,2,1,20,0,1
108171,-500,4,2,1,20,0,1
108215,-55.5555555555556,4,2,1,20,0,1
108260,-500,4,2,1,20,0,1
108304,-55.5555555555556,4,2,1,20,0,1
108348,-500,4,2,1,20,0,1
108392,-55.5555555555556,4,2,1,20,0,1
108414,-500,4,2,1,20,0,1
108436,-55.5555555555556,4,2,1,20,0,1
108458,-500,4,2,1,20,0,1
108480,-55.5555555555556,4,2,1,20,0,1
108502,-500,4,2,1,20,0,1
108524,-55.5555555555556,4,2,1,20,0,1
108546,-500,4,2,1,20,0,1
108568,-55.5555555555556,4,2,1,20,0,1
108613,-500,4,2,1,20,0,1
108657,-55.5555555555556,4,2,1,20,0,1
108701,-500,4,2,1,20,0,1
108745,-55.5555555555556,4,2,1,20,0,1
108767,-500,4,2,1,20,0,1
108789,-55.5555555555556,4,2,1,20,0,1
108811,-500,4,2,1,20,0,1
108833,-55.5555555555556,4,2,1,20,0,1
108855,-500,4,2,1,20,0,1
108877,-55.5555555555556,4,2,1,20,0,1
108899,-500,4,2,1,20,0,1
108921,-333.333333333333,4,2,1,20,0,0
111745,-50,4,2,1,20,0,1
111833,-200,4,2,1,20,0,1
112010,-50,4,2,1,20,0,1
112098,-200,4,2,1,20,0,1
112274,-50,4,2,1,20,0,1
112363,-200,4,2,1,20,0,1
112539,-50,4,2,1,20,0,1
112627,-200,4,2,1,20,0,1
112804,-50,4,2,1,20,0,1
112848,-149.253731343284,4,2,1,20,0,1
112980,-50,4,2,1,20,0,1
113024,-150.15015015015,4,2,1,20,0,1
113157,-100,4,2,1,20,0,0
130098,-62.5,4,2,1,20,0,1
130142,-125,4,2,1,20,0,1
130274,-100,4,2,1,20,0,1
131510,-62.5,4,2,1,20,0,1
131554,-125,4,2,1,20,0,1
131686,-100,4,2,1,20,0,1
132921,-62.5,4,2,1,20,0,1
132943,-125,4,2,1,20,0,1
133010,-100,4,2,1,20,0,1
133627,-62.5,4,2,1,20,0,1
133649,-125,4,2,1,20,0,1
133715,-100,4,2,1,20,0,1
134333,-62.5,4,2,1,20,0,1
134355,-125,4,2,1,20,0,1
134421,-100,4,2,1,20,0,1
135745,-100,4,2,1,20,0,0
152686,-62.5,4,2,1,20,0,1
152730,-125,4,2,1,20,0,1
152863,-100,4,2,1,20,0,1
154098,-62.5,4,2,1,20,0,1
154142,-125,4,2,1,20,0,1
154274,-100,4,2,1,20,0,1
155510,-62.5,4,2,1,20,0,1
155532,-125,4,2,1,20,0,1
155598,-100,4,2,1,20,0,1
156215,-62.5,4,2,1,20,0,1
156238,-125,4,2,1,20,0,1
156304,-100,4,2,1,20,0,1
156921,-62.5,4,2,1,20,0,1
156943,-125,4,2,1,20,0,1
157010,-100,4,2,1,20,0,1
158333,-100,4,2,1,20,0,0
197863,-62.5,4,2,1,20,0,1
197907,-125,4,2,1,20,0,1
198039,-100,4,2,1,20,0,1
199274,-62.5,4,2,1,20,0,1
199318,-125,4,2,1,20,0,1
199451,-100,4,2,1,20,0,1
200686,-62.5,4,2,1,20,0,1
200708,-125,4,2,1,20,0,1
200774,-100,4,2,1,20,0,1
201392,-62.5,4,2,1,20,0,1
201414,-125,4,2,1,20,0,1
201480,-100,4,2,1,20,0,1
202098,-62.5,4,2,1,20,0,1
202120,-125,4,2,1,20,0,1
202186,-100,4,2,1,20,0,1
203510,-100,4,2,1,20,0,0
220451,-62.5,4,2,1,20,0,1
220495,-125,4,2,1,20,0,1
220627,-100,4,2,1,20,0,1
221863,-62.5,4,2,1,20,0,1
221907,-125,4,2,1,20,0,1
222039,-100,4,2,1,20,0,1
223274,-62.5,4,2,1,20,0,1
223296,-125,4,2,1,20,0,1
223363,-100,4,2,1,20,0,1
223980,-62.5,4,2,1,20,0,1
224002,-125,4,2,1,20,0,1
224068,-100,4,2,1,20,0,1
224686,-62.5,4,2,1,20,0,1
224708,-125,4,2,1,20,0,1
224774,-100,4,2,1,20,0,1
226098,-50,4,2,1,20,0,0
226186,-200,4,2,1,20,0,0
226363,-50,4,2,1,20,0,0
226451,-200,4,2,1,20,0,0
226627,-50,4,2,1,20,0,0
226715,-200,4,2,1,20,0,0
226892,-50,4,2,1,20,0,0
226980,-200,4,2,1,20,0,0
227157,-45.4545454545455,4,2,1,20,0,0
227201,-166.666666666667,4,2,1,20,0,0
227333,-45.4545454545455,4,2,1,20,0,0
227377,-166.666666666667,4,2,1,20,0,0
227510,-100,4,2,1,20,0,0
228921,-50,4,2,1,20,0,0
229010,-200,4,2,1,20,0,0
229186,-50,4,2,1,20,0,0
229274,-200,4,2,1,20,0,0
229451,-50,4,2,1,20,0,0
229539,-200,4,2,1,20,0,0
229715,-50,4,2,1,20,0,0
229804,-200,4,2,1,20,0,0
229980,-45.4545454545455,4,2,1,20,0,0
230024,-166.666666666667,4,2,1,20,0,0
230157,-45.4545454545455,4,2,1,20,0,0
230201,-166.666666666667,4,2,1,20,0,0
230333,-100,4,2,1,20,0,0
231745,-50,4,2,1,20,0,0
231833,-200,4,2,1,20,0,0
232010,-50,4,2,1,20,0,0
232098,-200,4,2,1,20,0,0
232274,-50,4,2,1,20,0,0
232363,-200,4,2,1,20,0,0
232539,-50,4,2,1,20,0,0
232627,-200,4,2,1,20,0,0
232804,-45.4545454545455,4,2,1,20,0,0
232848,-166.666666666667,4,2,1,20,0,0
232980,-45.4545454545455,4,2,1,20,0,0
233024,-166.666666666667,4,2,1,20,0,0
233157,-100,4,2,1,20,0,0
234568,-50,4,2,1,20,0,0
234657,-200,4,2,1,20,0,0
234833,-50,4,2,1,20,0,0
234921,-200,4,2,1,20,0,0
235098,-50,4,2,1,20,0,0
235185,-200,4,2,1,20,0,0
235363,-50,4,2,1,20,0,0
235451,-200,4,2,1,20,0,0
235627,-45.4545454545455,4,2,1,20,0,0
235671,-166.666666666667,4,2,1,20,0,0
235804,-45.4545454545455,4,2,1,20,0,0
235848,-166.666666666667,4,2,1,20,0,0
235980,-100,4,2,1,20,0,0
237392,-133.333333333333,4,2,1,20,0,0
250098,-133.333333333333,4,2,1,20,0,1
251510,-100,4,2,1,20,0,0
262804,-62.5,4,2,1,20,0,0
262848,-125,4,2,1,20,0,0
262980,-100,4,2,1,20,0,0
268451,-62.5,4,2,1,20,0,0
268495,-125,4,2,1,20,0,0
268627,-100,4,2,1,20,0,0
269863,-62.5,4,2,1,20,0,0
269907,-125,4,2,1,20,0,0
270039,-100,4,2,1,20,0,0
271274,-62.5,4,2,1,20,0,0
271318,-125,4,2,1,20,0,0
271451,-100,4,2,1,20,0,0
271980,-62.5,4,2,1,20,0,0
272024,-125,4,2,1,20,0,0
272157,-100,4,2,1,20,0,0
272686,-62.5,4,2,1,20,0,1
272730,-250,4,2,1,20,0,1
272774,-100,4,2,1,20,0,1
272951,-62.5,4,2,1,20,0,1
272995,-250,4,2,1,20,0,1
273039,-100,4,2,1,20,0,1
273215,-62.5,4,2,1,20,0,1
273260,-250,4,2,1,20,0,1
273304,-100,4,2,1,20,0,1
273480,-45.4545454545455,4,2,1,20,0,1
273524,-166.666666666667,4,2,1,20,0,1
273657,-100,4,2,1,20,0,1
273745,-45.4545454545455,4,2,1,20,0,1
273789,-166.666666666667,4,2,1,20,0,1
273921,-45.4545454545455,4,2,1,20,0,1
273965,-166.666666666667,4,2,1,20,0,1
274098,-100,4,2,1,20,0,0
291039,-62.5,4,2,1,20,0,1
291083,-125,4,2,1,20,0,1
291215,-100,4,2,1,20,0,1
292451,-62.5,4,2,1,20,0,1
292495,-125,4,2,1,20,0,1
292627,-100,4,2,1,20,0,1
293863,-62.5,4,2,1,20,0,1
293885,-125,4,2,1,20,0,1
293951,-100,4,2,1,20,0,1
294568,-62.5,4,2,1,20,0,1
294590,-125,4,2,1,20,0,1
294657,-100,4,2,1,20,0,1
295274,-62.5,4,2,1,20,0,1
295318,-250,4,2,1,20,0,1
295363,-100,4,2,1,20,0,1
295539,-62.5,4,2,1,20,0,1
295583,-250,4,2,1,20,0,1
295627,-100,4,2,1,20,0,1
295804,-62.5,4,2,1,20,0,1
295848,-250,4,2,1,20,0,1
295892,-100,4,2,1,20,0,1
296068,-45.4545454545455,4,2,1,20,0,1
296113,-166.666666666667,4,2,1,20,0,1
296245,-45.4545454545455,4,2,1,20,0,1
296289,-166.666666666667,4,2,1,20,0,1
296421,-55.5555555555556,4,2,1,20,0,1
296465,-500,4,2,1,20,0,1
296510,-55.5555555555556,4,2,1,20,0,1
296554,-500,4,2,1,20,0,1
296598,-55.5555555555556,4,2,1,20,0,1
296642,-500,4,2,1,20,0,1
296686,-100,4,2,1,20,0,0
313627,-62.5,4,2,1,20,0,1
313671,-125,4,2,1,20,0,1
313804,-100,4,2,1,20,0,1
315039,-62.5,4,2,1,20,0,1
315083,-125,4,2,1,20,0,1
315215,-100,4,2,1,20,0,1
316451,-62.5,4,2,1,20,0,1
316473,-125,4,2,1,20,0,1
316539,-100,4,2,1,20,0,1
317157,-62.5,4,2,1,20,0,1
317179,-125,4,2,1,20,0,1
317245,-100,4,2,1,20,0,1
317863,-62.5,4,2,1,20,0,1
317885,-125,4,2,1,20,0,1
317951,-100,4,2,1,20,0,1
319274,-100,4,2,1,20,0,0
336215,-62.5,4,2,1,20,0,1
336260,-125,4,2,1,20,0,1
336392,-100,4,2,1,20,0,1
337627,-62.5,4,2,1,20,0,1
337671,-125,4,2,1,20,0,1
337804,-100,4,2,1,20,0,1
339039,-62.5,4,2,1,20,0,1
339061,-125,4,2,1,20,0,1
339127,-100,4,2,1,20,0,1
339745,-62.5,4,2,1,20,0,1
339767,-125,4,2,1,20,0,1
339833,-100,4,2,1,20,0,1
340451,-62.5,4,2,1,20,0,1
340473,-125,4,2,1,20,0,1
340539,-100,4,2,1,20,0,1
341863,-100,4,2,1,20,0,0
358804,-62.5,4,2,1,20,0,1
358826,-125,4,2,1,20,0,1
358892,-100,4,2,1,20,0,1
360215,-62.5,4,2,1,20,0,1
360238,-125,4,2,1,20,0,1
360304,-100,4,2,1,20,0,1
361627,-62.5,4,2,1,20,0,1
361649,-125,4,2,1,20,0,1
361715,-100,4,2,1,20,0,1
362333,-62.5,4,2,1,20,0,1
362355,-125,4,2,1,20,0,1
362421,-100,4,2,1,20,0,1
363039,-62.5,4,2,1,20,0,1
363061,-125,4,2,1,20,0,1
363127,-100,4,2,1,20,0,1
364451,-100,4,2,1,20,0,0

[HitObjects]
36,192,216,5,0,0:0:0:70:BaSS.wav
329,192,216,1,0,0:0:0:70:CrashR.wav
402,192,216,1,0,0:0:0:0:
475,192,216,1,0,0:0:0:0:
182,192,568,5,0,0:0:0:70:BaSS.wav
36,192,921,5,0,0:0:0:70:BaSS.wav
182,192,1274,5,0,0:0:0:70:BaSS.wav
36,192,1627,5,0,0:0:0:70:BaSS.wav
182,192,1980,5,0,0:0:0:70:BaSS.wav
36,192,2333,5,0,0:0:0:70:BaSS.wav
182,192,2686,5,0,0:0:0:70:BaSS.wav
36,192,3039,5,0,0:0:0:70:BaSS.wav
475,192,3039,1,0,0:0:0:0:
256,192,3039,128,0,3127:0:0:0:70:PunK.wav
329,192,3215,128,0,3304:0:0:0:0:
182,192,3392,5,0,0:0:0:70:BaSS.wav
402,192,3392,128,0,3480:0:0:0:0:
475,192,3568,128,0,3657:0:0:0:0:
36,192,3745,5,0,0:0:0:70:BaSS.wav
329,192,3921,128,0,4010:0:0:0:0:
182,192,4098,5,0,0:0:0:70:BaSS.wav
402,192,4098,128,0,4186:0:0:0:0:
475,192,4274,128,0,4363:0:0:0:0:
36,192,4451,5,0,0:0:0:70:BaSS.wav
329,192,4627,128,0,4715:0:0:0:0:
182,192,4804,5,0,0:0:0:70:BaSS.wav
402,192,4804,128,0,4892:0:0:0:0:
475,192,4980,128,0,5068:0:0:0:0:
36,192,5157,5,0,0:0:0:70:BaSS.wav
329,192,5333,128,0,5421:0:0:0:0:
182,192,5510,5,0,0:0:0:70:BaSS.wav
402,192,5510,128,0,5598:0:0:0:0:
182,192,5686,5,0,0:0:0:70:BaSS.wav
475,192,5686,128,0,5774:0:0:0:0:
36,192,5863,5,0,0:0:0:70:BaSS.wav
475,192,5863,1,0,0:0:0:0:
182,192,6215,5,0,0:0:0:70:BaSS.wav
36,192,6568,5,0,0:0:0:70:BaSS.wav
182,192,6921,5,0,0:0:0:70:BaSS.wav
36,192,7274,5,0,0:0:0:70:BaSS.wav
182,192,7627,5,0,0:0:0:70:BaSS.wav
36,192,7980,5,0,0:0:0:70:BaSS.wav
182,192,8333,5,0,0:0:0:70:BaSS.wav
36,192,8686,5,0,0:0:0:70:BaSS.wav
475,192,8686,1,0,0:0:0:0:
256,192,8686,128,0,8774:0:0:0:70:PunK.wav
329,192,8863,128,0,8951:0:0:0:0:
182,192,9039,5,0,0:0:0:70:BaSS.wav
402,192,9039,128,0,9127:0:0:0:0:
475,192,9215,128,0,9304:0:0:0:0:
36,192,9392,5,0,0:0:0:70:BaSS.wav
329,192,9568,128,0,9657:0:0:0:0:
182,192,9745,5,0,0:0:0:70:BaSS.wav
402,192,9745,128,0,9833:0:0:0:0:
475,192,9921,128,0,10010:0:0:0:0:
36,192,10098,5,0,0:0:0:70:BaSS.wav
329,192,10274,128,0,10363:0:0:0:0:
182,192,10451,5,0,0:0:0:70:BaSS.wav
402,192,10451,128,0,10539:0:0:0:0:
182,192,10627,5,0,0:0:0:70:BaSS.wav
475,192,10627,128,0,10715:0:0:0:0:
36,192,10804,5,0,0:0:0:70:BaSS.wav
182,192,10892,5,0,0:0:0:70:BaSS.wav
329,192,10980,128,0,11068:0:0:0:0:
182,192,11068,5,0,0:0:0:70:BaSS.wav
36,192,11157,5,0,0:0:0:70:BaSS.wav
402,192,11157,128,0,11245:0:0:0:0:
36,192,11333,5,0,0:0:0:70:BaSS.wav
475,192,11333,128,0,11421:0:0:0:0:
36,192,11510,5,0,0:0:0:70:BaSS.wav
329,192,11510,1,0,0:0:0:70:CrashR.wav
475,192,11510,1,0,0:0:0:0:
182,192,11510,1,0,0:0:0:0:
36,192,11863,5,0,0:0:0:70:BaSS.wav
182,192,11863,1,0,0:0:0:70:KicK.wav
36,192,12215,5,0,0:0:0:70:BaSS.wav
36,192,12568,5,0,0:0:0:70:BaSS.wav
182,192,12568,1,0,0:0:0:70:KicK.wav
36,192,12921,5,0,0:0:0:70:BaSS.wav
36,192,13274,5,0,0:0:0:70:BaSS.wav
182,192,13274,1,0,0:0:0:70:KicK.wav
36,192,13627,5,0,0:0:0:70:BaSS.wav
36,192,13980,5,0,0:0:0:70:BaSS.wav
182,192,13980,1,0,0:0:0:70:KicK.wav
36,192,14333,5,0,0:0:0:70:BaSS.wav
475,192,14333,1,0,0:0:0:0:
256,192,14333,128,0,14421:0:0:0:70:PunK.wav
329,192,14510,128,0,14598:0:0:0:0:
36,192,14686,5,0,0:0:0:70:BaSS.wav
182,192,14686,1,0,0:0:0:70:KicK.wav
402,192,14686,128,0,14774:0:0:0:0:
475,192,14863,128,0,14951:0:0:0:0:
36,192,15039,5,0,0:0:0:70:BaSS.wav
329,192,15215,128,0,15304:0:0:0:0:
36,192,15392,5,0,0:0:0:70:BaSS.wav
182,192,15392,1,0,0:0:0:70:KicK.wav
402,192,15392,128,0,15480:0:0:0:0:
475,192,15568,128,0,15657:0:0:0:0:
36,192,15745,5,0,0:0:0:70:BaSS.wav
329,192,15921,128,0,16010:0:0:0:0:
36,192,16098,5,0,0:0:0:70:BaSS.wav
182,192,16098,1,0,0:0:0:70:KicK.wav
402,192,16098,128,0,16186:0:0:0:0:
475,192,16274,128,0,16363:0:0:0:0:
36,192,16451,5,0,0:0:0:70:BaSS.wav
329,192,16627,128,0,16715:0:0:0:0:
36,192,16804,5,0,0:0:0:70:BaSS.wav
182,192,16804,1,0,0:0:0:70:KicK.wav
402,192,16804,128,0,16892:0:0:0:0:
182,192,16980,5,0,0:0:0:70:BaSS.wav
475,192,16980,128,0,17068:0:0:0:0:
36,192,17157,5,0,0:0:0:70:BaSS.wav
475,192,17157,1,0,0:0:0:0:
36,192,17510,5,0,0:0:0:70:BaSS.wav
182,192,17510,1,0,0:0:0:70:KicK.wav
36,192,17863,5,0,0:0:0:70:BaSS.wav
36,192,18215,5,0,0:0:0:70:BaSS.wav
182,192,18215,1,0,0:0:0:70:KicK.wav
36,192,18568,5,0,0:0:0:70:BaSS.wav
36,192,18921,5,0,0:0:0:70:BaSS.wav
182,192,18921,1,0,0:0:0:70:KicK.wav
36,192,19274,5,0,0:0:0:70:BaSS.wav
36,192,19627,5,0,0:0:0:70:BaSS.wav
182,192,19627,1,0,0:0:0:70:KicK.wav
36,192,19980,5,0,0:0:0:70:BaSS.wav
475,192,19980,1,0,0:0:0:0:
256,192,19980,128,0,20068:0:0:0:70:PunK.wav
36,192,20157,5,0,0:0:0:70:BaSS.wav
329,192,20157,128,0,20245:0:0:0:0:
109,192,20333,5,0,0:0:0:70:BaSS.wav
182,192,20333,1,0,0:0:0:70:KicK.wav
402,192,20333,128,0,20421:0:0:0:0:
36,192,20510,5,0,0:0:0:70:BaSS.wav
475,192,20510,128,0,20598:0:0:0:0:
36,192,20686,5,0,0:0:0:70:BaSS.wav
109,192,20863,5,0,0:0:0:70:BaSS.wav
329,192,20863,128,0,20951:0:0:0:0:
182,192,20951,5,0,0:0:0:70:BaSS.wav
36,192,21039,5,0,0:0:0:70:BaSS.wav
256,192,21039,1,0,0:0:0:70:KicK.wav
402,192,21039,128,0,21127:0:0:0:0:
36,192,21215,5,0,0:0:0:70:BaSS.wav
475,192,21215,128,0,21304:0:0:0:0:
36,192,21392,5,0,0:0:0:70:BaSS.wav
182,192,21392,1,0,0:0:0:70:Sub bass.wav
329,192,21392,1,0,0:0:0:0:
402,192,21480,1,0,0:0:0:70:Sub bass.wav
182,192,21568,1,0,0:0:0:70:Sub bass.wav
329,192,21568,1,0,0:0:0:0:
109,192,21657,1,0,0:0:0:70:Sub bass.wav
182,192,21745,1,0,0:0:0:70:Sub bass.wav
329,192,21745,1,0,0:0:0:0:
402,192,21833,1,0,0:0:0:70:Sub bass.wav
182,192,21921,1,0,0:0:0:70:Sub bass.wav
329,192,21921,1,0,0:0:0:0:
109,192,22010,1,0,0:0:0:70:Sub bass.wav
329,192,22098,1,0,0:0:0:70:Sub bass.wav
36,192,22098,1,0,0:0:0:0:
256,192,22186,1,0,0:0:0:70:Sub bass.wav
475,192,22186,1,0,0:0:0:70:BaSS.wav
402,192,22186,1,0,0:0:0:0:
182,192,22274,1,0,0:0:0:70:Sub bass.wav
109,192,22274,1,0,0:0:0:0:
475,192,22363,1,0,0:0:0:70:BaSS.wav
402,192,22363,1,0,0:0:0:0:
256,192,22363,1,0,0:0:0:70:Sub bass.wav
36,192,22451,1,0,0:0:0:70:BaSS.wav
329,192,22451,1,0,0:0:0:70:Sub bass.wav
109,192,22451,1,0,0:0:0:0:
182,192,22539,1,0,0:0:0:70:Sub bass.wav
36,192,22627,1,0,0:0:0:70:BaSS.wav
109,192,22627,1,0,0:0:0:0:
329,192,22627,1,0,0:0:0:70:Sub bass.wav
256,192,22715,1,0,0:0:0:70:Sub bass.wav
475,192,22804,1,0,0:0:0:70:CrashR.wav
182,192,22804,1,0,0:0:0:70:BaSS.wav
109,192,22804,1,0,0:0:0:0:
36,192,22804,1,0,0:0:0:0:
402,192,22804,1,0,0:0:0:0:
329,192,22980,1,0,0:0:0:70:Hihat.wav
182,192,23157,1,0,0:0:0:70:BaSS.wav
36,192,23157,1,0,0:0:0:70:KicK.wav
329,192,23333,1,0,0:0:0:70:Hihat.wav
182,192,23510,1,0,0:0:0:70:BaSS.wav
329,192,23686,1,0,0:0:0:70:Hihat.wav
182,192,23863,1,0,0:0:0:70:BaSS.wav
36,192,23863,1,0,0:0:0:70:KicK.wav
329,192,24039,1,0,0:0:0:70:Hihat.wav
182,192,24215,1,0,0:0:0:70:BaSS.wav
329,192,24392,1,0,0:0:0:70:Hihat.wav
36,192,24568,1,0,0:0:0:70:KicK.wav
182,192,24568,1,0,0:0:0:70:BaSS.wav
329,192,24745,1,0,0:0:0:70:Hihat.wav
182,192,24921,1,0,0:0:0:70:BaSS.wav
329,192,25098,1,0,0:0:0:70:Hihat.wav
182,192,25274,1,0,0:0:0:70:BaSS.wav
36,192,25274,1,0,0:0:0:70:KicK.wav
329,192,25451,1,0,0:0:0:70:Hihat.wav
36,192,25627,1,0,0:0:0:70:BaSS.wav
475,192,25627,1,0,0:0:0:0:
256,192,25627,128,0,25715:0:0:0:70:PunK.wav
109,192,25804,1,0,0:0:0:70:Hihat.wav
329,192,25804,128,0,25892:0:0:0:0:
182,192,25980,1,0,0:0:0:70:KicK.wav
36,192,25980,1,0,0:0:0:70:BaSS.wav
402,192,25980,128,0,26068:0:0:0:0:
109,192,26157,1,0,0:0:0:70:Hihat.wav
475,192,26157,128,0,26245:0:0:0:0:
36,192,26333,1,0,0:0:0:70:BaSS.wav
182,192,26510,1,0,0:0:0:70:Hihat.wav
329,192,26510,128,0,26598:0:0:0:0:
36,192,26686,1,0,0:0:0:70:BaSS.wav
109,192,26686,1,0,0:0:0:70:KicK.wav
402,192,26686,128,0,26774:0:0:0:0:
182,192,26863,1,0,0:0:0:70:Hihat.wav
475,192,26863,128,0,26951:0:0:0:0:
36,192,27039,1,0,0:0:0:70:BaSS.wav
109,192,27215,1,0,0:0:0:70:Hihat.wav
329,192,27215,128,0,27304:0:0:0:0:
182,192,27392,1,0,0:0:0:70:KicK.wav
36,192,27392,1,0,0:0:0:70:BaSS.wav
402,192,27392,128,0,27480:0:0:0:0:
109,192,27568,1,0,0:0:0:70:Hihat.wav
475,192,27568,128,0,27657:0:0:0:0:
36,192,27745,1,0,0:0:0:70:BaSS.wav
329,192,27921,128,0,28010:0:0:0:0:
182,192,27921,1,0,0:0:0:70:Hihat.wav
109,192,28098,1,0,0:0:0:70:KicK.wav
36,192,28098,1,0,0:0:0:70:BaSS.wav
402,192,28098,128,0,28186:0:0:0:0:
182,192,28274,1,0,0:0:0:70:Hihat.wav
36,192,28274,1,0,0:0:0:70:BaSS.wav
475,192,28274,128,0,28363:0:0:0:0:
36,192,28451,1,0,0:0:0:70:BaSS.wav
475,192,28451,1,0,0:0:0:0:
256,192,28451,1,0,0:0:0:0:
329,192,28627,1,0,0:0:0:70:Hihat.wav
36,192,28804,1,0,0:0:0:70:KicK.wav
182,192,28804,1,0,0:0:0:70:BaSS.wav
329,192,28980,1,0,0:0:0:70:Hihat.wav
182,192,29157,1,0,0:0:0:70:BaSS.wav
329,192,29333,1,0,0:0:0:70:Hihat.wav
36,192,29510,1,0,0:0:0:70:KicK.wav
182,192,29510,1,0,0:0:0:70:BaSS.wav
329,192,29686,1,0,0:0:0:70:Hihat.wav
182,192,29863,1,0,0:0:0:70:BaSS.wav
329,192,30039,1,0,0:0:0:70:Hihat.wav
182,192,30215,1,0,0:0:0:70:BaSS.wav
36,192,30215,1,0,0:0:0:70:KicK.wav
329,192,30392,1,0,0:0:0:70:Hihat.wav
182,192,30568,1,0,0:0:0:70:BaSS.wav
329,192,30745,1,0,0:0:0:70:Hihat.wav
36,192,30921,1,0,0:0:0:70:KicK.wav
182,192,30921,1,0,0:0:0:70:BaSS.wav
329,192,31098,1,0,0:0:0:70:Hihat.wav
36,192,31274,1,0,0:0:0:70:BaSS.wav
256,192,31274,128,0,31363:0:0:0:70:PunK.wav
475,192,31274,1,0,0:0:0:0:
109,192,31451,1,0,0:0:0:70:Hihat.wav
329,192,31451,128,0,31539:0:0:0:0:
36,192,31627,1,0,0:0:0:70:BaSS.wav
182,192,31627,1,0,0:0:0:70:KicK.wav
402,192,31627,128,0,31715:0:0:0:0:
109,192,31804,1,0,0:0:0:70:Hihat.wav
475,192,31804,128,0,31892:0:0:0:0:
36,192,31980,1,0,0:0:0:70:BaSS.wav
182,192,32157,1,0,0:0:0:70:Hihat.wav
329,192,32157,128,0,32245:0:0:0:0:
109,192,32333,1,0,0:0:0:70:KicK.wav
36,192,32333,1,0,0:0:0:70:BaSS.wav
402,192,32333,128,0,32421:0:0:0:0:
182,192,32510,1,0,0:0:0:70:Hihat.wav
475,192,32510,128,0,32598:0:0:0:0:
36,192,32686,1,0,0:0:0:70:BaSS.wav
182,192,32863,1,0,0:0:0:70:Hihat.wav
36,192,32863,1,0,0:0:0:70:BaSS.wav
329,192,32863,128,0,32951:0:0:0:0:
109,192,33039,1,0,0:0:0:70:BaSS.wav
256,192,33039,1,0,0:0:0:70:KicK.wav
402,192,33039,128,0,33127:0:0:0:0:
182,192,33215,1,0,0:0:0:70:Hihat.wav
36,192,33215,1,0,0:0:0:70:BaSS.wav
475,192,33215,128,0,33304:0:0:0:0:
36,192,33392,1,0,0:0:0:70:BaSS.wav
182,192,33568,1,0,0:0:0:70:Hihat.wav
329,192,33568,128,0,33657:0:0:0:0:
109,192,33657,1,0,0:0:0:70:BaSS.wav
256,192,33745,1,0,0:0:0:70:KicK.wav
36,192,33745,1,0,0:0:0:70:BaSS.wav
402,192,33745,128,0,33833:0:0:0:0:
182,192,33921,1,0,0:0:0:70:Hihat.wav
36,192,33921,1,0,0:0:0:70:BaSS.wav
475,192,33921,128,0,34010:0:0:0:0:
36,192,34098,1,0,0:0:0:70:BaSS.wav
256,192,34098,1,0,0:0:0:70:CrashR.wav
109,192,34098,1,0,0:0:0:0:
402,192,34098,1,0,0:0:0:0:
475,192,34098,1,0,0:0:0:0:
329,192,34274,1,0,0:0:0:70:Hihat.wav
182,192,34451,1,0,0:0:0:70:BaSS.wav
36,192,34451,1,0,0:0:0:70:KicK.wav
329,192,34627,1,0,0:0:0:70:Hihat.wav
182,192,34804,1,0,0:0:0:70:BaSS.wav
329,192,34980,1,0,0:0:0:70:Hihat.wav
182,192,35157,1,0,0:0:0:70:BaSS.wav
36,192,35157,1,0,0:0:0:70:KicK.wav
329,192,35333,1,0,0:0:0:70:Hihat.wav
182,192,35510,1,0,0:0:0:70:BaSS.wav
329,192,35686,1,0,0:0:0:70:Hihat.wav
36,192,35863,1,0,0:0:0:70:KicK.wav
182,192,35863,1,0,0:0:0:70:BaSS.wav
329,192,36039,1,0,0:0:0:70:Hihat.wav
182,192,36215,1,0,0:0:0:70:BaSS.wav
329,192,36392,1,0,0:0:0:70:Hihat.wav
182,192,36568,1,0,0:0:0:70:BaSS.wav
36,192,36568,1,0,0:0:0:70:KicK.wav
329,192,36745,1,0,0:0:0:70:Hihat.wav
36,192,36921,1,0,0:0:0:70:BaSS.wav
475,192,36921,1,0,0:0:0:0:
256,192,36921,128,0,37010:0:0:0:70:PunK.wav
109,192,37098,1,0,0:0:0:70:Hihat.wav
329,192,37098,128,0,37186:0:0:0:0:
182,192,37274,1,0,0:0:0:70:KicK.wav
36,192,37274,1,0,0:0:0:70:BaSS.wav
402,192,37274,128,0,37363:0:0:0:0:
109,192,37451,1,0,0:0:0:70:Hihat.wav
475,192,37451,128,0,37539:0:0:0:0:
36,192,37627,1,0,0:0:0:70:BaSS.wav
182,192,37804,1,0,0:0:0:70:Hihat.wav
329,192,37804,128,0,37892:0:0:0:0:
36,192,37980,1,0,0:0:0:70:BaSS.wav
109,192,37980,1,0,0:0:0:70:KicK.wav
402,192,37980,128,0,38068:0:0:0:0:
182,192,38157,1,0,0:0:0:70:Hihat.wav
475,192,38157,128,0,38245:0:0:0:0:
36,192,38333,1,0,0:0:0:70:BaSS.wav
109,192,38510,1,0,0:0:0:70:Hihat.wav
329,192,38510,128,0,38598:0:0:0:0:
36,192,38686,1,0,0:0:0:70:BaSS.wav
182,192,38686,1,0,0:0:0:70:KicK.wav
402,192,38686,128,0,38774:0:0:0:0:
109,192,38863,1,0,0:0:0:70:Hihat.wav
475,192,38863,128,0,38951:0:0:0:0:
36,192,39039,1,0,0:0:0:70:BaSS.wav
329,192,39215,128,0,39304:0:0:0:0:
182,192,39215,1,0,0:0:0:70:Hihat.wav
109,192,39304,1,0,0:0:0:70:BaSS.wav
402,192,39392,128,0,39480:0:0:0:0:
256,192,39392,1,0,0:0:0:70:KicK.wav
36,192,39392,1,0,0:0:0:70:BaSS.wav
182,192,39568,1,0,0:0:0:70:Hihat.wav
36,192,39568,1,0,0:0:0:70:BaSS.wav
475,192,39568,128,0,39657:0:0:0:0:
256,192,39745,1,0,0:0:0:70:BaSS.wav
36,192,39745,1,0,0:0:0:70:CrashR.wav
109,192,39745,1,0,0:0:0:0:
475,192,39745,1,0,0:0:0:0:
402,192,39745,1,0,0:0:0:0:
256,192,39921,1,0,0:0:0:70:BaSS.wav
402,192,39921,1,0,0:0:0:0:
475,192,39921,1,0,0:0:0:0:
182,192,40098,1,0,0:0:0:70:BaSS.wav
329,192,40098,1,0,0:0:0:70:KicK.wav
36,192,40098,1,0,0:0:0:0:
109,192,40098,1,0,0:0:0:0:
182,192,40451,1,0,0:0:0:70:BaSS.wav
329,192,40451,1,0,0:0:0:0:
109,192,40451,1,0,0:0:0:0:
182,192,40627,1,0,0:0:0:70:BaSS.wav
329,192,40627,1,0,0:0:0:0:
109,192,40627,1,0,0:0:0:0:
36,192,40804,1,0,0:0:0:70:BaSS.wav
256,192,40804,1,0,0:0:0:70:KicK.wav
475,192,40804,1,0,0:0:0:0:
402,192,40804,1,0,0:0:0:0:
182,192,40980,1,0,0:0:0:70:BaSS.wav
329,192,40980,1,0,0:0:0:0:
109,192,40980,1,0,0:0:0:0:
256,192,41157,1,0,0:0:0:70:CrashR.wav
475,192,41157,1,0,0:0:0:70:BaSS.wav
402,192,41157,1,0,0:0:0:0:
36,192,41157,1,0,0:0:0:0:
109,192,41157,1,0,0:0:0:0:
475,192,41333,1,0,0:0:0:70:BaSS.wav
256,192,41333,1,0,0:0:0:0:
402,192,41333,1,0,0:0:0:0:
329,192,41510,1,0,0:0:0:70:BaSS.wav
182,192,41510,1,0,0:0:0:70:KicK.wav
36,192,41510,1,0,0:0:0:0:
109,192,41510,1,0,0:0:0:0:
475,192,41774,1,0,0:0:0:70:BaSS.wav
256,192,41774,1,0,0:0:0:0:
402,192,41774,1,0,0:0:0:0:
329,192,41863,1,0,0:0:0:70:BaSS.wav
182,192,41863,1,0,0:0:0:0:
36,192,41863,1,0,0:0:0:0:
329,192,42039,1,0,0:0:0:70:BaSS.wav
182,192,42039,1,0,0:0:0:0:
36,192,42039,1,0,0:0:0:0:
109,192,42215,1,0,0:0:0:70:BaSS.wav
475,192,42215,1,0,0:0:0:70:KicK.wav
256,192,42215,1,0,0:0:0:0:
402,192,42215,1,0,0:0:0:0:
402,192,42392,1,0,0:0:0:0:
109,192,42392,1,0,0:0:0:70:BaSS.wav
182,192,42480,1,0,0:0:0:70:BaSS.wav
329,192,42480,1,0,0:0:0:0:
109,192,42568,1,0,0:0:0:70:BaSS.wav
256,192,42568,1,0,0:0:0:70:CrashR.wav
36,192,42568,1,0,0:0:0:0:
475,192,42568,1,0,0:0:0:0:
402,192,42568,1,0,0:0:0:70:PunK.wav
109,192,42745,1,0,0:0:0:70:BaSS.wav
256,192,42745,1,0,0:0:0:0:
36,192,42745,1,0,0:0:0:0:
182,192,42921,1,0,0:0:0:70:BaSS.wav
329,192,42921,1,0,0:0:0:70:KicK.wav
475,192,42921,1,0,0:0:0:0:
402,192,42921,1,0,0:0:0:0:
182,192,43098,1,0,0:0:0:70:BaSS.wav
329,192,43098,1,0,0:0:0:0:
256,192,43274,1,0,0:0:0:70:BaSS.wav
36,192,43274,1,0,0:0:0:0:
109,192,43274,1,0,0:0:0:0:
475,192,43274,1,0,0:0:0:0:
402,192,43274,1,0,0:0:0:70:CrashR.wav
256,192,43451,1,0,0:0:0:70:BaSS.wav
402,192,43451,1,0,0:0:0:0:
475,192,43451,1,0,0:0:0:0:
329,192,43627,1,0,0:0:0:70:BaSS.wav
182,192,43627,1,0,0:0:0:70:KicK.wav
36,192,43627,1,0,0:0:0:0:
109,192,43627,1,0,0:0:0:0:
329,192,43804,1,0,0:0:0:70:BaSS.wav
182,192,43804,1,0,0:0:0:0:
256,192,43980,1,0,0:0:0:70:CrashS.wav
475,192,43980,1,0,0:0:0:70:BaSS.wav
402,192,43980,1,0,0:0:0:0:
109,192,44068,1,0,0:0:0:0:
36,192,44068,1,0,0:0:0:0:
182,192,44068,1,0,0:0:0:70:BaSS.wav
402,192,44157,1,0,0:0:0:70:Sub bass.wav
475,192,44157,1,0,0:0:0:0:
329,192,44201,1,0,0:0:0:70:Sub bass.wav
256,192,44245,1,0,0:0:0:70:Sub bass.wav
182,192,44289,1,0,0:0:0:70:Sub bass.wav
109,192,44333,1,0,0:0:0:70:BaSS.wav
36,192,44333,1,0,0:0:0:70:CrashS.wav
475,192,44421,1,0,0:0:0:0:
329,192,44421,1,0,0:0:0:70:BaSS.wav
402,192,44421,1,0,0:0:0:0:
109,192,44510,1,0,0:0:0:70:Sub bass.wav
36,192,44510,1,0,0:0:0:0:
182,192,44554,1,0,0:0:0:70:Sub bass.wav
256,192,44598,1,0,0:0:0:70:Sub bass.wav
329,192,44642,1,0,0:0:0:70:Sub bass.wav
475,192,44686,1,0,0:0:0:70:CrashS.wav
402,192,44686,1,0,0:0:0:70:BaSS.wav
182,192,44774,1,0,0:0:0:0:
36,192,44774,1,0,0:0:0:70:BaSS.wav
109,192,44774,1,0,0:0:0:0:
475,192,44863,1,0,0:0:0:70:Sub bass.wav
402,192,44863,1,0,0:0:0:0:
182,192,44951,1,0,0:0:0:0:
109,192,44951,1,0,0:0:0:0:
36,192,44951,1,0,0:0:0:70:BaSS.wav
402,192,45039,1,0,0:0:0:0:
329,192,45039,1,0,0:0:0:70:Sub bass.wav
475,192,45039,1,0,0:0:0:70:CrashS.wav
256,192,45083,1,0,0:0:0:70:Sub bass.wav
182,192,45127,1,0,0:0:0:70:Sub bass.wav
109,192,45171,1,0,0:0:0:70:Sub bass.wav
475,192,45215,1,0,0:0:0:0:
36,192,45215,1,0,0:0:0:70:Sub bass.wav
402,192,45260,1,0,0:0:0:70:Sub bass.wav
329,192,45304,1,0,0:0:0:70:Sub bass.wav
256,192,45348,1,0,0:0:0:70:Sub bass.wav
36,192,45392,1,0,0:0:0:70:CrashR.wav
182,192,45392,1,0,0:0:0:70:BaSS.wav
109,192,45392,1,0,0:0:0:0:
36,192,51039,5,0,0:0:0:0:
475,192,51039,128,0,51127:0:0:0:0:
402,192,51083,128,0,51171:0:0:0:0:
329,192,51127,128,0,51215:0:0:0:0:
109,192,51215,1,0,0:0:0:0:
182,192,51392,5,0,0:0:0:0:
256,192,51568,128,0,52098:0:0:0:0:
402,192,52451,1,0,0:0:0:0:
402,192,52980,1,0,0:0:0:0:
256,192,53157,1,0,0:0:0:0:
329,192,53421,1,0,0:0:0:0:
402,192,53686,1,0,0:0:0:0:
36,192,53863,128,0,53951:0:0:0:0:
475,192,53863,1,0,0:0:0:0:
109,192,53907,128,0,53995:0:0:0:0:
182,192,53951,128,0,54039:0:0:0:0:
329,192,53951,1,0,0:0:0:0:
256,192,54921,128,0,55010:0:0:0:0:
256,192,55274,1,0,0:0:0:0:
475,192,55274,128,0,55363:0:0:0:0:
182,192,55451,1,0,0:0:0:0:
402,192,55539,128,0,55627:0:0:0:0:
109,192,55627,1,0,0:0:0:0:
36,192,55804,1,0,0:0:0:0:
329,192,55804,128,0,55892:0:0:0:0:
182,192,55980,1,0,0:0:0:0:
36,192,56157,128,0,56245:0:0:0:0:
329,192,56157,1,0,0:0:0:0:
182,192,56333,128,0,56421:0:0:0:0:
475,192,56333,1,0,0:0:0:0:
402,192,56510,1,0,0:0:0:0:
36,192,56510,128,0,56598:0:0:0:0:
329,192,56686,1,0,0:0:0:0:
36,192,56863,1,0,0:0:0:0:
256,192,56863,128,0,57039:0:0:0:0:
109,192,57039,1,0,0:0:0:0:
182,192,57215,1,0,0:0:0:0:
402,192,57215,128,0,57745:0:0:0:0:
182,192,57921,1,0,0:0:0:0:
329,192,58010,1,0,0:0:0:0:
475,192,58098,1,0,0:0:0:0:
402,192,58627,1,0,0:0:0:0:
329,192,59157,1,0,0:0:0:0:
36,192,59421,128,0,59510:0:0:0:0:
182,192,59465,128,0,59554:0:0:0:0:
329,192,59510,128,0,59598:0:0:0:0:
475,192,59554,128,0,59642:0:0:0:0:
36,192,60921,128,0,61010:0:0:0:0:
182,192,60921,1,0,0:0:0:0:
475,192,60921,128,0,61010:0:0:0:0:
256,192,61098,1,0,0:0:0:0:
329,192,61274,1,0,0:0:0:0:
402,192,61451,1,0,0:0:0:0:
182,192,61627,128,0,61715:0:0:0:0:
36,192,61627,128,0,61715:0:0:0:0:
475,192,61627,1,0,0:0:0:0:
475,192,61804,1,0,0:0:0:0:
329,192,61980,1,0,0:0:0:0:
182,192,62157,1,0,0:0:0:0:
36,192,62333,1,0,0:0:0:0:
329,192,62333,128,0,62421:0:0:0:0:
109,192,62510,1,0,0:0:0:0:
329,192,62510,1,0,0:0:0:0:
402,192,62598,128,0,62686:0:0:0:0:
182,192,62686,1,0,0:0:0:0:
402,192,62774,1,0,0:0:0:0:
256,192,62863,128,0,63392:0:0:0:0:
475,192,62863,128,0,62951:0:0:0:0:
36,192,63657,1,0,0:0:0:0:
182,192,63701,1,0,0:0:0:0:
329,192,63745,1,0,0:0:0:0:
256,192,64274,1,0,0:0:0:0:
182,192,64804,1,0,0:0:0:0:
182,192,65157,1,0,0:0:0:0:
36,192,65157,1,0,0:0:0:0:
329,192,65157,128,0,65245:0:0:0:0:
402,192,65201,128,0,65289:0:0:0:0:
475,192,65245,128,0,65333:0:0:0:0:
36,192,66215,128,0,66304:0:0:0:0:
36,192,66568,1,0,0:0:0:0:
475,192,66568,128,0,66657:0:0:0:0:
109,192,66745,1,0,0:0:0:0:
329,192,66833,128,0,66921:0:0:0:0:
182,192,66921,1,0,0:0:0:0:
256,192,67098,1,0,0:0:0:0:
475,192,67098,128,0,67186:0:0:0:0:
329,192,67274,1,0,0:0:0:0:
36,192,67451,128,0,67539:0:0:0:0:
182,192,67451,1,0,0:0:0:0:
329,192,67627,1,0,0:0:0:0:
182,192,67715,128,0,67804:0:0:0:0:
109,192,67760,128,0,67848:0:0:0:0:
36,192,67804,128,0,67892:0:0:0:0:
475,192,67804,1,0,0:0:0:0:
475,192,67980,1,0,0:0:0:0:
402,192,68157,1,0,0:0:0:0:
329,192,68333,1,0,0:0:0:0:
256,192,68510,128,0,69039:0:0:0:0:
109,192,69392,1,0,0:0:0:0:
182,192,69921,1,0,0:0:0:0:
256,192,70451,1,0,0:0:0:0:
475,192,70715,128,0,70804:0:0:0:0:
329,192,70760,128,0,70848:0:0:0:0:
182,192,70804,128,0,70892:0:0:0:0:
36,192,70848,128,0,70936:0:0:0:0:
475,192,72215,128,0,72304:0:0:0:0:
402,192,72215,128,0,72304:0:0:0:0:
36,192,72215,1,0,0:0:0:0:
182,192,72392,1,0,0:0:0:0:
109,192,72568,128,0,72657:0:0:0:0:
329,192,72568,1,0,0:0:0:0:
36,192,72568,128,0,72657:0:0:0:0:
475,192,72745,1,0,0:0:0:0:
402,192,72921,1,0,0:0:0:0:
329,192,73098,1,0,0:0:0:0:
256,192,73274,1,0,0:0:0:0:
182,192,73451,1,0,0:0:0:0:
36,192,73627,1,0,0:0:0:70:BaSS.wav
109,192,73627,1,0,0:0:0:70:CrashR.wav
329,192,73627,1,0,0:0:0:70:Chi!.wav
475,192,73627,1,0,0:0:0:0:
329,192,73804,1,0,0:0:0:70:Chi!.wav
475,192,73804,1,0,0:0:0:70:Hihat.wav
36,192,73980,1,0,0:0:0:70:Chi!.wav
182,192,74068,1,0,0:0:0:70:Chi!.wav
475,192,74157,1,0,0:0:0:70:Hihat.wav
109,192,74245,1,0,0:0:0:70:Chi!.wav
256,192,74333,1,0,0:0:0:70:Chi!.wav
182,192,74510,1,0,0:0:0:70:Chi!.wav
475,192,74510,1,0,0:0:0:70:Hihat.wav
329,192,74598,1,0,0:0:0:70:Chi!.wav
256,192,74774,1,0,0:0:0:70:Chi!.wav
475,192,74863,1,0,0:0:0:70:Hihat.wav
402,192,74863,1,0,0:0:0:70:Chi!.wav
182,192,75039,1,0,0:0:0:70:Chi!.wav
36,192,75039,1,0,0:0:0:0:
182,192,75215,1,0,0:0:0:70:Chi!.wav
36,192,75215,1,0,0:0:0:70:Hihat.wav
475,192,75392,1,0,0:0:0:70:Chi!.wav
329,192,75480,1,0,0:0:0:70:Chi!.wav
36,192,75568,1,0,0:0:0:70:Hihat.wav
402,192,75657,1,0,0:0:0:70:Chi!.wav
256,192,75745,1,0,0:0:0:70:Chi!.wav
329,192,75921,1,0,0:0:0:70:Chi!.wav
36,192,75921,1,0,0:0:0:70:Hihat.wav
182,192,76010,1,0,0:0:0:70:Chi!.wav
256,192,76186,1,0,0:0:0:70:Chi!.wav
109,192,76274,1,0,0:0:0:70:Chi!.wav
36,192,76274,1,0,0:0:0:70:Hihat.wav
329,192,76451,1,0,0:0:0:70:Chi!.wav
475,192,76451,1,0,0:0:0:0:
475,192,76627,1,0,0:0:0:70:Hihat.wav
329,192,76627,1,0,0:0:0:70:Chi!.wav
36,192,76804,1,0,0:0:0:70:Chi!.wav
182,192,76892,1,0,0:0:0:70:Chi!.wav
402,192,76980,1,0,0:0:0:70:Hihat.wav
36,192,77068,1,0,0:0:0:70:Chi!.wav
182,192,77157,1,0,0:0:0:70:Chi!.wav
109,192,77333,1,0,0:0:0:70:Chi!.wav
402,192,77333,1,0,0:0:0:70:Hihat.wav
256,192,77421,1,0,0:0:0:70:Chi!.wav
109,192,77598,1,0,0:0:0:70:Chi!.wav
256,192,77686,1,0,0:0:0:70:Chi!.wav
402,192,77686,1,0,0:0:0:70:Hihat.wav
182,192,77863,1,0,0:0:0:70:Chi!.wav
36,192,77863,1,0,0:0:0:0:
182,192,78039,1,0,0:0:0:70:Chi!.wav
36,192,78039,1,0,0:0:0:70:Hihat.wav
475,192,78215,1,0,0:0:0:70:Chi!.wav
329,192,78304,1,0,0:0:0:70:Chi!.wav
109,192,78392,1,0,0:0:0:70:Hihat.wav
475,192,78480,1,0,0:0:0:70:Chi!.wav
329,192,78568,1,0,0:0:0:70:Chi!.wav
109,192,78745,1,0,0:0:0:70:Hihat.wav
402,192,78745,1,0,0:0:0:70:Chi!.wav
256,192,78833,1,0,0:0:0:70:Chi!.wav
402,192,79010,1,0,0:0:0:70:Chi!.wav
256,192,79098,1,0,0:0:0:70:Chi!.wav
109,192,79098,1,0,0:0:0:70:Hihat.wav
329,192,79274,1,0,0:0:0:70:Chi!.wav
475,192,79274,1,0,0:0:0:0:
329,192,79451,1,0,0:0:0:70:Chi!.wav
475,192,79451,1,0,0:0:0:70:Hihat.wav
36,192,79627,1,0,0:0:0:70:Chi!.wav
182,192,79715,1,0,0:0:0:70:Chi!.wav
402,192,79804,1,0,0:0:0:70:Hihat.wav
109,192,79892,1,0,0:0:0:70:Chi!.wav
256,192,79980,1,0,0:0:0:70:Chi!.wav
36,192,80157,1,0,0:0:0:70:Chi!.wav
402,192,80157,1,0,0:0:0:70:Hihat.wav
182,192,80245,1,0,0:0:0:70:Chi!.wav
109,192,80421,1,0,0:0:0:70:Chi!.wav
256,192,80510,1,0,0:0:0:70:Chi!.wav
402,192,80510,1,0,0:0:0:70:Hihat.wav
182,192,80686,1,0,0:0:0:70:Chi!.wav
36,192,80686,1,0,0:0:0:0:
182,192,80863,1,0,0:0:0:70:Chi!.wav
36,192,80863,1,0,0:0:0:70:Hihat.wav
475,192,81039,1,0,0:0:0:70:Chi!.wav
329,192,81127,1,0,0:0:0:70:Chi!.wav
109,192,81215,1,0,0:0:0:70:Hihat.wav
402,192,81304,1,0,0:0:0:70:Chi!.wav
256,192,81392,1,0,0:0:0:70:Chi!.wav
475,192,81568,1,0,0:0:0:70:Chi!.wav
109,192,81568,1,0,0:0:0:70:Hihat.wav
329,192,81657,1,0,0:0:0:70:Chi!.wav
402,192,81833,1,0,0:0:0:70:Chi!.wav
256,192,81921,1,0,0:0:0:70:Chi!.wav
109,192,81921,1,0,0:0:0:70:Hihat.wav
329,192,82098,1,0,0:0:0:70:Chi!.wav
475,192,82098,1,0,0:0:0:0:
475,192,82274,1,0,0:0:0:70:Hihat.wav
329,192,82274,1,0,0:0:0:70:Chi!.wav
182,192,82451,1,0,0:0:0:70:Chi!.wav
329,192,82539,1,0,0:0:0:70:Chi!.wav
475,192,82627,1,0,0:0:0:70:Hihat.wav
182,192,82715,1,0,0:0:0:70:Chi!.wav
329,192,82804,1,0,0:0:0:70:Chi!.wav
182,192,82980,1,0,0:0:0:70:Chi!.wav
36,192,82980,1,0,0:0:0:70:Hihat.wav
329,192,83068,1,0,0:0:0:70:Chi!.wav
182,192,83245,1,0,0:0:0:70:Chi!.wav
329,192,83333,1,0,0:0:0:70:Chi!.wav
475,192,83333,1,0,0:0:0:70:Hihat.wav
36,192,83510,1,0,0:0:0:70:Chi!.wav
182,192,83510,1,0,0:0:0:0:
182,192,83686,1,0,0:0:0:70:Hihat.wav
36,192,83686,1,0,0:0:0:70:Chi!.wav
182,192,83863,1,0,0:0:0:70:Chi!.wav
402,192,83863,1,0,0:0:0:0:
256,192,83951,1,0,0:0:0:70:Chi!.wav
475,192,83951,1,0,0:0:0:0:
109,192,84127,1,0,0:0:0:70:Chi!.wav
329,192,84127,1,0,0:0:0:0:
182,192,84215,1,0,0:0:0:70:Chi!.wav
475,192,84215,1,0,0:0:0:70:CrashS.wav
402,192,84215,1,0,0:0:0:70:BaSS.wav
36,192,84392,1,0,0:0:0:70:Chi!.wav
256,192,84392,1,0,0:0:0:0:
109,192,84480,1,0,0:0:0:70:Chi!.wav
329,192,84480,1,0,0:0:0:70:BaSS.wav
402,192,84480,1,0,0:0:0:70:CrashS.wav
182,192,84657,1,0,0:0:0:70:Chi!.wav
475,192,84657,1,0,0:0:0:0:
329,192,84745,1,0,0:0:0:70:Chi!.wav
36,192,84745,1,0,0:0:0:0:
182,192,84921,1,0,0:0:0:70:BaSS.wav
329,192,84921,1,0,0:0:0:70:CrashR.wav
36,192,84921,1,0,0:0:0:70:Chi!.wav
256,192,84921,1,0,0:0:0:0:
475,192,84921,1,0,0:0:0:0:
109,192,85098,1,0,0:0:0:70:Chi!.wav
475,192,85098,1,0,0:0:0:70:Hihat.wav
36,192,85274,1,0,0:0:0:70:Chi!.wav
329,192,85274,1,0,0:0:0:70:KicK.wav
402,192,85274,1,0,0:0:0:0:
182,192,85363,1,0,0:0:0:70:Chi!.wav
329,192,85451,1,0,0:0:0:70:Hihat.wav
36,192,85539,1,0,0:0:0:70:Chi!.wav
182,192,85627,1,0,0:0:0:70:Chi!.wav
475,192,85627,1,0,0:0:0:0:
36,192,85804,1,0,0:0:0:70:Chi!.wav
475,192,85804,1,0,0:0:0:70:Hihat.wav
182,192,85892,1,0,0:0:0:70:Chi!.wav
329,192,85980,1,0,0:0:0:70:KicK.wav
402,192,85980,1,0,0:0:0:0:
36,192,86068,1,0,0:0:0:70:Chi!.wav
182,192,86157,1,0,0:0:0:70:Chi!.wav
329,192,86157,1,0,0:0:0:70:Hihat.wav
475,192,86333,1,0,0:0:0:70:Chi!.wav
36,192,86333,1,0,0:0:0:0:
402,192,86510,1,0,0:0:0:70:Chi!.wav
36,192,86510,1,0,0:0:0:70:Hihat.wav
329,192,86686,1,0,0:0:0:70:Chi!.wav
182,192,86686,1,0,0:0:0:70:KicK.wav
109,192,86686,1,0,0:0:0:0:
475,192,86774,1,0,0:0:0:70:Chi!.wav
182,192,86863,1,0,0:0:0:70:Hihat.wav
329,192,86951,1,0,0:0:0:70:Chi!.wav
475,192,87039,1,0,0:0:0:70:Chi!.wav
36,192,87039,1,0,0:0:0:0:
329,192,87215,1,0,0:0:0:70:Chi!.wav
36,192,87215,1,0,0:0:0:70:Hihat.wav
475,192,87304,1,0,0:0:0:70:Chi!.wav
182,192,87392,1,0,0:0:0:70:KicK.wav
109,192,87392,1,0,0:0:0:0:
329,192,87480,1,0,0:0:0:70:Chi!.wav
475,192,87568,1,0,0:0:0:70:Chi!.wav
182,192,87568,1,0,0:0:0:70:Hihat.wav
36,192,87745,1,0,0:0:0:70:Chi!.wav
329,192,87745,1,0,0:0:0:0:
109,192,87921,1,0,0:0:0:70:Chi!.wav
329,192,87921,1,0,0:0:0:70:Hihat.wav
182,192,88098,1,0,0:0:0:70:Chi!.wav
475,192,88098,1,0,0:0:0:70:KicK.wav
402,192,88098,1,0,0:0:0:0:
36,192,88186,1,0,0:0:0:70:Chi!.wav
475,192,88274,1,0,0:0:0:70:Hihat.wav
182,192,88363,1,0,0:0:0:70:Chi!.wav
36,192,88451,1,0,0:0:0:70:Chi!.wav
329,192,88451,1,0,0:0:0:0:
182,192,88627,1,0,0:0:0:70:Chi!.wav
329,192,88627,1,0,0:0:0:70:Hihat.wav
36,192,88715,1,0,0:0:0:70:Chi!.wav
475,192,88804,1,0,0:0:0:70:KicK.wav
402,192,88804,1,0,0:0:0:0:
182,192,88892,1,0,0:0:0:70:Chi!.wav
36,192,88980,1,0,0:0:0:70:Chi!.wav
475,192,88980,1,0,0:0:0:70:Hihat.wav
329,192,89157,1,0,0:0:0:70:Chi!.wav
182,192,89157,1,0,0:0:0:0:
402,192,89333,1,0,0:0:0:70:Chi!.wav
182,192,89333,1,0,0:0:0:70:Hihat.wav
475,192,89510,1,0,0:0:0:70:Chi!.wav
36,192,89510,1,0,0:0:0:70:KicK.wav
109,192,89510,1,0,0:0:0:0:
329,192,89598,1,0,0:0:0:70:Chi!.wav
36,192,89686,1,0,0:0:0:70:Hihat.wav
475,192,89774,1,0,0:0:0:70:Chi!.wav
329,192,89863,1,0,0:0:0:70:Chi!.wav
182,192,89863,1,0,0:0:0:0:
475,192,90039,1,0,0:0:0:70:Chi!.wav
182,192,90039,1,0,0:0:0:70:Hihat.wav
329,192,90127,1,0,0:0:0:70:Chi!.wav
36,192,90215,1,0,0:0:0:70:KicK.wav
109,192,90215,1,0,0:0:0:0:
475,192,90304,1,0,0:0:0:70:Chi!.wav
329,192,90392,1,0,0:0:0:70:Chi!.wav
182,192,90392,1,0,0:0:0:70:Hihat.wav
36,192,90392,1,0,0:0:0:70:BaSS.wav
36,192,90568,1,0,0:0:0:70:Chi!.wav
256,192,90568,1,0,0:0:0:70:BaSS.wav
475,192,90568,1,0,0:0:0:0:
109,192,90745,1,0,0:0:0:70:Chi!.wav
475,192,90745,1,0,0:0:0:70:Hihat.wav
182,192,90921,1,0,0:0:0:70:Chi!.wav
329,192,90921,1,0,0:0:0:70:KicK.wav
402,192,90921,1,0,0:0:0:0:
36,192,91010,1,0,0:0:0:70:Chi!.wav
329,192,91098,1,0,0:0:0:70:Hihat.wav
182,192,91186,1,0,0:0:0:70:Chi!.wav
109,192,91274,1,0,0:0:0:70:Chi!.wav
475,192,91274,1,0,0:0:0:0:
182,192,91451,1,0,0:0:0:70:Chi!.wav
475,192,91451,1,0,0:0:0:70:Hihat.wav
36,192,91539,1,0,0:0:0:70:Chi!.wav
329,192,91627,1,0,0:0:0:70:KicK.wav
402,192,91627,1,0,0:0:0:0:
182,192,91715,1,0,0:0:0:70:Chi!.wav
109,192,91804,1,0,0:0:0:70:Chi!.wav
329,192,91804,1,0,0:0:0:70:Hihat.wav
475,192,91980,1,0,0:0:0:70:Chi!.wav
256,192,91980,1,0,0:0:0:70:BaSS.wav
36,192,91980,1,0,0:0:0:0:
402,192,92157,1,0,0:0:0:70:Chi!.wav
36,192,92157,1,0,0:0:0:70:Hihat.wav
329,192,92333,1,0,0:0:0:70:Chi!.wav
182,192,92333,1,0,0:0:0:70:KicK.wav
109,192,92333,1,0,0:0:0:0:
475,192,92421,1,0,0:0:0:70:Chi!.wav
182,192,92510,1,0,0:0:0:70:Hihat.wav
329,192,92598,1,0,0:0:0:70:Chi!.wav
402,192,92686,1,0,0:0:0:70:Chi!.wav
36,192,92686,1,0,0:0:0:0:
329,192,92863,1,0,0:0:0:70:Chi!.wav
36,192,92863,1,0,0:0:0:70:Hihat.wav
475,192,92951,1,0,0:0:0:70:Chi!.wav
109,192,93039,1,0,0:0:0:0:
182,192,93039,1,0,0:0:0:70:KicK.wav
329,192,93127,1,0,0:0:0:70:Chi!.wav
402,192,93215,1,0,0:0:0:70:Chi!.wav
182,192,93215,1,0,0:0:0:70:Hihat.wav
256,192,93392,1,0,0:0:0:70:BaSS.wav
475,192,93392,1,0,0:0:0:70:Chi!.wav
36,192,93392,1,0,0:0:0:0:
402,192,93568,1,0,0:0:0:70:Chi!.wav
109,192,93568,1,0,0:0:0:0:
182,192,93745,1,0,0:0:0:70:KicK.wav
329,192,93745,1,0,0:0:0:70:Chi!.wav
475,192,93833,1,0,0:0:0:70:Chi!.wav
36,192,93833,1,0,0:0:0:0:
475,192,94010,1,0,0:0:0:70:Chi!.wav
36,192,94010,1,0,0:0:0:0:
329,192,94098,1,0,0:0:0:70:Chi!.wav
182,192,94098,1,0,0:0:0:0:
256,192,94098,1,0,0:0:0:70:BaSS.wav
329,192,94274,1,0,0:0:0:70:Chi!.wav
182,192,94274,1,0,0:0:0:0:
402,192,94363,1,0,0:0:0:70:Chi!.wav
109,192,94363,1,0,0:0:0:0:
36,192,94451,1,0,0:0:0:70:KicK.wav
475,192,94451,1,0,0:0:0:0:
329,192,94539,1,0,0:0:0:70:Chi!.wav
182,192,94539,1,0,0:0:0:0:
402,192,94627,1,0,0:0:0:70:Chi!.wav
109,192,94627,1,0,0:0:0:0:
329,192,94804,1,0,0:0:0:70:BaSS.wav
109,192,94804,1,0,0:0:0:70:Chi!.wav
402,192,94804,1,0,0:0:0:70:CrashS.wav
182,192,94804,1,0,0:0:0:0:
329,192,94980,1,0,0:0:0:70:BaSS.wav
109,192,94980,1,0,0:0:0:70:Chi!.wav
402,192,94980,1,0,0:0:0:70:CrashS.wav
182,192,94980,1,0,0:0:0:0:
36,192,95157,1,0,0:0:0:70:Chi!.wav
256,192,95157,1,0,0:0:0:70:KicK.wav
475,192,95157,1,0,0:0:0:0:
182,192,95245,1,0,0:0:0:70:Chi!.wav
329,192,95245,1,0,0:0:0:0:
182,192,95421,1,0,0:0:0:70:Chi!.wav
329,192,95421,1,0,0:0:0:0:
36,192,95510,1,0,0:0:0:70:Chi!.wav
475,192,95510,1,0,0:0:0:70:CrashS.wav
402,192,95510,1,0,0:0:0:70:BaSS.wav
109,192,95510,1,0,0:0:0:0:
109,192,95686,1,0,0:0:0:70:Chi!.wav
402,192,95686,1,0,0:0:0:0:
329,192,95774,1,0,0:0:0:70:BaSS.wav
182,192,95774,1,0,0:0:0:70:Chi!.wav
256,192,95774,1,0,0:0:0:70:CrashS.wav
475,192,95863,1,0,0:0:0:70:KicK.wav
36,192,95863,1,0,0:0:0:0:
109,192,95951,1,0,0:0:0:70:Chi!.wav
402,192,95951,1,0,0:0:0:0:
329,192,96039,1,0,0:0:0:70:BaSS.wav
182,192,96039,1,0,0:0:0:70:Chi!.wav
256,192,96039,1,0,0:0:0:70:CrashS.wav
182,192,96215,1,0,0:0:0:0:
475,192,96215,1,0,0:0:0:70:Chi!.wav
256,192,96215,1,0,0:0:0:70:CrashR.wav
36,192,96215,1,0,0:0:0:70:BaSS.wav
329,192,96215,1,0,0:0:0:0:
475,192,96392,1,0,0:0:0:70:Chi!.wav
36,192,96392,1,0,0:0:0:0:
329,192,96568,1,0,0:0:0:70:Chi!.wav
182,192,96568,1,0,0:0:0:0:
475,192,96657,1,0,0:0:0:70:Chi!.wav
36,192,96657,1,0,0:0:0:0:
329,192,96833,1,0,0:0:0:70:Chi!.wav
182,192,96833,1,0,0:0:0:0:
475,192,96921,1,0,0:0:0:70:Chi!.wav
36,192,96921,1,0,0:0:0:0:
329,192,97098,1,0,0:0:0:70:Chi!.wav
182,192,97098,1,0,0:0:0:0:
475,192,97186,1,0,0:0:0:70:Chi!.wav
36,192,97186,1,0,0:0:0:0:
475,192,97363,1,0,0:0:0:70:Chi!.wav
36,192,97363,1,0,0:0:0:0:
329,192,97451,1,0,0:0:0:70:Chi!.wav
182,192,97451,1,0,0:0:0:0:
109,192,97627,1,0,0:0:0:70:Chi!.wav
402,192,97627,1,0,0:0:0:0:
182,192,97804,1,0,0:0:0:70:Chi!.wav
329,192,97804,1,0,0:0:0:0:
109,192,97980,1,0,0:0:0:70:Chi!.wav
402,192,97980,1,0,0:0:0:0:
182,192,98068,1,0,0:0:0:70:Chi!.wav
329,192,98068,1,0,0:0:0:0:
109,192,98245,1,0,0:0:0:70:Chi!.wav
402,192,98245,1,0,0:0:0:0:
182,192,98333,1,0,0:0:0:70:Chi!.wav
329,192,98333,1,0,0:0:0:0:
109,192,98510,1,0,0:0:0:70:Chi!.wav
402,192,98510,1,0,0:0:0:70:BaSS.wav
256,192,98510,1,0,0:0:0:70:CrashS.wav
182,192,98598,1,0,0:0:0:70:Chi!.wav
329,192,98598,1,0,0:0:0:0:
182,192,98774,1,0,0:0:0:70:Chi!.wav
329,192,98774,1,0,0:0:0:0:
402,192,98863,1,0,0:0:0:70:BaSS.wav
109,192,98863,1,0,0:0:0:70:Chi!.wav
256,192,98863,1,0,0:0:0:70:CrashS.wav
475,192,99039,1,0,0:0:0:70:Chi!.wav
36,192,99039,1,0,0:0:0:70:BaSS.wav
256,192,99039,1,0,0:0:0:70:CrashR.wav
109,192,99039,1,0,0:0:0:0:
402,192,99039,1,0,0:0:0:0:
475,192,99215,1,0,0:0:0:70:Chi!.wav
36,192,99215,1,0,0:0:0:0:
329,192,99392,1,0,0:0:0:70:Chi!.wav
182,192,99392,1,0,0:0:0:0:
475,192,99480,1,0,0:0:0:70:Chi!.wav
36,192,99480,1,0,0:0:0:0:
329,192,99657,1,0,0:0:0:70:Chi!.wav
182,192,99657,1,0,0:0:0:0:
475,192,99745,1,0,0:0:0:70:Chi!.wav
36,192,99745,1,0,0:0:0:0:
329,192,99921,1,0,0:0:0:70:Chi!.wav
182,192,99921,1,0,0:0:0:0:
475,192,100010,1,0,0:0:0:70:Chi!.wav
36,192,100010,1,0,0:0:0:0:
475,192,100186,1,0,0:0:0:70:Chi!.wav
36,192,100186,1,0,0:0:0:0:
329,192,100274,1,0,0:0:0:70:Chi!.wav
182,192,100274,1,0,0:0:0:0:
182,192,100451,1,0,0:0:0:70:Chi!.wav
475,192,100451,1,0,0:0:0:70:BaSS.wav
256,192,100451,1,0,0:0:0:70:CrashR.wav
36,192,100451,1,0,0:0:0:0:
329,192,100451,1,0,0:0:0:0:
109,192,100627,1,0,0:0:0:70:Chi!.wav
402,192,100627,1,0,0:0:0:0:
182,192,100804,1,0,0:0:0:70:Chi!.wav
329,192,100804,1,0,0:0:0:0:
109,192,100892,1,0,0:0:0:70:Chi!.wav
402,192,100892,1,0,0:0:0:0:
182,192,101068,1,0,0:0:0:70:Chi!.wav
329,192,101068,1,0,0:0:0:0:
109,192,101157,1,0,0:0:0:70:Chi!.wav
402,192,101157,1,0,0:0:0:70:BaSS.wav
256,192,101157,1,0,0:0:0:70:CrashS.wav
182,192,101333,1,0,0:0:0:70:Chi!.wav
329,192,101333,1,0,0:0:0:0:
109,192,101421,1,0,0:0:0:70:Chi!.wav
402,192,101421,1,0,0:0:0:0:
36,192,101510,1,0,0:0:0:70:BaSS.wav
475,192,101510,1,0,0:0:0:0:
256,192,101510,1,0,0:0:0:0:
256,192,101686,1,0,0:0:0:70:BaSS.wav
36,192,101686,1,0,0:0:0:0:
475,192,101686,1,0,0:0:0:0:
182,192,101774,1,0,0:0:0:70:BaSS.wav
329,192,101774,1,0,0:0:0:0:
256,192,101863,1,0,0:0:0:70:CrashR.wav
109,192,101863,1,0,0:0:0:70:BaSS.wav
36,192,101863,1,0,0:0:0:0:
402,192,101863,1,0,0:0:0:70:Chi!.wav
475,192,101863,1,0,0:0:0:0:
402,192,102039,1,0,0:0:0:70:Chi!.wav
109,192,102039,1,0,0:0:0:0:
329,192,102127,1,0,0:0:0:70:Chi!.wav
182,192,102127,1,0,0:0:0:0:
329,192,102304,1,0,0:0:0:70:Chi!.wav
182,192,102304,1,0,0:0:0:0:
402,192,102392,1,0,0:0:0:70:Chi!.wav
109,192,102392,1,0,0:0:0:0:
36,192,102568,1,0,0:0:0:70:Chi!.wav
256,192,102568,1,0,0:0:0:70:CrashR.wav
475,192,102568,1,0,0:0:0:0:
109,192,102568,1,0,0:0:0:0:
402,192,102568,1,0,0:0:0:70:BaSS.wav
36,192,102745,1,0,0:0:0:70:Chi!.wav
475,192,102745,1,0,0:0:0:0:
109,192,102833,1,0,0:0:0:70:Chi!.wav
402,192,102833,1,0,0:0:0:0:
109,192,103010,1,0,0:0:0:70:Chi!.wav
402,192,103010,1,0,0:0:0:0:
36,192,103098,1,0,0:0:0:70:Chi!.wav
475,192,103098,1,0,0:0:0:0:
329,192,103274,1,0,0:0:0:70:Chi!.wav
256,192,103274,1,0,0:0:0:70:CrashR.wav
475,192,103274,1,0,0:0:0:0:
36,192,103274,1,0,0:0:0:70:BaSS.wav
182,192,103274,1,0,0:0:0:0:
329,192,103451,1,0,0:0:0:70:Chi!.wav
182,192,103451,1,0,0:0:0:0:
402,192,103539,1,0,0:0:0:70:Chi!.wav
109,192,103539,1,0,0:0:0:0:
402,192,103715,1,0,0:0:0:70:Chi!.wav
109,192,103715,1,0,0:0:0:0:
329,192,103804,1,0,0:0:0:70:Chi!.wav
182,192,103804,1,0,0:0:0:0:
36,192,103980,1,0,0:0:0:70:Chi!.wav
256,192,103980,1,0,0:0:0:70:CrashR.wav
182,192,103980,1,0,0:0:0:0:
475,192,103980,1,0,0:0:0:70:BaSS.wav
329,192,103980,1,0,0:0:0:0:
36,192,104157,1,0,0:0:0:70:Chi!.wav
475,192,104157,1,0,0:0:0:0:
182,192,104245,1,0,0:0:0:70:Chi!.wav
329,192,104245,1,0,0:0:0:0:
182,192,104421,1,0,0:0:0:70:Chi!.wav
329,192,104421,1,0,0:0:0:0:
36,192,104510,1,0,0:0:0:70:Chi!.wav
475,192,104510,1,0,0:0:0:0:
36,192,104686,1,0,0:0:0:70:Chi!.wav
256,192,104686,1,0,0:0:0:70:CrashR.wav
475,192,104686,1,0,0:0:0:70:BaSS.wav
402,192,104686,1,0,0:0:0:0:
109,192,104686,1,0,0:0:0:0:
329,192,104863,1,0,0:0:0:70:Chi!.wav
182,192,104863,1,0,0:0:0:0:
329,192,104951,1,0,0:0:0:70:Chi!.wav
109,192,104951,1,0,0:0:0:0:
36,192,105039,1,0,0:0:0:70:Chi!.wav
256,192,105039,1,0,0:0:0:70:CrashR.wav
475,192,105039,1,0,0:0:0:70:BaSS.wav
182,192,105215,1,0,0:0:0:70:Chi!.wav
329,192,105215,1,0,0:0:0:0:
182,192,105304,1,0,0:0:0:70:Chi!.wav
402,192,105304,1,0,0:0:0:0:
36,192,105392,1,0,0:0:0:70:Chi!.wav
256,192,105392,1,0,0:0:0:70:CrashR.wav
475,192,105392,1,0,0:0:0:70:BaSS.wav
329,192,105568,1,0,0:0:0:70:Chi!.wav
182,192,105568,1,0,0:0:0:0:
329,192,105657,1,0,0:0:0:70:Chi!.wav
109,192,105657,1,0,0:0:0:0:
36,192,105745,1,0,0:0:0:70:Chi!.wav
256,192,105745,1,0,0:0:0:70:CrashR.wav
475,192,105745,1,0,0:0:0:70:BaSS.wav
182,192,105921,1,0,0:0:0:70:Chi!.wav
329,192,105921,1,0,0:0:0:0:
182,192,106010,1,0,0:0:0:70:Chi!.wav
402,192,106010,1,0,0:0:0:0:
36,192,106098,1,0,0:0:0:70:Sub bass.wav
475,192,106098,1,0,0:0:0:70:BaSS.wav
256,192,106098,1,0,0:0:0:70:CrashS.wav
109,192,106186,1,0,0:0:0:70:Sub bass.wav
402,192,106274,1,0,0:0:0:70:BaSS.wav
182,192,106274,1,0,0:0:0:70:Sub bass.wav
329,192,106274,1,0,0:0:0:70:CrashS.wav
109,192,106363,1,0,0:0:0:70:Sub bass.wav
36,192,106451,1,0,0:0:0:70:BaSS.wav
256,192,106451,1,0,0:0:0:70:CrashS.wav
475,192,106451,1,0,0:0:0:70:Sub bass.wav
402,192,106539,1,0,0:0:0:70:Sub bass.wav
329,192,106627,1,0,0:0:0:70:Sub bass.wav
109,192,106627,1,0,0:0:0:70:BaSS.wav
182,192,106627,1,0,0:0:0:70:CrashS.wav
402,192,106715,1,0,0:0:0:70:Sub bass.wav
36,192,106804,1,0,0:0:0:70:Sub bass.wav
475,192,106804,1,0,0:0:0:70:BaSS.wav
256,192,106804,1,0,0:0:0:70:CrashS.wav
182,192,106892,1,0,0:0:0:70:Sub bass.wav
329,192,106980,1,0,0:0:0:70:CrashS.wav
109,192,106980,1,0,0:0:0:70:Sub bass.wav
402,192,106980,1,0,0:0:0:70:BaSS.wav
182,192,107068,1,0,0:0:0:70:Sub bass.wav
256,192,107157,1,0,0:0:0:70:CrashS.wav
36,192,107157,1,0,0:0:0:70:BaSS.wav
475,192,107157,1,0,0:0:0:70:Sub bass.wav
329,192,107245,1,0,0:0:0:70:Sub bass.wav
182,192,107333,1,0,0:0:0:70:CrashS.wav
109,192,107333,1,0,0:0:0:70:BaSS.wav
402,192,107333,1,0,0:0:0:70:Sub bass.wav
329,192,107421,1,0,0:0:0:70:Sub bass.wav
475,192,107510,1,0,0:0:0:70:CrashS.wav
36,192,107510,1,0,0:0:0:70:Sub bass.wav
256,192,107510,1,0,0:0:0:70:BaSS.wav
182,192,107598,1,0,0:0:0:70:Sub bass.wav
109,192,107598,1,0,0:0:0:70:BaSS.wav
329,192,107686,1,0,0:0:0:70:BaSS.wav
402,192,107686,1,0,0:0:0:70:Sub bass.wav
182,192,107774,1,0,0:0:0:70:Sub bass.wav
109,192,107774,1,0,0:0:0:70:BaSS.wav
402,192,107863,1,0,0:0:0:70:Sub bass.wav
329,192,107863,1,0,0:0:0:70:BaSS.wav
182,192,107951,1,0,0:0:0:70:Sub bass.wav
109,192,107951,1,0,0:0:0:70:BaSS.wav
402,192,108039,1,0,0:0:0:70:Sub bass.wav
329,192,108039,1,0,0:0:0:70:BaSS.wav
182,192,108127,1,0,0:0:0:70:Sub bass.wav
109,192,108127,1,0,0:0:0:70:BaSS.wav
329,192,108215,1,0,0:0:0:70:BaSS.wav
402,192,108215,1,0,0:0:0:70:Sub bass.wav
475,192,108215,1,0,0:0:0:0:
36,192,108304,1,0,0:0:0:0:
109,192,108304,1,0,0:0:0:70:BaSS.wav
182,192,108304,1,0,0:0:0:70:Sub bass.wav
402,192,108392,1,0,0:0:0:70:Sub bass.wav
475,192,108392,1,0,0:0:0:70:BaSS.wav
329,192,108436,1,0,0:0:0:70:Sub bass.wav
256,192,108480,1,0,0:0:0:70:Sub bass.wav
182,192,108524,1,0,0:0:0:70:Sub bass.wav
36,192,108568,1,0,0:0:0:70:BaSS.wav
109,192,108568,1,0,0:0:0:70:Sub bass.wav
402,192,108657,1,0,0:0:0:70:BaSS.wav
475,192,108657,1,0,0:0:0:70:Sub bass.wav
329,192,108657,1,0,0:0:0:0:
36,192,108745,1,0,0:0:0:70:BaSS.wav
109,192,108745,1,0,0:0:0:70:Sub bass.wav
182,192,108789,1,0,0:0:0:70:Sub bass.wav
256,192,108833,1,0,0:0:0:70:Sub bass.wav
329,192,108877,1,0,0:0:0:70:Sub bass.wav
402,192,108921,1,0,0:0:0:70:BaSS.wav
475,192,108921,1,0,0:0:0:70:CrashR.wav
36,192,108921,1,0,0:0:0:0:
109,192,108921,1,0,0:0:0:0:
182,192,111745,1,0,0:0:0:70:CrashS.wav
329,192,111745,1,0,0:0:0:70:BaSS.wav
475,192,111745,1,0,0:0:0:0:
36,192,111745,1,0,0:0:0:0:
329,192,112010,1,0,0:0:0:70:BaSS.wav
182,192,112010,1,0,0:0:0:70:CrashS.wav
402,192,112010,1,0,0:0:0:0:
109,192,112010,1,0,0:0:0:0:
329,192,112274,1,0,0:0:0:70:BaSS.wav
182,192,112274,1,0,0:0:0:70:CrashS.wav
36,192,112274,1,0,0:0:0:0:
475,192,112274,1,0,0:0:0:0:
109,192,112539,1,0,0:0:0:70:CrashS.wav
402,192,112539,1,0,0:0:0:70:BaSS.wav
36,192,112539,1,0,0:0:0:0:
475,192,112539,1,0,0:0:0:0:
329,192,112804,1,0,0:0:0:70:BaSS.wav
182,192,112804,1,0,0:0:0:70:CrashS.wav
109,192,112804,1,0,0:0:0:0:
402,192,112804,1,0,0:0:0:0:
182,192,112980,1,0,0:0:0:70:CrashS.wav
329,192,112980,1,0,0:0:0:70:BaSS.wav
36,192,112980,1,0,0:0:0:0:
475,192,112980,1,0,0:0:0:0:
402,192,113157,1,0,0:0:0:70:Chork.wav
109,192,113157,1,0,0:0:0:70:BaSS.wav
256,192,113157,1,0,0:0:0:70:CrashR.wav
36,192,113157,1,0,0:0:0:0:
475,192,113157,1,0,0:0:0:0:
182,192,113333,5,0,0:0:0:70:Chork.wav
329,192,113333,1,0,0:0:0:0:
402,192,113421,1,0,0:0:0:0:
256,192,113421,1,0,0:0:0:70:Chork.wav
475,192,113421,1,0,0:0:0:0:
109,192,113510,1,0,0:0:0:70:BaSS.wav
36,192,113510,1,0,0:0:0:70:KicK.wav
256,192,113598,1,0,0:0:0:70:Chork.wav
475,192,113598,1,0,0:0:0:0:
402,192,113598,1,0,0:0:0:0:
182,192,113686,1,0,0:0:0:70:Chork.wav
329,192,113686,1,0,0:0:0:0:
109,192,113774,1,0,0:0:0:70:Chork.wav
36,192,113774,1,0,0:0:0:0:
402,192,113863,1,0,0:0:0:70:BaSS.wav
475,192,113863,1,0,0:0:0:0:
182,192,113951,1,0,0:0:0:70:Chork.wav
329,192,113951,1,0,0:0:0:0:
36,192,113951,1,0,0:0:0:0:
182,192,114127,1,0,0:0:0:70:Chork.wav
475,192,114127,1,0,0:0:0:0:
329,192,114127,1,0,0:0:0:0:
256,192,114215,1,0,0:0:0:70:Chork.wav
109,192,114215,1,0,0:0:0:70:BaSS.wav
36,192,114215,1,0,0:0:0:70:KicK.wav
402,192,114215,1,0,0:0:0:0:
109,192,114392,1,0,0:0:0:70:Chork.wav
256,192,114392,1,0,0:0:0:0:
182,192,114480,1,0,0:0:0:70:Chork.wav
329,192,114480,1,0,0:0:0:0:
256,192,114568,1,0,0:0:0:70:Chork.wav
402,192,114568,1,0,0:0:0:70:BaSS.wav
36,192,114568,1,0,0:0:0:0:
475,192,114568,1,0,0:0:0:0:
256,192,114745,1,0,0:0:0:70:Chork.wav
402,192,114745,1,0,0:0:0:0:
182,192,114833,1,0,0:0:0:70:Chork.wav
36,192,114833,1,0,0:0:0:0:
329,192,114833,1,0,0:0:0:0:
475,192,114921,1,0,0:0:0:70:KicK.wav
402,192,114921,1,0,0:0:0:70:BaSS.wav
182,192,115010,1,0,0:0:0:70:Chork.wav
329,192,115010,1,0,0:0:0:0:
36,192,115010,1,0,0:0:0:0:
256,192,115098,1,0,0:0:0:70:Chork.wav
109,192,115098,1,0,0:0:0:0:
329,192,115186,1,0,0:0:0:70:Chork.wav
182,192,115186,1,0,0:0:0:0:
475,192,115274,1,0,0:0:0:70:BaSS.wav
402,192,115274,1,0,0:0:0:0:
256,192,115363,1,0,0:0:0:70:Chork.wav
36,192,115363,1,0,0:0:0:0:
109,192,115363,1,0,0:0:0:0:
256,192,115539,1,0,0:0:0:70:Chork.wav
402,192,115539,1,0,0:0:0:0:
475,192,115539,1,0,0:0:0:0:
329,192,115627,1,0,0:0:0:70:Chork.wav
182,192,115627,1,0,0:0:0:70:KicK.wav
36,192,115627,1,0,0:0:0:70:BaSS.wav
402,192,115715,1,0,0:0:0:70:Chork.wav
475,192,115715,1,0,0:0:0:0:
329,192,115804,1,0,0:0:0:70:Chork.wav
182,192,115804,1,0,0:0:0:0:
256,192,115892,1,0,0:0:0:70:Chork.wav
109,192,115892,1,0,0:0:0:0:
182,192,115980,1,0,0:0:0:70:Chork.wav
36,192,115980,1,0,0:0:0:70:BaSS.wav
329,192,115980,1,0,0:0:0:0:
475,192,115980,1,0,0:0:0:0:
402,192,116157,1,0,0:0:0:70:Chork.wav
182,192,116157,1,0,0:0:0:0:
329,192,116245,1,0,0:0:0:70:Chork.wav
109,192,116245,1,0,0:0:0:0:
36,192,116245,1,0,0:0:0:0:
475,192,116333,1,0,0:0:0:70:KicK.wav
256,192,116333,1,0,0:0:0:70:BaSS.wav
329,192,116421,1,0,0:0:0:70:Chork.wav
109,192,116421,1,0,0:0:0:0:
36,192,116421,1,0,0:0:0:0:
402,192,116510,1,0,0:0:0:70:Chork.wav
182,192,116510,1,0,0:0:0:0:
256,192,116598,1,0,0:0:0:0:
475,192,116598,1,0,0:0:0:70:Chork.wav
402,192,116686,1,0,0:0:0:70:BaSS.wav
36,192,116686,1,0,0:0:0:0:
329,192,116774,1,0,0:0:0:70:Chork.wav
109,192,116774,1,0,0:0:0:0:
182,192,116774,1,0,0:0:0:0:
109,192,116951,1,0,0:0:0:0:
329,192,116951,1,0,0:0:0:70:Chork.wav
182,192,116951,1,0,0:0:0:0:
402,192,117039,1,0,0:0:0:0:
36,192,117039,1,0,0:0:0:70:Chork.wav
475,192,117039,1,0,0:0:0:70:KicK.wav
256,192,117039,1,0,0:0:0:70:BaSS.wav
329,192,117215,1,0,0:0:0:70:Chork.wav
475,192,117215,1,0,0:0:0:0:
182,192,117215,1,0,0:0:0:0:
256,192,117392,1,0,0:0:0:70:Chork.wav
36,192,117392,1,0,0:0:0:70:BaSS.wav
109,192,117392,1,0,0:0:0:70:PunK.wav
402,192,117480,1,0,0:0:0:70:Chork.wav
475,192,117480,1,0,0:0:0:0:
329,192,117568,1,0,0:0:0:70:Chork.wav
182,192,117568,1,0,0:0:0:0:
256,192,117657,1,0,0:0:0:70:Chork.wav
36,192,117657,1,0,0:0:0:0:
109,192,117657,1,0,0:0:0:70:PunK.wav
402,192,117745,1,0,0:0:0:70:Chork.wav
475,192,117745,1,0,0:0:0:70:BaSS.wav
329,192,117833,1,0,0:0:0:70:Chork.wav
182,192,117833,1,0,0:0:0:0:
256,192,117921,1,0,0:0:0:70:Chork.wav
109,192,117921,1,0,0:0:0:70:PunK.wav
36,192,117921,1,0,0:0:0:0:
402,192,118010,1,0,0:0:0:70:Chork.wav
475,192,118010,1,0,0:0:0:0:
182,192,118098,1,0,0:0:0:70:Chork.wav
36,192,118098,1,0,0:0:0:70:BaSS.wav
329,192,118098,1,0,0:0:0:0:
109,192,118186,1,0,0:0:0:70:Chork.wav
256,192,118186,1,0,0:0:0:0:
329,192,118274,1,0,0:0:0:70:Chork.wav
182,192,118274,1,0,0:0:0:0:
256,192,118363,1,0,0:0:0:70:Chork.wav
402,192,118363,1,0,0:0:0:0:
182,192,118451,1,0,0:0:0:70:BaSS.wav
475,192,118451,1,0,0:0:0:70:Chork.wav
36,192,118451,1,0,0:0:0:0:
329,192,118451,1,0,0:0:0:0:
182,192,118627,1,0,0:0:0:70:BaSS.wav
475,192,118627,1,0,0:0:0:70:Chork.wav
36,192,118627,1,0,0:0:0:0:
329,192,118627,1,0,0:0:0:0:
256,192,118804,1,0,0:0:0:70:BaSS.wav
109,192,118804,1,0,0:0:0:0:
402,192,118804,1,0,0:0:0:70:Chork.wav
475,192,118804,1,0,0:0:0:0:
182,192,118980,5,0,0:0:0:70:Chork.wav
329,192,118980,1,0,0:0:0:0:
109,192,119068,1,0,0:0:0:70:Chork.wav
36,192,119068,1,0,0:0:0:0:
475,192,119068,1,0,0:0:0:0:
402,192,119157,1,0,0:0:0:70:KicK.wav
256,192,119157,1,0,0:0:0:70:BaSS.wav
109,192,119245,1,0,0:0:0:70:Chork.wav
36,192,119245,1,0,0:0:0:0:
475,192,119245,1,0,0:0:0:0:
182,192,119333,1,0,0:0:0:70:Chork.wav
329,192,119333,1,0,0:0:0:0:
256,192,119421,1,0,0:0:0:70:Chork.wav
402,192,119421,1,0,0:0:0:0:
329,192,119510,1,0,0:0:0:70:BaSS.wav
475,192,119510,1,0,0:0:0:0:
109,192,119598,1,0,0:0:0:0:
36,192,119598,1,0,0:0:0:0:
182,192,119598,1,0,0:0:0:70:Chork.wav
329,192,119774,1,0,0:0:0:70:Chork.wav
475,192,119774,1,0,0:0:0:0:
182,192,119774,1,0,0:0:0:0:
256,192,119863,1,0,0:0:0:70:Chork.wav
36,192,119863,1,0,0:0:0:70:KicK.wav
109,192,119863,1,0,0:0:0:70:BaSS.wav
402,192,119863,1,0,0:0:0:0:
109,192,120039,1,0,0:0:0:70:Chork.wav
402,192,120039,1,0,0:0:0:0:
182,192,120127,1,0,0:0:0:70:Chork.wav
329,192,120127,1,0,0:0:0:0:
475,192,120215,1,0,0:0:0:70:BaSS.wav
256,192,120215,1,0,0:0:0:70:Chork.wav
36,192,120215,1,0,0:0:0:0:
402,192,120215,1,0,0:0:0:0:
256,192,120392,1,0,0:0:0:70:Chork.wav
109,192,120392,1,0,0:0:0:0:
182,192,120480,1,0,0:0:0:70:Chork.wav
329,192,120480,1,0,0:0:0:0:
36,192,120480,1,0,0:0:0:0:
475,192,120568,1,0,0:0:0:70:KicK.wav
402,192,120568,1,0,0:0:0:70:BaSS.wav
182,192,120657,1,0,0:0:0:70:Chork.wav
329,192,120657,1,0,0:0:0:0:
36,192,120657,1,0,0:0:0:0:
256,192,120745,1,0,0:0:0:70:Chork.wav
402,192,120745,1,0,0:0:0:0:
329,192,120833,1,0,0:0:0:70:Chork.wav
475,192,120833,1,0,0:0:0:0:
36,192,120921,1,0,0:0:0:70:BaSS.wav
109,192,120921,1,0,0:0:0:0:
182,192,121010,1,0,0:0:0:70:Chork.wav
475,192,121010,1,0,0:0:0:0:
329,192,121010,1,0,0:0:0:0:
182,192,121186,1,0,0:0:0:70:Chork.wav
329,192,121186,1,0,0:0:0:0:
36,192,121186,1,0,0:0:0:0:
256,192,121274,1,0,0:0:0:70:Chork.wav
475,192,121274,1,0,0:0:0:70:KicK.wav
402,192,121274,1,0,0:0:0:70:BaSS.wav
109,192,121274,1,0,0:0:0:0:
182,192,121363,1,0,0:0:0:70:Chork.wav
36,192,121363,1,0,0:0:0:0:
475,192,121451,1,0,0:0:0:70:Chork.wav
329,192,121451,1,0,0:0:0:0:
402,192,121539,1,0,0:0:0:70:Chork.wav
256,192,121539,1,0,0:0:0:0:
329,192,121627,1,0,0:0:0:70:Chork.wav
182,192,121627,1,0,0:0:0:70:BaSS.wav
109,192,121627,1,0,0:0:0:0:
36,192,121627,1,0,0:0:0:0:
329,192,121804,5,0,0:0:0:70:Chork.wav
182,192,121804,1,0,0:0:0:0:
402,192,121892,1,0,0:0:0:70:Chork.wav
475,192,121892,1,0,0:0:0:0:
109,192,121892,1,0,0:0:0:0:
36,192,121980,1,0,0:0:0:70:KicK.wav
256,192,121980,1,0,0:0:0:70:BaSS.wav
402,192,122068,1,0,0:0:0:70:Chork.wav
475,192,122068,1,0,0:0:0:0:
109,192,122068,1,0,0:0:0:0:
329,192,122157,1,0,0:0:0:70:Chork.wav
182,192,122157,1,0,0:0:0:0:
402,192,122245,1,0,0:0:0:70:Chork.wav
109,192,122245,1,0,0:0:0:0:
256,192,122333,1,0,0:0:0:70:BaSS.wav
36,192,122333,1,0,0:0:0:0:
329,192,122421,1,0,0:0:0:70:Chork.wav
182,192,122421,1,0,0:0:0:0:
475,192,122421,1,0,0:0:0:0:
329,192,122598,1,0,0:0:0:70:Chork.wav
36,192,122598,1,0,0:0:0:0:
182,192,122598,1,0,0:0:0:0:
402,192,122686,1,0,0:0:0:70:BaSS.wav
256,192,122686,1,0,0:0:0:70:Chork.wav
109,192,122686,1,0,0:0:0:0:
475,192,122686,1,0,0:0:0:70:KicK.wav
329,192,122863,1,0,0:0:0:70:Chork.wav
182,192,122863,1,0,0:0:0:0:
36,192,122863,1,0,0:0:0:0:
36,192,123039,1,0,0:0:0:70:Chork.wav
475,192,123039,1,0,0:0:0:70:BaSS.wav
256,192,123039,1,0,0:0:0:70:PunK.wav
109,192,123127,1,0,0:0:0:70:Chork.wav
402,192,123127,1,0,0:0:0:0:
182,192,123215,1,0,0:0:0:70:Chork.wav
329,192,123215,1,0,0:0:0:0:
36,192,123304,1,0,0:0:0:70:Chork.wav
475,192,123304,1,0,0:0:0:0:
256,192,123304,1,0,0:0:0:70:PunK.wav
109,192,123392,1,0,0:0:0:70:Chork.wav
402,192,123392,1,0,0:0:0:70:BaSS.wav
182,192,123480,1,0,0:0:0:70:Chork.wav
329,192,123480,1,0,0:0:0:0:
36,192,123568,1,0,0:0:0:70:Chork.wav
256,192,123568,1,0,0:0:0:70:PunK.wav
475,192,123568,1,0,0:0:0:0:
109,192,123657,1,0,0:0:0:70:Chork.wav
402,192,123657,1,0,0:0:0:0:
182,192,123745,1,0,0:0:0:70:Chork.wav
329,192,123745,1,0,0:0:0:70:BaSS.wav
256,192,123745,1,0,0:0:0:0:
109,192,123833,1,0,0:0:0:70:Chork.wav
402,192,123833,1,0,0:0:0:0:
36,192,123921,1,0,0:0:0:70:Chork.wav
475,192,123921,1,0,0:0:0:0:
182,192,124010,1,0,0:0:0:70:Chork.wav
329,192,124010,1,0,0:0:0:70:BaSS.wav
256,192,124010,1,0,0:0:0:0:
402,192,124098,1,0,0:0:0:70:BaSS.wav
109,192,124098,1,0,0:0:0:70:Chork.wav
475,192,124098,1,0,0:0:0:0:
36,192,124098,1,0,0:0:0:0:
109,192,124274,1,0,0:0:0:70:Chork.wav
402,192,124274,1,0,0:0:0:70:BaSS.wav
329,192,124274,1,0,0:0:0:0:
182,192,124274,1,0,0:0:0:0:
256,192,124451,1,0,0:0:0:70:CrashR.wav
402,192,124451,1,0,0:0:0:70:BaSS.wav
109,192,124451,1,0,0:0:0:70:Chork.wav
475,192,124451,1,0,0:0:0:0:
36,192,124451,1,0,0:0:0:0:
475,192,124627,5,0,0:0:0:70:Chork.wav
256,192,124627,1,0,0:0:0:0:
402,192,124715,1,0,0:0:0:70:Chork.wav
182,192,124715,1,0,0:0:0:0:
329,192,124715,1,0,0:0:0:0:
36,192,124804,1,0,0:0:0:70:KicK.wav
109,192,124804,1,0,0:0:0:70:BaSS.wav
402,192,124892,1,0,0:0:0:70:Chork.wav
182,192,124892,1,0,0:0:0:0:
329,192,124892,1,0,0:0:0:0:
475,192,124980,1,0,0:0:0:70:Chork.wav
256,192,124980,1,0,0:0:0:0:
109,192,125068,1,0,0:0:0:70:Chork.wav
36,192,125068,1,0,0:0:0:0:
329,192,125157,1,0,0:0:0:70:BaSS.wav
182,192,125157,1,0,0:0:0:0:
256,192,125245,1,0,0:0:0:70:Chork.wav
475,192,125245,1,0,0:0:0:0:
402,192,125245,1,0,0:0:0:0:
256,192,125421,1,0,0:0:0:70:Chork.wav
36,192,125421,1,0,0:0:0:0:
109,192,125421,1,0,0:0:0:0:
402,192,125510,1,0,0:0:0:70:KicK.wav
182,192,125510,1,0,0:0:0:70:Chork.wav
475,192,125510,1,0,0:0:0:70:BaSS.wav
329,192,125510,1,0,0:0:0:0:
182,192,125686,1,0,0:0:0:70:Chork.wav
329,192,125686,1,0,0:0:0:0:
256,192,125774,1,0,0:0:0:70:Chork.wav
402,192,125774,1,0,0:0:0:0:
329,192,125863,1,0,0:0:0:70:Chork.wav
475,192,125863,1,0,0:0:0:70:BaSS.wav
109,192,125863,1,0,0:0:0:0:
36,192,125863,1,0,0:0:0:0:
36,192,126039,1,0,0:0:0:70:Chork.wav
329,192,126039,1,0,0:0:0:0:
109,192,126127,1,0,0:0:0:70:Chork.wav
182,192,126127,1,0,0:0:0:0:
256,192,126127,1,0,0:0:0:0:
475,192,126215,1,0,0:0:0:70:KicK.wav
402,192,126215,1,0,0:0:0:70:BaSS.wav
109,192,126304,1,0,0:0:0:70:Chork.wav
182,192,126304,1,0,0:0:0:0:
256,192,126304,1,0,0:0:0:0:
36,192,126392,1,0,0:0:0:70:Chork.wav
329,192,126392,1,0,0:0:0:0:
475,192,126480,1,0,0:0:0:70:Chork.wav
402,192,126480,1,0,0:0:0:0:
329,192,126568,1,0,0:0:0:70:BaSS.wav
182,192,126568,1,0,0:0:0:0:
256,192,126657,1,0,0:0:0:70:Chork.wav
36,192,126657,1,0,0:0:0:0:
109,192,126657,1,0,0:0:0:0:
256,192,126833,1,0,0:0:0:70:Chork.wav
475,192,126833,1,0,0:0:0:0:
402,192,126833,1,0,0:0:0:0:
329,192,126921,1,0,0:0:0:70:Chork.wav
109,192,126921,1,0,0:0:0:70:KicK.wav
36,192,126921,1,0,0:0:0:70:BaSS.wav
182,192,126921,1,0,0:0:0:0:
256,192,127010,1,0,0:0:0:70:Chork.wav
475,192,127010,1,0,0:0:0:0:
182,192,127098,1,0,0:0:0:70:Chork.wav
402,192,127098,1,0,0:0:0:0:
109,192,127186,1,0,0:0:0:70:Chork.wav
329,192,127186,1,0,0:0:0:0:
36,192,127274,1,0,0:0:0:70:Chork.wav
475,192,127274,1,0,0:0:0:70:BaSS.wav
256,192,127274,1,0,0:0:0:0:
402,192,127274,1,0,0:0:0:0:
256,192,127451,1,0,0:0:0:70:Chork.wav
36,192,127451,1,0,0:0:0:0:
182,192,127539,1,0,0:0:0:70:Chork.wav
329,192,127539,1,0,0:0:0:0:
475,192,127539,1,0,0:0:0:0:
36,192,127627,1,0,0:0:0:70:KicK.wav
109,192,127627,1,0,0:0:0:70:BaSS.wav
182,192,127715,1,0,0:0:0:70:Chork.wav
329,192,127715,1,0,0:0:0:0:
475,192,127715,1,0,0:0:0:0:
256,192,127804,1,0,0:0:0:70:Chork.wav
402,192,127804,1,0,0:0:0:0:
329,192,127892,1,0,0:0:0:70:Chork.wav
109,192,127892,1,0,0:0:0:0:
402,192,127980,1,0,0:0:0:70:BaSS.wav
182,192,127980,1,0,0:0:0:0:
256,192,128068,1,0,0:0:0:70:Chork.wav
36,192,128068,1,0,0:0:0:0:
475,192,128068,1,0,0:0:0:0:
256,192,128245,1,0,0:0:0:70:Chork.wav
109,192,128245,1,0,0:0:0:0:
36,192,128245,1,0,0:0:0:0:
329,192,128333,1,0,0:0:0:70:KicK.wav
475,192,128333,1,0,0:0:0:70:BaSS.wav
182,192,128333,1,0,0:0:0:70:Chork.wav
402,192,128333,1,0,0:0:0:0:
182,192,128510,1,0,0:0:0:70:Chork.wav
329,192,128510,1,0,0:0:0:0:
36,192,128510,1,0,0:0:0:0:
182,192,128686,1,0,0:0:0:70:Chork.wav
256,192,128686,1,0,0:0:0:70:PunK.wav
329,192,128686,1,0,0:0:0:70:BaSS.wav
36,192,128774,1,0,0:0:0:70:Chork.wav
109,192,128774,1,0,0:0:0:0:
402,192,128863,1,0,0:0:0:70:Chork.wav
475,192,128863,1,0,0:0:0:0:
182,192,128951,1,0,0:0:0:70:Chork.wav
329,192,128951,1,0,0:0:0:0:
256,192,128951,1,0,0:0:0:70:PunK.wav
109,192,129039,1,0,0:0:0:70:BaSS.wav
36,192,129039,1,0,0:0:0:70:Chork.wav
402,192,129127,1,0,0:0:0:70:Chork.wav
475,192,129127,1,0,0:0:0:0:
182,192,129215,1,0,0:0:0:70:Chork.wav
329,192,129215,1,0,0:0:0:0:
256,192,129215,1,0,0:0:0:70:PunK.wav
109,192,129304,1,0,0:0:0:0:
36,192,129304,1,0,0:0:0:70:Chork.wav
475,192,129392,1,0,0:0:0:70:Chork.wav
329,192,129392,1,0,0:0:0:70:BaSS.wav
182,192,129392,1,0,0:0:0:0:
402,192,129480,1,0,0:0:0:70:Chork.wav
256,192,129480,1,0,0:0:0:0:
329,192,129568,1,0,0:0:0:70:Chork.wav
182,192,129568,1,0,0:0:0:0:
256,192,129657,1,0,0:0:0:70:Chork.wav
109,192,129657,1,0,0:0:0:0:
182,192,129745,1,0,0:0:0:70:Chork.wav
475,192,129745,1,0,0:0:0:70:BaSS.wav
36,192,129745,1,0,0:0:0:0:
329,192,129745,1,0,0:0:0:0:
182,192,129921,1,0,0:0:0:70:Chork.wav
475,192,129921,1,0,0:0:0:70:BaSS.wav
329,192,129921,1,0,0:0:0:0:
36,192,129921,1,0,0:0:0:0:
475,192,130098,1,0,0:0:0:70:BaSS.wav
256,192,130098,1,0,0:0:0:70:CrashR.wav
109,192,130098,1,0,0:0:0:70:Sub bass.wav
402,192,130098,1,0,0:0:0:0:
36,192,130098,1,0,0:0:0:0:
109,192,130274,1,0,0:0:0:70:Sub bass.wav
402,192,130274,1,0,0:0:0:0:
475,192,130451,1,0,0:0:0:70:KicK.wav
36,192,130451,1,0,0:0:0:70:Sub bass.wav
329,192,130451,1,0,0:0:0:70:BaSS.wav
109,192,130539,1,0,0:0:0:70:Sub bass.wav
256,192,130539,1,0,0:0:0:0:
182,192,130627,1,0,0:0:0:70:Sub bass.wav
402,192,130627,1,0,0:0:0:0:
36,192,130804,1,0,0:0:0:70:BaSS.wav
256,192,130804,1,0,0:0:0:70:Sub bass.wav
475,192,130804,1,0,0:0:0:0:
329,192,130980,1,0,0:0:0:70:Sub bass.wav
109,192,130980,1,0,0:0:0:0:
402,192,131068,1,0,0:0:0:70:Sub bass.wav
256,192,131068,1,0,0:0:0:0:
36,192,131157,1,0,0:0:0:70:KicK.wav
182,192,131157,1,0,0:0:0:70:BaSS.wav
475,192,131157,1,0,0:0:0:70:Sub bass.wav
402,192,131333,1,0,0:0:0:70:Sub bass.wav
109,192,131333,1,0,0:0:0:0:
256,192,131510,1,0,0:0:0:70:CrashR.wav
36,192,131510,1,0,0:0:0:70:BaSS.wav
329,192,131510,1,0,0:0:0:70:Sub bass.wav
182,192,131510,1,0,0:0:0:0:
475,192,131510,1,0,0:0:0:0:
329,192,131686,1,0,0:0:0:70:Sub bass.wav
182,192,131686,1,0,0:0:0:0:
36,192,131863,1,0,0:0:0:70:KicK.wav
256,192,131863,1,0,0:0:0:70:Sub bass.wav
475,192,131863,1,0,0:0:0:70:BaSS.wav
182,192,131951,1,0,0:0:0:70:Sub bass.wav
329,192,131951,1,0,0:0:0:0:
109,192,132039,1,0,0:0:0:70:Sub bass.wav
402,192,132039,1,0,0:0:0:0:
109,192,132215,1,0,0:0:0:70:Sub bass.wav
256,192,132215,1,0,0:0:0:0:
36,192,132215,1,0,0:0:0:70:BaSS.wav
475,192,132304,1,0,0:0:0:70:Sub bass.wav
402,192,132304,1,0,0:0:0:0:
256,192,132392,1,0,0:0:0:0:
36,192,132392,1,0,0:0:0:70:BaSS.wav
109,192,132392,1,0,0:0:0:70:Sub bass.wav
329,192,132480,1,0,0:0:0:0:
182,192,132480,1,0,0:0:0:70:Sub bass.wav
475,192,132568,1,0,0:0:0:70:KicK.wav
256,192,132568,1,0,0:0:0:70:Sub bass.wav
402,192,132568,1,0,0:0:0:70:BaSS.wav
182,192,132745,1,0,0:0:0:70:Sub bass.wav
329,192,132745,1,0,0:0:0:70:BaSS.wav
36,192,132745,1,0,0:0:0:0:
329,192,132921,1,0,0:0:0:70:BaSS.wav
475,192,132921,1,0,0:0:0:70:CrashR.wav
182,192,132921,1,0,0:0:0:70:Sub bass.wav
402,192,132921,1,0,0:0:0:0:
109,192,133010,1,0,0:0:0:70:Sub bass.wav
36,192,133010,1,0,0:0:0:0:
329,192,133098,1,0,0:0:0:70:BaSS.wav
182,192,133098,1,0,0:0:0:70:Sub bass.wav
256,192,133098,1,0,0:0:0:0:
402,192,133186,1,0,0:0:0:70:Sub bass.wav
475,192,133186,1,0,0:0:0:0:
329,192,133274,1,0,0:0:0:70:Sub bass.wav
182,192,133274,1,0,0:0:0:70:BaSS.wav
36,192,133274,1,0,0:0:0:70:KicK.wav
402,192,133363,1,0,0:0:0:70:Sub bass.wav
475,192,133363,1,0,0:0:0:0:
36,192,133451,1,0,0:0:0:70:BaSS.wav
256,192,133451,1,0,0:0:0:70:Sub bass.wav
109,192,133451,1,0,0:0:0:0:
402,192,133539,1,0,0:0:0:70:Sub bass.wav
475,192,133539,1,0,0:0:0:0:
36,192,133627,1,0,0:0:0:70:BaSS.wav
329,192,133627,1,0,0:0:0:70:Sub bass.wav
182,192,133627,1,0,0:0:0:70:CrashR.wav
109,192,133627,1,0,0:0:0:0:
402,192,133715,1,0,0:0:0:70:Sub bass.wav
475,192,133715,1,0,0:0:0:0:
329,192,133804,1,0,0:0:0:70:Sub bass.wav
182,192,133804,1,0,0:0:0:70:BaSS.wav
256,192,133804,1,0,0:0:0:0:
109,192,133892,1,0,0:0:0:70:Sub bass.wav
36,192,133892,1,0,0:0:0:0:
475,192,133980,1,0,0:0:0:70:KicK.wav
329,192,133980,1,0,0:0:0:70:BaSS.wav
182,192,133980,1,0,0:0:0:70:Sub bass.wav
109,192,134068,1,0,0:0:0:70:Sub bass.wav
36,192,134068,1,0,0:0:0:0:
475,192,134157,1,0,0:0:0:70:BaSS.wav
256,192,134157,1,0,0:0:0:70:Sub bass.wav
402,192,134157,1,0,0:0:0:0:
109,192,134245,1,0,0:0:0:70:Sub bass.wav
36,192,134245,1,0,0:0:0:0:
402,192,134333,1,0,0:0:0:0:
182,192,134333,1,0,0:0:0:70:Sub bass.wav
329,192,134333,1,0,0:0:0:70:CrashR.wav
475,192,134333,1,0,0:0:0:70:BaSS.wav
109,192,134421,1,0,0:0:0:70:Sub bass.wav
36,192,134421,1,0,0:0:0:0:
182,192,134510,1,0,0:0:0:70:Sub bass.wav
329,192,134510,1,0,0:0:0:0:
402,192,134598,1,0,0:0:0:70:Sub bass.wav
475,192,134598,1,0,0:0:0:0:
182,192,134686,1,0,0:0:0:70:KicK.wav
329,192,134686,1,0,0:0:0:70:Sub bass.wav
256,192,134686,1,0,0:0:0:0:
109,192,134774,1,0,0:0:0:70:Sub bass.wav
36,192,134774,1,0,0:0:0:0:
329,192,134863,1,0,0:0:0:70:Sub bass.wav
182,192,134863,1,0,0:0:0:0:
402,192,134951,1,0,0:0:0:70:Sub bass.wav
475,192,134951,1,0,0:0:0:0:
182,192,135039,1,0,0:0:0:70:Sub bass.wav
329,192,135039,1,0,0:0:0:70:BaSS.wav
109,192,135083,1,0,0:0:0:70:Sub bass.wav
36,192,135127,1,0,0:0:0:70:Sub bass.wav
256,192,135171,1,0,0:0:0:70:Sub bass.wav
329,192,135215,1,0,0:0:0:70:Sub bass.wav
402,192,135260,1,0,0:0:0:70:Sub bass.wav
475,192,135304,1,0,0:0:0:70:Sub bass.wav
182,192,135304,1,0,0:0:0:70:BaSS.wav
36,192,135304,1,0,0:0:0:0:
256,192,135348,1,0,0:0:0:70:Sub bass.wav
329,192,135392,1,0,0:0:0:70:Sub bass.wav
402,192,135436,1,0,0:0:0:70:Sub bass.wav
475,192,135480,1,0,0:0:0:70:Sub bass.wav
182,192,135524,1,0,0:0:0:70:Sub bass.wav
109,192,135568,1,0,0:0:0:70:Sub bass.wav
36,192,135613,1,0,0:0:0:70:Sub bass.wav
329,192,135657,1,0,0:0:0:70:Sub bass.wav
402,192,135701,1,0,0:0:0:70:Sub bass.wav
256,192,135745,1,0,0:0:0:70:CrashR.wav
475,192,135745,1,0,0:0:0:70:BaSS.wav
36,192,135745,1,0,0:0:0:0:
109,192,135745,1,0,0:0:0:0:
402,192,135921,1,0,0:0:0:70:Hihat.wav
329,192,136098,1,0,0:0:0:70:BaSS.wav
182,192,136098,128,0,136274:0:0:0:70:KicK.wav
36,192,136098,128,0,136274:0:0:0:0:
402,192,136274,1,0,0:0:0:70:Hihat.wav
475,192,136451,1,0,0:0:0:70:BaSS.wav
402,192,136627,1,0,0:0:0:70:Hihat.wav
329,192,136804,1,0,0:0:0:70:BaSS.wav
182,192,136804,128,0,136980:0:0:0:70:KicK.wav
36,192,136804,128,0,136980:0:0:0:0:
402,192,136980,1,0,0:0:0:70:Hihat.wav
475,192,137157,1,0,0:0:0:70:BaSS.wav
402,192,137333,1,0,0:0:0:70:Hihat.wav
329,192,137510,1,0,0:0:0:70:BaSS.wav
182,192,137510,128,0,137686:0:0:0:70:KicK.wav
36,192,137510,128,0,137686:0:0:0:0:
402,192,137686,1,0,0:0:0:70:Hihat.wav
475,192,137863,1,0,0:0:0:70:BaSS.wav
402,192,138039,1,0,0:0:0:70:Hihat.wav
329,192,138215,1,0,0:0:0:70:BaSS.wav
182,192,138215,128,0,138392:0:0:0:70:KicK.wav
36,192,138215,128,0,138392:0:0:0:0:
402,192,138392,1,0,0:0:0:70:Hihat.wav
475,192,138568,1,0,0:0:0:70:BaSS.wav
36,192,138745,1,0,0:0:0:70:Hihat.wav
329,192,138921,128,0,139098:0:0:0:70:KicK.wav
182,192,138921,1,0,0:0:0:70:BaSS.wav
475,192,138921,128,0,139098:0:0:0:0:
36,192,139098,1,0,0:0:0:70:Hihat.wav
475,192,139274,1,0,0:0:0:70:BaSS.wav
36,192,139451,1,0,0:0:0:70:Hihat.wav
329,192,139627,128,0,139804:0:0:0:70:KicK.wav
182,192,139627,1,0,0:0:0:70:BaSS.wav
475,192,139627,128,0,139804:0:0:0:0:
36,192,139804,1,0,0:0:0:70:Hihat.wav
475,192,139980,1,0,0:0:0:70:BaSS.wav
36,192,140157,1,0,0:0:0:70:Hihat.wav
182,192,140333,1,0,0:0:0:70:BaSS.wav
329,192,140333,128,0,140510:0:0:0:70:KicK.wav
475,192,140333,128,0,140510:0:0:0:0:
36,192,140510,1,0,0:0:0:70:Hihat.wav
475,192,140686,1,0,0:0:0:70:BaSS.wav
36,192,140863,1,0,0:0:0:70:Hihat.wav
182,192,141039,1,0,0:0:0:70:BaSS.wav
475,192,141039,128,0,141215:0:0:0:0:
329,192,141039,128,0,141215:0:0:0:70:KicK.wav
36,192,141215,1,0,0:0:0:70:Hihat.wav
182,192,141215,1,0,0:0:0:70:BaSS.wav
36,192,141392,1,0,0:0:0:70:BaSS.wav
329,192,141392,1,0,0:0:0:0:
475,192,141568,1,0,0:0:0:70:Hihat.wav
182,192,141745,128,0,141921:0:0:0:70:KicK.wav
402,192,141745,1,0,0:0:0:70:BaSS.wav
36,192,141745,128,0,141921:0:0:0:0:
475,192,141921,1,0,0:0:0:70:Hihat.wav
329,192,142098,1,0,0:0:0:70:BaSS.wav
475,192,142274,1,0,0:0:0:70:Hihat.wav
402,192,142451,1,0,0:0:0:70:BaSS.wav
182,192,142451,128,0,142627:0:0:0:70:KicK.wav
36,192,142451,128,0,142627:0:0:0:0:
475,192,142627,1,0,0:0:0:70:Hihat.wav
329,192,142804,1,0,0:0:0:70:BaSS.wav
475,192,142980,1,0,0:0:0:70:Hihat.wav
402,192,143157,1,0,0:0:0:70:BaSS.wav
182,192,143157,128,0,143333:0:0:0:70:KicK.wav
36,192,143157,128,0,143333:0:0:0:0:
475,192,143333,1,0,0:0:0:70:Hihat.wav
329,192,143510,1,0,0:0:0:70:BaSS.wav
475,192,143686,1,0,0:0:0:70:Hihat.wav
402,192,143863,1,0,0:0:0:70:BaSS.wav
182,192,143863,128,0,144039:0:0:0:70:KicK.wav
36,192,143863,128,0,144039:0:0:0:0:
475,192,144039,1,0,0:0:0:70:Hihat.wav
329,192,144215,1,0,0:0:0:70:BaSS.wav
182,192,144392,1,0,0:0:0:70:Hihat.wav
36,192,144568,1,0,0:0:0:70:BaSS.wav
329,192,144568,128,0,144745:0:0:0:70:KicK.wav
475,192,144568,128,0,144745:0:0:0:0:
182,192,144745,1,0,0:0:0:70:Hihat.wav
329,192,144921,1,0,0:0:0:70:BaSS.wav
182,192,145098,1,0,0:0:0:70:Hihat.wav
36,192,145274,1,0,0:0:0:70:BaSS.wav
329,192,145274,128,0,145451:0:0:0:70:KicK.wav
475,192,145274,128,0,145451:0:0:0:0:
182,192,145451,1,0,0:0:0:70:Hihat.wav
329,192,145627,1,0,0:0:0:70:BaSS.wav
182,192,145804,1,0,0:0:0:70:Hihat.wav
36,192,145980,1,0,0:0:0:70:BaSS.wav
329,192,145980,128,0,146157:0:0:0:70:KicK.wav
475,192,145980,128,0,146157:0:0:0:0:
182,192,146157,1,0,0:0:0:70:Hihat.wav
329,192,146333,1,0,0:0:0:70:BaSS.wav
182,192,146510,1,0,0:0:0:70:Hihat.wav
36,192,146598,1,0,0:0:0:70:BaSS.wav
36,192,146686,1,0,0:0:0:70:BaSS.wav
329,192,146686,128,0,146863:0:0:0:70:KicK.wav
475,192,146686,128,0,146863:0:0:0:0:
182,192,146863,1,0,0:0:0:70:BaSS.wav
36,192,146863,1,0,0:0:0:70:Hihat.wav
329,192,147039,1,0,0:0:0:70:BaSS.wav
182,192,147039,1,0,0:0:0:0:
402,192,147215,1,0,0:0:0:70:Hihat.wav
329,192,147392,1,0,0:0:0:70:BaSS.wav
36,192,147392,128,0,147568:0:0:0:70:KicK.wav
182,192,147392,128,0,147568:0:0:0:0:
475,192,147568,1,0,0:0:0:70:Hihat.wav
329,192,147745,1,0,0:0:0:70:BaSS.wav
402,192,147921,1,0,0:0:0:70:Hihat.wav
36,192,148098,128,0,148274:0:0:0:70:KicK.wav
329,192,148098,1,0,0:0:0:70:BaSS.wav
182,192,148098,128,0,148274:0:0:0:0:
475,192,148274,1,0,0:0:0:70:Hihat.wav
329,192,148451,1,0,0:0:0:70:BaSS.wav
402,192,148627,1,0,0:0:0:70:Hihat.wav
329,192,148804,1,0,0:0:0:70:BaSS.wav
36,192,148804,128,0,148980:0:0:0:70:KicK.wav
182,192,148804,128,0,148980:0:0:0:0:
475,192,148980,1,0,0:0:0:70:Hihat.wav
329,192,149157,1,0,0:0:0:70:BaSS.wav
402,192,149333,1,0,0:0:0:70:Hihat.wav
329,192,149510,1,0,0:0:0:70:BaSS.wav
36,192,149510,128,0,149686:0:0:0:70:KicK.wav
182,192,149510,128,0,149686:0:0:0:0:
475,192,149686,1,0,0:0:0:70:Hihat.wav
329,192,149863,1,0,0:0:0:70:BaSS.wav
36,192,150039,1,0,0:0:0:70:Hihat.wav
182,192,150215,1,0,0:0:0:70:BaSS.wav
475,192,150215,128,0,150392:0:0:0:70:KicK.wav
329,192,150215,128,0,150392:0:0:0:0:
109,192,150392,1,0,0:0:0:70:Hihat.wav
329,192,150568,1,0,0:0:0:70:BaSS.wav
36,192,150745,1,0,0:0:0:70:Hihat.wav
182,192,150921,1,0,0:0:0:70:BaSS.wav
475,192,150921,128,0,151098:0:0:0:70:KicK.wav
329,192,150921,128,0,151098:0:0:0:0:
109,192,151098,1,0,0:0:0:70:Hihat.wav
329,192,151274,1,0,0:0:0:70:BaSS.wav
36,192,151451,1,0,0:0:0:70:Hihat.wav
182,192,151627,1,0,0:0:0:70:BaSS.wav
475,192,151627,128,0,151804:0:0:0:70:KicK.wav
329,192,151627,128,0,151804:0:0:0:0:
109,192,151804,1,0,0:0:0:70:Hihat.wav
329,192,151980,1,0,0:0:0:70:BaSS.wav
36,192,152157,1,0,0:0:0:70:Hihat.wav
182,192,152333,1,0,0:0:0:70:BaSS.wav
475,192,152333,128,0,152510:0:0:0:70:KicK.wav
329,192,152333,128,0,152510:0:0:0:0:
36,192,152510,1,0,0:0:0:70:Hihat.wav
182,192,152510,1,0,0:0:0:70:BaSS.wav
36,192,152686,1,0,0:0:0:70:BaSS.wav
256,192,152686,1,0,0:0:0:70:CrashR.wav
475,192,152686,1,0,0:0:0:70:Sub bass.wav
109,192,152686,1,0,0:0:0:0:
402,192,152686,1,0,0:0:0:0:
475,192,152863,1,0,0:0:0:70:Sub bass.wav
402,192,152863,1,0,0:0:0:0:
329,192,153039,1,0,0:0:0:70:Sub bass.wav
182,192,153039,1,0,0:0:0:70:BaSS.wav
36,192,153039,1,0,0:0:0:70:KicK.wav
402,192,153127,1,0,0:0:0:70:Sub bass.wav
475,192,153127,1,0,0:0:0:0:
329,192,153215,1,0,0:0:0:70:Sub bass.wav
182,192,153215,1,0,0:0:0:0:
256,192,153392,1,0,0:0:0:70:BaSS.wav
475,192,153392,1,0,0:0:0:70:Sub bass.wav
36,192,153392,1,0,0:0:0:0:
182,192,153568,1,0,0:0:0:70:Sub bass.wav
329,192,153568,1,0,0:0:0:0:
109,192,153657,1,0,0:0:0:70:Sub bass.wav
36,192,153657,1,0,0:0:0:0:
475,192,153745,1,0,0:0:0:70:BaSS.wav
182,192,153745,1,0,0:0:0:70:Sub bass.wav
329,192,153745,1,0,0:0:0:70:KicK.wav
402,192,153921,1,0,0:0:0:70:Sub bass.wav
256,192,153921,1,0,0:0:0:0:
256,192,154098,1,0,0:0:0:70:CrashR.wav
402,192,154098,1,0,0:0:0:70:Sub bass.wav
36,192,154098,1,0,0:0:0:70:BaSS.wav
475,192,154098,1,0,0:0:0:0:
109,192,154098,1,0,0:0:0:0:
36,192,154274,1,0,0:0:0:70:Sub bass.wav
109,192,154274,1,0,0:0:0:0:
182,192,154451,1,0,0:0:0:70:Sub bass.wav
475,192,154451,1,0,0:0:0:70:KicK.wav
329,192,154451,1,0,0:0:0:70:BaSS.wav
109,192,154539,1,0,0:0:0:70:Sub bass.wav
36,192,154539,1,0,0:0:0:0:
182,192,154627,1,0,0:0:0:70:Sub bass.wav
329,192,154627,1,0,0:0:0:0:
402,192,154804,1,0,0:0:0:70:BaSS.wav
256,192,154804,1,0,0:0:0:70:Sub bass.wav
475,192,154804,1,0,0:0:0:0:
36,192,154892,1,0,0:0:0:70:Sub bass.wav
109,192,154892,1,0,0:0:0:0:
329,192,154980,1,0,0:0:0:70:BaSS.wav
182,192,154980,1,0,0:0:0:70:Sub bass.wav
475,192,154980,1,0,0:0:0:0:
36,192,155068,1,0,0:0:0:70:Sub bass.wav
109,192,155068,1,0,0:0:0:0:
475,192,155157,1,0,0:0:0:70:KicK.wav
256,192,155157,1,0,0:0:0:70:Sub bass.wav
402,192,155157,1,0,0:0:0:70:BaSS.wav
182,192,155333,1,0,0:0:0:70:Sub bass.wav
36,192,155333,1,0,0:0:0:70:BaSS.wav
329,192,155333,1,0,0:0:0:0:
475,192,155510,1,0,0:0:0:70:Sub bass.wav
36,192,155510,1,0,0:0:0:70:BaSS.wav
256,192,155510,1,0,0:0:0:70:CrashR.wav
109,192,155510,1,0,0:0:0:0:
402,192,155598,1,0,0:0:0:70:Sub bass.wav
329,192,155598,1,0,0:0:0:0:
36,192,155686,1,0,0:0:0:70:BaSS.wav
182,192,155686,1,0,0:0:0:70:Sub bass.wav
109,192,155686,1,0,0:0:0:0:
402,192,155774,1,0,0:0:0:70:Sub bass.wav
329,192,155774,1,0,0:0:0:0:
256,192,155863,1,0,0:0:0:70:BaSS.wav
475,192,155863,1,0,0:0:0:70:Sub bass.wav
36,192,155863,1,0,0:0:0:70:KicK.wav
182,192,155951,1,0,0:0:0:70:Sub bass.wav
109,192,155951,1,0,0:0:0:0:
329,192,156039,1,0,0:0:0:70:BaSS.wav
402,192,156039,1,0,0:0:0:70:Sub bass.wav
475,192,156039,1,0,0:0:0:0:
182,192,156127,1,0,0:0:0:70:Sub bass.wav
109,192,156127,1,0,0:0:0:0:
475,192,156215,1,0,0:0:0:70:BaSS.wav
36,192,156215,1,0,0:0:0:70:Sub bass.wav
256,192,156215,1,0,0:0:0:70:CrashR.wav
402,192,156215,1,0,0:0:0:0:
109,192,156304,1,0,0:0:0:70:Sub bass.wav
329,192,156304,1,0,0:0:0:0:
182,192,156392,1,0,0:0:0:70:Sub bass.wav
475,192,156392,1,0,0:0:0:70:BaSS.wav
402,192,156392,1,0,0:0:0:0:
109,192,156480,1,0,0:0:0:70:Sub bass.wav
329,192,156480,1,0,0:0:0:0:
475,192,156568,1,0,0:0:0:70:Sub bass.wav
256,192,156568,1,0,0:0:0:70:KicK.wav
36,192,156568,1,0,0:0:0:70:BaSS.wav
402,192,156657,1,0,0:0:0:70:Sub bass.wav
182,192,156657,1,0,0:0:0:0:
36,192,156745,1,0,0:0:0:70:BaSS.wav
329,192,156745,1,0,0:0:0:70:Sub bass.wav
109,192,156745,1,0,0:0:0:0:
402,192,156833,1,0,0:0:0:70:Sub bass.wav
182,192,156833,1,0,0:0:0:0:
256,192,156921,1,0,0:0:0:70:CrashR.wav
475,192,156921,1,0,0:0:0:70:Sub bass.wav
36,192,156921,1,0,0:0:0:70:BaSS.wav
109,192,156921,1,0,0:0:0:0:
329,192,157010,1,0,0:0:0:70:Sub bass.wav
402,192,157010,1,0,0:0:0:0:
182,192,157098,1,0,0:0:0:70:Sub bass.wav
109,192,157098,1,0,0:0:0:0:
329,192,157186,1,0,0:0:0:70:Sub bass.wav
402,192,157186,1,0,0:0:0:0:
109,192,157274,1,0,0:0:0:70:Sub bass.wav
256,192,157274,1,0,0:0:0:70:KicK.wav
36,192,157274,1,0,0:0:0:0:
402,192,157363,1,0,0:0:0:70:Sub bass.wav
475,192,157363,1,0,0:0:0:0:
329,192,157451,1,0,0:0:0:70:Sub bass.wav
182,192,157451,1,0,0:0:0:0:
109,192,157539,1,0,0:0:0:70:Sub bass.wav
36,192,157539,1,0,0:0:0:0:
329,192,157627,1,0,0:0:0:70:Sub bass.wav
182,192,157627,1,0,0:0:0:70:BaSS.wav
402,192,157671,1,0,0:0:0:70:Sub bass.wav
475,192,157715,1,0,0:0:0:70:Sub bass.wav
256,192,157760,1,0,0:0:0:70:Sub bass.wav
182,192,157804,1,0,0:0:0:70:Sub bass.wav
109,192,157848,1,0,0:0:0:70:Sub bass.wav
402,192,157892,1,0,0:0:0:70:BaSS.wav
475,192,157892,1,0,0:0:0:0:
36,192,157892,1,0,0:0:0:70:Sub bass.wav
329,192,157936,1,0,0:0:0:70:Sub bass.wav
256,192,157980,1,0,0:0:0:70:Sub bass.wav
182,192,158024,1,0,0:0:0:70:Sub bass.wav
109,192,158068,1,0,0:0:0:70:Sub bass.wav
329,192,158113,1,0,0:0:0:70:Sub bass.wav
402,192,158157,1,0,0:0:0:70:Sub bass.wav
475,192,158201,1,0,0:0:0:70:Sub bass.wav
182,192,158245,1,0,0:0:0:70:Sub bass.wav
109,192,158289,1,0,0:0:0:70:Sub bass.wav
256,192,158333,1,0,0:0:0:70:CrashR.wav
402,192,158333,1,0,0:0:0:70:BaSS.wav
475,192,158333,128,0,162392:0:0:0:0:
36,192,158333,1,0,0:0:0:70:Chi!.wav
36,192,158510,1,0,0:0:0:70:Chi!.wav
182,192,158686,1,0,0:0:0:70:Chi!.wav
36,192,158774,1,0,0:0:0:70:Chi!.wav
256,192,158951,1,0,0:0:0:70:Chi!.wav
109,192,159039,1,0,0:0:0:70:Chi!.wav
329,192,159215,1,0,0:0:0:70:Chi!.wav
182,192,159304,1,0,0:0:0:70:Chi!.wav
329,192,159480,1,0,0:0:0:70:Chi!.wav
182,192,159568,1,0,0:0:0:70:Chi!.wav
36,192,159745,1,0,0:0:0:70:Chi!.wav
36,192,159921,1,0,0:0:0:70:Chi!.wav
182,192,160098,1,0,0:0:0:70:Chi!.wav
36,192,160186,1,0,0:0:0:70:Chi!.wav
256,192,160363,1,0,0:0:0:70:Chi!.wav
109,192,160451,1,0,0:0:0:70:Chi!.wav
329,192,160627,1,0,0:0:0:70:Chi!.wav
182,192,160715,1,0,0:0:0:70:Chi!.wav
329,192,160892,1,0,0:0:0:70:Chi!.wav
182,192,160980,1,0,0:0:0:70:Chi!.wav
36,192,161157,1,0,0:0:0:70:Chi!.wav
36,192,161333,1,0,0:0:0:70:Chi!.wav
182,192,161510,1,0,0:0:0:70:Chi!.wav
36,192,161598,1,0,0:0:0:70:Chi!.wav
256,192,161774,1,0,0:0:0:70:Chi!.wav
109,192,161863,1,0,0:0:0:70:Chi!.wav
329,192,162039,1,0,0:0:0:70:Chi!.wav
182,192,162127,1,0,0:0:0:70:Chi!.wav
329,192,162304,1,0,0:0:0:70:Chi!.wav
182,192,162392,1,0,0:0:0:70:Chi!.wav
36,192,162392,128,0,162921:0:0:0:0:
475,192,162568,1,0,0:0:0:70:Chi!.wav
256,192,162568,128,0,162921:0:0:0:0:
402,192,162745,1,0,0:0:0:70:Chi!.wav
329,192,162921,1,0,0:0:0:70:Chi!.wav
475,192,163010,1,0,0:0:0:70:Chi!.wav
36,192,163098,128,0,169451:0:0:0:0:
256,192,163098,128,0,163627:0:0:0:0:
475,192,163186,1,0,0:0:0:70:Chi!.wav
329,192,163274,1,0,0:0:0:70:Chi!.wav
182,192,163451,1,0,0:0:0:70:Chi!.wav
329,192,163539,1,0,0:0:0:70:Chi!.wav
475,192,163627,128,0,168568:0:0:0:0:
182,192,163715,1,0,0:0:0:70:Chi!.wav
329,192,163804,1,0,0:0:0:70:Chi!.wav
182,192,163980,1,0,0:0:0:70:Chi!.wav
256,192,164157,1,0,0:0:0:70:Chi!.wav
329,192,164333,1,0,0:0:0:70:Chi!.wav
182,192,164421,1,0,0:0:0:70:Chi!.wav
182,192,164598,1,0,0:0:0:70:Chi!.wav
329,192,164686,1,0,0:0:0:70:Chi!.wav
109,192,164863,1,0,0:0:0:70:Chi!.wav
402,192,164951,1,0,0:0:0:70:Chi!.wav
182,192,165127,1,0,0:0:0:70:Chi!.wav
329,192,165215,1,0,0:0:0:70:Chi!.wav
182,192,165392,1,0,0:0:0:70:Chi!.wav
256,192,165568,1,0,0:0:0:70:Chi!.wav
329,192,165745,1,0,0:0:0:70:Chi!.wav
182,192,165833,1,0,0:0:0:70:Chi!.wav
182,192,166010,1,0,0:0:0:70:Chi!.wav
329,192,166098,1,0,0:0:0:70:Chi!.wav
109,192,166274,1,0,0:0:0:70:Chi!.wav
402,192,166363,1,0,0:0:0:70:Chi!.wav
182,192,166539,1,0,0:0:0:70:Chi!.wav
329,192,166627,1,0,0:0:0:70:Chi!.wav
182,192,166804,1,0,0:0:0:70:Chi!.wav
256,192,166980,1,0,0:0:0:70:Chi!.wav
329,192,167157,1,0,0:0:0:70:Chi!.wav
182,192,167245,1,0,0:0:0:70:Chi!.wav
182,192,167421,1,0,0:0:0:70:Chi!.wav
329,192,167510,1,0,0:0:0:70:Chi!.wav
109,192,167686,1,0,0:0:0:70:Chi!.wav
402,192,167774,1,0,0:0:0:70:Chi!.wav
182,192,167951,1,0,0:0:0:70:Chi!.wav
329,192,168039,1,0,0:0:0:70:Chi!.wav
402,192,168039,128,0,168568:0:0:0:0:
182,192,168215,1,0,0:0:0:70:Chi!.wav
109,192,168215,128,0,169451:0:0:0:0:
256,192,168392,1,0,0:0:0:70:Chi!.wav
329,192,168568,1,0,0:0:0:70:Chi!.wav
182,192,168657,1,0,0:0:0:70:Chi!.wav
402,192,168745,128,0,169451:0:0:0:0:
475,192,168745,128,0,169451:0:0:0:0:
182,192,168833,1,0,0:0:0:70:Chi!.wav
329,192,168921,1,0,0:0:0:70:Chi!.wav
329,192,169098,1,0,0:0:0:70:Chi!.wav
182,192,169186,1,0,0:0:0:70:Chi!.wav
256,192,169274,128,0,169451:0:0:0:0:
182,192,169363,1,0,0:0:0:70:Chi!.wav
329,192,169451,1,0,0:0:0:70:Chi!.wav
475,192,169627,1,0,0:0:0:70:Chi!.wav
36,192,169627,1,0,0:0:0:70:BaSS.wav
329,192,169627,1,0,0:0:0:0:
256,192,169627,128,0,172098:0:0:0:70:CrashR.wav
182,192,169627,1,0,0:0:0:0:
402,192,169804,1,0,0:0:0:70:Chi!.wav
109,192,169804,1,0,0:0:0:70:Hihat.wav
329,192,169980,1,0,0:0:0:70:Chi!.wav
182,192,169980,1,0,0:0:0:70:KicK.wav
475,192,170068,1,0,0:0:0:70:Chi!.wav
109,192,170157,1,0,0:0:0:70:Hihat.wav
475,192,170245,1,0,0:0:0:70:Chi!.wav
329,192,170333,1,0,0:0:0:70:Chi!.wav
36,192,170333,1,0,0:0:0:0:
329,192,170510,1,0,0:0:0:70:Chi!.wav
109,192,170510,1,0,0:0:0:70:Hihat.wav
402,192,170598,1,0,0:0:0:70:Chi!.wav
182,192,170686,1,0,0:0:0:70:KicK.wav
402,192,170774,1,0,0:0:0:70:Chi!.wav
329,192,170863,1,0,0:0:0:70:Chi!.wav
109,192,170863,1,0,0:0:0:70:Hihat.wav
475,192,171039,1,0,0:0:0:70:Chi!.wav
36,192,171039,1,0,0:0:0:0:
402,192,171215,1,0,0:0:0:70:Chi!.wav
109,192,171215,1,0,0:0:0:70:Hihat.wav
329,192,171392,1,0,0:0:0:70:Chi!.wav
182,192,171392,1,0,0:0:0:70:KicK.wav
475,192,171480,1,0,0:0:0:70:Chi!.wav
109,192,171568,1,0,0:0:0:70:Hihat.wav
475,192,171657,1,0,0:0:0:70:Chi!.wav
36,192,171745,1,0,0:0:0:0:
329,192,171745,1,0,0:0:0:70:Chi!.wav
329,192,171921,1,0,0:0:0:70:Chi!.wav
109,192,171921,1,0,0:0:0:70:Hihat.wav
402,192,172010,1,0,0:0:0:70:Chi!.wav
182,192,172098,1,0,0:0:0:70:KicK.wav
36,192,172098,128,0,172274:0:0:0:0:
402,192,172186,1,0,0:0:0:70:Chi!.wav
329,192,172274,1,0,0:0:0:70:Chi!.wav
182,192,172274,128,0,172451:0:0:0:70:Hihat.wav
329,192,172451,1,0,0:0:0:70:Chi!.wav
36,192,172451,128,0,173863:0:0:0:0:
475,192,172451,1,0,0:0:0:0:
256,192,172627,1,0,0:0:0:70:Chi!.wav
402,192,172627,1,0,0:0:0:70:Hihat.wav
329,192,172804,1,0,0:0:0:70:KicK.wav
182,192,172804,1,0,0:0:0:70:Chi!.wav
256,192,172892,1,0,0:0:0:70:Chi!.wav
402,192,172980,1,0,0:0:0:70:Hihat.wav
256,192,173068,1,0,0:0:0:70:Chi!.wav
329,192,173157,1,0,0:0:0:70:Chi!.wav
109,192,173157,1,0,0:0:0:0:
329,192,173333,1,0,0:0:0:70:Chi!.wav
182,192,173333,1,0,0:0:0:70:Hihat.wav
402,192,173421,1,0,0:0:0:70:Chi!.wav
256,192,173510,1,0,0:0:0:70:KicK.wav
402,192,173598,1,0,0:0:0:70:Chi!.wav
475,192,173686,1,0,0:0:0:70:Chi!.wav
182,192,173686,1,0,0:0:0:70:Hihat.wav
182,192,173863,1,0,0:0:0:70:Chi!.wav
475,192,173863,128,0,174392:0:0:0:0:
329,192,173863,1,0,0:0:0:0:
256,192,174039,1,0,0:0:0:70:Hihat.wav
109,192,174039,1,0,0:0:0:70:Chi!.wav
36,192,174215,1,0,0:0:0:70:Chi!.wav
182,192,174215,1,0,0:0:0:70:KicK.wav
109,192,174304,1,0,0:0:0:70:Chi!.wav
256,192,174392,1,0,0:0:0:70:Hihat.wav
402,192,174392,128,0,175098:0:0:0:0:
109,192,174480,1,0,0:0:0:70:Chi!.wav
182,192,174568,1,0,0:0:0:70:Chi!.wav
329,192,174568,1,0,0:0:0:0:
182,192,174745,1,0,0:0:0:70:Chi!.wav
36,192,174745,1,0,0:0:0:70:Hihat.wav
256,192,174833,1,0,0:0:0:70:Chi!.wav
109,192,174921,1,0,0:0:0:70:KicK.wav
475,192,174921,128,0,175098:0:0:0:0:
256,192,175010,1,0,0:0:0:70:Chi!.wav
329,192,175098,1,0,0:0:0:70:Chi!.wav
182,192,175098,1,0,0:0:0:70:Hihat.wav
329,192,175274,1,0,0:0:0:70:Chi!.wav
182,192,175274,1,0,0:0:0:0:
36,192,175274,128,0,179157:0:0:0:0:
475,192,175274,128,0,175627:0:0:0:0:
402,192,175451,1,0,0:0:0:70:Chi!.wav
256,192,175451,1,0,0:0:0:70:Hihat.wav
182,192,175627,1,0,0:0:0:70:Chi!.wav
329,192,175627,1,0,0:0:0:70:KicK.wav
109,192,175715,1,0,0:0:0:70:Chi!.wav
256,192,175804,1,0,0:0:0:70:Hihat.wav
475,192,175804,128,0,179157:0:0:0:0:
109,192,175892,1,0,0:0:0:70:Chi!.wav
329,192,175980,1,0,0:0:0:70:Chi!.wav
182,192,175980,1,0,0:0:0:0:
182,192,176157,1,0,0:0:0:70:Hihat.wav
329,192,176157,1,0,0:0:0:70:Chi!.wav
402,192,176245,1,0,0:0:0:70:Chi!.wav
256,192,176333,128,0,179157:0:0:0:0:
109,192,176333,1,0,0:0:0:70:KicK.wav
402,192,176421,1,0,0:0:0:70:Chi!.wav
329,192,176510,1,0,0:0:0:70:Chi!.wav
182,192,176510,1,0,0:0:0:70:Hihat.wav
182,192,176686,1,0,0:0:0:30:Sub bass.wav
329,192,176686,1,0,0:0:0:0:
109,192,176774,1,0,0:0:0:30:Sub bass.wav
402,192,176863,1,0,0:0:0:30:Sub bass.wav
329,192,176951,1,0,0:0:0:30:Sub bass.wav
109,192,177039,1,0,0:0:0:30:Sub bass.wav
182,192,177127,1,0,0:0:0:30:Sub bass.wav
329,192,177215,1,0,0:0:0:30:Sub bass.wav
402,192,177304,1,0,0:0:0:30:Sub bass.wav
182,192,177392,1,0,0:0:0:40:Sub bass.wav
109,192,177480,1,0,0:0:0:40:Sub bass.wav
402,192,177568,1,0,0:0:0:40:Sub bass.wav
329,192,177657,1,0,0:0:0:40:Sub bass.wav
109,192,177745,1,0,0:0:0:40:Sub bass.wav
182,192,177833,1,0,0:0:0:40:Sub bass.wav
329,192,177921,1,0,0:0:0:40:Sub bass.wav
402,192,178010,1,0,0:0:0:40:Sub bass.wav
109,192,178098,1,0,0:0:0:0:
182,192,178098,1,0,0:0:0:50:Sub bass.wav
402,192,178186,1,0,0:0:0:50:Sub bass.wav
329,192,178274,1,0,0:0:0:0:
182,192,178274,1,0,0:0:0:50:Sub bass.wav
109,192,178363,1,0,0:0:0:50:Sub bass.wav
329,192,178451,1,0,0:0:0:50:Sub bass.wav
402,192,178451,1,0,0:0:0:0:
109,192,178539,1,0,0:0:0:50:Sub bass.wav
329,192,178627,1,0,0:0:0:50:Sub bass.wav
182,192,178627,1,0,0:0:0:0:
402,192,178715,1,0,0:0:0:50:Sub bass.wav
109,192,178804,1,0,0:0:0:0:
182,192,178804,1,0,0:0:0:50:Sub bass.wav
402,192,178892,1,0,0:0:0:50:Sub bass.wav
329,192,178980,1,0,0:0:0:50:Sub bass.wav
182,192,178980,1,0,0:0:0:0:
109,192,179068,1,0,0:0:0:50:Sub bass.wav
402,192,179157,1,0,0:0:0:0:
329,192,179157,1,0,0:0:0:60:Sub bass.wav
182,192,179245,1,0,0:0:0:60:Sub bass.wav
109,192,179245,1,0,0:0:0:0:
402,192,179333,1,0,0:0:0:0:
329,192,179333,1,0,0:0:0:60:Sub bass.wav
109,192,179421,1,0,0:0:0:0:
182,192,179421,1,0,0:0:0:60:Sub bass.wav
256,192,179510,1,0,0:0:0:70:BaSS.wav
475,192,179510,1,0,0:0:0:0:
402,192,179510,1,0,0:0:0:0:
36,192,179510,1,0,0:0:0:70:CrashR.wav
329,192,179510,1,0,0:0:0:60:Sub bass.wav
182,192,179598,1,0,0:0:0:60:Sub bass.wav
109,192,179598,1,0,0:0:0:0:
329,192,179686,1,0,0:0:0:60:Sub bass.wav
475,192,179686,1,0,0:0:0:0:
36,192,179774,1,0,0:0:0:0:
182,192,179774,1,0,0:0:0:60:Sub bass.wav
402,192,179863,1,0,0:0:0:0:
329,192,179863,1,0,0:0:0:70:Sub bass.wav
475,192,179863,1,0,0:0:0:70:BaSS.wav
256,192,179863,1,0,0:0:0:0:
182,192,179951,1,0,0:0:0:0:
36,192,179951,1,0,0:0:0:70:Sub bass.wav
329,192,180039,1,0,0:0:0:70:Sub bass.wav
475,192,180039,1,0,0:0:0:0:
36,192,180127,1,0,0:0:0:0:
109,192,180127,1,0,0:0:0:0:
256,192,180127,1,0,0:0:0:70:BaSS.wav
182,192,180127,1,0,0:0:0:70:Sub bass.wav
329,192,180215,1,0,0:0:0:70:Sub bass.wav
402,192,180215,1,0,0:0:0:70:BaSS.wav
475,192,180215,1,0,0:0:0:0:
256,192,180260,1,0,0:0:0:70:Sub bass.wav
182,192,180304,1,0,0:0:0:70:Sub bass.wav
109,192,180348,1,0,0:0:0:70:Sub bass.wav
36,192,180392,1,0,0:0:0:70:Sub bass.wav
475,192,180392,1,0,0:0:0:70:BaSS.wav
402,192,180436,1,0,0:0:0:70:Sub bass.wav
329,192,180480,1,0,0:0:0:70:Sub bass.wav
256,192,180480,1,0,0:0:0:70:BaSS.wav
182,192,180524,1,0,0:0:0:70:Sub bass.wav
36,192,180568,1,0,0:0:0:70:BaSS.wav
109,192,180568,1,0,0:0:0:70:Sub bass.wav
475,192,180613,1,0,0:0:0:70:Sub bass.wav
329,192,180657,1,0,0:0:0:70:BaSS.wav
402,192,180657,1,0,0:0:0:70:Sub bass.wav
256,192,180701,1,0,0:0:0:70:Sub bass.wav
109,192,180745,1,0,0:0:0:70:BaSS.wav
182,192,180745,1,0,0:0:0:70:Sub bass.wav
36,192,180789,1,0,0:0:0:70:Sub bass.wav
402,192,180833,1,0,0:0:0:70:Sub bass.wav
475,192,180833,1,0,0:0:0:70:BaSS.wav
329,192,180877,1,0,0:0:0:70:Sub bass.wav
36,192,180921,1,0,0:0:0:70:BaSS.wav
256,192,180921,1,0,0:0:0:70:CrashR.wav
182,192,180921,1,0,0:0:0:0:
109,192,180921,1,0,0:0:0:0:
182,192,181098,1,0,0:0:0:70:Hihat.wav
329,192,181098,1,0,0:0:0:0:
475,192,181186,1,0,0:0:0:0:
402,192,181186,1,0,0:0:0:0:
109,192,181274,1,0,0:0:0:70:BaSS.wav
256,192,181274,1,0,0:0:0:70:KicK.wav
36,192,181274,1,0,0:0:0:0:
475,192,181363,1,0,0:0:0:0:
402,192,181363,1,0,0:0:0:0:
182,192,181451,1,0,0:0:0:70:Hihat.wav
329,192,181451,1,0,0:0:0:0:
109,192,181539,1,0,0:0:0:0:
36,192,181627,1,0,0:0:0:70:BaSS.wav
475,192,181627,1,0,0:0:0:0:
329,192,181627,1,0,0:0:0:0:
402,192,181715,1,0,0:0:0:0:
256,192,181715,1,0,0:0:0:0:
182,192,181804,1,0,0:0:0:70:Hihat.wav
329,192,181804,1,0,0:0:0:0:
36,192,181892,1,0,0:0:0:0:
256,192,181892,1,0,0:0:0:0:
109,192,181892,1,0,0:0:0:0:
475,192,181980,1,0,0:0:0:70:BaSS.wav
402,192,181980,1,0,0:0:0:70:KicK.wav
182,192,182068,1,0,0:0:0:0:
109,192,182068,1,0,0:0:0:0:
329,192,182068,1,0,0:0:0:0:
475,192,182157,1,0,0:0:0:70:Hihat.wav
256,192,182245,1,0,0:0:0:0:
182,192,182245,1,0,0:0:0:0:
402,192,182245,1,0,0:0:0:0:
109,192,182333,1,0,0:0:0:0:
36,192,182333,1,0,0:0:0:70:BaSS.wav
475,192,182421,1,0,0:0:0:0:
256,192,182421,1,0,0:0:0:0:
329,192,182421,1,0,0:0:0:0:
182,192,182510,1,0,0:0:0:70:Hihat.wav
36,192,182686,1,0,0:0:0:70:BaSS.wav
402,192,182686,1,0,0:0:0:0:
182,192,182686,1,0,0:0:0:70:KicK.wav
329,192,182774,1,0,0:0:0:0:
256,192,182863,1,0,0:0:0:70:Hihat.wav
109,192,182951,1,0,0:0:0:0:
329,192,182951,1,0,0:0:0:0:
36,192,182951,1,0,0:0:0:0:
402,192,183039,1,0,0:0:0:70:BaSS.wav
475,192,183039,1,0,0:0:0:0:
182,192,183039,1,0,0:0:0:0:
109,192,183127,1,0,0:0:0:0:
36,192,183127,1,0,0:0:0:0:
329,192,183127,1,0,0:0:0:0:
256,192,183215,1,0,0:0:0:70:Hihat.wav
182,192,183304,1,0,0:0:0:0:
36,192,183392,1,0,0:0:0:70:BaSS.wav
109,192,183392,1,0,0:0:0:70:KicK.wav
329,192,183568,1,0,0:0:0:70:Hihat.wav
182,192,183568,1,0,0:0:0:0:
475,192,183657,1,0,0:0:0:0:
402,192,183657,1,0,0:0:0:0:
182,192,183745,1,0,0:0:0:0:
36,192,183745,1,0,0:0:0:70:BaSS.wav
329,192,183745,1,0,0:0:0:0:
109,192,183833,1,0,0:0:0:0:
475,192,183833,1,0,0:0:0:0:
402,192,183921,1,0,0:0:0:70:Hihat.wav
256,192,183921,1,0,0:0:0:0:
182,192,184010,1,0,0:0:0:0:
329,192,184010,1,0,0:0:0:0:
475,192,184098,1,0,0:0:0:70:BaSS.wav
256,192,184098,1,0,0:0:0:70:KicK.wav
36,192,184098,1,0,0:0:0:0:
109,192,184186,1,0,0:0:0:0:
329,192,184186,1,0,0:0:0:0:
182,192,184274,1,0,0:0:0:70:Hihat.wav
402,192,184274,1,0,0:0:0:0:
329,192,184363,1,0,0:0:0:0:
109,192,184363,1,0,0:0:0:0:
475,192,184451,1,0,0:0:0:70:BaSS.wav
36,192,184451,1,0,0:0:0:0:
256,192,184451,1,0,0:0:0:0:
109,192,184539,1,0,0:0:0:0:
402,192,184627,1,0,0:0:0:70:Hihat.wav
182,192,184627,1,0,0:0:0:0:
256,192,184715,1,0,0:0:0:0:
475,192,184804,1,0,0:0:0:70:KicK.wav
329,192,184804,1,0,0:0:0:70:BaSS.wav
36,192,184804,1,0,0:0:0:0:
109,192,184892,1,0,0:0:0:0:
329,192,184980,1,0,0:0:0:70:Hihat.wav
182,192,184980,1,0,0:0:0:0:
402,192,185068,1,0,0:0:0:0:
475,192,185157,1,0,0:0:0:70:BaSS.wav
36,192,185157,1,0,0:0:0:0:
256,192,185157,1,0,0:0:0:0:
182,192,185245,1,0,0:0:0:0:
109,192,185245,1,0,0:0:0:0:
329,192,185245,1,0,0:0:0:0:
475,192,185333,1,0,0:0:0:70:Hihat.wav
402,192,185333,1,0,0:0:0:0:
36,192,185421,1,0,0:0:0:0:
109,192,185510,1,0,0:0:0:70:KicK.wav
182,192,185510,1,0,0:0:0:0:
329,192,185510,1,0,0:0:0:70:BaSS.wav
256,192,185598,1,0,0:0:0:0:
402,192,185686,1,0,0:0:0:70:Hihat.wav
475,192,185686,1,0,0:0:0:0:
329,192,185774,1,0,0:0:0:0:
109,192,185774,1,0,0:0:0:0:
182,192,185774,1,0,0:0:0:0:
475,192,185863,1,0,0:0:0:70:BaSS.wav
36,192,185863,1,0,0:0:0:0:
256,192,185863,1,0,0:0:0:0:
402,192,185951,1,0,0:0:0:0:
109,192,185951,1,0,0:0:0:0:
182,192,186039,1,0,0:0:0:70:Hihat.wav
329,192,186039,1,0,0:0:0:0:
109,192,186127,1,0,0:0:0:0:
256,192,186127,1,0,0:0:0:0:
475,192,186215,1,0,0:0:0:70:KicK.wav
329,192,186215,1,0,0:0:0:70:BaSS.wav
36,192,186215,1,0,0:0:0:0:
256,192,186304,1,0,0:0:0:0:
402,192,186392,1,0,0:0:0:70:Hihat.wav
475,192,186392,1,0,0:0:0:70:BaSS.wav
182,192,186392,1,0,0:0:0:0:
109,192,186480,1,0,0:0:0:0:
475,192,186568,1,0,0:0:0:70:BaSS.wav
36,192,186568,1,0,0:0:0:0:
256,192,186568,1,0,0:0:0:0:
109,192,186657,1,0,0:0:0:0:
402,192,186745,1,0,0:0:0:70:Hihat.wav
182,192,186745,1,0,0:0:0:0:
329,192,186833,1,0,0:0:0:0:
475,192,186921,1,0,0:0:0:70:BaSS.wav
256,192,186921,1,0,0:0:0:70:KicK.wav
109,192,186921,1,0,0:0:0:0:
402,192,187010,1,0,0:0:0:0:
329,192,187010,1,0,0:0:0:0:
256,192,187098,1,0,0:0:0:70:Hihat.wav
36,192,187098,1,0,0:0:0:0:
109,192,187186,1,0,0:0:0:0:
402,192,187274,1,0,0:0:0:70:BaSS.wav
475,192,187274,1,0,0:0:0:0:
182,192,187274,1,0,0:0:0:0:
329,192,187363,1,0,0:0:0:0:
256,192,187451,1,0,0:0:0:70:Hihat.wav
109,192,187451,1,0,0:0:0:0:
402,192,187539,1,0,0:0:0:0:
329,192,187539,1,0,0:0:0:0:
475,192,187627,1,0,0:0:0:70:KicK.wav
256,192,187627,1,0,0:0:0:70:BaSS.wav
36,192,187627,1,0,0:0:0:0:
109,192,187715,1,0,0:0:0:0:
182,192,187804,1,0,0:0:0:70:Hihat.wav
329,192,187804,1,0,0:0:0:0:
109,192,187892,1,0,0:0:0:0:
402,192,187892,1,0,0:0:0:0:
475,192,187892,1,0,0:0:0:0:
36,192,187980,1,0,0:0:0:70:BaSS.wav
256,192,187980,1,0,0:0:0:0:
402,192,188068,1,0,0:0:0:0:
329,192,188068,1,0,0:0:0:0:
109,192,188068,1,0,0:0:0:0:
182,192,188157,1,0,0:0:0:70:Hihat.wav
475,192,188157,1,0,0:0:0:0:
256,192,188245,1,0,0:0:0:0:
329,192,188333,1,0,0:0:0:70:BaSS.wav
475,192,188333,1,0,0:0:0:70:KicK.wav
36,192,188333,1,0,0:0:0:0:
182,192,188421,1,0,0:0:0:0:
329,192,188510,1,0,0:0:0:70:Hihat.wav
36,192,188510,1,0,0:0:0:0:
182,192,188598,1,0,0:0:0:0:
329,192,188686,1,0,0:0:0:70:BaSS.wav
475,192,188686,1,0,0:0:0:0:
36,192,188686,1,0,0:0:0:0:
256,192,188774,1,0,0:0:0:0:
109,192,188774,1,0,0:0:0:0:
182,192,188863,1,0,0:0:0:70:Hihat.wav
402,192,188863,1,0,0:0:0:0:
329,192,188951,1,0,0:0:0:0:
36,192,189039,1,0,0:0:0:70:BaSS.wav
475,192,189039,1,0,0:0:0:70:KicK.wav
256,192,189039,1,0,0:0:0:0:
329,192,189127,1,0,0:0:0:0:
109,192,189215,1,0,0:0:0:0:
182,192,189215,1,0,0:0:0:70:Hihat.wav
402,192,189215,1,0,0:0:0:0:
36,192,189392,1,0,0:0:0:70:BaSS.wav
329,192,189392,1,0,0:0:0:0:
475,192,189392,1,0,0:0:0:0:
109,192,189480,1,0,0:0:0:0:
402,192,189568,1,0,0:0:0:70:Hihat.wav
182,192,189568,1,0,0:0:0:0:
256,192,189657,1,0,0:0:0:0:
109,192,189745,1,0,0:0:0:70:BaSS.wav
329,192,189745,1,0,0:0:0:70:KicK.wav
475,192,189745,1,0,0:0:0:0:
36,192,189745,1,0,0:0:0:0:
109,192,189921,1,0,0:0:0:70:Hihat.wav
475,192,189921,1,0,0:0:0:0:
36,192,189921,1,0,0:0:0:0:
329,192,189921,1,0,0:0:0:0:
36,192,190098,1,0,0:0:0:70:BaSS.wav
182,192,190098,1,0,0:0:0:0:
402,192,190098,1,0,0:0:0:0:
256,192,190186,1,0,0:0:0:0:
109,192,190274,1,0,0:0:0:70:Hihat.wav
329,192,190274,1,0,0:0:0:0:
402,192,190363,1,0,0:0:0:0:
475,192,190451,1,0,0:0:0:70:KicK.wav
182,192,190451,1,0,0:0:0:70:BaSS.wav
36,192,190451,1,0,0:0:0:0:
402,192,190539,1,0,0:0:0:0:
256,192,190539,1,0,0:0:0:0:
329,192,190627,1,0,0:0:0:70:Hihat.wav
109,192,190627,1,0,0:0:0:0:
402,192,190715,1,0,0:0:0:0:
182,192,190715,1,0,0:0:0:0:
475,192,190804,1,0,0:0:0:70:BaSS.wav
256,192,190804,1,0,0:0:0:0:
36,192,190804,1,0,0:0:0:0:
109,192,190892,1,0,0:0:0:0:
402,192,190892,1,0,0:0:0:0:
329,192,190980,1,0,0:0:0:70:Hihat.wav
182,192,190980,1,0,0:0:0:0:
109,192,191068,1,0,0:0:0:0:
256,192,191068,1,0,0:0:0:0:
182,192,191157,1,0,0:0:0:70:BaSS.wav
36,192,191157,1,0,0:0:0:70:KicK.wav
402,192,191157,1,0,0:0:0:0:
475,192,191157,1,0,0:0:0:0:
329,192,191333,1,0,0:0:0:70:Hihat.wav
109,192,191333,1,0,0:0:0:0:
256,192,191421,1,0,0:0:0:0:
402,192,191421,1,0,0:0:0:0:
182,192,191510,1,0,0:0:0:0:
36,192,191510,1,0,0:0:0:70:BaSS.wav
475,192,191510,1,0,0:0:0:0:
402,192,191568,1,0,0:0:0:0:
329,192,191627,1,0,0:0:0:0:
256,192,191686,1,0,0:0:0:70:Hihat.wav
182,192,191745,1,0,0:0:0:0:
475,192,191774,1,0,0:0:0:0:
402,192,191774,1,0,0:0:0:70:BaSS.wav
109,192,191804,1,0,0:0:0:0:
402,192,191863,1,0,0:0:0:70:BaSS.wav
475,192,191863,1,0,0:0:0:0:
36,192,191863,1,0,0:0:0:70:KicK.wav
329,192,191921,1,0,0:0:0:0:
256,192,191980,1,0,0:0:0:0:
182,192,192039,1,0,0:0:0:70:Hihat.wav
36,192,192039,1,0,0:0:0:70:BaSS.wav
475,192,192039,1,0,0:0:0:0:
402,192,192098,1,0,0:0:0:0:
329,192,192157,1,0,0:0:0:0:
256,192,192215,1,0,0:0:0:70:CrashR.wav
36,192,192215,1,0,0:0:0:70:BaSS.wav
109,192,192215,1,0,0:0:0:0:
475,192,192215,1,0,0:0:0:0:
329,192,192392,1,0,0:0:0:70:Hihat.wav
182,192,192392,1,0,0:0:0:0:
109,192,192480,1,0,0:0:0:0:
36,192,192480,1,0,0:0:0:0:
402,192,192568,1,0,0:0:0:70:KicK.wav
475,192,192568,1,0,0:0:0:70:BaSS.wav
182,192,192568,1,0,0:0:0:0:
329,192,192657,1,0,0:0:0:0:
256,192,192745,1,0,0:0:0:70:Hihat.wav
36,192,192745,1,0,0:0:0:0:
402,192,192833,1,0,0:0:0:0:
329,192,192921,1,0,0:0:0:70:BaSS.wav
475,192,192921,1,0,0:0:0:0:
182,192,192921,1,0,0:0:0:0:
109,192,193010,1,0,0:0:0:0:
36,192,193010,1,0,0:0:0:0:
402,192,193098,1,0,0:0:0:70:Hihat.wav
182,192,193098,1,0,0:0:0:0:
329,192,193186,1,0,0:0:0:0:
256,192,193274,1,0,0:0:0:70:BaSS.wav
475,192,193274,1,0,0:0:0:70:KicK.wav
36,192,193274,1,0,0:0:0:0:
402,192,193363,1,0,0:0:0:0:
329,192,193451,1,0,0:0:0:70:Hihat.wav
182,192,193451,1,0,0:0:0:0:
109,192,193451,1,0,0:0:0:0:
402,192,193539,1,0,0:0:0:0:
475,192,193627,1,0,0:0:0:70:BaSS.wav
256,192,193627,1,0,0:0:0:0:
36,192,193627,1,0,0:0:0:0:
182,192,193715,1,0,0:0:0:0:
329,192,193804,1,0,0:0:0:70:Hihat.wav
36,192,193804,1,0,0:0:0:0:
182,192,193892,1,0,0:0:0:0:
475,192,193980,1,0,0:0:0:70:KicK.wav
256,192,193980,1,0,0:0:0:70:BaSS.wav
36,192,193980,1,0,0:0:0:0:
329,192,194068,1,0,0:0:0:0:
109,192,194157,1,0,0:0:0:70:Hihat.wav
475,192,194157,1,0,0:0:0:0:
329,192,194245,1,0,0:0:0:0:
475,192,194333,1,0,0:0:0:70:BaSS.wav
182,192,194333,1,0,0:0:0:0:
109,192,194421,1,0,0:0:0:0:
329,192,194510,1,0,0:0:0:70:Hihat.wav
182,192,194510,1,0,0:0:0:0:
109,192,194598,1,0,0:0:0:0:
256,192,194686,1,0,0:0:0:70:KicK.wav
36,192,194686,1,0,0:0:0:70:BaSS.wav
475,192,194686,1,0,0:0:0:0:
402,192,194774,1,0,0:0:0:0:
329,192,194863,1,0,0:0:0:70:Hihat.wav
182,192,194863,1,0,0:0:0:0:
109,192,194951,1,0,0:0:0:0:
402,192,194951,1,0,0:0:0:0:
475,192,195039,1,0,0:0:0:70:BaSS.wav
256,192,195039,1,0,0:0:0:0:
36,192,195039,1,0,0:0:0:0:
109,192,195127,1,0,0:0:0:0:
402,192,195215,1,0,0:0:0:70:Hihat.wav
182,192,195215,1,0,0:0:0:0:
256,192,195304,1,0,0:0:0:0:
329,192,195392,1,0,0:0:0:70:BaSS.wav
475,192,195392,1,0,0:0:0:70:KicK.wav
109,192,195392,1,0,0:0:0:0:
182,192,195480,1,0,0:0:0:0:
329,192,195568,1,0,0:0:0:70:Hihat.wav
109,192,195568,1,0,0:0:0:0:
36,192,195568,1,0,0:0:0:0:
256,192,195657,1,0,0:0:0:0:
182,192,195745,1,0,0:0:0:70:BaSS.wav
36,192,195745,1,0,0:0:0:0:
329,192,195833,1,0,0:0:0:0:
182,192,195921,1,0,0:0:0:70:Hihat.wav
475,192,195921,1,0,0:0:0:0:
109,192,195921,1,0,0:0:0:0:
256,192,196010,1,0,0:0:0:0:
36,192,196098,1,0,0:0:0:70:KicK.wav
402,192,196098,1,0,0:0:0:70:BaSS.wav
182,192,196098,1,0,0:0:0:0:
329,192,196186,1,0,0:0:0:0:
402,192,196274,1,0,0:0:0:70:Hihat.wav
182,192,196274,1,0,0:0:0:0:
475,192,196274,1,0,0:0:0:0:
256,192,196363,1,0,0:0:0:0:
109,192,196451,1,0,0:0:0:70:BaSS.wav
36,192,196451,1,0,0:0:0:0:
329,192,196451,1,0,0:0:0:0:
475,192,196539,1,0,0:0:0:0:
182,192,196627,1,0,0:0:0:70:Hihat.wav
402,192,196627,1,0,0:0:0:0:
109,192,196627,1,0,0:0:0:0:
329,192,196715,1,0,0:0:0:0:
36,192,196804,1,0,0:0:0:70:BaSS.wav
256,192,196804,1,0,0:0:0:70:KicK.wav
109,192,196892,1,0,0:0:0:0:
329,192,196980,1,0,0:0:0:70:Hihat.wav
182,192,196980,1,0,0:0:0:0:
402,192,196980,1,0,0:0:0:0:
475,192,197068,1,0,0:0:0:0:
36,192,197157,1,0,0:0:0:70:BaSS.wav
256,192,197157,1,0,0:0:0:0:
109,192,197157,1,0,0:0:0:0:
475,192,197245,1,0,0:0:0:0:
329,192,197333,1,0,0:0:0:70:Hihat.wav
402,192,197333,1,0,0:0:0:0:
182,192,197333,1,0,0:0:0:0:
109,192,197421,1,0,0:0:0:0:
256,192,197510,1,0,0:0:0:70:KicK.wav
475,192,197510,1,0,0:0:0:70:BaSS.wav
36,192,197510,1,0,0:0:0:0:
182,192,197598,1,0,0:0:0:0:
329,192,197598,1,0,0:0:0:0:
36,192,197686,1,0,0:0:0:70:Hihat.wav
475,192,197686,1,0,0:1:0:70:BaSS.wav
402,192,197686,1,0,0:0:0:0:
109,192,197686,1,0,0:0:0:0:
109,192,197863,1,0,0:0:0:70:Sub bass.wav
475,192,197863,1,0,0:0:0:70:BaSS.wav
256,192,197863,1,0,0:0:0:70:CrashR.wav
402,192,197863,1,0,0:0:0:0:
36,192,197863,1,0,0:0:0:0:
182,192,198039,1,0,0:0:0:70:Sub bass.wav
329,192,198039,1,0,0:0:0:0:
475,192,198215,1,0,0:0:0:70:Sub bass.wav
36,192,198215,1,0,0:0:0:70:BaSS.wav
256,192,198215,1,0,0:0:0:70:KicK.wav
402,192,198304,1,0,0:0:0:70:Sub bass.wav
109,192,198304,1,0,0:0:0:0:
329,192,198392,1,0,0:0:0:70:Sub bass.wav
182,192,198392,1,0,0:0:0:0:
402,192,198568,1,0,0:0:0:70:Sub bass.wav
256,192,198568,1,0,0:0:0:70:BaSS.wav
109,192,198568,1,0,0:0:0:0:
329,192,198745,1,0,0:0:0:70:Sub bass.wav
182,192,198745,1,0,0:0:0:0:
402,192,198833,1,0,0:0:0:70:Sub bass.wav
109,192,198833,1,0,0:0:0:0:
256,192,198921,1,0,0:0:0:70:BaSS.wav
36,192,198921,1,0,0:0:0:70:KicK.wav
475,192,198921,1,0,0:0:0:70:Sub bass.wav
182,192,199098,1,0,0:0:0:70:Sub bass.wav
329,192,199098,1,0,0:0:0:0:
109,192,199274,1,0,0:0:0:70:Sub bass.wav
402,192,199274,1,0,0:0:0:70:BaSS.wav
256,192,199274,1,0,0:0:0:70:CrashR.wav
36,192,199274,1,0,0:0:0:0:
475,192,199274,1,0,0:0:0:0:
182,192,199451,1,0,0:0:0:70:Sub bass.wav
329,192,199451,1,0,0:0:0:0:
256,192,199627,1,0,0:0:0:70:KicK.wav
36,192,199627,1,0,0:0:0:70:Sub bass.wav
475,192,199627,1,0,0:0:0:70:BaSS.wav
109,192,199715,1,0,0:0:0:70:Sub bass.wav
402,192,199715,1,0,0:0:0:0:
182,192,199804,1,0,0:0:0:70:Sub bass.wav
329,192,199804,1,0,0:0:0:0:
182,192,199980,1,0,0:0:0:70:Sub bass.wav
36,192,199980,1,0,0:0:0:70:BaSS.wav
329,192,199980,1,0,0:0:0:0:
475,192,200068,1,0,0:0:0:70:Sub bass.wav
402,192,200068,1,0,0:0:0:0:
256,192,200157,1,0,0:0:0:70:Sub bass.wav
36,192,200157,1,0,0:0:0:70:BaSS.wav
109,192,200157,1,0,0:0:0:0:
475,192,200245,1,0,0:0:0:70:Sub bass.wav
402,192,200245,1,0,0:0:0:0:
329,192,200333,1,0,0:0:0:70:KicK.wav
36,192,200333,1,0,0:0:0:70:BaSS.wav
182,192,200333,1,0,0:0:0:70:Sub bass.wav
182,192,200510,1,0,0:0:0:70:Sub bass.wav
36,192,200510,1,0,0:0:0:70:BaSS.wav
329,192,200510,1,0,0:0:0:0:
109,192,200686,1,0,0:0:0:70:BaSS.wav
256,192,200686,1,0,0:0:0:70:CrashR.wav
475,192,200686,1,0,0:0:0:70:Sub bass.wav
36,192,200686,1,0,0:0:0:0:
402,192,200774,1,0,0:0:0:70:Sub bass.wav
329,192,200774,1,0,0:0:0:0:
475,192,200863,1,0,0:0:0:70:Sub bass.wav
109,192,200863,1,0,0:0:0:70:BaSS.wav
36,192,200863,1,0,0:0:0:0:
329,192,200951,1,0,0:0:0:70:Sub bass.wav
182,192,200951,1,0,0:0:0:0:
475,192,201039,1,0,0:0:0:70:Sub bass.wav
256,192,201039,1,0,0:0:0:70:BaSS.wav
402,192,201039,1,0,0:0:0:70:KicK.wav
182,192,201127,1,0,0:0:0:70:Sub bass.wav
329,192,201127,1,0,0:0:0:0:
109,192,201215,1,0,0:0:0:70:Sub bass.wav
36,192,201215,1,0,0:0:0:70:BaSS.wav
402,192,201215,1,0,0:0:0:0:
182,192,201304,1,0,0:0:0:70:Sub bass.wav
329,192,201304,1,0,0:0:0:0:
36,192,201392,1,0,0:0:0:70:BaSS.wav
475,192,201392,1,0,0:0:0:70:CrashR.wav
256,192,201392,1,0,0:0:0:70:Sub bass.wav
402,192,201392,1,0,0:0:0:0:
182,192,201480,1,0,0:0:0:70:Sub bass.wav
109,192,201480,1,0,0:0:0:0:
36,192,201568,1,0,0:0:0:70:BaSS.wav
402,192,201568,1,0,0:0:0:70:Sub bass.wav
475,192,201568,1,0,0:0:0:0:
329,192,201657,1,0,0:0:0:70:Sub bass.wav
182,192,201657,1,0,0:0:0:0:
36,192,201745,1,0,0:0:0:70:Sub bass.wav
256,192,201745,1,0,0:0:0:70:BaSS.wav
109,192,201745,1,0,0:0:0:70:KicK.wav
329,192,201833,1,0,0:0:0:70:Sub bass.wav
182,192,201833,1,0,0:0:0:0:
402,192,201921,1,0,0:0:0:70:Sub bass.wav
475,192,201921,1,0,0:0:0:70:BaSS.wav
109,192,201921,1,0,0:0:0:0:
329,192,202010,1,0,0:0:0:70:Sub bass.wav
182,192,202010,1,0,0:0:0:0:
475,192,202098,1,0,0:0:0:70:Sub bass.wav
109,192,202098,1,0,0:0:0:70:BaSS.wav
256,192,202098,1,0,0:0:0:70:CrashR.wav
36,192,202098,1,0,0:0:0:0:
329,192,202186,1,0,0:0:0:70:Sub bass.wav
402,192,202186,1,0,0:0:0:0:
109,192,202274,1,0,0:0:0:70:Sub bass.wav
182,192,202274,1,0,0:0:0:0:
329,192,202363,1,0,0:0:0:70:Sub bass.wav
402,192,202363,1,0,0:0:0:0:
475,192,202451,1,0,0:0:0:70:Sub bass.wav
256,192,202451,1,0,0:0:0:70:KicK.wav
36,192,202451,1,0,0:0:0:0:
329,192,202539,1,0,0:0:0:70:Sub bass.wav
109,192,202539,1,0,0:0:0:0:
475,192,202627,1,0,0:0:0:70:Sub bass.wav
182,192,202627,1,0,0:0:0:0:
329,192,202715,1,0,0:0:0:70:Sub bass.wav
109,192,202715,1,0,0:0:0:0:
256,192,202804,1,0,0:0:0:70:BaSS.wav
36,192,202804,1,0,0:0:0:0:
475,192,202804,128,0,202892:0:0:0:70:Sub bass.wav
402,192,202848,128,0,202936:0:0:0:70:Sub bass.wav
329,192,202892,128,0,202980:0:0:0:70:Sub bass.wav
36,192,202936,1,0,0:0:0:70:Sub bass.wav
109,192,202980,1,0,0:0:0:70:Sub bass.wav
182,192,203024,1,0,0:0:0:70:Sub bass.wav
402,192,203068,1,0,0:0:0:70:BaSS.wav
475,192,203068,1,0,0:0:0:0:
256,192,203068,1,0,0:0:0:70:Sub bass.wav
36,192,203113,128,0,203201:0:0:0:70:Sub bass.wav
109,192,203157,128,0,203245:0:0:0:70:Sub bass.wav
182,192,203201,128,0,203289:0:0:0:70:Sub bass.wav
475,192,203245,128,0,203333:0:0:0:70:Sub bass.wav
402,192,203289,128,0,203377:0:0:0:70:Sub bass.wav
329,192,203333,128,0,203421:0:0:0:70:Sub bass.wav
256,192,203377,128,0,203465:0:0:0:70:Sub bass.wav
182,192,203421,128,0,203510:0:0:0:70:Sub bass.wav
36,192,203510,128,0,203598:0:0:0:70:BaSS.wav
475,192,203510,128,0,203598:0:0:0:70:CrashR.wav
109,192,203510,128,0,203598:0:0:0:70:Chork.wav
402,192,203510,128,0,203598:0:0:0:0:
329,192,203686,1,0,0:0:0:0:
182,192,203686,1,0,0:0:0:70:Chork.wav
402,192,203774,1,0,0:0:0:0:
36,192,203774,1,0,0:0:0:0:
109,192,203774,1,0,0:0:0:70:Chork.wav
475,192,203863,1,0,0:0:0:70:BaSS.wav
256,192,203863,1,0,0:0:0:70:KicK.wav
109,192,203951,1,0,0:0:0:70:Chork.wav
402,192,203951,1,0,0:0:0:0:
36,192,203951,1,0,0:0:0:0:
182,192,204039,1,0,0:0:0:70:Chork.wav
329,192,204039,1,0,0:0:0:0:
256,192,204127,1,0,0:0:0:70:Chork.wav
402,192,204127,1,0,0:0:0:0:
475,192,204215,1,0,0:0:0:70:BaSS.wav
36,192,204215,1,0,0:0:0:0:
182,192,204304,1,0,0:0:0:0:
109,192,204304,1,0,0:0:0:70:Chork.wav
329,192,204304,1,0,0:0:0:0:
475,192,204392,1,0,0:0:0:0:
402,192,204480,1,0,0:0:0:0:
182,192,204480,1,0,0:0:0:70:Chork.wav
256,192,204480,1,0,0:0:0:0:
475,192,204568,1,0,0:0:0:70:BaSS.wav
329,192,204568,1,0,0:0:0:70:KicK.wav
36,192,204568,1,0,0:0:0:0:
109,192,204568,1,0,0:0:0:70:Chork.wav
256,192,204745,1,0,0:0:0:70:Chork.wav
36,192,204745,1,0,0:0:0:0:
402,192,204745,1,0,0:0:0:0:
182,192,204833,1,0,0:0:0:70:Chork.wav
329,192,204833,1,0,0:0:0:0:
109,192,204921,128,0,205010:0:0:0:0:
475,192,204921,128,0,205010:0:0:0:0:
36,192,204921,128,0,205010:0:0:0:70:BaSS.wav
256,192,204921,128,0,205010:0:0:0:70:Chork.wav
182,192,205098,1,0,0:0:0:0:
329,192,205098,1,0,0:0:0:70:Chork.wav
109,192,205186,1,0,0:0:0:0:
256,192,205186,1,0,0:0:0:70:Chork.wav
36,192,205186,1,0,0:0:0:0:
402,192,205274,1,0,0:0:0:70:KicK.wav
475,192,205274,1,0,0:0:0:70:BaSS.wav
109,192,205363,1,0,0:0:0:0:
36,192,205363,1,0,0:0:0:0:
256,192,205363,1,0,0:0:0:70:Chork.wav
182,192,205451,1,0,0:0:0:0:
329,192,205451,1,0,0:0:0:70:Chork.wav
402,192,205539,1,0,0:0:0:70:Chork.wav
109,192,205539,1,0,0:0:0:0:
36,192,205627,1,0,0:0:0:70:BaSS.wav
475,192,205627,1,0,0:0:0:0:
109,192,205715,1,0,0:0:0:70:Chork.wav
182,192,205715,1,0,0:0:0:0:
329,192,205715,1,0,0:0:0:0:
475,192,205804,1,0,0:0:0:0:
109,192,205892,1,0,0:0:0:70:Chork.wav
182,192,205892,1,0,0:0:0:0:
329,192,205892,1,0,0:0:0:0:
256,192,205980,1,0,0:0:0:70:Chork.wav
475,192,205980,1,0,0:0:0:70:KicK.wav
36,192,205980,1,0,0:0:0:70:BaSS.wav
402,192,205980,1,0,0:0:0:0:
329,192,206068,1,0,0:0:0:70:Chork.wav
109,192,206068,1,0,0:0:0:0:
402,192,206157,1,0,0:0:0:70:Chork.wav
182,192,206157,1,0,0:0:0:0:
475,192,206245,1,0,0:0:0:70:Chork.wav
256,192,206245,1,0,0:0:0:0:
402,192,206333,128,0,206421:0:0:0:70:Chork.wav
329,192,206333,128,0,206421:0:0:0:70:BaSS.wav
182,192,206333,128,0,206421:0:0:0:0:
36,192,206333,128,0,206421:0:0:0:0:
109,192,206510,1,0,0:0:0:70:Chork.wav
256,192,206510,1,0,0:0:0:0:
182,192,206598,1,0,0:0:0:70:Chork.wav
329,192,206598,1,0,0:0:0:0:
475,192,206598,1,0,0:0:0:0:
36,192,206686,1,0,0:0:0:70:KicK.wav
109,192,206686,1,0,0:0:0:70:BaSS.wav
182,192,206774,1,0,0:0:0:70:Chork.wav
475,192,206774,1,0,0:0:0:0:
329,192,206774,1,0,0:0:0:0:
109,192,206863,1,0,0:0:0:70:Chork.wav
402,192,206863,1,0,0:0:0:0:
256,192,206951,1,0,0:0:0:0:
36,192,206951,1,0,0:0:0:70:Chork.wav
182,192,207039,1,0,0:0:0:70:BaSS.wav
329,192,207039,1,0,0:0:0:0:
109,192,207127,1,0,0:0:0:0:
475,192,207127,1,0,0:0:0:0:
402,192,207127,1,0,0:0:0:70:Chork.wav
256,192,207215,1,0,0:0:0:0:
36,192,207304,1,0,0:0:0:0:
329,192,207304,1,0,0:0:0:70:Chork.wav
182,192,207304,1,0,0:0:0:0:
256,192,207392,1,0,0:0:0:70:Chork.wav
402,192,207392,1,0,0:0:0:70:KicK.wav
109,192,207392,1,0,0:0:0:0:
475,192,207392,1,0,0:0:0:70:BaSS.wav
256,192,207568,1,0,0:0:0:70:Chork.wav
109,192,207568,1,0,0:0:0:0:
36,192,207568,1,0,0:0:0:0:
182,192,207745,1,0,0:0:0:70:Chork.wav
329,192,207745,1,0,0:0:0:70:PunK.wav
475,192,207745,1,0,0:0:0:70:BaSS.wav
36,192,207833,1,0,0:0:0:0:
109,192,207833,1,0,0:0:0:70:Chork.wav
402,192,207921,1,0,0:0:0:0:
256,192,207921,1,0,0:0:0:70:Chork.wav
182,192,208010,1,0,0:0:0:70:Chork.wav
329,192,208010,1,0,0:0:0:70:PunK.wav
475,192,208010,1,0,0:0:0:0:
109,192,208098,1,0,0:0:0:70:Chork.wav
36,192,208098,1,0,0:0:0:70:BaSS.wav
256,192,208186,1,0,0:0:0:70:Chork.wav
402,192,208186,1,0,0:0:0:0:
329,192,208274,1,0,0:0:0:70:PunK.wav
475,192,208274,1,0,0:0:0:0:
182,192,208274,1,0,0:0:0:70:Chork.wav
36,192,208363,1,0,0:0:0:0:
109,192,208363,1,0,0:0:0:70:Chork.wav
256,192,208451,1,0,0:0:0:70:Chork.wav
402,192,208451,1,0,0:0:0:70:BaSS.wav
475,192,208451,1,0,0:0:0:0:
36,192,208539,1,0,0:0:0:0:
109,192,208539,1,0,0:0:0:70:Chork.wav
182,192,208627,1,0,0:0:0:70:Chork.wav
329,192,208627,1,0,0:0:0:0:
475,192,208715,1,0,0:0:0:70:Chork.wav
402,192,208715,1,0,0:0:0:0:
36,192,208804,1,0,0:0:0:70:BaSS.wav
109,192,208804,1,0,0:0:0:70:Chork.wav
256,192,208804,1,0,0:0:0:0:
402,192,208892,1,0,0:0:0:0:
475,192,208892,1,0,0:0:0:70:Chork.wav
256,192,208980,1,0,0:0:0:0:
36,192,208980,1,0,0:0:0:70:BaSS.wav
109,192,208980,1,0,0:0:0:70:Chork.wav
402,192,209068,1,0,0:0:0:0:
475,192,209068,1,0,0:0:0:70:Chork.wav
109,192,209157,128,0,209245:0:0:0:70:Chork.wav
182,192,209157,128,0,209245:0:0:0:0:
36,192,209157,128,0,209245:0:0:0:70:BaSS.wav
329,192,209157,128,0,209245:0:0:0:0:
402,192,209333,1,0,0:0:0:70:Chork.wav
256,192,209333,1,0,0:0:0:0:
475,192,209421,1,0,0:0:0:0:
182,192,209421,1,0,0:0:0:0:
329,192,209421,1,0,0:0:0:70:Chork.wav
109,192,209510,1,0,0:0:0:70:KicK.wav
36,192,209510,1,0,0:0:0:70:BaSS.wav
329,192,209598,1,0,0:0:0:70:Chork.wav
475,192,209598,1,0,0:0:0:0:
182,192,209598,1,0,0:0:0:0:
256,192,209686,1,0,0:0:0:0:
402,192,209686,1,0,0:0:0:70:Chork.wav
109,192,209774,1,0,0:0:0:70:Chork.wav
36,192,209774,1,0,0:0:0:0:
329,192,209863,1,0,0:0:0:70:BaSS.wav
182,192,209863,1,0,0:0:0:0:
402,192,209951,1,0,0:0:0:70:Chork.wav
475,192,209951,1,0,0:0:0:0:
256,192,209951,1,0,0:0:0:0:
109,192,210039,1,0,0:0:0:0:
402,192,210127,1,0,0:0:0:0:
182,192,210127,1,0,0:0:0:0:
329,192,210127,1,0,0:0:0:70:Chork.wav
256,192,210215,1,0,0:0:0:70:Chork.wav
36,192,210215,1,0,0:0:0:70:KicK.wav
109,192,210215,1,0,0:0:0:70:BaSS.wav
475,192,210215,1,0,0:0:0:0:
256,192,210392,1,0,0:0:0:70:Chork.wav
475,192,210392,1,0,0:0:0:0:
402,192,210392,1,0,0:0:0:0:
182,192,210480,1,0,0:0:0:70:Chork.wav
329,192,210480,1,0,0:0:0:0:
256,192,210568,128,0,210657:0:0:0:70:Chork.wav
475,192,210568,128,0,210657:0:0:0:0:
109,192,210568,128,0,210657:0:0:0:0:
36,192,210568,128,0,210657:0:0:0:70:BaSS.wav
182,192,210745,1,0,0:0:0:70:Chork.wav
329,192,210745,1,0,0:0:0:0:
109,192,210833,1,0,0:0:0:70:Chork.wav
402,192,210833,1,0,0:0:0:0:
36,192,210833,1,0,0:0:0:0:
475,192,210921,1,0,0:0:0:70:KicK.wav
256,192,210921,1,0,0:0:0:70:BaSS.wav
109,192,211010,1,0,0:0:0:70:Chork.wav
329,192,211010,1,0,0:0:0:0:
36,192,211010,1,0,0:0:0:0:
182,192,211098,1,0,0:0:0:70:Chork.wav
402,192,211098,1,0,0:0:0:0:
256,192,211186,1,0,0:0:0:0:
475,192,211186,1,0,0:0:0:70:Chork.wav
109,192,211274,1,0,0:0:0:70:BaSS.wav
36,192,211274,1,0,0:0:0:0:
329,192,211363,1,0,0:0:0:70:Chork.wav
182,192,211363,1,0,0:0:0:0:
475,192,211363,1,0,0:0:0:0:
36,192,211451,1,0,0:0:0:0:
329,192,211539,1,0,0:0:0:70:Chork.wav
475,192,211539,1,0,0:0:0:0:
182,192,211539,1,0,0:0:0:0:
109,192,211627,1,0,0:0:0:70:Chork.wav
36,192,211627,1,0,0:0:0:70:BaSS.wav
256,192,211627,1,0,0:0:0:0:
402,192,211627,1,0,0:0:0:70:KicK.wav
182,192,211715,1,0,0:0:0:70:Chork.wav
329,192,211715,1,0,0:0:0:0:
109,192,211804,1,0,0:0:0:70:Chork.wav
402,192,211804,1,0,0:0:0:0:
182,192,211892,1,0,0:0:0:70:Chork.wav
329,192,211892,1,0,0:0:0:0:
402,192,211980,128,0,212068:0:0:0:0:
475,192,211980,128,0,212068:0:0:0:0:
256,192,211980,128,0,212068:0:0:0:70:BaSS.wav
36,192,211980,128,0,212068:0:0:0:70:Chork.wav
109,192,212157,5,0,0:0:0:70:Chork.wav
329,192,212157,1,0,0:0:0:0:
182,192,212245,1,0,0:0:0:70:Chork.wav
36,192,212245,1,0,0:0:0:0:
475,192,212245,1,0,0:0:0:0:
402,192,212333,1,0,0:0:0:70:KicK.wav
256,192,212333,1,0,0:0:0:70:BaSS.wav
182,192,212421,1,0,0:0:0:70:Chork.wav
36,192,212421,1,0,0:0:0:0:
475,192,212421,1,0,0:0:0:0:
109,192,212510,1,0,0:0:0:70:Chork.wav
329,192,212510,1,0,0:0:0:0:
256,192,212598,1,0,0:0:0:70:Chork.wav
475,192,212598,1,0,0:0:0:0:
182,192,212686,1,0,0:0:0:70:BaSS.wav
402,192,212686,1,0,0:0:0:0:
329,192,212774,1,0,0:0:0:70:Chork.wav
109,192,212774,1,0,0:0:0:0:
36,192,212774,1,0,0:0:0:0:
256,192,212863,1,0,0:0:0:0:
329,192,212951,1,0,0:0:0:70:Chork.wav
182,192,212951,1,0,0:0:0:0:
475,192,212951,1,0,0:0:0:0:
256,192,213039,1,0,0:0:0:70:Chork.wav
402,192,213039,1,0,0:0:0:0:
109,192,213039,1,0,0:0:0:70:KicK.wav
36,192,213039,1,0,0:0:0:70:BaSS.wav
256,192,213215,1,0,0:0:0:70:Chork.wav
402,192,213215,1,0,0:0:0:0:
475,192,213215,1,0,0:0:0:0:
329,192,213392,1,0,0:0:0:70:Chork.wav
182,192,213392,1,0,0:0:0:70:BaSS.wav
36,192,213392,1,0,0:0:0:70:PunK.wav
402,192,213480,1,0,0:0:0:70:Chork.wav
256,192,213480,1,0,0:0:0:0:
475,192,213568,1,0,0:0:0:70:Chork.wav
109,192,213568,1,0,0:0:0:0:
329,192,213657,1,0,0:0:0:70:Chork.wav
36,192,213657,1,0,0:0:0:70:PunK.wav
182,192,213657,1,0,0:0:0:0:
402,192,213745,1,0,0:0:0:70:Chork.wav
256,192,213745,1,0,0:0:0:70:BaSS.wav
475,192,213833,1,0,0:0:0:70:Chork.wav
109,192,213833,1,0,0:0:0:0:
329,192,213921,1,0,0:0:0:70:Chork.wav
182,192,213921,1,0,0:0:0:0:
36,192,213921,1,0,0:0:0:70:PunK.wav
402,192,214010,1,0,0:0:0:70:Chork.wav
256,192,214010,1,0,0:0:0:0:
475,192,214098,1,0,0:0:0:70:Chork.wav
109,192,214098,1,0,0:0:0:70:BaSS.wav
36,192,214098,1,0,0:0:0:0:
182,192,214186,1,0,0:0:0:70:Chork.wav
329,192,214186,1,0,0:0:0:0:
475,192,214274,1,0,0:0:0:70:Chork.wav
402,192,214274,1,0,0:0:0:0:
109,192,214363,1,0,0:0:0:0:
36,192,214363,1,0,0:0:0:70:Chork.wav
256,192,214363,1,0,0:0:0:70:BaSS.wav
329,192,214451,1,0,0:0:0:70:BaSS.wav
475,192,214451,1,0,0:0:0:70:Chork.wav
182,192,214451,1,0,0:0:0:0:
36,192,214539,1,0,0:0:0:0:
109,192,214539,1,0,0:0:0:70:Chork.wav
256,192,214627,1,0,0:0:0:70:Chork.wav
402,192,214627,1,0,0:0:0:70:BaSS.wav
475,192,214627,1,0,0:0:0:0:
329,192,214715,1,0,0:0:0:0:
182,192,214715,1,0,0:0:0:70:Chork.wav
256,192,214804,1,0,0:0:0:70:CrashR.wav
402,192,214804,128,0,214892:0:0:0:70:BaSS.wav
475,192,214804,128,0,214892:0:0:0:0:
109,192,214804,128,0,214892:0:0:0:70:Chork.wav
36,192,214804,128,0,214892:0:0:0:0:
329,192,214980,1,0,0:0:0:0:
182,192,214980,1,0,0:0:0:70:Chork.wav
402,192,215068,1,0,0:0:0:0:
475,192,215068,1,0,0:0:0:0:
256,192,215068,1,0,0:0:0:70:Chork.wav
36,192,215157,1,0,0:0:0:70:KicK.wav
109,192,215157,1,0,0:0:0:70:BaSS.wav
475,192,215245,1,0,0:0:0:0:
256,192,215245,1,0,0:0:0:70:Chork.wav
402,192,215245,1,0,0:0:0:0:
329,192,215333,1,0,0:0:0:0:
182,192,215333,1,0,0:0:0:70:Chork.wav
36,192,215421,1,0,0:0:0:0:
109,192,215421,1,0,0:0:0:70:Chork.wav
329,192,215510,1,0,0:0:0:70:BaSS.wav
182,192,215510,1,0,0:0:0:0:
402,192,215598,1,0,0:0:0:70:Chork.wav
475,192,215598,1,0,0:0:0:0:
256,192,215598,1,0,0:0:0:0:
109,192,215686,1,0,0:0:0:0:
329,192,215774,1,0,0:0:0:70:Chork.wav
475,192,215774,1,0,0:0:0:0:
182,192,215774,1,0,0:0:0:0:
36,192,215863,1,0,0:0:0:70:KicK.wav
109,192,215863,1,0,0:0:0:70:BaSS.wav
402,192,215863,1,0,0:0:0:70:Chork.wav
256,192,215863,1,0,0:0:0:0:
402,192,216039,1,0,0:0:0:70:Chork.wav
109,192,216039,1,0,0:0:0:0:
36,192,216039,1,0,0:0:0:0:
329,192,216127,1,0,0:0:0:70:Chork.wav
182,192,216127,1,0,0:0:0:0:
36,192,216215,128,0,216304:0:0:0:0:
402,192,216215,128,0,216304:0:0:0:0:
256,192,216215,128,0,216304:0:0:0:70:Chork.wav
475,192,216215,128,0,216304:0:0:0:70:BaSS.wav
182,192,216392,1,0,0:0:0:70:Chork.wav
329,192,216392,1,0,0:0:0:0:
36,192,216480,1,0,0:0:0:70:Chork.wav
109,192,216480,1,0,0:0:0:0:
475,192,216480,1,0,0:0:0:0:
402,192,216568,1,0,0:0:0:70:KicK.wav
256,192,216568,1,0,0:0:0:70:BaSS.wav
36,192,216657,1,0,0:0:0:70:Chork.wav
109,192,216657,1,0,0:0:0:0:
475,192,216657,1,0,0:0:0:0:
182,192,216745,1,0,0:0:0:70:Chork.wav
329,192,216745,1,0,0:0:0:0:
109,192,216833,1,0,0:0:0:70:Chork.wav
402,192,216833,1,0,0:0:0:0:
475,192,216921,1,0,0:0:0:70:BaSS.wav
36,192,216921,1,0,0:0:0:0:
402,192,217010,1,0,0:0:0:70:Chork.wav
329,192,217010,1,0,0:0:0:0:
182,192,217010,1,0,0:0:0:0:
36,192,217098,1,0,0:0:0:0:
402,192,217186,1,0,0:0:0:70:Chork.wav
329,192,217186,1,0,0:0:0:0:
182,192,217186,1,0,0:0:0:0:
256,192,217274,1,0,0:0:0:70:Chork.wav
109,192,217274,1,0,0:0:0:70:KicK.wav
475,192,217274,1,0,0:0:0:70:BaSS.wav
36,192,217274,1,0,0:0:0:0:
182,192,217363,1,0,0:0:0:70:Chork.wav
402,192,217363,1,0,0:0:0:0:
109,192,217451,1,0,0:0:0:70:Chork.wav
329,192,217451,1,0,0:0:0:0:
36,192,217539,1,0,0:0:0:70:Chork.wav
256,192,217539,1,0,0:0:0:0:
109,192,217627,128,0,217715:0:0:0:70:Chork.wav
182,192,217627,128,0,217715:0:0:0:0:
329,192,217627,128,0,217715:0:0:0:0:
475,192,217627,128,0,217715:0:0:0:70:BaSS.wav
256,192,217804,1,0,0:0:0:70:Chork.wav
36,192,217804,1,0,0:0:0:0:
182,192,217892,1,0,0:0:0:70:Chork.wav
329,192,217892,1,0,0:0:0:0:
475,192,217892,1,0,0:0:0:0:
36,192,217980,1,0,0:0:0:70:KicK.wav
109,192,217980,1,0,0:0:0:70:BaSS.wav
182,192,218068,1,0,0:0:0:70:Chork.wav
329,192,218068,1,0,0:0:0:0:
475,192,218068,1,0,0:0:0:0:
256,192,218157,1,0,0:0:0:70:Chork.wav
402,192,218157,1,0,0:0:0:0:
36,192,218245,1,0,0:0:0:70:Chork.wav
109,192,218245,1,0,0:0:0:0:
256,192,218333,1,0,0:0:0:70:BaSS.wav
402,192,218333,1,0,0:0:0:0:
182,192,218421,1,0,0:0:0:70:Chork.wav
36,192,218421,1,0,0:0:0:0:
329,192,218421,1,0,0:0:0:0:
475,192,218510,1,0,0:0:0:0:
256,192,218598,1,0,0:0:0:70:Chork.wav
402,192,218598,1,0,0:0:0:0:
109,192,218598,1,0,0:0:0:0:
329,192,218686,1,0,0:0:0:0:
475,192,218686,1,0,0:0:0:70:BaSS.wav
182,192,218686,1,0,0:0:0:70:KicK.wav
36,192,218686,1,0,0:0:0:70:Chork.wav
109,192,218863,1,0,0:0:0:0:
402,192,218863,1,0,0:0:0:0:
256,192,218863,1,0,0:0:0:70:Chork.wav
36,192,219039,1,0,0:0:0:70:BaSS.wav
329,192,219039,1,0,0:0:0:70:Chork.wav
182,192,219039,1,0,0:0:0:70:PunK.wav
475,192,219127,1,0,0:0:0:70:Chork.wav
256,192,219127,1,0,0:0:0:0:
402,192,219215,1,0,0:0:0:70:Chork.wav
109,192,219215,1,0,0:0:0:0:
329,192,219304,5,0,0:0:0:70:Chork.wav
182,192,219304,1,0,0:0:0:70:PunK.wav
36,192,219304,1,0,0:0:0:0:
256,192,219392,1,0,0:0:0:70:BaSS.wav
475,192,219392,1,0,0:0:0:70:Chork.wav
402,192,219480,1,0,0:0:0:70:Chork.wav
109,192,219480,1,0,0:0:0:0:
329,192,219568,1,0,0:0:0:70:Chork.wav
182,192,219568,1,0,0:0:0:70:PunK.wav
36,192,219568,1,0,0:0:0:0:
475,192,219657,1,0,0:0:0:70:Chork.wav
256,192,219657,1,0,0:0:0:0:
109,192,219745,1,0,0:0:0:70:Chork.wav
36,192,219745,1,0,0:0:0:70:BaSS.wav
402,192,219745,1,0,0:0:0:0:
182,192,219833,1,0,0:0:0:70:Chork.wav
329,192,219833,1,0,0:0:0:0:
109,192,219921,1,0,0:0:0:70:Chork.wav
402,192,219921,1,0,0:0:0:0:
182,192,220010,1,0,0:0:0:70:Chork.wav
329,192,220010,1,0,0:0:0:0:
256,192,220098,1,0,0:0:0:70:Chork.wav
36,192,220098,1,0,0:0:0:70:BaSS.wav
475,192,220098,1,0,0:0:0:0:
109,192,220186,1,0,0:0:0:0:
402,192,220186,1,0,0:0:0:70:Chork.wav
256,192,220274,1,0,0:0:0:70:Chork.wav
36,192,220274,1,0,0:0:0:70:BaSS.wav
475,192,220274,1,0,0:0:0:0:
182,192,220363,1,0,0:0:0:0:
329,192,220363,1,0,0:0:0:70:Chork.wav
109,192,220451,5,0,0:0:0:70:BaSS.wav
402,192,220451,1,0,0:0:0:70:Sub bass.wav
256,192,220451,1,0,0:0:0:70:CrashR.wav
36,192,220451,1,0,0:0:0:0:
475,192,220451,1,0,0:0:0:0:
402,192,220627,1,0,0:0:0:70:Sub bass.wav
109,192,220627,1,0,0:0:0:0:
475,192,220804,1,0,0:0:0:70:Sub bass.wav
36,192,220804,1,0,0:0:0:70:KicK.wav
256,192,220804,1,0,0:0:0:70:BaSS.wav
402,192,220892,1,0,0:0:0:70:Sub bass.wav
109,192,220892,1,0,0:0:0:0:
475,192,220980,1,0,0:0:0:70:Sub bass.wav
36,192,220980,1,0,0:0:0:0:
256,192,221157,1,0,0:0:0:70:Sub bass.wav
109,192,221157,1,0,0:0:0:70:BaSS.wav
402,192,221157,1,0,0:0:0:0:
109,192,221333,1,0,0:0:0:70:Sub bass.wav
402,192,221333,1,0,0:0:0:0:
36,192,221421,1,0,0:0:0:70:Sub bass.wav
475,192,221421,1,0,0:0:0:0:
402,192,221510,1,0,0:0:0:70:BaSS.wav
109,192,221510,1,0,0:0:0:70:Sub bass.wav
256,192,221510,1,0,0:0:0:70:KicK.wav
182,192,221686,1,0,0:0:0:70:Sub bass.wav
329,192,221686,1,0,0:0:0:0:
109,192,221863,1,0,0:0:0:70:BaSS.wav
402,192,221863,1,0,0:0:0:70:Sub bass.wav
256,192,221863,1,0,0:0:0:70:CrashR.wav
36,192,221863,1,0,0:0:0:0:
475,192,221863,1,0,0:0:0:0:
109,192,222039,1,0,0:0:0:70:Sub bass.wav
402,192,222039,1,0,0:0:0:0:
475,192,222215,1,0,0:0:0:70:BaSS.wav
36,192,222215,1,0,0:0:0:70:KicK.wav
256,192,222215,1,0,0:0:0:70:Sub bass.wav
182,192,222304,1,0,0:0:0:70:Sub bass.wav
329,192,222304,1,0,0:0:0:0:
109,192,222392,1,0,0:0:0:70:Sub bass.wav
402,192,222392,1,0,0:0:0:0:
36,192,222568,1,0,0:0:0:70:Sub bass.wav
475,192,222568,1,0,0:0:0:70:BaSS.wav
256,192,222568,1,0,0:0:0:0:
182,192,222657,1,0,0:0:0:70:Sub bass.wav
109,192,222657,1,0,0:0:0:0:
475,192,222745,1,0,0:0:0:70:BaSS.wav
329,192,222745,1,0,0:0:0:70:Sub bass.wav
402,192,222745,1,0,0:0:0:0:
182,192,222833,1,0,0:0:0:70:Sub bass.wav
109,192,222833,1,0,0:0:0:0:
36,192,222921,1,0,0:0:0:70:KicK.wav
475,192,222921,1,0,0:0:0:70:BaSS.wav
256,192,222921,1,0,0:0:0:70:Sub bass.wav
36,192,223098,1,0,0:0:0:70:Sub bass.wav
182,192,223098,1,0,0:0:0:70:BaSS.wav
329,192,223098,1,0,0:0:0:0:
402,192,223274,1,0,0:0:0:0:
329,192,223274,1,0,0:0:0:70:CrashR.wav
475,192,223274,1,0,0:0:0:70:Sub bass.wav
182,192,223274,1,0,0:0:0:70:BaSS.wav
109,192,223363,1,0,0:0:0:70:Sub bass.wav
36,192,223363,1,0,0:0:0:0:
475,192,223451,1,0,0:0:0:70:Sub bass.wav
256,192,223451,1,0,0:0:0:70:BaSS.wav
402,192,223451,1,0,0:0:0:0:
182,192,223539,1,0,0:0:0:70:Sub bass.wav
109,192,223539,1,0,0:0:0:0:
402,192,223627,1,0,0:0:0:70:KicK.wav
256,192,223627,1,0,0:0:0:70:BaSS.wav
475,192,223627,1,0,0:0:0:70:Sub bass.wav
109,192,223715,1,0,0:0:0:70:Sub bass.wav
36,192,223715,1,0,0:0:0:0:
329,192,223804,1,0,0:0:0:70:BaSS.wav
475,192,223804,1,0,0:0:0:70:Sub bass.wav
182,192,223804,1,0,0:0:0:0:
402,192,223892,1,0,0:0:0:70:Sub bass.wav
256,192,223892,1,0,0:0:0:0:
109,192,223980,1,0,0:0:0:0:
182,192,223980,1,0,0:0:0:70:CrashR.wav
329,192,223980,1,0,0:0:0:70:BaSS.wav
36,192,223980,1,0,0:0:0:70:Sub bass.wav
402,192,224068,1,0,0:0:0:70:Sub bass.wav
475,192,224068,1,0,0:0:0:0:
256,192,224157,1,0,0:0:0:70:BaSS.wav
36,192,224157,1,0,0:0:0:70:Sub bass.wav
109,192,224157,1,0,0:0:0:0:
329,192,224245,1,0,0:0:0:70:Sub bass.wav
402,192,224245,1,0,0:0:0:0:
36,192,224333,1,0,0:0:0:70:Sub bass.wav
256,192,224333,1,0,0:0:0:70:BaSS.wav
109,192,224333,1,0,0:0:0:70:KicK.wav
402,192,224421,1,0,0:0:0:70:Sub bass.wav
475,192,224421,1,0,0:0:0:0:
36,192,224510,1,0,0:0:0:70:Sub bass.wav
182,192,224510,1,0,0:0:0:70:BaSS.wav
329,192,224510,1,0,0:0:0:0:
109,192,224598,1,0,0:0:0:70:Sub bass.wav
256,192,224598,1,0,0:0:0:0:
329,192,224686,1,0,0:0:0:70:BaSS.wav
182,192,224686,1,0,0:0:0:70:Sub bass.wav
475,192,224686,1,0,0:0:0:70:CrashR.wav
402,192,224686,1,0,0:0:0:0:
109,192,224774,1,0,0:0:0:70:Sub bass.wav
36,192,224774,1,0,0:0:0:0:
182,192,224863,1,0,0:0:0:70:Sub bass.wav
329,192,224863,1,0,0:0:0:0:
402,192,224951,1,0,0:0:0:70:Sub bass.wav
475,192,224951,1,0,0:0:0:0:
182,192,225039,1,0,0:0:0:70:Sub bass.wav
36,192,225039,1,0,0:0:0:70:KicK.wav
329,192,225039,1,0,0:0:0:0:
475,192,225127,1,0,0:0:0:70:Sub bass.wav
402,192,225127,1,0,0:0:0:0:
109,192,225215,1,0,0:0:0:70:Sub bass.wav
256,192,225215,1,0,0:0:0:0:
402,192,225304,1,0,0:0:0:70:Sub bass.wav
475,192,225304,1,0,0:0:0:0:
182,192,225392,1,0,0:0:0:0:
36,192,225392,1,0,0:0:0:70:BaSS.wav
329,192,225392,128,0,225480:0:0:0:70:Sub bass.wav
402,192,225436,128,0,225524:0:0:0:70:Sub bass.wav
475,192,225480,128,0,225568:0:0:0:70:Sub bass.wav
109,192,225524,1,0,0:0:0:70:Sub bass.wav
182,192,225568,1,0,0:0:0:70:Sub bass.wav
256,192,225613,1,0,0:0:0:70:Sub bass.wav
329,192,225657,1,0,0:0:0:70:BaSS.wav
475,192,225657,1,0,0:0:0:0:
36,192,225657,128,0,225745:0:0:0:70:Sub bass.wav
109,192,225701,128,0,225789:0:0:0:70:Sub bass.wav
182,192,225745,128,0,225833:0:0:0:70:Sub bass.wav
329,192,225789,128,0,225877:0:0:0:70:Sub bass.wav
402,192,225833,128,0,225921:0:0:0:70:Sub bass.wav
475,192,225877,128,0,225965:0:0:0:70:Sub bass.wav
182,192,225921,128,0,226010:0:0:0:70:Sub bass.wav
256,192,225965,128,0,226054:0:0:0:70:Sub bass.wav
329,192,226010,128,0,226098:0:0:0:70:Sub bass.wav
402,192,226098,1,0,0:0:0:70:PunK.wav
36,192,226098,1,0,0:0:0:70:CrashS.wav
109,192,226098,1,0,0:0:0:70:BaSS.wav
475,192,226098,1,0,0:0:0:0:
36,192,226363,1,0,0:0:0:70:CrashS.wav
109,192,226363,1,0,0:0:0:70:BaSS.wav
402,192,226363,1,0,0:0:0:70:PunK.wav
475,192,226363,1,0,0:0:0:0:
402,192,226627,1,0,0:0:0:70:PunK.wav
182,192,226627,1,0,0:0:0:70:CrashS.wav
329,192,226627,1,0,0:0:0:70:BaSS.wav
109,192,226627,1,0,0:0:0:0:
182,192,226892,1,0,0:0:0:70:CrashS.wav
329,192,226892,1,0,0:0:0:70:BaSS.wav
402,192,226892,1,0,0:0:0:70:PunK.wav
109,192,226892,1,0,0:0:0:0:
402,192,227157,1,0,0:0:0:70:PunK.wav
475,192,227157,1,0,0:0:0:70:CrashS.wav
36,192,227157,1,0,0:0:0:70:BaSS.wav
256,192,227157,1,0,0:0:0:0:
402,192,227333,1,0,0:0:0:70:CrashS.wav
109,192,227333,1,0,0:0:0:70:BaSS.wav
182,192,227333,1,0,0:0:0:0:
329,192,227333,1,0,0:0:0:70:PunK.wav
256,192,227510,1,0,0:0:0:70:Snare.wav
36,192,227510,1,0,0:0:0:70:Sub bass.wav
475,192,227510,1,0,0:0:0:0:
329,192,227686,1,0,0:0:0:0:
182,192,227686,1,0,0:0:0:70:Sub bass.wav
329,192,227863,1,0,0:0:0:0:
182,192,227863,1,0,0:0:0:70:Sub bass.wav
36,192,228039,1,0,0:0:0:70:Sub bass.wav
475,192,228039,1,0,0:0:0:0:
256,192,228039,1,0,0:0:0:70:Snare.wav
475,192,228215,1,0,0:0:0:70:Sub bass.wav
36,192,228215,1,0,0:0:0:0:
402,192,228260,1,0,0:0:0:70:Sub bass.wav
109,192,228260,1,0,0:0:0:0:
329,192,228304,1,0,0:0:0:70:Sub bass.wav
182,192,228304,1,0,0:0:0:0:
256,192,228348,1,0,0:0:0:70:Sub bass.wav
475,192,228392,1,0,0:0:0:70:Sub bass.wav
36,192,228392,1,0,0:0:0:0:
402,192,228436,1,0,0:0:0:70:Sub bass.wav
109,192,228436,1,0,0:0:0:0:
329,192,228480,1,0,0:0:0:70:Sub bass.wav
182,192,228480,1,0,0:0:0:0:
256,192,228524,1,0,0:0:0:70:Sub bass.wav
36,192,228568,128,0,228833:0:0:0:0:
475,192,228568,128,0,228833:0:0:0:70:BaSS.wav
182,192,228745,128,0,228833:0:0:0:0:
329,192,228745,128,0,228833:0:0:0:0:
182,192,228921,1,0,0:0:0:70:BaSS.wav
36,192,228921,1,0,0:0:0:70:CrashS.wav
475,192,228921,1,0,0:0:0:70:PunK.wav
329,192,228921,1,0,0:0:0:0:
182,192,229186,1,0,0:0:0:70:BaSS.wav
36,192,229186,1,0,0:0:0:70:CrashS.wav
475,192,229186,1,0,0:0:0:70:PunK.wav
329,192,229186,1,0,0:0:0:0:
109,192,229451,1,0,0:0:0:70:CrashS.wav
256,192,229451,1,0,0:0:0:70:BaSS.wav
402,192,229451,1,0,0:0:0:70:PunK.wav
36,192,229451,1,0,0:0:0:0:
256,192,229715,1,0,0:0:0:70:BaSS.wav
109,192,229715,1,0,0:0:0:70:CrashS.wav
402,192,229715,1,0,0:0:0:70:PunK.wav
36,192,229715,1,0,0:0:0:0:
182,192,229980,1,0,0:0:0:70:PunK.wav
329,192,229980,1,0,0:0:0:70:CrashS.wav
109,192,229980,1,0,0:0:0:70:BaSS.wav
402,192,229980,1,0,0:0:0:0:
329,192,230157,1,0,0:0:0:70:CrashS.wav
36,192,230157,1,0,0:0:0:70:BaSS.wav
182,192,230157,1,0,0:0:0:70:PunK.wav
475,192,230157,1,0,0:0:0:0:
109,192,230333,128,0,230510:0:0:0:0:
256,192,230333,128,0,230510:0:0:0:70:Snare.wav
402,192,230333,128,0,230510:0:0:0:70:Sub bass.wav
109,192,230598,1,0,0:0:0:0:
402,192,230598,1,0,0:0:0:70:Sub bass.wav
256,192,230598,1,0,0:0:0:70:Snare.wav
36,192,230686,1,0,0:0:0:0:
329,192,230686,1,0,0:0:0:70:Snare.wav
182,192,230686,1,0,0:0:0:70:Sub bass.wav
329,192,230863,1,0,0:0:0:70:Snare.wav
182,192,230863,1,0,0:0:0:70:Sub bass.wav
36,192,230863,1,0,0:0:0:0:
329,192,231039,1,0,0:0:0:70:Sub bass.wav
36,192,231039,1,0,0:0:0:0:
109,192,231083,1,0,0:0:0:0:
402,192,231083,1,0,0:0:0:70:Sub bass.wav
182,192,231127,1,0,0:0:0:0:
475,192,231127,1,0,0:0:0:70:Sub bass.wav
256,192,231171,1,0,0:0:0:70:Sub bass.wav
329,192,231215,1,0,0:0:0:70:Sub bass.wav
36,192,231215,1,0,0:0:0:0:
109,192,231260,1,0,0:0:0:0:
402,192,231260,1,0,0:0:0:70:Sub bass.wav
182,192,231304,1,0,0:0:0:0:
475,192,231304,1,0,0:0:0:70:Sub bass.wav
256,192,231348,1,0,0:0:0:70:Sub bass.wav
36,192,231392,128,0,231657:0:0:0:0:
329,192,231392,128,0,231657:0:0:0:70:BaSS.wav
182,192,231568,128,0,231657:0:0:0:0:
475,192,231568,128,0,231657:0:0:0:0:
182,192,231745,1,0,0:0:0:70:CrashS.wav
36,192,231745,1,0,0:0:0:70:PunK.wav
475,192,231745,1,0,0:0:0:70:BaSS.wav
329,192,231745,1,0,0:0:0:0:
182,192,232010,1,0,0:0:0:70:CrashS.wav
36,192,232010,1,0,0:0:0:70:PunK.wav
475,192,232010,1,0,0:0:0:70:BaSS.wav
329,192,232010,1,0,0:0:0:0:
475,192,232274,1,0,0:0:0:70:PunK.wav
402,192,232274,1,0,0:0:0:70:BaSS.wav
109,192,232274,1,0,0:0:0:70:CrashS.wav
36,192,232274,1,0,0:0:0:0:
475,192,232539,1,0,0:0:0:70:PunK.wav
402,192,232539,1,0,0:0:0:70:BaSS.wav
109,192,232539,1,0,0:0:0:70:CrashS.wav
36,192,232539,1,0,0:0:0:0:
475,192,232804,1,0,0:0:0:70:CrashS.wav
402,192,232804,1,0,0:0:0:70:BaSS.wav
256,192,232804,1,0,0:0:0:70:PunK.wav
109,192,232804,1,0,0:0:0:0:
256,192,232980,1,0,0:0:0:70:PunK.wav
109,192,232980,1,0,0:0:0:70:BaSS.wav
36,192,232980,1,0,0:0:0:70:CrashS.wav
402,192,232980,1,0,0:0:0:0:
182,192,233157,1,0,0:0:0:70:Snare.wav
329,192,233157,1,0,0:0:0:70:Sub bass.wav
475,192,233157,1,0,0:0:0:0:
36,192,233333,1,0,0:0:0:70:Sub bass.wav
109,192,233333,1,0,0:0:0:0:
36,192,233510,1,0,0:0:0:70:Sub bass.wav
109,192,233510,1,0,0:0:0:0:
182,192,233686,1,0,0:0:0:70:Snare.wav
329,192,233686,1,0,0:0:0:70:Sub bass.wav
475,192,233686,1,0,0:0:0:0:
475,192,233863,1,0,0:0:0:0:
182,192,233863,1,0,0:0:0:70:Sub bass.wav
109,192,233907,1,0,0:0:0:70:Sub bass.wav
402,192,233907,1,0,0:0:0:0:
329,192,233951,1,0,0:0:0:0:
36,192,233951,1,0,0:0:0:70:Sub bass.wav
256,192,233995,1,0,0:0:0:70:Sub bass.wav
182,192,234039,1,0,0:0:0:70:Sub bass.wav
475,192,234039,1,0,0:0:0:0:
402,192,234083,1,0,0:0:0:0:
109,192,234083,1,0,0:0:0:70:Sub bass.wav
329,192,234127,1,0,0:0:0:0:
36,192,234127,1,0,0:0:0:70:Sub bass.wav
256,192,234171,1,0,0:0:0:70:Sub bass.wav
475,192,234215,128,0,234480:0:0:0:0:
182,192,234215,128,0,234480:0:0:0:70:BaSS.wav
36,192,234392,128,0,234480:0:0:0:0:
329,192,234392,128,0,234480:0:0:0:0:
182,192,234568,1,0,0:0:0:70:BaSS.wav
475,192,234568,1,0,0:0:0:70:PunK.wav
36,192,234568,1,0,0:0:0:70:CrashS.wav
329,192,234568,1,0,0:0:0:0:
182,192,234833,1,0,0:0:0:70:BaSS.wav
475,192,234833,1,0,0:0:0:70:PunK.wav
36,192,234833,1,0,0:0:0:70:CrashS.wav
329,192,234833,1,0,0:0:0:0:
182,192,235098,1,0,0:0:0:70:CrashS.wav
402,192,235098,1,0,0:0:0:70:PunK.wav
329,192,235098,1,0,0:0:0:70:BaSS.wav
109,192,235098,1,0,0:0:0:0:
329,192,235363,1,0,0:0:0:70:BaSS.wav
182,192,235363,1,0,0:0:0:70:CrashS.wav
402,192,235363,1,0,0:0:0:70:PunK.wav
109,192,235363,1,0,0:0:0:0:
109,192,235627,1,0,0:0:0:70:PunK.wav
475,192,235627,1,0,0:0:0:70:CrashS.wav
402,192,235627,1,0,0:0:0:70:BaSS.wav
36,192,235627,1,0,0:0:0:0:
329,192,235804,1,0,0:0:0:70:BaSS.wav
475,192,235804,1,0,0:0:0:70:CrashS.wav
182,192,235804,1,0,0:0:0:70:PunK.wav
36,192,235804,1,0,0:0:0:0:
475,192,235980,1,0,0:0:0:70:BaSS.wav
109,192,235980,1,0,0:0:0:70:Chi!.wav
402,192,235980,1,0,0:0:0:0:
36,192,235980,1,0,0:0:0:0:
256,192,235980,1,0,0:0:0:70:CrashR.wav
109,192,236157,1,0,0:0:0:70:Chi!.wav
402,192,236157,1,0,0:0:0:0:
182,192,236333,1,0,0:0:0:70:Chi!.wav
329,192,236333,1,0,0:0:0:0:
109,192,236421,1,0,0:0:0:70:Chi!.wav
402,192,236421,1,0,0:0:0:0:
182,192,236598,1,0,0:0:0:70:Chi!.wav
329,192,236598,1,0,0:0:0:0:
109,192,236686,1,0,0:0:0:70:Chi!.wav
402,192,236686,1,0,0:0:0:0:
182,192,236863,1,0,0:0:0:70:Chi!.wav
329,192,236863,1,0,0:0:0:0:
109,192,236951,1,0,0:0:0:70:Chi!.wav
402,192,236951,1,0,0:0:0:0:
109,192,237127,1,0,0:0:0:70:Chi!.wav
402,192,237127,1,0,0:0:0:0:
182,192,237215,1,0,0:0:0:70:Chi!.wav
329,192,237215,1,0,0:0:0:0:
329,192,237392,128,0,240215:0:0:0:0:
475,192,237392,128,0,240215:0:0:0:0:
402,192,237392,128,0,240215:0:0:0:70:PunK.wav
182,192,237392,128,0,240215:0:0:0:70:BaSS.wav
36,192,237392,128,0,240215:0:0:0:70:CrashR.wav
109,192,237392,128,0,240215:0:0:0:0:
256,192,240215,1,0,0:0:0:70:BaSS.wav
402,192,240392,1,0,0:0:0:15:Chork.wav
109,192,240480,1,0,0:0:0:15:Chork.wav
402,192,240657,1,0,0:0:0:15:Chork.wav
109,192,240745,1,0,0:0:0:15:Chork.wav
329,192,240921,1,0,0:0:0:15:Chork.wav
182,192,241010,1,0,0:0:0:15:Chork.wav
329,192,241186,1,0,0:0:0:15:Chork.wav
182,192,241274,1,0,0:0:0:15:Chork.wav
256,192,241451,1,0,0:0:0:15:Chork.wav
329,192,241627,1,0,0:0:0:20:Chork.wav
402,192,241804,1,0,0:0:0:20:Chork.wav
109,192,241892,1,0,0:0:0:20:Chork.wav
402,192,242068,1,0,0:0:0:20:Chork.wav
109,192,242157,1,0,0:0:0:20:Chork.wav
329,192,242333,1,0,0:0:0:20:Chork.wav
182,192,242421,1,0,0:0:0:20:Chork.wav
329,192,242598,1,0,0:0:0:20:Chork.wav
182,192,242686,1,0,0:0:0:20:Chork.wav
256,192,242863,1,0,0:0:0:20:Chork.wav
329,192,243039,1,0,0:0:0:25:Chork.wav
402,192,243215,1,0,0:0:0:25:Chork.wav
109,192,243304,1,0,0:0:0:25:Chork.wav
402,192,243480,1,0,0:0:0:25:Chork.wav
109,192,243568,1,0,0:0:0:25:Chork.wav
329,192,243745,1,0,0:0:0:25:Chork.wav
182,192,243833,1,0,0:0:0:25:Chork.wav
329,192,244010,1,0,0:0:0:25:Chork.wav
182,192,244098,1,0,0:0:0:25:Chork.wav
256,192,244274,1,0,0:0:0:25:Chork.wav
329,192,244451,1,0,0:0:0:30:Chork.wav
402,192,244627,1,0,0:0:0:30:Chork.wav
109,192,244715,1,0,0:0:0:30:Chork.wav
402,192,244892,1,0,0:0:0:30:Chork.wav
109,192,244980,1,0,0:0:0:30:Chork.wav
329,192,245157,128,0,245245:0:0:0:30:Chork.wav
182,192,245245,128,0,245333:0:0:0:30:Chork.wav
475,192,245421,128,0,245510:0:0:0:30:Chork.wav
36,192,245510,128,0,245598:0:0:0:30:Chork.wav
402,192,245686,1,0,0:0:0:30:Chork.wav
256,192,245774,1,0,0:0:0:30:Chork.wav
109,192,245863,1,0,0:0:0:35:Chork.wav
402,192,246039,128,0,246127:0:0:0:35:Chork.wav
109,192,246127,128,0,246215:0:0:0:35:Chork.wav
402,192,246304,1,0,0:0:0:35:Chork.wav
109,192,246392,1,0,0:0:0:35:Chork.wav
329,192,246568,128,0,246657:0:0:0:35:Chork.wav
182,192,246657,128,0,246745:0:0:0:35:Chork.wav
329,192,246833,1,0,0:0:0:35:Chork.wav
182,192,246921,1,0,0:0:0:35:Chork.wav
256,192,247098,1,0,0:0:0:35:Chork.wav
329,192,247274,1,0,0:0:0:40:Chork.wav
402,192,247451,128,0,247539:0:0:0:40:Chork.wav
109,192,247539,128,0,247627:0:0:0:40:Chork.wav
402,192,247715,1,0,0:0:0:40:Chork.wav
109,192,247804,1,0,0:0:0:40:Chork.wav
329,192,247980,128,0,248068:0:0:0:40:Chork.wav
182,192,248068,128,0,248157:0:0:0:40:Chork.wav
329,192,248245,1,0,0:0:0:40:Chork.wav
182,192,248333,1,0,0:0:0:40:Chork.wav
256,192,248510,1,0,0:0:0:40:Chork.wav
329,192,248686,1,0,0:0:0:45:Chork.wav
402,192,248863,128,0,248951:0:0:0:45:Chork.wav
109,192,248951,128,0,249039:0:0:0:45:Chork.wav
402,192,249127,1,0,0:0:0:45:Chork.wav
109,192,249215,1,0,0:0:0:45:Chork.wav
329,192,249392,128,0,249480:0:0:0:45:Chork.wav
182,192,249480,128,0,249568:0:0:0:45:Chork.wav
329,192,249657,1,0,0:0:0:45:Chork.wav
182,192,249745,1,0,0:0:0:45:Chork.wav
256,192,249921,1,0,0:0:0:45:Chork.wav
329,192,250098,1,0,0:0:0:50:Chork.wav
475,192,250098,128,0,251157:0:0:0:0:
182,192,250186,1,0,0:0:0:50:Chork.wav
36,192,250274,1,0,0:0:0:50:Chork.wav
329,192,250363,1,0,0:0:0:50:Chork.wav
182,192,250451,1,0,0:0:0:50:Chork.wav
36,192,250539,1,0,0:0:0:50:Chork.wav
329,192,250627,1,0,0:0:0:50:Chork.wav
402,192,250627,128,0,251157:0:0:0:0:
182,192,250715,1,0,0:0:0:50:Chork.wav
36,192,250804,1,0,0:0:0:50:Chork.wav
109,192,250892,1,0,0:0:0:50:Chork.wav
182,192,250980,1,0,0:0:0:50:Chork.wav
256,192,251068,1,0,0:0:0:50:Chork.wav
329,192,251157,1,0,0:0:0:50:Chork.wav
36,192,251157,128,0,251510:0:0:0:0:
109,192,251157,1,0,0:0:0:0:
182,192,251245,1,0,0:0:0:50:Chork.wav
256,192,251333,1,0,0:0:0:50:Chork.wav
329,192,251421,1,0,0:0:0:50:Chork.wav
402,192,251510,1,0,0:0:0:70:Chork.wav
182,192,251510,1,0,0:0:0:70:BaSS.wav
109,192,251510,1,0,0:0:0:70:CrashR.wav
475,192,251510,128,0,255392:0:0:0:0:
36,192,251686,1,0,0:0:0:40:Chork.wav
329,192,251686,1,0,0:0:0:70:Hihat.wav
109,192,251774,1,0,0:0:0:40:Chork.wav
256,192,251863,1,0,0:0:0:70:KicK.wav
109,192,251951,1,0,0:0:0:40:Chork.wav
182,192,252039,1,0,0:0:0:40:Chork.wav
329,192,252039,1,0,0:0:0:70:Hihat.wav
182,192,252215,1,0,0:0:0:40:Chork.wav
402,192,252215,1,0,0:0:0:0:
109,192,252304,1,0,0:0:0:40:Chork.wav
329,192,252392,1,0,0:0:0:70:Hihat.wav
109,192,252480,1,0,0:0:0:40:Chork.wav
36,192,252568,1,0,0:0:0:40:Chork.wav
256,192,252568,1,0,0:0:0:70:KicK.wav
109,192,252745,1,0,0:0:0:40:Chork.wav
329,192,252745,1,0,0:0:0:70:Hihat.wav
182,192,252921,1,0,0:0:0:40:Chork.wav
402,192,252921,1,0,0:0:0:0:
36,192,253098,1,0,0:0:0:40:Chork.wav
329,192,253098,1,0,0:0:0:70:Hihat.wav
109,192,253186,1,0,0:0:0:40:Chork.wav
256,192,253274,1,0,0:0:0:70:KicK.wav
109,192,253363,1,0,0:0:0:40:Chork.wav
182,192,253451,1,0,0:0:0:40:Chork.wav
329,192,253451,1,0,0:0:0:70:Hihat.wav
182,192,253627,1,0,0:0:0:40:Chork.wav
402,192,253627,1,0,0:0:0:0:
109,192,253715,1,0,0:0:0:40:Chork.wav
329,192,253804,1,0,0:0:0:70:Hihat.wav
109,192,253892,1,0,0:0:0:40:Chork.wav
36,192,253980,1,0,0:0:0:40:Chork.wav
256,192,253980,1,0,0:0:0:70:KicK.wav
109,192,254157,1,0,0:0:0:40:Chork.wav
329,192,254157,1,0,0:0:0:70:Hihat.wav
182,192,254333,1,0,0:0:0:40:Chork.wav
402,192,254333,1,0,0:0:0:0:
36,192,254510,1,0,0:0:0:40:Chork.wav
329,192,254510,1,0,0:0:0:70:Hihat.wav
109,192,254598,1,0,0:0:0:40:Chork.wav
256,192,254686,1,0,0:0:0:70:KicK.wav
109,192,254774,1,0,0:0:0:40:Chork.wav
182,192,254863,1,0,0:0:0:40:Chork.wav
329,192,254863,1,0,0:0:0:70:Hihat.wav
182,192,255039,1,0,0:0:0:40:Chork.wav
402,192,255039,1,0,0:0:0:0:
109,192,255127,1,0,0:0:0:40:Chork.wav
329,192,255215,1,0,0:0:0:70:Hihat.wav
109,192,255304,1,0,0:0:0:40:Chork.wav
36,192,255392,1,0,0:0:0:40:Chork.wav
256,192,255392,1,0,0:0:0:70:KicK.wav
109,192,255568,1,0,0:0:0:40:Chork.wav
329,192,255568,1,0,0:0:0:70:Hihat.wav
475,192,255568,128,0,255745:0:0:0:0:
182,192,255745,1,0,0:0:0:70:PunK.wav
402,192,255745,1,0,0:0:0:0:
256,192,255745,128,0,256274:0:0:0:0:
109,192,255833,1,0,0:0:0:40:Chork.wav
329,192,255921,1,0,0:0:0:70:Hihat.wav
36,192,255921,1,0,0:0:0:40:Chork.wav
182,192,256010,1,0,0:0:0:70:PunK.wav
402,192,256098,1,0,0:0:0:70:KicK.wav
109,192,256098,1,0,0:0:0:40:Chork.wav
36,192,256186,1,0,0:0:0:40:Chork.wav
329,192,256274,1,0,0:0:0:70:Hihat.wav
182,192,256274,1,0,0:0:0:70:PunK.wav
475,192,256274,128,0,256804:0:0:0:0:
109,192,256363,1,0,0:0:0:40:Chork.wav
36,192,256451,1,0,0:0:0:40:Chork.wav
402,192,256451,1,0,0:0:0:0:
182,192,256539,1,0,0:0:0:40:Chork.wav
329,192,256627,1,0,0:0:0:70:Hihat.wav
109,192,256627,1,0,0:0:0:40:Chork.wav
182,192,256715,1,0,0:0:0:40:Chork.wav
402,192,256804,1,0,0:0:0:70:KicK.wav
36,192,256804,1,0,0:0:0:40:Chork.wav
256,192,256804,128,0,257157:0:0:0:0:
329,192,256980,1,0,0:0:0:70:Hihat.wav
36,192,256980,1,0,0:0:0:40:Chork.wav
109,192,257068,1,0,0:0:0:40:Chork.wav
402,192,257157,1,0,0:0:0:40:Chork.wav
475,192,257157,128,0,261039:0:0:0:0:
182,192,257157,1,0,0:0:0:0:
402,192,257333,1,0,0:0:0:40:Chork.wav
109,192,257333,1,0,0:0:0:70:Hihat.wav
256,192,257421,1,0,0:0:0:40:Chork.wav
36,192,257510,1,0,0:0:0:70:KicK.wav
256,192,257598,1,0,0:0:0:40:Chork.wav
109,192,257686,1,0,0:0:0:70:Hihat.wav
402,192,257686,1,0,0:0:0:40:Chork.wav
402,192,257863,1,0,0:0:0:40:Chork.wav
182,192,257863,1,0,0:0:0:0:
329,192,257951,1,0,0:0:0:40:Chork.wav
109,192,258039,1,0,0:0:0:70:Hihat.wav
329,192,258127,1,0,0:0:0:40:Chork.wav
36,192,258215,1,0,0:0:0:70:KicK.wav
256,192,258215,1,0,0:0:0:40:Chork.wav
109,192,258392,1,0,0:0:0:70:Hihat.wav
329,192,258392,1,0,0:0:0:40:Chork.wav
402,192,258568,1,0,0:0:0:40:Chork.wav
182,192,258568,1,0,0:0:0:0:
402,192,258745,1,0,0:0:0:40:Chork.wav
109,192,258745,1,0,0:0:0:70:Hihat.wav
256,192,258833,1,0,0:0:0:40:Chork.wav
36,192,258921,1,0,0:0:0:70:KicK.wav
256,192,259010,1,0,0:0:0:40:Chork.wav
109,192,259098,1,0,0:0:0:70:Hihat.wav
402,192,259098,1,0,0:0:0:40:Chork.wav
402,192,259274,1,0,0:0:0:40:Chork.wav
182,192,259274,1,0,0:0:0:0:
329,192,259363,1,0,0:0:0:40:Chork.wav
109,192,259451,1,0,0:0:0:70:Hihat.wav
329,192,259539,1,0,0:0:0:40:Chork.wav
36,192,259627,1,0,0:0:0:70:KicK.wav
256,192,259627,1,0,0:0:0:40:Chork.wav
109,192,259804,1,0,0:0:0:70:Hihat.wav
329,192,259804,1,0,0:0:0:40:Chork.wav
402,192,259980,1,0,0:0:0:40:Chork.wav
182,192,259980,1,0,0:0:0:0:
402,192,260157,1,0,0:0:0:40:Chork.wav
109,192,260157,1,0,0:0:0:70:Hihat.wav
256,192,260245,1,0,0:0:0:40:Chork.wav
36,192,260333,1,0,0:0:0:70:KicK.wav
256,192,260421,1,0,0:0:0:40:Chork.wav
109,192,260510,1,0,0:0:0:70:Hihat.wav
402,192,260510,1,0,0:0:0:40:Chork.wav
402,192,260686,1,0,0:0:0:40:Chork.wav
182,192,260686,1,0,0:0:0:0:
329,192,260774,1,0,0:0:0:40:Chork.wav
109,192,260863,1,0,0:0:0:70:Hihat.wav
329,192,260951,1,0,0:0:0:40:Chork.wav
36,192,261039,1,0,0:0:0:70:KicK.wav
256,192,261039,1,0,0:0:0:40:Chork.wav
109,192,261215,1,0,0:0:0:70:Hihat.wav
329,192,261215,1,0,0:0:0:40:Chork.wav
475,192,261215,128,0,261392:0:0:0:0:
182,192,261392,1,0,0:0:0:70:PunK.wav
256,192,261392,128,0,261921:0:0:0:0:
402,192,261392,1,0,0:0:0:0:
109,192,261480,1,0,0:0:0:70:Chork.wav
36,192,261568,1,0,0:0:0:70:Chork.wav
329,192,261568,1,0,0:0:0:70:Hihat.wav
182,192,261657,1,0,0:0:0:70:PunK.wav
109,192,261745,1,0,0:0:0:70:Chork.wav
402,192,261745,1,0,0:0:0:70:KicK.wav
36,192,261833,1,0,0:0:0:70:Chork.wav
182,192,261921,1,0,0:0:0:70:PunK.wav
329,192,261921,1,0,0:0:0:70:Hihat.wav
475,192,261921,128,0,262451:0:0:0:0:
109,192,262010,1,0,0:0:0:70:Chork.wav
36,192,262098,1,0,0:0:0:70:Chork.wav
402,192,262098,1,0,0:0:0:70:BaSS.wav
256,192,262098,1,0,0:0:0:0:
109,192,262186,1,0,0:0:0:70:Chork.wav
182,192,262274,1,0,0:0:0:70:Chork.wav
329,192,262274,1,0,0:0:0:70:Hihat.wav
109,192,262363,1,0,0:0:0:70:Chork.wav
256,192,262363,1,0,0:0:0:70:BaSS.wav
402,192,262451,1,0,0:0:0:70:Chork.wav
182,192,262451,1,0,0:0:0:70:KicK.wav
36,192,262451,128,0,262627:0:0:0:0:
329,192,262539,1,0,0:0:0:70:Chork.wav
402,192,262627,1,0,0:0:0:70:Chork.wav
182,192,262627,1,0,0:0:0:70:Hihat.wav
329,192,262715,1,0,0:0:0:70:Chork.wav
36,192,262804,1,0,0:0:0:40:Chork.wav
182,192,262804,1,0,0:0:0:70:CrashR.wav
475,192,262804,1,0,0:0:0:70:BaSS.wav
256,192,262804,128,0,265274:0:0:0:0:
36,192,262980,1,0,0:0:0:40:Chork.wav
402,192,262980,1,0,0:0:0:70:Hihat.wav
182,192,263068,1,0,0:0:0:40:Chork.wav
329,192,263157,1,0,0:0:0:70:KicK.wav
182,192,263245,1,0,0:0:0:40:Chork.wav
36,192,263333,1,0,0:0:0:40:Chork.wav
402,192,263333,1,0,0:0:0:70:Hihat.wav
475,192,263510,1,0,0:0:0:40:Chork.wav
109,192,263510,1,0,0:0:0:0:
329,192,263598,1,0,0:0:0:40:Chork.wav
182,192,263686,1,0,0:0:0:70:Hihat.wav
329,192,263774,1,0,0:0:0:40:Chork.wav
109,192,263863,1,0,0:0:0:70:KicK.wav
475,192,263863,1,0,0:0:0:40:Chork.wav
329,192,264039,1,0,0:0:0:40:Chork.wav
36,192,264039,1,0,0:0:0:70:Hihat.wav
475,192,264215,1,0,0:0:0:40:Chork.wav
182,192,264215,1,0,0:0:0:0:
36,192,264392,1,0,0:0:0:40:Chork.wav
402,192,264392,1,0,0:0:0:70:Hihat.wav
182,192,264480,1,0,0:0:0:40:Chork.wav
329,192,264568,1,0,0:0:0:70:KicK.wav
182,192,264657,1,0,0:0:0:40:Chork.wav
36,192,264745,1,0,0:0:0:40:Chork.wav
402,192,264745,1,0,0:0:0:70:Hihat.wav
475,192,264921,1,0,0:0:0:40:Chork.wav
36,192,264921,1,0,0:0:0:0:
329,192,265010,1,0,0:0:0:40:Chork.wav
182,192,265098,1,0,0:0:0:70:Hihat.wav
329,192,265186,1,0,0:0:0:40:Chork.wav
36,192,265274,1,0,0:0:0:70:KicK.wav
475,192,265274,1,0,0:0:0:40:Chork.wav
402,192,265451,1,0,0:0:0:40:Chork.wav
109,192,265451,1,0,0:0:0:70:Hihat.wav
256,192,265451,128,0,265627:0:0:0:0:
36,192,265627,128,0,267039:0:0:0:0:
182,192,265627,1,0,0:0:0:40:Chork.wav
329,192,265627,1,0,0:0:0:0:
182,192,265804,1,0,0:0:0:40:Chork.wav
402,192,265804,1,0,0:0:0:70:Hihat.wav
256,192,265892,1,0,0:0:0:40:Chork.wav
475,192,265980,1,0,0:0:0:70:KicK.wav
256,192,266068,1,0,0:0:0:40:Chork.wav
329,192,266157,1,0,0:0:0:40:Chork.wav
109,192,266157,1,0,0:0:0:70:Hihat.wav
329,192,266333,1,0,0:0:0:40:Chork.wav
182,192,266333,1,0,0:0:0:0:
402,192,266421,1,0,0:0:0:40:Chork.wav
256,192,266510,1,0,0:0:0:70:Hihat.wav
402,192,266598,1,0,0:0:0:40:Chork.wav
182,192,266686,1,0,0:0:0:70:KicK.wav
475,192,266686,1,0,0:0:0:40:Chork.wav
402,192,266863,1,0,0:0:0:40:Chork.wav
182,192,266863,1,0,0:0:0:70:Hihat.wav
256,192,267039,128,0,267568:0:0:0:0:
329,192,267039,1,0,0:0:0:70:PunK.wav
109,192,267039,1,0,0:0:0:0:
402,192,267127,1,0,0:0:0:70:Chork.wav
475,192,267215,1,0,0:0:0:70:Chork.wav
182,192,267215,1,0,0:0:0:70:Hihat.wav
329,192,267304,1,0,0:0:0:70:PunK.wav
402,192,267392,1,0,0:0:0:70:Chork.wav
109,192,267392,1,0,0:0:0:70:KicK.wav
475,192,267480,1,0,0:0:0:70:Chork.wav
36,192,267568,128,0,268098:0:0:0:0:
329,192,267568,1,0,0:0:0:70:PunK.wav
182,192,267568,1,0,0:0:0:70:Hihat.wav
402,192,267657,1,0,0:0:0:70:Chork.wav
475,192,267745,1,0,0:0:0:70:Chork.wav
109,192,267745,1,0,0:0:0:70:BaSS.wav
256,192,267745,1,0,0:0:0:0:
402,192,267833,1,0,0:0:0:70:Chork.wav
329,192,267921,1,0,0:0:0:70:Chork.wav
182,192,267921,1,0,0:0:0:70:Hihat.wav
402,192,268010,1,0,0:0:0:70:Chork.wav
256,192,268010,1,0,0:0:0:70:BaSS.wav
109,192,268098,128,0,268451:0:0:0:0:
475,192,268098,1,0,0:0:0:70:Chork.wav
329,192,268098,1,0,0:0:0:70:KicK.wav
329,192,268274,1,0,0:0:0:70:Chork.wav
475,192,268274,1,0,0:0:0:70:Hihat.wav
256,192,268363,1,0,0:0:0:70:Chork.wav
402,192,268451,1,0,0:0:0:40:Chork.wav
475,192,268451,128,0,268980:0:0:0:0:
36,192,268451,1,0,0:0:0:70:CrashR.wav
182,192,268451,1,0,0:0:0:70:BaSS.wav
402,192,268627,1,0,0:0:0:40:Chork.wav
109,192,268627,1,0,0:0:0:70:Hihat.wav
329,192,268715,1,0,0:0:0:40:Chork.wav
182,192,268804,1,0,0:0:0:70:KicK.wav
329,192,268892,1,0,0:0:0:40:Chork.wav
402,192,268980,1,0,0:0:0:40:Chork.wav
36,192,268980,128,0,269510:0:0:0:0:
256,192,268980,1,0,0:0:0:70:Hihat.wav
475,192,269157,1,0,0:0:0:40:Chork.wav
182,192,269157,1,0,0:0:0:0:
402,192,269245,1,0,0:0:0:40:Chork.wav
256,192,269333,1,0,0:0:0:70:Hihat.wav
402,192,269421,1,0,0:0:0:40:Chork.wav
329,192,269510,1,0,0:0:0:70:KicK.wav
475,192,269510,1,0,0:0:0:40:Chork.wav
109,192,269510,128,0,269863:0:0:0:0:
402,192,269686,1,0,0:0:0:40:Chork.wav
256,192,269686,1,0,0:0:0:70:Hihat.wav
256,192,269863,128,0,272686:0:0:0:0:
329,192,269863,1,0,0:0:0:40:Chork.wav
182,192,269863,1,0,0:0:0:70:CrashR.wav
36,192,269863,1,0,0:0:0:70:BaSS.wav
475,192,269863,1,0,0:0:0:0:
329,192,270039,1,0,0:0:0:40:Chork.wav
109,192,270039,1,0,0:0:0:70:Hihat.wav
402,192,270127,1,0,0:0:0:40:Chork.wav
182,192,270215,1,0,0:0:0:70:KicK.wav
402,192,270304,1,0,0:0:0:40:Chork.wav
475,192,270392,1,0,0:0:0:40:Chork.wav
109,192,270392,1,0,0:0:0:70:Hihat.wav
36,192,270568,1,0,0:0:0:40:Chork.wav
475,192,270568,1,0,0:0:0:0:
109,192,270657,1,0,0:0:0:40:Chork.wav
402,192,270745,1,0,0:0:0:70:Hihat.wav
109,192,270833,1,0,0:0:0:40:Chork.wav
182,192,270921,1,0,0:0:0:40:Chork.wav
329,192,270921,1,0,0:0:0:70:KicK.wav
109,192,271098,1,0,0:0:0:70:Hihat.wav
329,192,271098,1,0,0:0:0:40:Chork.wav
475,192,271274,1,0,0:0:0:70:BaSS.wav
36,192,271274,1,0,0:0:0:40:Chork.wav
182,192,271274,1,0,0:0:0:70:CrashR.wav
329,192,271274,1,0,0:0:0:0:
475,192,271451,1,0,0:0:0:40:Chork.wav
36,192,271451,1,0,0:0:0:70:Hihat.wav
402,192,271539,1,0,0:0:0:40:Chork.wav
109,192,271627,1,0,0:0:0:70:KicK.wav
402,192,271715,1,0,0:0:0:40:Chork.wav
182,192,271804,1,0,0:0:0:70:Hihat.wav
329,192,271804,1,0,0:0:0:40:Chork.wav
182,192,271980,1,0,0:0:0:40:Chork.wav
329,192,271980,1,0,0:0:0:70:BaSS.wav
402,192,271980,1,0,0:0:0:70:CrashR.wav
475,192,271980,1,0,0:0:0:0:
109,192,272068,1,0,0:0:0:40:Chork.wav
475,192,272157,1,0,0:0:0:70:Hihat.wav
109,192,272245,1,0,0:0:0:40:Chork.wav
402,192,272333,1,0,0:0:0:40:Chork.wav
36,192,272333,1,0,0:0:0:70:KicK.wav
36,192,272510,1,0,0:0:0:40:Chork.wav
329,192,272510,1,0,0:0:0:70:Hihat.wav
402,192,272686,1,0,0:0:0:70:CrashS.wav
475,192,272686,1,0,0:0:0:70:BaSS.wav
109,192,272686,1,0,0:0:0:70:Chork.wav
36,192,272686,1,0,0:0:0:70:PunK.wav
182,192,272774,1,0,0:0:0:70:Chork.wav
329,192,272774,1,0,0:0:0:0:
256,192,272863,1,0,0:0:0:70:Chork.wav
402,192,272951,1,0,0:0:0:70:CrashS.wav
109,192,272951,1,0,0:0:0:70:Chork.wav
475,192,272951,1,0,0:0:0:70:BaSS.wav
36,192,272951,1,0,0:0:0:70:PunK.wav
182,192,273039,1,0,0:0:0:70:Chork.wav
329,192,273039,1,0,0:0:0:0:
256,192,273127,1,0,0:0:0:70:Chork.wav
475,192,273215,1,0,0:0:0:70:BaSS.wav
402,192,273215,1,0,0:0:0:70:CrashS.wav
109,192,273215,1,0,0:0:0:70:Chork.wav
36,192,273215,1,0,0:0:0:70:PunK.wav
182,192,273304,1,0,0:0:0:70:Chork.wav
329,192,273304,1,0,0:0:0:0:
36,192,273392,1,0,0:0:0:0:
475,192,273392,1,0,0:0:0:0:
256,192,273392,1,0,0:0:0:70:Chork.wav
182,192,273480,1,0,0:0:0:0:
109,192,273480,1,0,0:0:0:70:CrashS.wav
402,192,273480,1,0,0:0:0:70:BaSS.wav
329,192,273480,1,0,0:0:0:70:Chork.wav
182,192,273657,1,0,0:0:0:0:
329,192,273657,1,0,0:0:0:70:Chork.wav
256,192,273745,1,0,0:0:0:0:
109,192,273745,1,0,0:0:0:70:CrashS.wav
36,192,273745,1,0,0:0:0:0:
402,192,273745,1,0,0:0:0:70:Chork.wav
475,192,273745,1,0,0:0:0:70:BaSS.wav
109,192,273921,1,0,0:0:0:70:CrashS.wav
402,192,273921,1,0,0:0:0:70:BaSS.wav
182,192,273921,1,0,0:0:0:0:
329,192,273921,1,0,0:0:0:70:Chork.wav
256,192,274098,1,0,0:0:0:70:CrashR.wav
109,192,274098,128,0,274186:0:0:0:70:BaSS.wav
475,192,274098,128,0,274186:0:0:0:70:BaSS.wav
402,192,274098,128,0,274186:0:0:0:70:Chork.wav
36,192,274098,128,0,274186:0:0:0:0:
182,192,274274,1,0,0:0:0:70:Chork.wav
329,192,274274,128,0,274363:0:0:0:0:
36,192,274363,1,0,0:0:0:0:
109,192,274363,1,0,0:0:0:70:Chork.wav
402,192,274363,128,0,274451:0:0:0:0:
256,192,274451,1,0,0:0:0:70:KicK.wav
475,192,274451,128,0,274539:0:0:0:70:BaSS.wav
36,192,274539,1,0,0:0:0:0:
109,192,274539,1,0,0:0:0:70:Chork.wav
402,192,274539,128,0,274627:0:0:0:0:
182,192,274627,1,0,0:0:0:70:Chork.wav
329,192,274627,128,0,274715:0:0:0:0:
109,192,274715,1,0,0:0:0:70:Chork.wav
256,192,274715,128,0,274804:0:0:0:0:
475,192,274804,1,0,0:0:0:70:BaSS.wav
36,192,274804,128,0,274892:0:0:0:0:
329,192,274892,1,0,0:0:0:0:
402,192,274892,1,0,0:0:0:70:Chork.wav
109,192,274892,128,0,274980:0:0:0:0:
182,192,274980,128,0,275068:0:0:0:0:
329,192,275068,1,0,0:0:0:0:
402,192,275068,1,0,0:0:0:70:Chork.wav
256,192,275068,128,0,275157:0:0:0:0:
109,192,275157,1,0,0:0:0:70:KicK.wav
36,192,275157,1,0,0:0:0:70:Chork.wav
475,192,275157,1,0,0:0:0:70:BaSS.wav
182,192,275245,1,0,0:0:0:0:
256,192,275333,1,0,0:0:0:70:Chork.wav
402,192,275333,1,0,0:0:0:0:
475,192,275333,1,0,0:0:0:0:
182,192,275421,1,0,0:0:0:70:Chork.wav
329,192,275421,1,0,0:0:0:0:
402,192,275510,128,0,275598:0:0:0:0:
475,192,275510,128,0,275598:0:0:0:0:
36,192,275510,128,0,275598:0:0:0:70:BaSS.wav
109,192,275510,128,0,275598:0:0:0:70:Chork.wav
329,192,275686,1,0,0:0:0:70:Chork.wav
182,192,275686,128,0,275774:0:0:0:0:
402,192,275774,1,0,0:0:0:70:Chork.wav
475,192,275774,1,0,0:0:0:0:
109,192,275774,128,0,275863:0:0:0:0:
256,192,275863,1,0,0:0:0:70:KicK.wav
36,192,275863,128,0,275951:0:0:0:70:BaSS.wav
475,192,275951,1,0,0:0:0:0:
402,192,275951,1,0,0:0:0:70:Chork.wav
109,192,275951,128,0,276039:0:0:0:0:
329,192,276039,1,0,0:0:0:70:Chork.wav
182,192,276039,128,0,276127:0:0:0:0:
402,192,276127,1,0,0:0:0:70:Chork.wav
256,192,276127,128,0,276215:0:0:0:0:
475,192,276215,128,0,276304:0:0:0:0:
36,192,276215,1,0,0:0:0:70:BaSS.wav
182,192,276304,1,0,0:0:0:0:
109,192,276304,1,0,0:0:0:70:Chork.wav
402,192,276304,128,0,276392:0:0:0:0:
329,192,276392,128,0,276480:0:0:0:0:
109,192,276480,1,0,0:0:0:70:Chork.wav
182,192,276480,1,0,0:0:0:0:
256,192,276480,128,0,276568:0:0:0:0:
402,192,276568,1,0,0:0:0:70:KicK.wav
36,192,276568,1,0,0:0:0:70:BaSS.wav
475,192,276568,1,0,0:0:0:70:Chork.wav
329,192,276657,1,0,0:0:0:70:Chork.wav
109,192,276657,1,0,0:0:0:0:
402,192,276745,1,0,0:0:0:70:Chork.wav
182,192,276745,1,0,0:0:0:0:
475,192,276833,1,0,0:0:0:70:Chork.wav
256,192,276833,1,0,0:0:0:0:
402,192,276921,128,0,277010:0:0:0:70:Chork.wav
329,192,276921,128,0,277010:0:0:0:70:BaSS.wav
182,192,276921,128,0,277010:0:0:0:0:
36,192,276921,128,0,277010:0:0:0:0:
256,192,277098,1,0,0:0:0:70:Chork.wav
475,192,277098,128,0,277186:0:0:0:0:
109,192,277186,1,0,0:0:0:70:Chork.wav
36,192,277186,1,0,0:0:0:0:
402,192,277186,128,0,277274:0:0:0:0:
182,192,277274,1,0,0:0:0:70:KicK.wav
329,192,277274,128,0,277363:0:0:0:70:BaSS.wav
109,192,277363,1,0,0:0:0:70:Chork.wav
36,192,277363,1,0,0:0:0:0:
475,192,277363,128,0,277451:0:0:0:0:
256,192,277451,1,0,0:0:0:70:Chork.wav
402,192,277451,128,0,277539:0:0:0:0:
182,192,277539,1,0,0:0:0:70:Chork.wav
475,192,277539,128,0,277627:0:0:0:0:
256,192,277627,1,0,0:0:0:70:BaSS.wav
36,192,277627,128,0,277715:0:0:0:0:
402,192,277715,1,0,0:0:0:0:
109,192,277715,128,0,277804:0:0:0:0:
329,192,277715,1,0,0:0:0:70:Chork.wav
182,192,277804,128,0,277892:0:0:0:0:
402,192,277892,1,0,0:0:0:0:
329,192,277892,1,0,0:0:0:70:Chork.wav
109,192,277892,128,0,277980:0:0:0:0:
36,192,277980,128,0,278068:0:0:0:70:Chork.wav
256,192,277980,128,0,278068:0:0:0:70:KicK.wav
475,192,277980,128,0,278068:0:0:0:70:BaSS.wav
402,192,278157,128,0,278245:0:0:0:0:
329,192,278157,128,0,278245:0:0:0:70:Chork.wav
182,192,278157,128,0,278245:0:0:0:0:
109,192,278157,128,0,278245:0:0:0:0:
475,192,278333,1,0,0:0:0:70:Chork.wav
256,192,278333,1,0,0:0:0:70:PunK.wav
36,192,278333,1,0,0:0:0:70:BaSS.wav
329,192,278421,1,0,0:0:0:0:
402,192,278421,1,0,0:0:0:70:Chork.wav
109,192,278510,1,0,0:0:0:0:
182,192,278510,1,0,0:0:0:70:Chork.wav
475,192,278598,1,0,0:0:0:70:Chork.wav
256,192,278598,1,0,0:0:0:70:PunK.wav
36,192,278598,1,0,0:0:0:0:
402,192,278686,1,0,0:0:0:70:Chork.wav
329,192,278686,1,0,0:0:0:70:BaSS.wav
182,192,278774,1,0,0:0:0:70:Chork.wav
109,192,278774,1,0,0:0:0:0:
256,192,278863,1,0,0:0:0:70:PunK.wav
36,192,278863,1,0,0:0:0:0:
475,192,278863,1,0,0:0:0:70:Chork.wav
329,192,278951,1,0,0:0:0:0:
402,192,278951,1,0,0:0:0:70:Chork.wav
36,192,279039,1,0,0:0:0:70:Chork.wav
256,192,279039,1,0,0:0:0:70:BaSS.wav
475,192,279039,1,0,0:0:0:0:
402,192,279127,1,0,0:0:0:0:
109,192,279127,1,0,0:0:0:70:Chork.wav
182,192,279215,1,0,0:0:0:70:Chork.wav
329,192,279215,1,0,0:0:0:0:
256,192,279304,1,0,0:0:0:70:Chork.wav
109,192,279304,1,0,0:0:0:0:
36,192,279392,1,0,0:0:0:70:BaSS.wav
182,192,279392,1,0,0:0:0:70:Chork.wav
475,192,279392,1,0,0:0:0:0:
402,192,279392,1,0,0:0:0:0:
329,192,279480,1,0,0:0:0:70:Chork.wav
36,192,279568,1,0,0:0:0:70:BaSS.wav
182,192,279568,1,0,0:0:0:70:Chork.wav
402,192,279568,1,0,0:0:0:0:
475,192,279568,1,0,0:0:0:0:
256,192,279657,1,0,0:0:0:70:Chork.wav
475,192,279745,128,0,279833:0:0:0:70:Chork.wav
402,192,279745,128,0,279833:0:0:0:0:
36,192,279745,128,0,279833:0:0:0:70:BaSS.wav
182,192,279745,128,0,279833:0:0:0:0:
109,192,279921,128,0,280010:0:0:0:0:
329,192,279921,1,0,0:0:0:70:Chork.wav
475,192,280010,1,0,0:0:0:0:
402,192,280010,1,0,0:0:0:70:Chork.wav
182,192,280010,128,0,280098:0:0:0:0:
36,192,280098,1,0,0:0:0:70:BaSS.wav
256,192,280098,128,0,280186:0:0:0:70:KicK.wav
402,192,280186,1,0,0:0:0:70:Chork.wav
475,192,280186,1,0,0:0:0:0:
182,192,280186,128,0,280274:0:0:0:0:
109,192,280274,128,0,280363:0:0:0:0:
329,192,280274,1,0,0:0:0:70:Chork.wav
36,192,280363,128,0,280451:0:0:0:0:
402,192,280363,1,0,0:0:0:70:Chork.wav
256,192,280451,1,0,0:0:0:0:
475,192,280451,128,0,280539:0:0:0:70:BaSS.wav
109,192,280539,1,0,0:0:0:0:
182,192,280539,1,0,0:0:0:70:Chork.wav
402,192,280539,128,0,280627:0:0:0:0:
329,192,280627,128,0,280715:0:0:0:0:
109,192,280715,1,0,0:0:0:0:
182,192,280715,1,0,0:0:0:70:Chork.wav
256,192,280715,128,0,280804:0:0:0:0:
36,192,280804,1,0,0:0:0:70:KicK.wav
475,192,280804,1,0,0:0:0:70:Chork.wav
402,192,280804,1,0,0:0:0:70:BaSS.wav
109,192,280892,1,0,0:0:0:0:
475,192,280980,1,0,0:0:0:70:Chork.wav
329,192,280980,1,0,0:0:0:0:
182,192,280980,1,0,0:0:0:0:
402,192,281068,1,0,0:0:0:70:Chork.wav
256,192,281068,1,0,0:0:0:0:
329,192,281157,128,0,281245:0:0:0:0:
36,192,281157,128,0,281245:0:0:0:70:BaSS.wav
475,192,281157,128,0,281245:0:0:0:70:Chork.wav
109,192,281157,128,0,281245:0:0:0:0:
402,192,281333,128,0,281421:0:0:0:0:
182,192,281333,1,0,0:0:0:70:Chork.wav
36,192,281421,1,0,0:0:0:0:
329,192,281421,128,0,281510:0:0:0:0:
109,192,281421,1,0,0:0:0:70:Chork.wav
256,192,281510,128,0,281598:0:0:0:70:KicK.wav
475,192,281510,1,0,0:0:0:70:BaSS.wav
36,192,281598,1,0,0:0:0:0:
109,192,281598,1,0,0:0:0:70:Chork.wav
329,192,281598,128,0,281686:0:0:0:0:
402,192,281686,128,0,281774:0:0:0:0:
182,192,281686,1,0,0:0:0:70:Chork.wav
109,192,281774,1,0,0:0:0:70:Chork.wav
475,192,281774,128,0,281863:0:0:0:0:
256,192,281863,1,0,0:0:0:0:
36,192,281863,128,0,281951:0:0:0:70:BaSS.wav
402,192,281951,1,0,0:0:0:0:
329,192,281951,1,0,0:0:0:70:Chork.wav
109,192,281951,128,0,282039:0:0:0:0:
182,192,282039,128,0,282127:0:0:0:0:
256,192,282127,128,0,282215:0:0:0:0:
329,192,282127,1,0,0:0:0:70:Chork.wav
402,192,282127,1,0,0:0:0:0:
109,192,282215,1,0,0:0:0:70:KicK.wav
36,192,282215,1,0,0:0:0:70:BaSS.wav
475,192,282215,1,0,0:0:0:70:Chork.wav
402,192,282304,1,0,0:0:0:70:Chork.wav
182,192,282304,1,0,0:0:0:0:
329,192,282392,1,0,0:0:0:70:Chork.wav
109,192,282392,1,0,0:0:0:0:
36,192,282480,1,0,0:0:0:0:
256,192,282480,1,0,0:0:0:70:Chork.wav
329,192,282568,128,0,282657:0:0:0:70:Chork.wav
475,192,282568,128,0,282657:0:0:0:70:BaSS.wav
109,192,282568,128,0,282657:0:0:0:0:
182,192,282568,128,0,282657:0:0:0:0:
36,192,282745,1,0,0:0:0:70:Chork.wav
256,192,282745,128,0,282833:0:0:0:0:
475,192,282833,1,0,0:0:0:70:Chork.wav
402,192,282833,1,0,0:0:0:0:
182,192,282833,128,0,282921:0:0:0:0:
329,192,282921,1,0,0:0:0:70:KicK.wav
109,192,282921,128,0,283010:0:0:0:70:BaSS.wav
475,192,283010,1,0,0:0:0:70:Chork.wav
402,192,283010,1,0,0:0:0:0:
182,192,283010,128,0,283098:0:0:0:0:
36,192,283098,1,0,0:0:0:70:Chork.wav
256,192,283098,128,0,283186:0:0:0:0:
109,192,283186,1,0,0:0:0:70:Chork.wav
329,192,283186,128,0,283274:0:0:0:0:
182,192,283274,1,0,0:0:0:70:BaSS.wav
475,192,283274,128,0,283363:0:0:0:0:
109,192,283363,1,0,0:0:0:0:
402,192,283363,128,0,283451:0:0:0:0:
36,192,283363,1,0,0:0:0:70:Chork.wav
329,192,283451,128,0,283539:0:0:0:0:
109,192,283539,1,0,0:0:0:0:
36,192,283539,1,0,0:0:0:70:Chork.wav
256,192,283539,128,0,283627:0:0:0:0:
182,192,283627,128,0,283715:0:0:0:70:KicK.wav
402,192,283627,128,0,283715:0:0:0:70:Chork.wav
475,192,283627,128,0,283715:0:0:0:70:BaSS.wav
182,192,283804,128,0,283892:0:0:0:0:
402,192,283804,128,0,283892:0:0:0:70:Chork.wav
36,192,283804,128,0,283892:0:0:0:0:
475,192,283804,128,0,283892:0:0:0:0:
402,192,283980,1,0,0:0:0:70:Chork.wav
256,192,283980,1,0,0:0:0:70:PunK.wav
109,192,283980,1,0,0:0:0:70:BaSS.wav
182,192,284068,1,0,0:0:0:0:
329,192,284068,1,0,0:0:0:70:Chork.wav
36,192,284157,1,0,0:0:0:0:
475,192,284157,1,0,0:0:0:70:Chork.wav
402,192,284245,5,0,0:0:0:70:Chork.wav
256,192,284245,1,0,0:0:0:70:PunK.wav
109,192,284245,1,0,0:0:0:0:
329,192,284333,1,0,0:0:0:70:Chork.wav
182,192,284333,1,0,0:0:0:70:BaSS.wav
475,192,284421,1,0,0:0:0:70:Chork.wav
36,192,284421,1,0,0:0:0:0:
256,192,284510,1,0,0:0:0:70:PunK.wav
109,192,284510,1,0,0:0:0:0:
402,192,284510,1,0,0:0:0:70:Chork.wav
182,192,284598,1,0,0:0:0:0:
329,192,284598,1,0,0:0:0:70:Chork.wav
402,192,284686,1,0,0:0:0:70:Chork.wav
109,192,284686,1,0,0:0:0:70:BaSS.wav
36,192,284686,1,0,0:0:0:0:
475,192,284686,1,0,0:0:0:0:
182,192,284774,1,0,0:0:0:0:
329,192,284774,1,0,0:0:0:70:Chork.wav
475,192,284863,1,0,0:0:0:70:Chork.wav
36,192,284863,1,0,0:0:0:0:
329,192,284951,1,0,0:0:0:70:Chork.wav
256,192,284951,1,0,0:0:0:0:
182,192,284951,1,0,0:0:0:70:BaSS.wav
36,192,285039,1,0,0:0:0:70:BaSS.wav
475,192,285039,1,0,0:0:0:70:Chork.wav
402,192,285039,1,0,0:0:0:0:
109,192,285039,1,0,0:0:0:0:
182,192,285127,1,0,0:0:0:70:Chork.wav
36,192,285215,1,0,0:0:0:70:BaSS.wav
475,192,285215,1,0,0:0:0:70:Chork.wav
109,192,285215,1,0,0:0:0:0:
402,192,285215,1,0,0:0:0:0:
329,192,285304,1,0,0:0:0:70:Chork.wav
256,192,285392,5,0,0:0:0:70:CrashR.wav
109,192,285392,128,0,285480:0:0:0:70:Chork.wav
475,192,285392,128,0,285480:0:0:0:0:
402,192,285392,128,0,285480:0:0:0:70:BaSS.wav
36,192,285392,128,0,285480:0:0:0:0:
329,192,285568,1,0,0:0:0:70:Chork.wav
182,192,285568,128,0,285657:0:0:0:0:
475,192,285657,1,0,0:0:0:0:
402,192,285657,1,0,0:0:0:70:Chork.wav
109,192,285657,128,0,285745:0:0:0:0:
256,192,285745,1,0,0:0:0:70:KicK.wav
36,192,285745,128,0,285833:0:0:0:70:BaSS.wav
182,192,285833,128,0,285921:0:0:0:0:
402,192,285833,1,0,0:0:0:70:Chork.wav
475,192,285833,1,0,0:0:0:0:
109,192,285921,128,0,286010:0:0:0:0:
329,192,285921,1,0,0:0:0:70:Chork.wav
402,192,286010,1,0,0:0:0:70:Chork.wav
182,192,286010,128,0,286098:0:0:0:0:
256,192,286098,1,0,0:0:0:0:
475,192,286098,128,0,286186:0:0:0:70:BaSS.wav
109,192,286186,1,0,0:0:0:0:
36,192,286186,1,0,0:0:0:70:Chork.wav
402,192,286186,128,0,286274:0:0:0:0:
329,192,286274,128,0,286363:0:0:0:0:
109,192,286363,1,0,0:0:0:0:
36,192,286363,1,0,0:0:0:70:Chork.wav
256,192,286363,128,0,286451:0:0:0:0:
475,192,286451,1,0,0:0:0:70:KicK.wav
182,192,286451,1,0,0:0:0:70:Chork.wav
402,192,286451,1,0,0:0:0:70:BaSS.wav
109,192,286539,1,0,0:0:0:0:
36,192,286627,1,0,0:0:0:70:Chork.wav
256,192,286627,1,0,0:0:0:0:
402,192,286627,1,0,0:0:0:0:
182,192,286715,1,0,0:0:0:70:Chork.wav
329,192,286715,1,0,0:0:0:0:
36,192,286804,128,0,286892:0:0:0:0:
475,192,286804,128,0,286892:0:0:0:0:
402,192,286804,128,0,286892:0:0:0:70:BaSS.wav
109,192,286804,128,0,286892:0:0:0:70:Chork.wav
182,192,286980,1,0,0:0:0:70:Chork.wav
329,192,286980,128,0,287068:0:0:0:0:
36,192,287068,1,0,0:0:0:0:
109,192,287068,1,0,0:0:0:70:Chork.wav
402,192,287068,128,0,287157:0:0:0:0:
475,192,287157,128,0,287245:0:0:0:70:BaSS.wav
256,192,287157,1,0,0:0:0:70:KicK.wav
109,192,287245,1,0,0:0:0:70:Chork.wav
36,192,287245,1,0,0:0:0:0:
402,192,287245,128,0,287333:0:0:0:0:
182,192,287333,1,0,0:0:0:70:Chork.wav
329,192,287333,128,0,287421:0:0:0:0:
256,192,287421,128,0,287510:0:0:0:0:
109,192,287421,1,0,0:0:0:70:Chork.wav
36,192,287510,128,0,287598:0:0:0:70:BaSS.wav
475,192,287510,1,0,0:0:0:0:
329,192,287598,1,0,0:0:0:70:Chork.wav
109,192,287598,128,0,287686:0:0:0:0:
402,192,287598,1,0,0:0:0:0:
182,192,287686,128,0,287774:0:0:0:0:
256,192,287774,128,0,287863:0:0:0:0:
402,192,287774,1,0,0:0:0:0:
329,192,287774,1,0,0:0:0:70:Chork.wav
109,192,287863,1,0,0:0:0:70:KicK.wav
475,192,287863,1,0,0:0:0:70:Chork.wav
36,192,287863,1,0,0:0:0:70:BaSS.wav
182,192,287951,1,0,0:0:0:0:
402,192,287951,1,0,0:0:0:70:Chork.wav
109,192,288039,1,0,0:0:0:0:
329,192,288039,1,0,0:0:0:70:Chork.wav
256,192,288127,1,0,0:0:0:70:Chork.wav
36,192,288127,1,0,0:0:0:0:
182,192,288215,128,0,288304:0:0:0:70:Chork.wav
402,192,288215,128,0,288304:0:0:0:70:BaSS.wav
475,192,288215,128,0,288304:0:0:0:0:
109,192,288215,128,0,288304:0:0:0:0:
36,192,288392,128,0,288480:0:0:0:0:
256,192,288392,1,0,0:0:0:70:Chork.wav
402,192,288480,1,0,0:0:0:70:Chork.wav
109,192,288480,128,0,288568:0:0:0:0:
475,192,288480,1,0,0:0:0:0:
329,192,288568,1,0,0:0:0:70:KicK.wav
182,192,288568,128,0,288657:0:0:0:70:BaSS.wav
475,192,288657,1,0,0:0:0:0:
402,192,288657,1,0,0:0:0:70:Chork.wav
36,192,288657,128,0,288745:0:0:0:0:
109,192,288745,128,0,288833:0:0:0:0:
256,192,288745,1,0,0:0:0:70:Chork.wav
329,192,288833,1,0,0:0:0:70:Chork.wav
36,192,288833,128,0,288921:0:0:0:0:
256,192,288921,1,0,0:0:0:70:BaSS.wav
475,192,288921,128,0,289010:0:0:0:0:
402,192,289010,128,0,289098:0:0:0:0:
109,192,289010,1,0,0:0:0:0:
182,192,289010,1,0,0:0:0:70:Chork.wav
329,192,289098,128,0,289186:0:0:0:0:
182,192,289186,1,0,0:0:0:70:Chork.wav
109,192,289186,1,0,0:0:0:0:
402,192,289186,128,0,289274:0:0:0:0:
256,192,289274,128,0,289363:0:0:0:70:KicK.wav
475,192,289274,128,0,289363:0:0:0:70:Chork.wav
36,192,289274,128,0,289363:0:0:0:70:BaSS.wav
402,192,289451,128,0,289539:0:0:0:0:
182,192,289451,128,0,289539:0:0:0:70:Chork.wav
329,192,289451,128,0,289539:0:0:0:0:
36,192,289451,128,0,289539:0:0:0:0:
109,192,289627,1,0,0:0:0:70:Chork.wav
256,192,289627,1,0,0:0:0:70:PunK.wav
475,192,289627,1,0,0:0:0:70:BaSS.wav
402,192,289715,1,0,0:0:0:0:
329,192,289715,1,0,0:0:0:70:Chork.wav
36,192,289804,1,0,0:0:0:0:
182,192,289804,1,0,0:0:0:70:Chork.wav
109,192,289892,5,0,0:0:0:70:Chork.wav
256,192,289892,1,0,0:0:0:70:PunK.wav
475,192,289892,1,0,0:0:0:0:
329,192,289980,1,0,0:0:0:70:Chork.wav
402,192,289980,1,0,0:0:0:70:BaSS.wav
182,192,290068,1,0,0:0:0:70:Chork.wav
36,192,290068,1,0,0:0:0:0:
475,192,290157,1,0,0:0:0:0:
256,192,290157,1,0,0:0:0:70:PunK.wav
109,192,290157,1,0,0:0:0:70:Chork.wav
402,192,290245,1,0,0:0:0:0:
329,192,290245,1,0,0:0:0:70:Chork.wav
182,192,290333,1,0,0:0:0:70:Chork.wav
475,192,290333,1,0,0:0:0:70:BaSS.wav
36,192,290333,1,0,0:0:0:0:
109,192,290421,1,0,0:0:0:0:
256,192,290421,1,0,0:0:0:70:Chork.wav
329,192,290510,1,0,0:0:0:70:Chork.wav
182,192,290510,1,0,0:0:0:0:
402,192,290598,1,0,0:0:0:70:Chork.wav
256,192,290598,1,0,0:0:0:0:
475,192,290686,1,0,0:0:0:70:BaSS.wav
329,192,290686,1,0,0:0:0:70:Chork.wav
109,192,290686,1,0,0:0:0:0:
36,192,290686,1,0,0:0:0:0:
182,192,290774,1,0,0:0:0:70:Chork.wav
475,192,290863,1,0,0:0:0:70:BaSS.wav
329,192,290863,1,0,0:0:0:70:Chork.wav
36,192,290863,1,0,0:0:0:0:
109,192,290863,1,0,0:0:0:0:
256,192,290951,1,0,0:0:0:70:Chork.wav
182,192,291039,1,0,0:0:0:70:BaSS.wav
36,192,291039,1,0,0:0:0:70:CrashR.wav
402,192,291039,1,0,0:0:0:70:Sub bass.wav
475,192,291039,1,0,0:0:0:0:
109,192,291039,1,0,0:0:0:0:
402,192,291215,1,0,0:0:0:70:Sub bass.wav
182,192,291215,1,0,0:0:0:0:
36,192,291392,1,0,0:0:0:70:KicK.wav
402,192,291392,1,0,0:0:0:70:Sub bass.wav
182,192,291392,1,0,0:0:0:70:BaSS.wav
475,192,291392,1,0,0:0:0:0:
329,192,291480,1,0,0:0:0:70:Sub bass.wav
256,192,291480,1,0,0:0:0:0:
182,192,291568,1,0,0:0:0:70:Sub bass.wav
36,192,291568,1,0,0:0:0:0:
475,192,291745,1,0,0:0:0:70:BaSS.wav
256,192,291745,1,0,0:0:0:70:Sub bass.wav
109,192,291745,1,0,0:0:0:0:
402,192,291745,1,0,0:0:0:0:
256,192,291921,1,0,0:0:0:70:Sub bass.wav
109,192,291921,1,0,0:0:0:0:
329,192,292010,1,0,0:0:0:70:Sub bass.wav
182,192,292010,1,0,0:0:0:0:
475,192,292098,1,0,0:0:0:70:KicK.wav
256,192,292098,1,0,0:0:0:70:Sub bass.wav
402,192,292098,1,0,0:0:0:70:BaSS.wav
36,192,292098,1,0,0:0:0:0:
329,192,292274,1,0,0:0:0:70:Sub bass.wav
182,192,292274,1,0,0:0:0:0:
475,192,292451,1,0,0:0:0:70:CrashR.wav
402,192,292451,1,0,0:0:0:70:BaSS.wav
256,192,292451,1,0,0:0:0:70:Sub bass.wav
109,192,292451,1,0,0:0:0:0:
36,192,292451,1,0,0:0:0:0:
256,192,292627,1,0,0:0:0:70:Sub bass.wav
109,192,292627,1,0,0:0:0:0:
182,192,292804,1,0,0:0:0:70:Sub bass.wav
329,192,292804,1,0,0:0:0:70:BaSS.wav
475,192,292804,1,0,0:0:0:70:KicK.wav
36,192,292804,1,0,0:0:0:0:
256,192,292892,1,0,0:0:0:70:Sub bass.wav
402,192,292892,1,0,0:0:0:0:
329,192,292980,1,0,0:0:0:70:Sub bass.wav
182,192,292980,1,0,0:0:0:0:
182,192,293157,1,0,0:0:0:70:BaSS.wav
329,192,293157,1,0,0:0:0:70:Sub bass.wav
402,192,293157,1,0,0:0:0:0:
475,192,293157,1,0,0:0:0:0:
36,192,293245,1,0,0:0:0:70:Sub bass.wav
109,192,293245,1,0,0:0:0:0:
182,192,293333,1,0,0:0:0:70:Sub bass.wav
329,192,293333,1,0,0:0:0:70:BaSS.wav
256,192,293333,1,0,0:0:0:0:
475,192,293421,1,0,0:0:0:70:Sub bass.wav
402,192,293421,1,0,0:0:0:0:
36,192,293510,1,0,0:0:0:70:KicK.wav
329,192,293510,1,0,0:0:0:70:Sub bass.wav
182,192,293510,1,0,0:0:0:70:BaSS.wav
109,192,293510,1,0,0:0:0:0:
329,192,293686,1,0,0:0:0:70:Sub bass.wav
182,192,293686,1,0,0:0:0:70:BaSS.wav
475,192,293686,1,0,0:0:0:0:
402,192,293686,1,0,0:0:0:0:
36,192,293863,1,0,0:0:0:70:BaSS.wav
256,192,293863,1,0,0:0:0:70:CrashR.wav
109,192,293863,1,0,0:0:0:70:Sub bass.wav
475,192,293863,1,0,0:0:0:0:
402,192,293863,1,0,0:0:0:0:
182,192,293951,1,0,0:0:0:70:Sub bass.wav
329,192,293951,1,0,0:0:0:0:
36,192,294039,1,0,0:0:0:70:BaSS.wav
402,192,294039,1,0,0:0:0:70:Sub bass.wav
475,192,294039,1,0,0:0:0:0:
329,192,294127,1,0,0:0:0:70:Sub bass.wav
182,192,294127,1,0,0:0:0:0:
109,192,294215,1,0,0:0:0:70:KicK.wav
36,192,294215,1,0,0:0:0:70:BaSS.wav
256,192,294215,1,0,0:0:0:70:Sub bass.wav
475,192,294215,1,0,0:0:0:0:
329,192,294304,1,0,0:0:0:70:Sub bass.wav
402,192,294304,1,0,0:0:0:0:
256,192,294392,1,0,0:0:0:70:Sub bass.wav
36,192,294392,1,0,0:0:0:70:BaSS.wav
109,192,294392,1,0,0:0:0:0:
182,192,294480,1,0,0:0:0:70:Sub bass.wav
329,192,294480,1,0,0:0:0:0:
36,192,294568,1,0,0:0:0:70:CrashR.wav
109,192,294568,1,0,0:0:0:70:Sub bass.wav
475,192,294568,1,0,0:0:0:70:BaSS.wav
402,192,294568,1,0,0:0:0:0:
182,192,294657,1,0,0:0:0:70:Sub bass.wav
329,192,294657,1,0,0:0:0:0:
256,192,294745,1,0,0:0:0:70:Sub bass.wav
475,192,294745,1,0,0:0:0:70:BaSS.wav
402,192,294745,1,0,0:0:0:0:
182,192,294833,1,0,0:0:0:70:Sub bass.wav
109,192,294833,1,0,0:0:0:0:
475,192,294921,1,0,0:0:0:70:BaSS.wav
402,192,294921,1,0,0:0:0:70:KicK.wav
256,192,294921,1,0,0:0:0:70:Sub bass.wav
36,192,294921,1,0,0:0:0:0:
182,192,295010,1,0,0:0:0:70:Sub bass.wav
329,192,295010,1,0,0:0:0:0:
109,192,295098,1,0,0:0:0:70:Sub bass.wav
475,192,295098,1,0,0:0:0:70:BaSS.wav
36,192,295098,1,0,0:0:0:0:
182,192,295186,1,0,0:0:0:70:Sub bass.wav
329,192,295186,1,0,0:0:0:0:
36,192,295274,1,0,0:0:0:70:BaSS.wav
475,192,295274,1,0,0:0:0:70:Sub bass.wav
256,192,295274,1,0,0:0:0:70:CrashR.wav
109,192,295363,1,0,0:0:0:0:
402,192,295363,1,0,0:0:0:70:Sub bass.wav
329,192,295451,1,0,0:0:0:70:Sub bass.wav
182,192,295451,1,0,0:0:0:0:
475,192,295539,1,0,0:0:0:70:Sub bass.wav
36,192,295539,1,0,0:0:0:70:BaSS.wav
256,192,295539,1,0,0:0:0:0:
402,192,295627,1,0,0:0:0:70:Sub bass.wav
109,192,295627,1,0,0:0:0:70:KicK.wav
329,192,295715,1,0,0:0:0:70:Sub bass.wav
182,192,295715,1,0,0:0:0:0:
475,192,295804,1,0,0:0:0:70:Sub bass.wav
256,192,295804,1,0,0:0:0:0:
36,192,295804,1,0,0:0:0:70:BaSS.wav
109,192,295892,1,0,0:0:0:70:BaSS.wav
402,192,295892,1,0,0:0:0:70:Sub bass.wav
329,192,295980,1,0,0:0:0:70:Sub bass.wav
182,192,295980,1,0,0:0:0:0:
475,192,296068,1,0,0:0:0:0:
402,192,296068,1,0,0:0:0:70:BaSS.wav
109,192,296068,1,0,0:0:0:0:
36,192,296068,1,0,0:0:0:70:CrashS.wav
256,192,296068,1,0,0:0:0:0:
36,192,296245,1,0,0:0:0:70:CrashS.wav
402,192,296245,1,0,0:0:0:70:BaSS.wav
475,192,296245,1,0,0:0:0:0:
109,192,296245,1,0,0:0:0:0:
256,192,296245,1,0,0:0:0:0:
329,192,296421,1,0,0:0:0:70:CrashS.wav
182,192,296421,1,0,0:0:0:70:BaSS.wav
36,192,296421,1,0,0:0:0:0:
475,192,296421,1,0,0:0:0:0:
329,192,296510,1,0,0:0:0:70:CrashS.wav
182,192,296510,1,0,0:0:0:70:BaSS.wav
182,192,296598,1,0,0:0:0:70:BaSS.wav
329,192,296598,1,0,0:0:0:70:CrashS.wav
109,192,296686,128,0,296774:0:0:0:0:
36,192,296686,128,0,296774:0:0:0:70:Chork.wav
256,192,296686,128,0,296774:0:0:0:70:CrashR.wav
475,192,296686,128,0,296774:0:0:0:70:BaSS.wav
402,192,296686,128,0,296774:0:0:0:0:
329,192,296863,1,0,0:0:0:70:Chork.wav
182,192,296863,128,0,296951:0:0:0:0:
402,192,296951,1,0,0:0:0:70:Chork.wav
475,192,296951,1,0,0:0:0:0:
109,192,296951,128,0,297039:0:0:0:0:
256,192,297039,1,0,0:0:0:70:BaSS.wav
36,192,297039,128,0,297127:0:0:0:70:KicK.wav
402,192,297127,1,0,0:0:0:70:Chork.wav
475,192,297127,1,0,0:0:0:0:
182,192,297127,128,0,297215:0:0:0:0:
109,192,297215,128,0,297304:0:0:0:0:
329,192,297215,1,0,0:0:0:70:Chork.wav
402,192,297304,1,0,0:0:0:70:Chork.wav
36,192,297304,128,0,297392:0:0:0:0:
475,192,297392,128,0,297480:0:0:0:70:BaSS.wav
256,192,297392,1,0,0:0:0:0:
109,192,297480,1,0,0:0:0:0:
182,192,297480,1,0,0:0:0:70:Chork.wav
329,192,297480,128,0,297568:0:0:0:0:
475,192,297568,128,0,297657:0:0:0:0:
109,192,297657,1,0,0:0:0:0:
182,192,297657,1,0,0:0:0:70:Chork.wav
329,192,297657,128,0,297745:0:0:0:0:
36,192,297745,1,0,0:0:0:70:Chork.wav
256,192,297745,1,0,0:0:0:70:KicK.wav
475,192,297745,1,0,0:0:0:70:BaSS.wav
402,192,297833,1,0,0:0:0:0:
329,192,297921,1,0,0:0:0:70:Chork.wav
109,192,297921,1,0,0:0:0:0:
36,192,297921,1,0,0:0:0:0:
182,192,298010,1,0,0:0:0:0:
402,192,298010,1,0,0:0:0:70:Chork.wav
109,192,298098,128,0,298186:0:0:0:0:
475,192,298098,128,0,298186:0:0:0:70:BaSS.wav
256,192,298098,128,0,298186:0:0:0:70:Chork.wav
36,192,298098,128,0,298186:0:0:0:0:
329,192,298274,128,0,298363:0:0:0:0:
182,192,298274,1,0,0:0:0:70:Chork.wav
36,192,298363,1,0,0:0:0:0:
109,192,298363,1,0,0:0:0:70:Chork.wav
402,192,298363,128,0,298451:0:0:0:0:
256,192,298451,1,0,0:0:0:70:KicK.wav
475,192,298451,128,0,298539:0:0:0:70:BaSS.wav
36,192,298539,1,0,0:0:0:0:
109,192,298539,1,0,0:0:0:70:Chork.wav
329,192,298539,128,0,298627:0:0:0:0:
402,192,298627,128,0,298715:0:0:0:0:
182,192,298627,1,0,0:0:0:70:Chork.wav
109,192,298715,1,0,0:0:0:70:Chork.wav
475,192,298715,128,0,298804:0:0:0:0:
36,192,298804,128,0,298892:0:0:0:70:BaSS.wav
256,192,298804,1,0,0:0:0:0:
329,192,298892,1,0,0:0:0:0:
402,192,298892,1,0,0:0:0:70:Chork.wav
182,192,298892,128,0,298980:0:0:0:0:
36,192,298980,128,0,299068:0:0:0:0:
182,192,299068,128,0,299157:0:0:0:0:
402,192,299068,1,0,0:0:0:70:Chork.wav
329,192,299068,1,0,0:0:0:0:
256,192,299157,1,0,0:0:0:70:KicK.wav
36,192,299157,1,0,0:0:0:70:BaSS.wav
475,192,299157,1,0,0:0:0:70:Chork.wav
402,192,299245,1,0,0:0:0:70:Chork.wav
109,192,299245,1,0,0:0:0:0:
329,192,299333,1,0,0:0:0:70:Chork.wav
182,192,299333,1,0,0:0:0:0:
256,192,299421,1,0,0:0:0:70:Chork.wav
109,192,299421,1,0,0:0:0:0:
475,192,299510,128,0,299598:0:0:0:70:Chork.wav
36,192,299510,128,0,299598:0:0:0:70:BaSS.wav
182,192,299510,128,0,299598:0:0:0:0:
329,192,299510,128,0,299598:0:0:0:0:
256,192,299686,1,0,0:0:0:70:Chork.wav
109,192,299686,128,0,299774:0:0:0:0:
475,192,299774,1,0,0:0:0:0:
402,192,299774,1,0,0:0:0:70:Chork.wav
36,192,299774,128,0,299863:0:0:0:0:
256,192,299863,1,0,0:0:0:70:KicK.wav
109,192,299863,128,0,299951:0:0:0:70:BaSS.wav
475,192,299951,1,0,0:0:0:0:
182,192,299951,128,0,300039:0:0:0:0:
402,192,299951,1,0,0:0:0:70:Chork.wav
329,192,300039,1,0,0:0:0:70:Chork.wav
109,192,300039,128,0,300127:0:0:0:0:
402,192,300127,1,0,0:0:0:70:Chork.wav
36,192,300127,128,0,300215:0:0:0:0:
475,192,300215,128,0,300304:0:0:0:70:BaSS.wav
256,192,300215,1,0,0:0:0:0:
402,192,300304,128,0,300392:0:0:0:0:
109,192,300304,1,0,0:0:0:70:Chork.wav
182,192,300304,1,0,0:0:0:0:
329,192,300392,128,0,300480:0:0:0:0:
256,192,300480,128,0,300568:0:0:0:0:
182,192,300480,1,0,0:0:0:0:
109,192,300480,1,0,0:0:0:70:Chork.wav
36,192,300568,128,0,300657:0:0:0:70:KicK.wav
475,192,300568,128,0,300657:0:0:0:70:Chork.wav
402,192,300568,128,0,300657:0:0:0:70:BaSS.wav
109,192,300657,128,0,300745:0:0:0:0:
475,192,300745,128,0,300833:0:0:0:0:
329,192,300745,128,0,300833:0:0:0:70:Chork.wav
182,192,300745,128,0,300833:0:0:0:0:
402,192,300745,128,0,300833:0:0:0:0:
256,192,300921,1,0,0:0:0:70:Chork.wav
475,192,300921,1,0,0:0:0:70:PunK.wav
402,192,300921,1,0,0:0:0:70:BaSS.wav
36,192,301010,1,0,0:0:0:0:
109,192,301010,1,0,0:0:0:70:Chork.wav
329,192,301098,1,0,0:0:0:0:
182,192,301098,1,0,0:0:0:70:Chork.wav
256,192,301186,1,0,0:0:0:70:Chork.wav
475,192,301186,1,0,0:0:0:70:PunK.wav
402,192,301186,1,0,0:0:0:0:
109,192,301274,1,0,0:0:0:70:Chork.wav
36,192,301274,1,0,0:0:0:70:BaSS.wav
182,192,301363,1,0,0:0:0:70:Chork.wav
329,192,301363,1,0,0:0:0:0:
475,192,301451,1,0,0:0:0:70:PunK.wav
402,192,301451,1,0,0:0:0:0:
256,192,301451,1,0,0:0:0:70:Chork.wav
36,192,301539,1,0,0:0:0:0:
109,192,301539,1,0,0:0:0:70:Chork.wav
182,192,301627,1,0,0:0:0:70:Chork.wav
475,192,301627,1,0,0:0:0:70:BaSS.wav
329,192,301627,1,0,0:0:0:0:
256,192,301715,1,0,0:0:0:0:
36,192,301715,1,0,0:0:0:70:Chork.wav
109,192,301804,1,0,0:0:0:70:Chork.wav
402,192,301804,1,0,0:0:0:0:
182,192,301892,1,0,0:0:0:70:Chork.wav
329,192,301892,1,0,0:0:0:0:
475,192,301980,1,0,0:0:0:70:BaSS.wav
36,192,301980,1,0,0:0:0:70:Chork.wav
402,192,301980,1,0,0:0:0:0:
109,192,301980,1,0,0:0:0:0:
256,192,302068,1,0,0:0:0:70:Chork.wav
402,192,302157,1,0,0:0:0:70:BaSS.wav
109,192,302157,1,0,0:0:0:70:Chork.wav
329,192,302157,1,0,0:0:0:0:
182,192,302157,1,0,0:0:0:0:
256,192,302245,1,0,0:0:0:70:Chork.wav
475,192,302333,128,0,302421:0:0:0:70:BaSS.wav
329,192,302333,128,0,302421:0:0:0:70:Chork.wav
36,192,302333,128,0,302421:0:0:0:0:
182,192,302333,128,0,302421:0:0:0:0:
109,192,302510,1,0,0:0:0:70:Chork.wav
402,192,302510,128,0,302598:0:0:0:0:
329,192,302598,128,0,302686:0:0:0:0:
182,192,302598,1,0,0:0:0:70:Chork.wav
36,192,302598,1,0,0:0:0:0:
475,192,302686,1,0,0:0:0:70:KicK.wav
256,192,302686,128,0,302774:0:0:0:70:BaSS.wav
36,192,302774,1,0,0:0:0:0:
182,192,302774,1,0,0:0:0:70:Chork.wav
402,192,302774,128,0,302863:0:0:0:0:
109,192,302863,1,0,0:0:0:70:Chork.wav
329,192,302863,128,0,302951:0:0:0:0:
475,192,302951,1,0,0:0:0:70:Chork.wav
256,192,302951,128,0,303039:0:0:0:0:
402,192,303039,1,0,0:0:0:70:BaSS.wav
182,192,303039,128,0,303127:0:0:0:0:
36,192,303127,1,0,0:0:0:0:
109,192,303127,1,0,0:0:0:70:Chork.wav
329,192,303127,128,0,303215:0:0:0:0:
182,192,303215,128,0,303304:0:0:0:0:
109,192,303304,1,0,0:0:0:70:Chork.wav
329,192,303304,128,0,303392:0:0:0:0:
36,192,303304,1,0,0:0:0:0:
475,192,303392,1,0,0:0:0:70:KicK.wav
402,192,303392,1,0,0:0:0:70:Chork.wav
182,192,303392,1,0,0:0:0:70:BaSS.wav
256,192,303480,1,0,0:0:0:0:
109,192,303568,1,0,0:0:0:70:Chork.wav
329,192,303568,1,0,0:0:0:0:
36,192,303568,1,0,0:0:0:0:
182,192,303657,1,0,0:0:0:70:Chork.wav
402,192,303657,1,0,0:0:0:0:
256,192,303745,128,0,303833:0:0:0:0:
109,192,303745,128,0,303833:0:0:0:0:
475,192,303745,128,0,303833:0:0:0:70:BaSS.wav
36,192,303745,128,0,303833:0:0:0:70:Chork.wav
402,192,303921,1,0,0:0:0:70:Chork.wav
182,192,303921,128,0,304010:0:0:0:0:
475,192,304010,1,0,0:0:0:70:Chork.wav
256,192,304010,128,0,304098:0:0:0:0:
36,192,304010,1,0,0:0:0:0:
109,192,304098,1,0,0:0:0:70:KicK.wav
329,192,304098,128,0,304186:0:0:0:70:BaSS.wav
36,192,304186,1,0,0:0:0:0:
475,192,304186,1,0,0:0:0:70:Chork.wav
182,192,304186,128,0,304274:0:0:0:0:
402,192,304274,1,0,0:0:0:70:Chork.wav
256,192,304274,128,0,304363:0:0:0:0:
109,192,304363,1,0,0:0:0:70:Chork.wav
329,192,304363,128,0,304451:0:0:0:0:
475,192,304451,128,0,304539:0:0:0:0:
36,192,304451,1,0,0:0:0:70:BaSS.wav
329,192,304539,128,0,304627:0:0:0:0:
109,192,304539,1,0,0:0:0:0:
182,192,304539,1,0,0:0:0:70:Chork.wav
475,192,304627,128,0,304715:0:0:0:0:
109,192,304715,1,0,0:0:0:0:
182,192,304715,1,0,0:0:0:70:Chork.wav
329,192,304715,128,0,304804:0:0:0:0:
475,192,304804,1,0,0:0:0:70:BaSS.wav
36,192,304804,1,0,0:0:0:70:KicK.wav
256,192,304804,1,0,0:0:0:70:Chork.wav
182,192,304892,1,0,0:0:0:70:Chork.wav
402,192,304892,1,0,0:0:0:0:
109,192,304980,1,0,0:0:0:70:Chork.wav
329,192,304980,1,0,0:0:0:0:
182,192,305068,1,0,0:0:0:70:Chork.wav
402,192,305068,1,0,0:0:0:0:
256,192,305157,128,0,305245:0:0:0:70:Chork.wav
109,192,305157,128,0,305245:0:0:0:70:BaSS.wav
36,192,305157,128,0,305245:0:0:0:0:
475,192,305157,128,0,305245:0:0:0:0:
182,192,305333,1,0,0:0:0:70:Chork.wav
329,192,305333,128,0,305421:0:0:0:0:
36,192,305421,1,0,0:0:0:0:
109,192,305421,1,0,0:0:0:70:Chork.wav
475,192,305421,128,0,305510:0:0:0:0:
256,192,305510,1,0,0:0:0:70:BaSS.wav
402,192,305510,128,0,305598:0:0:0:70:KicK.wav
36,192,305598,1,0,0:0:0:0:
109,192,305598,1,0,0:0:0:70:Chork.wav
329,192,305598,128,0,305686:0:0:0:0:
182,192,305686,1,0,0:0:0:70:Chork.wav
402,192,305686,128,0,305774:0:0:0:0:
109,192,305774,1,0,0:0:0:70:Chork.wav
475,192,305774,128,0,305863:0:0:0:0:
36,192,305863,128,0,305951:0:0:0:70:BaSS.wav
256,192,305863,1,0,0:0:0:0:
402,192,305951,1,0,0:0:0:70:Chork.wav
329,192,305951,1,0,0:0:0:0:
109,192,305951,128,0,306039:0:0:0:0:
182,192,306039,128,0,306127:0:0:0:0:
475,192,306039,1,0,0:0:0:0:
329,192,306127,1,0,0:0:0:0:
256,192,306127,128,0,306215:0:0:0:0:
402,192,306127,1,0,0:0:0:70:Chork.wav
109,192,306215,128,0,306304:0:0:0:70:Chork.wav
475,192,306215,128,0,306304:0:0:0:70:BaSS.wav
36,192,306215,128,0,306304:0:0:0:70:KicK.wav
402,192,306304,128,0,306392:0:0:0:0:
182,192,306392,128,0,306480:0:0:0:0:
36,192,306392,128,0,306480:0:0:0:0:
109,192,306392,128,0,306480:0:0:0:70:Chork.wav
329,192,306392,128,0,306480:0:0:0:0:
475,192,306568,1,0,0:0:0:70:Chork.wav
36,192,306568,1,0,0:0:0:70:BaSS.wav
182,192,306568,1,0,0:0:0:70:PunK.wav
329,192,306657,1,0,0:0:0:0:
402,192,306657,1,0,0:0:0:70:Chork.wav
256,192,306745,1,0,0:0:0:0:
109,192,306745,1,0,0:0:0:70:Chork.wav
475,192,306833,5,0,0:0:0:70:Chork.wav
182,192,306833,1,0,0:0:0:70:PunK.wav
36,192,306833,1,0,0:0:0:0:
402,192,306921,1,0,0:0:0:70:Chork.wav
329,192,306921,1,0,0:0:0:70:BaSS.wav
109,192,307010,1,0,0:0:0:70:Chork.wav
256,192,307010,1,0,0:0:0:0:
36,192,307098,1,0,0:0:0:0:
182,192,307098,1,0,0:0:0:70:PunK.wav
475,192,307098,1,0,0:0:0:70:Chork.wav
329,192,307186,1,0,0:0:0:0:
402,192,307186,1,0,0:0:0:70:Chork.wav
109,192,307274,1,0,0:0:0:70:Chork.wav
256,192,307274,1,0,0:0:0:70:BaSS.wav
475,192,307274,1,0,0:0:0:0:
36,192,307274,1,0,0:0:0:0:
182,192,307363,1,0,0:0:0:0:
329,192,307363,1,0,0:0:0:70:Chork.wav
36,192,307451,1,0,0:0:0:70:Chork.wav
402,192,307451,1,0,0:0:0:0:
109,192,307539,1,0,0:0:0:70:Chork.wav
182,192,307539,1,0,0:0:0:0:
329,192,307539,1,0,0:0:0:70:BaSS.wav
402,192,307627,1,0,0:0:0:70:BaSS.wav
36,192,307627,1,0,0:0:0:70:Chork.wav
256,192,307627,1,0,0:0:0:0:
475,192,307627,1,0,0:0:0:0:
182,192,307715,1,0,0:0:0:70:Chork.wav
402,192,307804,1,0,0:0:0:70:BaSS.wav
109,192,307804,1,0,0:0:0:70:Chork.wav
36,192,307804,1,0,0:0:0:0:
475,192,307804,1,0,0:0:0:0:
329,192,307892,1,0,0:0:0:70:Chork.wav
256,192,307980,5,0,0:0:0:70:CrashR.wav
109,192,307980,128,0,308068:0:0:0:70:Chork.wav
475,192,307980,128,0,308068:0:0:0:0:
36,192,307980,128,0,308068:0:0:0:0:
402,192,307980,128,0,308068:0:0:0:70:BaSS.wav
329,192,308157,1,0,0:0:0:70:Chork.wav
182,192,308157,128,0,308245:0:0:0:0:
402,192,308245,1,0,0:0:0:70:Chork.wav
475,192,308245,1,0,0:0:0:0:
109,192,308245,128,0,308333:0:0:0:0:
256,192,308333,1,0,0:0:0:70:BaSS.wav
36,192,308333,128,0,308421:0:0:0:70:KicK.wav
182,192,308421,128,0,308510:0:0:0:0:
475,192,308421,1,0,0:0:0:70:Chork.wav
402,192,308421,1,0,0:0:0:0:
109,192,308510,128,0,308598:0:0:0:0:
329,192,308510,1,0,0:0:0:70:Chork.wav
36,192,308598,128,0,308686:0:0:0:0:
475,192,308598,1,0,0:0:0:70:Chork.wav
402,192,308686,128,0,308774:0:0:0:0:
256,192,308686,1,0,0:0:0:70:BaSS.wav
109,192,308774,1,0,0:0:0:0:
329,192,308774,128,0,308863:0:0:0:0:
182,192,308774,1,0,0:0:0:70:Chork.wav
402,192,308863,128,0,308951:0:0:0:0:
182,192,308951,1,0,0:0:0:70:Chork.wav
329,192,308951,128,0,309039:0:0:0:0:
109,192,308951,1,0,0:0:0:0:
475,192,309039,1,0,0:0:0:70:BaSS.wav
36,192,309039,1,0,0:0:0:70:Chork.wav
256,192,309039,1,0,0:0:0:70:KicK.wav
109,192,309127,1,0,0:0:0:0:
182,192,309215,1,0,0:0:0:0:
402,192,309215,1,0,0:0:0:0:
329,192,309215,1,0,0:0:0:70:Chork.wav
256,192,309304,1,0,0:0:0:70:Chork.wav
109,192,309304,1,0,0:0:0:0:
475,192,309392,128,0,309480:0:0:0:0:
329,192,309392,128,0,309480:0:0:0:0:
182,192,309392,128,0,309480:0:0:0:70:BaSS.wav
36,192,309392,128,0,309480:0:0:0:70:Chork.wav
402,192,309568,1,0,0:0:0:70:Chork.wav
109,192,309568,128,0,309657:0:0:0:0:
475,192,309657,1,0,0:0:0:0:
329,192,309657,1,0,0:0:0:70:Chork.wav
182,192,309657,128,0,309745:0:0:0:0:
36,192,309745,1,0,0:0:0:70:BaSS.wav
256,192,309745,128,0,309833:0:0:0:70:KicK.wav
475,192,309833,1,0,0:0:0:0:
329,192,309833,1,0,0:0:0:70:Chork.wav
109,192,309833,128,0,309921:0:0:0:0:
402,192,309921,1,0,0:0:0:70:Chork.wav
182,192,309921,128,0,310010:0:0:0:0:
36,192,310010,1,0,0:0:0:70:Chork.wav
256,192,310010,128,0,310098:0:0:0:0:
329,192,310098,128,0,310186:0:0:0:70:BaSS.wav
109,192,310098,1,0,0:0:0:0:
182,192,310186,128,0,310274:0:0:0:0:
475,192,310186,1,0,0:0:0:0:
402,192,310186,1,0,0:0:0:70:Chork.wav
329,192,310274,128,0,310363:0:0:0:0:
475,192,310363,1,0,0:0:0:0:
402,192,310363,1,0,0:0:0:70:Chork.wav
182,192,310363,128,0,310451:0:0:0:0:
36,192,310451,1,0,0:0:0:70:BaSS.wav
329,192,310451,1,0,0:0:0:70:Chork.wav
109,192,310451,1,0,0:0:0:70:KicK.wav
256,192,310539,1,0,0:0:0:70:Chork.wav
475,192,310539,1,0,0:0:0:0:
182,192,310627,1,0,0:0:0:70:Chork.wav
402,192,310627,1,0,0:0:0:0:
109,192,310715,1,0,0:0:0:70:Chork.wav
329,192,310715,1,0,0:0:0:0:
256,192,310804,128,0,310892:0:0:0:70:Chork.wav
36,192,310804,128,0,310892:0:0:0:70:BaSS.wav
475,192,310804,128,0,310892:0:0:0:0:
402,192,310804,128,0,310892:0:0:0:0:
182,192,310980,1,0,0:0:0:70:Chork.wav
329,192,310980,128,0,311068:0:0:0:0:
36,192,311068,1,0,0:0:0:0:
109,192,311068,1,0,0:0:0:70:Chork.wav
402,192,311068,128,0,311157:0:0:0:0:
256,192,311157,1,0,0:0:0:70:KicK.wav
475,192,311157,128,0,311245:0:0:0:70:BaSS.wav
36,192,311245,1,0,0:0:0:0:
109,192,311245,1,0,0:0:0:70:Chork.wav
402,192,311245,128,0,311333:0:0:0:0:
182,192,311333,1,0,0:0:0:70:Chork.wav
329,192,311333,128,0,311421:0:0:0:0:
109,192,311421,1,0,0:0:0:70:Chork.wav
256,192,311421,128,0,311510:0:0:0:0:
475,192,311510,128,0,311598:0:0:0:70:BaSS.wav
36,192,311510,1,0,0:0:0:0:
182,192,311598,1,0,0:0:0:70:Chork.wav
109,192,311598,1,0,0:0:0:0:
402,192,311598,128,0,311686:0:0:0:0:
329,192,311686,128,0,311774:0:0:0:0:
109,192,311774,1,0,0:0:0:0:
402,192,311774,128,0,311863:0:0:0:0:
182,192,311774,1,0,0:0:0:70:Chork.wav
256,192,311863,128,0,311951:0:0:0:70:BaSS.wav
36,192,311863,128,0,311951:0:0:0:70:Chork.wav
475,192,311863,128,0,311951:0:0:0:70:KicK.wav
182,192,311951,128,0,312039:0:0:0:0:
475,192,312039,128,0,312127:0:0:0:0:
36,192,312039,128,0,312127:0:0:0:0:
329,192,312039,128,0,312127:0:0:0:0:
109,192,312039,128,0,312127:0:0:0:70:Chork.wav
475,192,312215,1,0,0:0:0:70:BaSS.wav
329,192,312215,1,0,0:0:0:0:
36,192,312215,1,0,0:0:0:70:Chork.wav
256,192,312304,1,0,0:0:0:0:
109,192,312304,1,0,0:0:0:70:Chork.wav
402,192,312392,1,0,0:0:0:0:
182,192,312392,1,0,0:0:0:70:Chork.wav
36,192,312480,5,0,0:0:0:70:Chork.wav
329,192,312480,1,0,0:0:0:0:
475,192,312480,1,0,0:0:0:0:
109,192,312568,1,0,0:0:0:70:Chork.wav
256,192,312568,1,0,0:0:0:70:BaSS.wav
182,192,312657,1,0,0:0:0:70:Chork.wav
402,192,312657,1,0,0:0:0:0:
475,192,312745,1,0,0:0:0:0:
329,192,312745,1,0,0:0:0:0:
36,192,312745,1,0,0:0:0:70:Chork.wav
256,192,312833,1,0,0:0:0:0:
109,192,312833,1,0,0:0:0:70:Chork.wav
402,192,312921,1,0,0:0:0:70:Chork.wav
182,192,312921,1,0,0:0:0:70:BaSS.wav
36,192,312921,1,0,0:0:0:0:
475,192,312921,1,0,0:0:0:0:
256,192,313010,1,0,0:0:0:0:
329,192,313010,1,0,0:0:0:70:Chork.wav
402,192,313098,1,0,0:0:0:70:Chork.wav
109,192,313098,1,0,0:0:0:0:
256,192,313186,1,0,0:0:0:70:Chork.wav
182,192,313186,1,0,0:0:0:0:
36,192,313274,1,0,0:0:0:70:BaSS.wav
109,192,313274,1,0,0:0:0:70:Chork.wav
329,192,313274,1,0,0:0:0:0:
475,192,313274,1,0,0:0:0:0:
256,192,313363,1,0,0:0:0:70:Chork.wav
36,192,313451,1,0,0:0:0:70:BaSS.wav
109,192,313451,1,0,0:0:0:70:Chork.wav
475,192,313451,1,0,0:0:0:0:
329,192,313451,1,0,0:0:0:0:
182,192,313539,1,0,0:0:0:70:Chork.wav
36,192,313627,1,0,0:0:0:70:BaSS.wav
256,192,313627,1,0,0:0:0:70:CrashR.wav
402,192,313627,1,0,0:0:0:70:Sub bass.wav
109,192,313627,1,0,0:0:0:0:
475,192,313627,1,0,0:0:0:0:
402,192,313804,1,0,0:0:0:70:Sub bass.wav
256,192,313804,1,0,0:0:0:0:
36,192,313980,1,0,0:0:0:70:KicK.wav
402,192,313980,1,0,0:0:0:70:Sub bass.wav
109,192,313980,1,0,0:0:0:70:BaSS.wav
256,192,313980,1,0,0:0:0:0:
329,192,314068,1,0,0:0:0:70:Sub bass.wav
182,192,314068,1,0,0:0:0:0:
402,192,314157,1,0,0:0:0:70:Sub bass.wav
475,192,314157,1,0,0:0:0:0:
329,192,314333,1,0,0:0:0:70:BaSS.wav
182,192,314333,1,0,0:0:0:70:Sub bass.wav
36,192,314333,1,0,0:0:0:0:
475,192,314333,1,0,0:0:0:0:
402,192,314510,1,0,0:0:0:70:Sub bass.wav
109,192,314510,1,0,0:0:0:0:
329,192,314598,1,0,0:0:0:70:Sub bass.wav
182,192,314598,1,0,0:0:0:0:
109,192,314686,1,0,0:0:0:70:KicK.wav
402,192,314686,1,0,0:0:0:70:Sub bass.wav
36,192,314686,1,0,0:0:0:70:BaSS.wav
475,192,314686,1,0,0:0:0:0:
182,192,314863,1,0,0:0:0:70:Sub bass.wav
329,192,314863,1,0,0:0:0:0:
256,192,315039,1,0,0:0:0:70:CrashR.wav
402,192,315039,1,0,0:0:0:70:BaSS.wav
109,192,315039,1,0,0:0:0:70:Sub bass.wav
475,192,315039,1,0,0:0:0:0:
36,192,315039,1,0,0:0:0:0:
109,192,315215,1,0,0:0:0:70:Sub bass.wav
256,192,315215,1,0,0:0:0:0:
109,192,315392,1,0,0:0:0:70:Sub bass.wav
402,192,315392,1,0,0:0:0:70:BaSS.wav
475,192,315392,1,0,0:0:0:70:KicK.wav
256,192,315392,1,0,0:0:0:0:
182,192,315480,1,0,0:0:0:70:Sub bass.wav
329,192,315480,1,0,0:0:0:0:
109,192,315568,1,0,0:0:0:70:Sub bass.wav
36,192,315568,1,0,0:0:0:0:
36,192,315745,1,0,0:0:0:0:
475,192,315745,1,0,0:0:0:70:BaSS.wav
402,192,315745,1,0,0:0:0:70:Sub bass.wav
256,192,315745,1,0,0:0:0:0:
109,192,315833,1,0,0:0:0:70:Sub bass.wav
182,192,315833,1,0,0:0:0:0:
402,192,315921,1,0,0:0:0:70:Sub bass.wav
475,192,315921,1,0,0:0:0:70:BaSS.wav
329,192,315921,1,0,0:0:0:0:
109,192,316010,1,0,0:0:0:70:Sub bass.wav
182,192,316010,1,0,0:0:0:0:
475,192,316098,1,0,0:0:0:70:KicK.wav
402,192,316098,1,0,0:0:0:70:Sub bass.wav
256,192,316098,1,0,0:0:0:70:BaSS.wav
36,192,316098,1,0,0:0:0:0:
475,192,316274,1,0,0:0:0:70:Sub bass.wav
329,192,316274,1,0,0:0:0:70:BaSS.wav
36,192,316274,1,0,0:0:0:0:
182,192,316274,1,0,0:0:0:0:
36,192,316451,1,0,0:0:0:70:BaSS.wav
256,192,316451,1,0,0:0:0:70:CrashR.wav
109,192,316451,1,0,0:0:0:70:Sub bass.wav
475,192,316451,1,0,0:0:0:0:
402,192,316451,1,0,0:0:0:0:
182,192,316539,1,0,0:0:0:70:Sub bass.wav
329,192,316539,1,0,0:0:0:0:
36,192,316627,1,0,0:0:0:70:BaSS.wav
109,192,316627,1,0,0:0:0:70:Sub bass.wav
256,192,316627,1,0,0:0:0:0:
402,192,316715,1,0,0:0:0:70:Sub bass.wav
475,192,316715,1,0,0:0:0:0:
182,192,316804,1,0,0:0:0:0:
109,192,316804,1,0,0:0:0:70:KicK.wav
36,192,316804,1,0,0:0:0:70:BaSS.wav
329,192,316804,1,0,0:0:0:70:Sub bass.wav
402,192,316892,1,0,0:0:0:70:Sub bass.wav
256,192,316892,1,0,0:0:0:0:
36,192,316980,1,0,0:0:0:70:Sub bass.wav
475,192,316980,1,0,0:0:0:70:BaSS.wav
329,192,316980,1,0,0:0:0:0:
109,192,317068,1,0,0:0:0:70:Sub bass.wav
182,192,317068,1,0,0:0:0:0:
256,192,317157,1,0,0:0:0:70:CrashR.wav
402,192,317157,1,0,0:0:0:70:Sub bass.wav
36,192,317157,1,0,0:0:0:70:BaSS.wav
475,192,317157,1,0,0:0:0:0:
329,192,317245,1,0,0:0:0:70:Sub bass.wav
182,192,317245,1,0,0:0:0:0:
402,192,317333,1,0,0:0:0:70:Sub bass.wav
475,192,317333,1,0,0:0:0:70:BaSS.wav
256,192,317333,1,0,0:0:0:0:
36,192,317421,1,0,0:0:0:70:Sub bass.wav
109,192,317421,1,0,0:0:0:0:
329,192,317510,5,0,0:0:0:70:BaSS.wav
475,192,317510,1,0,0:0:0:70:KicK.wav
182,192,317510,1,0,0:0:0:70:Sub bass.wav
402,192,317510,1,0,0:0:0:0:
109,192,317598,1,0,0:0:0:70:Sub bass.wav
256,192,317598,1,0,0:0:0:0:
475,192,317686,1,0,0:0:0:70:Sub bass.wav
36,192,317686,1,0,0:0:0:70:BaSS.wav
182,192,317686,1,0,0:0:0:0:
329,192,317774,1,0,0:0:0:70:Sub bass.wav
402,192,317774,1,0,0:0:0:0:
36,192,317863,1,0,0:0:0:70:BaSS.wav
475,192,317863,1,0,0:0:0:70:Sub bass.wav
256,192,317863,1,0,0:0:0:70:CrashR.wav
109,192,317863,1,0,0:0:0:0:
182,192,317951,1,0,0:0:0:0:
402,192,317951,1,0,0:0:0:70:Sub bass.wav
256,192,318039,1,0,0:0:0:0:
475,192,318039,1,0,0:0:0:70:Sub bass.wav
182,192,318127,1,0,0:0:0:0:
402,192,318127,1,0,0:0:0:70:Sub bass.wav
329,192,318215,1,0,0:0:0:70:Sub bass.wav
109,192,318215,1,0,0:0:0:70:KicK.wav
36,192,318215,1,0,0:0:0:0:
182,192,318304,1,0,0:0:0:0:
402,192,318304,1,0,0:0:0:70:Sub bass.wav
329,192,318392,1,0,0:0:0:70:Sub bass.wav
109,192,318392,1,0,0:0:0:0:
182,192,318480,1,0,0:0:0:0:
402,192,318480,1,0,0:0:0:70:Sub bass.wav
36,192,318568,1,0,0:0:0:70:Sub bass.wav
475,192,318568,1,0,0:0:0:70:BaSS.wav
256,192,318568,1,0,0:0:0:0:
109,192,318613,5,0,0:0:0:70:Sub bass.wav
182,192,318657,5,0,0:0:0:70:Sub bass.wav
402,192,318701,5,0,0:0:0:70:Sub bass.wav
329,192,318745,1,0,0:0:0:70:Sub bass.wav
256,192,318789,1,0,0:0:0:70:Sub bass.wav
182,192,318833,1,0,0:0:0:70:Sub bass.wav
36,192,318833,1,0,0:0:0:70:BaSS.wav
475,192,318833,1,0,0:0:0:0:
402,192,318877,1,0,0:0:0:70:Sub bass.wav
329,192,318921,1,0,0:0:0:70:Sub bass.wav
109,192,318965,1,0,0:0:0:70:Sub bass.wav
182,192,319010,1,0,0:0:0:70:Sub bass.wav
256,192,319054,1,0,0:0:0:70:Sub bass.wav
402,192,319098,1,0,0:0:0:70:Sub bass.wav
329,192,319142,1,0,0:0:0:70:Sub bass.wav
256,192,319186,1,0,0:0:0:70:Sub bass.wav
182,192,319230,1,0,0:0:0:70:Sub bass.wav
402,192,319274,128,0,319363:0:0:0:70:BaSS.wav
109,192,319274,128,0,319363:0:0:0:70:CrashR.wav
36,192,319274,128,0,319363:0:0:0:70:Chork.wav
475,192,319274,128,0,319363:0:0:0:0:
329,192,319451,128,0,319539:0:0:0:70:Chork.wav
182,192,319451,128,0,319539:0:0:0:0:
109,192,319539,128,0,319627:0:0:0:0:
402,192,319539,128,0,319627:0:0:0:70:Chork.wav
475,192,319539,128,0,319627:0:0:0:0:
36,192,319627,128,0,319715:0:0:0:70:KicK.wav
256,192,319627,128,0,319715:0:0:0:70:BaSS.wav
109,192,319715,128,0,319804:0:0:0:0:
402,192,319715,128,0,319804:0:0:0:70:Chork.wav
475,192,319715,128,0,319804:0:0:0:0:
182,192,319804,128,0,319892:0:0:0:0:
329,192,319804,128,0,319892:0:0:0:70:Chork.wav
109,192,319892,128,0,319980:0:0:0:70:Chork.wav
36,192,319892,128,0,319980:0:0:0:0:
256,192,319980,128,0,320068:0:0:0:70:BaSS.wav
475,192,319980,128,0,320068:0:0:0:0:
182,192,320068,128,0,320157:0:0:0:70:Chork.wav
329,192,320068,128,0,320157:0:0:0:0:
109,192,320068,128,0,320157:0:0:0:0:
402,192,320157,128,0,320245:0:0:0:0:
256,192,320245,128,0,320333:0:0:0:70:Chork.wav
182,192,320245,128,0,320333:0:0:0:0:
475,192,320245,128,0,320333:0:0:0:0:
109,192,320333,128,0,320421:0:0:0:70:Chork.wav
36,192,320333,128,0,320421:0:0:0:70:KicK.wav
402,192,320333,128,0,320421:0:0:0:70:BaSS.wav
329,192,320421,128,0,320510:0:0:0:0:
109,192,320510,128,0,320598:0:0:0:70:Chork.wav
256,192,320510,128,0,320598:0:0:0:0:
36,192,320510,128,0,320598:0:0:0:0:
182,192,320598,128,0,320686:0:0:0:70:Chork.wav
329,192,320598,128,0,320686:0:0:0:0:
402,192,320686,128,0,320774:0:0:0:0:
475,192,320686,128,0,320774:0:0:0:70:BaSS.wav
256,192,320686,128,0,320774:0:0:0:70:Chork.wav
36,192,320686,128,0,320774:0:0:0:0:
182,192,320863,128,0,320951:0:0:0:70:Chork.wav
329,192,320863,128,0,320951:0:0:0:0:
109,192,320951,128,0,321039:0:0:0:70:Chork.wav
256,192,320951,128,0,321039:0:0:0:0:
475,192,320951,128,0,321039:0:0:0:0:
36,192,321039,128,0,321127:0:0:0:70:BaSS.wav
402,192,321039,128,0,321127:0:0:0:70:KicK.wav
109,192,321127,128,0,321215:0:0:0:70:Chork.wav
475,192,321127,128,0,321215:0:0:0:0:
256,192,321127,128,0,321215:0:0:0:0:
182,192,321215,128,0,321304:0:0:0:70:Chork.wav
329,192,321215,128,0,321304:0:0:0:0:
109,192,321304,128,0,321392:0:0:0:70:Chork.wav
402,192,321304,128,0,321392:0:0:0:0:
36,192,321392,128,0,321480:0:0:0:70:BaSS.wav
475,192,321392,128,0,321480:0:0:0:0:
182,192,321480,128,0,321568:0:0:0:0:
402,192,321480,128,0,321568:0:0:0:70:Chork.wav
329,192,321480,128,0,321568:0:0:0:0:
109,192,321568,128,0,321657:0:0:0:0:
402,192,321657,128,0,321745:0:0:0:70:Chork.wav
256,192,321657,128,0,321745:0:0:0:0:
475,192,321657,128,0,321745:0:0:0:0:
36,192,321745,128,0,321833:0:0:0:70:KicK.wav
182,192,321745,128,0,321833:0:0:0:70:BaSS.wav
329,192,321745,128,0,321833:0:0:0:70:Chork.wav
256,192,321833,128,0,321921:0:0:0:70:Chork.wav
475,192,321833,128,0,321921:0:0:0:0:
109,192,321921,128,0,322010:0:0:0:70:Chork.wav
402,192,321921,128,0,322010:0:0:0:0:
182,192,322010,128,0,322098:0:0:0:70:Chork.wav
329,192,322010,128,0,322098:0:0:0:0:
36,192,322098,128,0,322186:0:0:0:70:Chork.wav
256,192,322098,128,0,322186:0:0:0:70:BaSS.wav
402,192,322098,128,0,322186:0:0:0:0:
475,192,322098,128,0,322186:0:0:0:0:
109,192,322274,128,0,322363:0:0:0:70:Chork.wav
329,192,322274,128,0,322363:0:0:0:0:
182,192,322363,128,0,322451:0:0:0:70:Chork.wav
256,192,322363,128,0,322451:0:0:0:0:
402,192,322363,128,0,322451:0:0:0:0:
36,192,322451,128,0,322539:0:0:0:70:BaSS.wav
475,192,322451,128,0,322539:0:0:0:70:KicK.wav
182,192,322539,128,0,322627:0:0:0:70:Chork.wav
402,192,322539,128,0,322627:0:0:0:0:
256,192,322539,128,0,322627:0:0:0:0:
109,192,322627,128,0,322715:0:0:0:70:Chork.wav
329,192,322627,128,0,322715:0:0:0:0:
182,192,322715,128,0,322804:0:0:0:70:Chork.wav
402,192,322715,128,0,322804:0:0:0:0:
256,192,322804,128,0,322892:0:0:0:70:BaSS.wav
475,192,322804,128,0,322892:0:0:0:0:
329,192,322892,128,0,322980:0:0:0:0:
36,192,322892,128,0,322980:0:0:0:70:Chork.wav
109,192,322892,128,0,322980:0:0:0:0:
402,192,322980,128,0,323068:0:0:0:0:
182,192,323068,128,0,323157:0:0:0:0:
109,192,323068,128,0,323157:0:0:0:70:Chork.wav
329,192,323068,128,0,323157:0:0:0:0:
36,192,323157,128,0,323245:0:0:0:70:KicK.wav
256,192,323157,128,0,323245:0:0:0:70:Chork.wav
475,192,323157,128,0,323245:0:0:0:70:BaSS.wav
402,192,323245,128,0,323333:0:0:0:0:
329,192,323333,128,0,323421:0:0:0:0:
182,192,323333,128,0,323421:0:0:0:70:Chork.wav
109,192,323333,128,0,323421:0:0:0:0:
36,192,323333,128,0,323421:0:0:0:0:
329,192,323510,128,0,323598:0:0:0:70:Chork.wav
402,192,323510,128,0,323598:0:0:0:70:BaSS.wav
475,192,323510,128,0,323598:0:0:0:70:PunK.wav
36,192,323510,128,0,323598:0:0:0:0:
182,192,323598,128,0,323686:0:0:0:0:
256,192,323598,128,0,323686:0:0:0:70:Chork.wav
36,192,323686,128,0,323774:0:0:0:0:
109,192,323686,128,0,323774:0:0:0:70:Chork.wav
475,192,323774,128,0,323863:0:0:0:70:PunK.wav
402,192,323774,128,0,323863:0:0:0:0:
329,192,323774,128,0,323863:0:0:0:70:Chork.wav
182,192,323863,128,0,323951:0:0:0:70:BaSS.wav
256,192,323863,128,0,323951:0:0:0:70:Chork.wav
36,192,323951,128,0,324039:0:0:0:0:
109,192,323951,128,0,324039:0:0:0:70:Chork.wav
329,192,324039,128,0,324127:0:0:0:70:Chork.wav
475,192,324039,128,0,324127:0:0:0:70:PunK.wav
402,192,324039,128,0,324127:0:0:0:0:
182,192,324127,128,0,324215:0:0:0:0:
256,192,324127,128,0,324215:0:0:0:70:Chork.wav
36,192,324215,128,0,324304:0:0:0:0:
475,192,324215,128,0,324304:0:0:0:70:Chork.wav
109,192,324215,128,0,324304:0:0:0:70:BaSS.wav
256,192,324304,128,0,324392:0:0:0:0:
329,192,324304,128,0,324392:0:0:0:70:Chork.wav
182,192,324392,128,0,324480:0:0:0:70:Chork.wav
109,192,324392,128,0,324480:0:0:0:0:
475,192,324392,128,0,324480:0:0:0:0:
402,192,324480,128,0,324568:0:0:0:70:Chork.wav
329,192,324480,128,0,324568:0:0:0:0:
256,192,324568,128,0,324657:0:0:0:70:BaSS.wav
36,192,324568,128,0,324657:0:0:0:0:
109,192,324568,128,0,324657:0:0:0:70:Chork.wav
475,192,324568,128,0,324657:0:0:0:0:
329,192,324657,128,0,324745:0:0:0:70:Chork.wav
182,192,324657,128,0,324745:0:0:0:0:
36,192,324745,128,0,324833:0:0:0:70:BaSS.wav
109,192,324745,128,0,324833:0:0:0:0:
475,192,324745,128,0,324833:0:0:0:70:Chork.wav
402,192,324745,128,0,324833:0:0:0:0:
329,192,324833,128,0,324921:0:0:0:70:Chork.wav
182,192,324833,128,0,324921:0:0:0:0:
475,192,324921,128,0,325010:0:0:0:70:BaSS.wav
402,192,324921,128,0,325010:0:0:0:70:Chork.wav
36,192,324921,128,0,325010:0:0:0:0:
256,192,324921,128,0,325010:0:0:0:0:
182,192,325098,128,0,325186:0:0:0:70:Chork.wav
329,192,325098,128,0,325186:0:0:0:0:
109,192,325186,128,0,325274:0:0:0:0:
402,192,325186,128,0,325274:0:0:0:70:Chork.wav
36,192,325186,128,0,325274:0:0:0:0:
329,192,325274,128,0,325363:0:0:0:70:BaSS.wav
182,192,325274,128,0,325363:0:0:0:70:KicK.wav
475,192,325363,128,0,325451:0:0:0:70:Chork.wav
109,192,325363,128,0,325451:0:0:0:0:
36,192,325363,128,0,325451:0:0:0:0:
256,192,325451,128,0,325539:0:0:0:70:Chork.wav
402,192,325451,128,0,325539:0:0:0:0:
182,192,325539,128,0,325627:0:0:0:70:Chork.wav
475,192,325539,128,0,325627:0:0:0:0:
109,192,325627,128,0,325715:0:0:0:0:
329,192,325627,128,0,325715:0:0:0:70:BaSS.wav
475,192,325715,128,0,325804:0:0:0:0:
256,192,325715,128,0,325804:0:0:0:70:Chork.wav
36,192,325715,128,0,325804:0:0:0:0:
329,192,325804,128,0,325892:0:0:0:0:
402,192,325892,128,0,325980:0:0:0:0:
182,192,325892,128,0,325980:0:0:0:70:Chork.wav
109,192,325892,128,0,325980:0:0:0:0:
36,192,325980,128,0,326068:0:0:0:70:BaSS.wav
256,192,325980,128,0,326068:0:0:0:70:Chork.wav
475,192,325980,128,0,326068:0:0:0:70:KicK.wav
402,192,326068,128,0,326157:0:0:0:0:
182,192,326157,128,0,326245:0:0:0:70:Chork.wav
329,192,326157,128,0,326245:0:0:0:0:
36,192,326157,128,0,326245:0:0:0:0:
256,192,326245,128,0,326333:0:0:0:70:Chork.wav
109,192,326245,128,0,326333:0:0:0:0:
402,192,326333,128,0,326421:0:0:0:0:
182,192,326333,128,0,326421:0:0:0:0:
475,192,326333,128,0,326421:0:0:0:70:BaSS.wav
329,192,326333,128,0,326421:0:0:0:70:Chork.wav
36,192,326510,128,0,326598:0:0:0:0:
256,192,326510,128,0,326598:0:0:0:70:Chork.wav
109,192,326598,128,0,326686:0:0:0:0:
475,192,326598,128,0,326686:0:0:0:0:
402,192,326598,128,0,326686:0:0:0:70:Chork.wav
36,192,326686,128,0,326774:0:0:0:70:BaSS.wav
256,192,326686,128,0,326774:0:0:0:70:KicK.wav
402,192,326774,128,0,326863:0:0:0:70:Chork.wav
182,192,326774,128,0,326863:0:0:0:0:
475,192,326774,128,0,326863:0:0:0:0:
109,192,326863,128,0,326951:0:0:0:0:
329,192,326863,128,0,326951:0:0:0:70:Chork.wav
36,192,326951,128,0,327039:0:0:0:0:
256,192,326951,128,0,327039:0:0:0:70:Chork.wav
475,192,327039,128,0,327127:0:0:0:0:
402,192,327039,128,0,327127:0:0:0:70:BaSS.wav
329,192,327127,128,0,327215:0:0:0:0:
182,192,327127,128,0,327215:0:0:0:70:Chork.wav
109,192,327127,128,0,327215:0:0:0:0:
36,192,327215,128,0,327304:0:0:0:0:
402,192,327304,128,0,327392:0:0:0:0:
182,192,327304,128,0,327392:0:0:0:0:
329,192,327304,128,0,327392:0:0:0:70:Chork.wav
256,192,327392,128,0,327480:0:0:0:70:KicK.wav
36,192,327392,128,0,327480:0:0:0:70:Chork.wav
475,192,327392,128,0,327480:0:0:0:70:BaSS.wav
109,192,327480,128,0,327568:0:0:0:70:Chork.wav
402,192,327480,128,0,327568:0:0:0:0:
182,192,327568,128,0,327657:0:0:0:70:Chork.wav
329,192,327568,128,0,327657:0:0:0:0:
256,192,327657,128,0,327745:0:0:0:70:Chork.wav
402,192,327657,128,0,327745:0:0:0:0:
329,192,327745,128,0,327833:0:0:0:70:Chork.wav
109,192,327745,128,0,327833:0:0:0:70:BaSS.wav
36,192,327745,128,0,327833:0:0:0:0:
475,192,327745,128,0,327833:0:0:0:0:
182,192,327921,128,0,328010:0:0:0:70:Chork.wav
402,192,327921,128,0,328010:0:0:0:0:
256,192,328010,128,0,328098:0:0:0:70:Chork.wav
36,192,328010,128,0,328098:0:0:0:0:
329,192,328010,128,0,328098:0:0:0:0:
109,192,328098,128,0,328186:0:0:0:70:KicK.wav
475,192,328098,128,0,328186:0:0:0:70:BaSS.wav
256,192,328186,128,0,328274:0:0:0:70:Chork.wav
329,192,328186,128,0,328274:0:0:0:0:
36,192,328186,128,0,328274:0:0:0:0:
182,192,328274,128,0,328363:0:0:0:70:Chork.wav
402,192,328274,128,0,328363:0:0:0:0:
109,192,328363,128,0,328451:0:0:0:70:Chork.wav
475,192,328363,128,0,328451:0:0:0:0:
256,192,328451,128,0,328539:0:0:0:70:BaSS.wav
36,192,328451,128,0,328539:0:0:0:0:
329,192,328539,128,0,328627:0:0:0:0:
475,192,328539,128,0,328627:0:0:0:0:
402,192,328539,128,0,328627:0:0:0:70:Chork.wav
182,192,328627,128,0,328715:0:0:0:0:
109,192,328627,128,0,328715:0:0:0:0:
256,192,328715,128,0,328804:0:0:0:0:
36,192,328715,128,0,328804:0:0:0:0:
329,192,328715,128,0,328804:0:0:0:70:Chork.wav
109,192,328804,128,0,328892:0:0:0:70:Chork.wav
475,192,328804,128,0,328892:0:0:0:70:BaSS.wav
402,192,328804,128,0,328892:0:0:0:70:KicK.wav
182,192,328892,128,0,328980:0:0:0:0:
475,192,328980,128,0,329068:0:0:0:0:
36,192,328980,128,0,329068:0:0:0:0:
256,192,328980,128,0,329068:0:0:0:70:Chork.wav
402,192,328980,128,0,329068:0:0:0:0:
36,192,329157,128,0,329245:0:0:0:70:PunK.wav
182,192,329157,128,0,329245:0:0:0:70:Chork.wav
109,192,329157,128,0,329245:0:0:0:70:BaSS.wav
475,192,329157,128,0,329245:0:0:0:0:
256,192,329245,128,0,329333:0:0:0:0:
329,192,329245,128,0,329333:0:0:0:70:Chork.wav
475,192,329333,128,0,329421:0:0:0:70:Chork.wav
402,192,329333,128,0,329421:0:0:0:0:
109,192,329421,128,0,329510:0:0:0:0:
36,192,329421,128,0,329510:0:0:0:70:PunK.wav
182,192,329421,128,0,329510:0:0:0:70:Chork.wav
256,192,329510,128,0,329598:0:0:0:70:BaSS.wav
329,192,329510,128,0,329598:0:0:0:70:Chork.wav
402,192,329598,128,0,329686:0:0:0:0:
475,192,329598,128,0,329686:0:0:0:70:Chork.wav
182,192,329686,128,0,329774:0:0:0:70:Chork.wav
109,192,329686,128,0,329774:0:0:0:0:
36,192,329686,128,0,329774:0:0:0:70:PunK.wav
329,192,329774,128,0,329863:0:0:0:70:Chork.wav
256,192,329774,128,0,329863:0:0:0:0:
402,192,329863,128,0,329951:0:0:0:0:
475,192,329863,128,0,329951:0:0:0:70:BaSS.wav
36,192,329863,128,0,329951:0:0:0:0:
109,192,329863,128,0,329951:0:0:0:70:Chork.wav
256,192,329951,128,0,330039:0:0:0:0:
182,192,329951,128,0,330039:0:0:0:70:Chork.wav
402,192,330039,128,0,330127:0:0:0:70:Chork.wav
475,192,330039,128,0,330127:0:0:0:0:
109,192,330127,128,0,330215:0:0:0:70:Chork.wav
329,192,330127,128,0,330215:0:0:0:0:
36,192,330127,128,0,330215:0:0:0:70:BaSS.wav
182,192,330127,128,0,330215:0:0:0:0:
256,192,330215,128,0,330304:0:0:0:70:BaSS.wav
475,192,330215,128,0,330304:0:0:0:0:
402,192,330215,128,0,330304:0:0:0:70:Chork.wav
36,192,330304,128,0,330392:0:0:0:0:
109,192,330304,128,0,330392:0:0:0:70:Chork.wav
475,192,330392,128,0,330480:0:0:0:70:Chork.wav
329,192,330392,128,0,330480:0:0:0:70:BaSS.wav
402,192,330392,128,0,330480:0:0:0:0:
182,192,330392,128,0,330480:0:0:0:0:
36,192,330480,128,0,330568:0:0:0:70:Chork.wav
109,192,330480,128,0,330568:0:0:0:0:
402,192,330568,5,0,0:0:0:70:CrashR.wav
475,192,330568,1,0,0:0:0:70:Chork.wav
182,192,330568,1,0,0:0:0:70:BaSS.wav
329,192,330568,1,0,0:0:0:0:
256,192,330568,1,0,0:0:0:0:
109,192,330745,1,0,0:0:0:70:Chork.wav
256,192,330745,1,0,0:0:0:0:
36,192,330745,1,0,0:0:0:0:
182,192,330833,1,0,0:0:0:70:Chork.wav
475,192,330833,1,0,0:0:0:0:
329,192,330833,1,0,0:0:0:0:
36,192,330921,1,0,0:0:0:70:KicK.wav
109,192,330921,1,0,0:0:0:70:BaSS.wav
182,192,331010,1,0,0:0:0:70:Chork.wav
329,192,331010,1,0,0:0:0:0:
475,192,331010,1,0,0:0:0:0:
109,192,331098,1,0,0:0:0:70:Chork.wav
256,192,331098,1,0,0:0:0:0:
402,192,331098,1,0,0:0:0:0:
36,192,331186,1,0,0:0:0:70:Chork.wav
182,192,331186,1,0,0:0:0:0:
402,192,331274,1,0,0:0:0:70:BaSS.wav
475,192,331274,1,0,0:0:0:0:
256,192,331363,1,0,0:0:0:70:Chork.wav
36,192,331363,1,0,0:0:0:0:
109,192,331363,1,0,0:0:0:0:
329,192,331363,1,0,0:0:0:0:
475,192,331451,1,0,0:0:0:0:
109,192,331539,1,0,0:0:0:0:
329,192,331539,1,0,0:0:0:70:Chork.wav
402,192,331539,1,0,0:0:0:0:
182,192,331539,1,0,0:0:0:0:
256,192,331627,1,0,0:0:0:70:KicK.wav
36,192,331627,1,0,0:0:0:70:BaSS.wav
475,192,331627,1,0,0:0:0:70:Chork.wav
329,192,331715,1,0,0:0:0:70:Chork.wav
109,192,331715,1,0,0:0:0:0:
402,192,331804,1,0,0:0:0:70:Chork.wav
182,192,331804,1,0,0:0:0:0:
475,192,331804,1,0,0:0:0:0:
256,192,331892,1,0,0:0:0:70:Chork.wav
109,192,331892,1,0,0:0:0:0:
475,192,331980,1,0,0:0:0:70:BaSS.wav
182,192,331980,1,0,0:0:0:70:Chork.wav
329,192,331980,1,0,0:0:0:0:
36,192,331980,1,0,0:0:0:0:
329,192,332157,1,0,0:0:0:70:Chork.wav
475,192,332157,1,0,0:0:0:0:
182,192,332157,1,0,0:0:0:0:
256,192,332245,1,0,0:0:0:70:Chork.wav
402,192,332245,1,0,0:0:0:0:
109,192,332245,1,0,0:0:0:0:
36,192,332333,1,0,0:0:0:70:KicK.wav
182,192,332333,1,0,0:0:0:70:BaSS.wav
256,192,332421,1,0,0:0:0:70:Chork.wav
475,192,332421,1,0,0:0:0:0:
402,192,332421,1,0,0:0:0:0:
329,192,332510,1,0,0:0:0:70:Chork.wav
109,192,332510,1,0,0:0:0:0:
36,192,332510,1,0,0:0:0:0:
402,192,332598,1,0,0:0:0:70:Chork.wav
182,192,332598,1,0,0:0:0:0:
475,192,332686,1,0,0:0:0:0:
256,192,332686,1,0,0:0:0:0:
109,192,332774,1,0,0:0:0:70:Chork.wav
36,192,332774,1,0,0:0:0:0:
182,192,332774,1,0,0:0:0:0:
329,192,332774,1,0,0:0:0:0:
475,192,332863,1,0,0:0:0:70:Chork.wav
182,192,332951,1,0,0:0:0:70:Chork.wav
256,192,332951,1,0,0:0:0:0:
402,192,332951,1,0,0:0:0:0:
109,192,332951,1,0,0:0:0:0:
36,192,333039,1,0,0:0:0:70:Chork.wav
475,192,333039,1,0,0:0:0:70:KicK.wav
329,192,333039,1,0,0:0:0:70:BaSS.wav
109,192,333127,1,0,0:0:0:70:Chork.wav
256,192,333127,1,0,0:0:0:0:
182,192,333215,1,0,0:0:0:70:Chork.wav
402,192,333215,1,0,0:0:0:0:
475,192,333215,1,0,0:0:0:0:
329,192,333304,1,0,0:0:0:70:Chork.wav
109,192,333304,1,0,0:0:0:0:
256,192,333392,1,0,0:0:0:70:Chork.wav
475,192,333392,1,0,0:0:0:0:
402,192,333392,1,0,0:0:0:70:BaSS.wav
36,192,333392,1,0,0:0:0:0:
182,192,333568,1,0,0:0:0:70:Chork.wav
36,192,333568,1,0,0:0:0:0:
329,192,333568,1,0,0:0:0:0:
256,192,333657,1,0,0:0:0:70:Chork.wav
402,192,333657,1,0,0:0:0:0:
475,192,333657,1,0,0:0:0:0:
36,192,333745,1,0,0:0:0:70:KicK.wav
109,192,333745,1,0,0:0:0:70:BaSS.wav
256,192,333833,1,0,0:0:0:70:Chork.wav
402,192,333833,1,0,0:0:0:0:
475,192,333833,1,0,0:0:0:0:
182,192,333921,1,0,0:0:0:70:Chork.wav
329,192,333921,1,0,0:0:0:0:
36,192,333921,1,0,0:0:0:0:
109,192,334010,1,0,0:0:0:70:Chork.wav
256,192,334010,1,0,0:0:0:0:
402,192,334098,1,0,0:0:0:70:BaSS.wav
475,192,334098,1,0,0:0:0:0:
182,192,334186,1,0,0:0:0:70:Chork.wav
109,192,334186,1,0,0:0:0:0:
329,192,334186,1,0,0:0:0:0:
36,192,334186,1,0,0:0:0:0:
256,192,334274,1,0,0:0:0:0:
329,192,334363,1,0,0:0:0:70:Chork.wav
182,192,334363,1,0,0:0:0:0:
402,192,334363,1,0,0:0:0:0:
475,192,334363,1,0,0:0:0:0:
109,192,334451,1,0,0:0:0:70:KicK.wav
36,192,334451,1,0,0:0:0:70:BaSS.wav
256,192,334451,1,0,0:0:0:70:Chork.wav
402,192,334539,1,0,0:0:0:0:
475,192,334539,1,0,0:0:0:0:
329,192,334627,1,0,0:0:0:70:Chork.wav
36,192,334627,1,0,0:0:0:0:
182,192,334627,1,0,0:0:0:0:
402,192,334715,1,0,0:0:0:70:Chork.wav
256,192,334715,1,0,0:0:0:0:
329,192,334804,1,0,0:0:0:70:BaSS.wav
36,192,334804,1,0,0:0:0:70:Chork.wav
475,192,334804,1,0,0:0:0:0:
109,192,334804,1,0,0:0:0:70:PunK.wav
182,192,334892,1,0,0:0:0:70:Chork.wav
256,192,334892,1,0,0:0:0:0:
402,192,334980,1,0,0:0:0:70:Chork.wav
475,192,334980,1,0,0:0:0:0:
36,192,335068,1,0,0:0:0:70:Chork.wav
109,192,335068,1,0,0:0:0:70:PunK.wav
329,192,335068,1,0,0:0:0:0:
182,192,335157,1,0,0:0:0:70:Chork.wav
256,192,335157,1,0,0:0:0:70:BaSS.wav
402,192,335245,1,0,0:0:0:70:Chork.wav
475,192,335245,1,0,0:0:0:0:
36,192,335333,1,0,0:0:0:70:Chork.wav
109,192,335333,1,0,0:0:0:70:PunK.wav
329,192,335333,1,0,0:0:0:0:
182,192,335421,1,0,0:0:0:70:Chork.wav
256,192,335421,1,0,0:0:0:0:
36,192,335510,1,0,0:0:0:70:Chork.wav
402,192,335510,1,0,0:0:0:70:BaSS.wav
109,192,335510,1,0,0:0:0:0:
475,192,335510,1,0,0:0:0:0:
329,192,335598,1,0,0:0:0:70:Chork.wav
256,192,335598,1,0,0:0:0:0:
475,192,335686,1,0,0:0:0:70:Chork.wav
109,192,335686,1,0,0:0:0:0:
182,192,335686,1,0,0:0:0:0:
256,192,335774,1,0,0:0:0:70:Chork.wav
329,192,335774,1,0,0:0:0:0:
475,192,335863,1,0,0:0:0:70:Chork.wav
109,192,335863,1,0,0:0:0:70:BaSS.wav
402,192,335863,1,0,0:0:0:0:
36,192,335863,1,0,0:0:0:0:
182,192,335951,1,0,0:0:0:0:
256,192,335951,1,0,0:0:0:70:Chork.wav
36,192,336039,1,0,0:0:0:70:BaSS.wav
475,192,336039,1,0,0:0:0:70:Chork.wav
329,192,336039,1,0,0:0:0:0:
402,192,336039,1,0,0:0:0:0:
182,192,336127,1,0,0:0:0:0:
256,192,336127,1,0,0:0:0:70:Chork.wav
329,192,336215,1,0,0:0:0:70:CrashR.wav
475,192,336215,1,0,0:0:0:70:BaSS.wav
402,192,336215,1,0,0:0:0:0:
36,192,336215,1,0,0:0:0:0:
109,192,336215,1,0,0:0:0:70:Sub bass.wav
329,192,336392,1,0,0:0:0:70:Sub bass.wav
109,192,336392,1,0,0:0:0:0:
36,192,336392,1,0,0:0:0:0:
329,192,336568,1,0,0:0:0:70:KicK.wav
475,192,336568,1,0,0:0:0:70:BaSS.wav
109,192,336568,1,0,0:0:0:70:Sub bass.wav
36,192,336568,1,0,0:0:0:0:
182,192,336657,1,0,0:0:0:70:Sub bass.wav
256,192,336657,1,0,0:0:0:0:
109,192,336745,1,0,0:0:0:70:Sub bass.wav
36,192,336745,1,0,0:0:0:0:
329,192,336745,1,0,0:0:0:0:
182,192,336921,1,0,0:0:0:70:BaSS.wav
402,192,336921,1,0,0:0:0:70:Sub bass.wav
36,192,336921,1,0,0:0:0:0:
475,192,336921,1,0,0:0:0:0:
402,192,337098,1,0,0:0:0:70:Sub bass.wav
475,192,337098,1,0,0:0:0:0:
182,192,337098,1,0,0:0:0:0:
329,192,337186,1,0,0:0:0:70:Sub bass.wav
256,192,337186,1,0,0:0:0:0:
475,192,337274,1,0,0:0:0:70:KicK.wav
182,192,337274,1,0,0:0:0:70:BaSS.wav
402,192,337274,1,0,0:0:0:70:Sub bass.wav
36,192,337274,1,0,0:0:0:0:
475,192,337451,1,0,0:0:0:70:Sub bass.wav
256,192,337451,1,0,0:0:0:0:
109,192,337451,1,0,0:0:0:0:
475,192,337627,1,0,0:0:0:70:BaSS.wav
36,192,337627,1,0,0:0:0:70:Sub bass.wav
329,192,337627,1,0,0:0:0:70:CrashR.wav
402,192,337627,1,0,0:0:0:0:
182,192,337627,1,0,0:0:0:0:
36,192,337804,1,0,0:0:0:70:Sub bass.wav
329,192,337804,1,0,0:0:0:0:
182,192,337804,1,0,0:0:0:0:
475,192,337980,1,0,0:0:0:70:BaSS.wav
36,192,337980,1,0,0:0:0:70:Sub bass.wav
329,192,337980,1,0,0:0:0:70:KicK.wav
182,192,337980,1,0,0:0:0:0:
109,192,338068,1,0,0:0:0:70:Sub bass.wav
256,192,338068,1,0,0:0:0:0:
182,192,338157,1,0,0:0:0:70:Sub bass.wav
475,192,338157,1,0,0:0:0:0:
329,192,338157,1,0,0:0:0:0:
36,192,338333,1,0,0:0:0:70:BaSS.wav
402,192,338333,1,0,0:0:0:70:Sub bass.wav
256,192,338333,1,0,0:0:0:0:
475,192,338333,1,0,0:0:0:0:
109,192,338421,1,0,0:0:0:70:Sub bass.wav
182,192,338421,1,0,0:0:0:0:
402,192,338510,1,0,0:0:0:70:Sub bass.wav
475,192,338510,1,0,0:0:0:70:BaSS.wav
329,192,338510,1,0,0:0:0:0:
109,192,338598,1,0,0:0:0:70:Sub bass.wav
182,192,338598,1,0,0:0:0:0:
475,192,338686,1,0,0:0:0:70:BaSS.wav
36,192,338686,1,0,0:0:0:70:KicK.wav
256,192,338686,1,0,0:0:0:70:Sub bass.wav
402,192,338686,1,0,0:0:0:0:
256,192,338863,1,0,0:0:0:70:Sub bass.wav
402,192,338863,1,0,0:0:0:70:BaSS.wav
36,192,338863,1,0,0:0:0:0:
475,192,338863,1,0,0:0:0:0:
36,192,339039,1,0,0:0:0:70:BaSS.wav
402,192,339039,1,0,0:0:0:70:CrashR.wav
182,192,339039,1,0,0:0:0:70:Sub bass.wav
109,192,339039,1,0,0:0:0:0:
475,192,339039,1,0,0:0:0:70:Chi!.wav
256,192,339127,1,0,0:0:0:70:Sub bass.wav
329,192,339127,1,0,0:0:0:0:
182,192,339215,1,0,0:0:0:70:Sub bass.wav
36,192,339215,1,0,0:0:0:70:Chi!.wav
109,192,339215,1,0,0:0:0:70:BaSS.wav
329,192,339304,1,0,0:0:0:70:Sub bass.wav
402,192,339304,1,0,0:0:0:0:
475,192,339304,1,0,0:0:0:70:Chi!.wav
36,192,339392,1,0,0:0:0:70:KicK.wav
256,192,339392,1,0,0:0:0:70:Sub bass.wav
182,192,339392,1,0,0:0:0:70:BaSS.wav
109,192,339392,1,0,0:0:0:0:
329,192,339480,1,0,0:0:0:70:Sub bass.wav
475,192,339480,1,0,0:0:0:70:Chi!.wav
402,192,339480,1,0,0:0:0:0:
182,192,339568,1,0,0:0:0:70:Sub bass.wav
109,192,339568,1,0,0:0:0:70:BaSS.wav
36,192,339568,1,0,0:0:0:70:Chi!.wav
256,192,339657,1,0,0:0:0:70:Sub bass.wav
329,192,339657,1,0,0:0:0:0:
109,192,339745,1,0,0:0:0:70:CrashR.wav
402,192,339745,1,0,0:0:0:70:Sub bass.wav
36,192,339745,1,0,0:0:0:70:BaSS.wav
475,192,339745,1,0,0:0:0:0:
182,192,339833,1,0,0:0:0:70:Sub bass.wav
329,192,339833,1,0,0:0:0:70:Chi!.wav
256,192,339833,1,0,0:0:0:0:
475,192,339921,1,0,0:0:0:70:Sub bass.wav
36,192,339921,1,0,0:0:0:70:BaSS.wav
182,192,340010,1,0,0:0:0:70:Sub bass.wav
256,192,340010,1,0,0:0:0:0:
329,192,340010,1,0,0:0:0:70:Chi!.wav
475,192,340098,1,0,0:0:0:70:BaSS.wav
109,192,340098,1,0,0:0:0:70:KicK.wav
36,192,340098,1,0,0:0:0:70:Sub bass.wav
402,192,340098,1,0,0:0:0:70:Chi!.wav
182,192,340186,1,0,0:0:0:70:Sub bass.wav
329,192,340186,1,0,0:0:0:70:Chi!.wav
36,192,340274,1,0,0:0:0:70:Sub bass.wav
256,192,340274,1,0,0:0:0:70:BaSS.wav
475,192,340274,1,0,0:0:0:70:Chi!.wav
182,192,340363,1,0,0:0:0:70:Sub bass.wav
329,192,340363,1,0,0:0:0:70:Chi!.wav
109,192,340451,1,0,0:0:0:70:Sub bass.wav
36,192,340451,1,0,0:0:0:70:BaSS.wav
402,192,340451,1,0,0:0:0:70:CrashR.wav
475,192,340451,1,0,0:0:0:70:PunK.wav
329,192,340539,1,0,0:0:0:70:Sub bass.wav
256,192,340539,1,0,0:0:0:0:
182,192,340627,1,0,0:0:0:70:Sub bass.wav
109,192,340715,1,0,0:0:0:70:Sub bass.wav
36,192,340715,1,0,0:0:0:0:
402,192,340715,1,0,0:0:0:0:
475,192,340715,1,0,0:0:0:70:PunK.wav
329,192,340804,1,0,0:0:0:70:Sub bass.wav
256,192,340804,1,0,0:0:0:70:KicK.wav
182,192,340892,1,0,0:0:0:70:Sub bass.wav
109,192,340980,1,0,0:0:0:70:Sub bass.wav
402,192,340980,1,0,0:0:0:0:
36,192,340980,1,0,0:0:0:0:
475,192,340980,1,0,0:0:0:70:PunK.wav
329,192,341068,1,0,0:0:0:70:Sub bass.wav
256,192,341068,1,0,0:0:0:0:
475,192,341157,1,0,0:0:0:70:Sub bass.wav
36,192,341157,1,0,0:0:0:70:BaSS.wav
109,192,341157,1,0,0:0:0:0:
182,192,341157,1,0,0:0:0:0:
402,192,341201,1,0,0:0:0:70:Sub bass.wav
329,192,341245,1,0,0:0:0:70:Sub bass.wav
256,192,341289,1,0,0:0:0:70:Sub bass.wav
182,192,341333,1,0,0:0:0:70:Sub bass.wav
109,192,341377,1,0,0:0:0:70:Sub bass.wav
36,192,341421,1,0,0:0:0:0:
475,192,341421,1,0,0:0:0:70:BaSS.wav
402,192,341421,1,0,0:0:0:70:Sub bass.wav
329,192,341465,1,0,0:0:0:70:Sub bass.wav
182,192,341510,1,0,0:0:0:70:Sub bass.wav
109,192,341554,1,0,0:0:0:70:Sub bass.wav
402,192,341598,1,0,0:0:0:70:Sub bass.wav
329,192,341642,1,0,0:0:0:70:Sub bass.wav
182,192,341686,1,0,0:0:0:70:Sub bass.wav
109,192,341730,1,0,0:0:0:70:Sub bass.wav
402,192,341774,1,0,0:0:0:70:Sub bass.wav
329,192,341818,1,0,0:0:0:70:Sub bass.wav
256,192,341863,1,0,0:0:0:70:CrashR.wav
475,192,341863,1,0,0:0:0:70:Chork.wav
36,192,341863,1,0,0:0:0:70:BaSS.wav
109,192,341863,1,0,0:0:0:0:
329,192,341951,1,0,0:0:0:0:
402,192,341951,1,0,0:0:0:0:
182,192,342039,1,0,0:0:0:70:Hihat.wav
109,192,342215,1,0,0:0:0:70:KicK.wav
36,192,342215,1,0,0:0:0:70:BaSS.wav
329,192,342215,1,0,0:0:0:0:
402,192,342215,1,0,0:0:0:0:
182,192,342392,1,0,0:0:0:70:Hihat.wav
329,192,342480,1,0,0:0:0:0:
402,192,342480,1,0,0:0:0:0:
36,192,342568,1,0,0:0:0:70:BaSS.wav
182,192,342745,1,0,0:0:0:70:Hihat.wav
329,192,342745,1,0,0:0:0:0:
402,192,342745,1,0,0:0:0:0:
256,192,342921,1,0,0:0:0:0:
36,192,342921,1,0,0:0:0:70:BaSS.wav
109,192,342921,1,0,0:0:0:70:KicK.wav
329,192,342921,1,0,0:0:0:0:
182,192,343098,1,0,0:0:0:70:Hihat.wav
329,192,343098,1,0,0:0:0:0:
402,192,343098,1,0,0:0:0:0:
256,192,343274,1,0,0:0:0:0:
402,192,343274,1,0,0:0:0:0:
475,192,343274,1,0,0:0:0:70:BaSS.wav
182,192,343363,1,0,0:0:0:0:
329,192,343451,1,0,0:0:0:70:Hihat.wav
109,192,343451,1,0,0:0:0:0:
36,192,343539,1,0,0:0:0:0:
402,192,343627,1,0,0:0:0:70:KicK.wav
475,192,343627,1,0,0:0:0:70:BaSS.wav
182,192,343627,1,0,0:0:0:0:
109,192,343715,1,0,0:0:0:0:
329,192,343804,1,0,0:0:0:70:Hihat.wav
182,192,343804,1,0,0:0:0:0:
109,192,343892,1,0,0:0:0:0:
475,192,343980,1,0,0:0:0:70:BaSS.wav
182,192,343980,1,0,0:0:0:0:
36,192,344068,1,0,0:0:0:0:
329,192,344157,1,0,0:0:0:70:Hihat.wav
182,192,344157,1,0,0:0:0:0:
109,192,344245,1,0,0:0:0:0:
475,192,344333,1,0,0:0:0:70:BaSS.wav
256,192,344333,1,0,0:0:0:0:
402,192,344333,1,0,0:0:0:70:KicK.wav
36,192,344333,1,0,0:0:0:0:
182,192,344510,1,0,0:0:0:0:
109,192,344510,1,0,0:0:0:0:
329,192,344510,1,0,0:0:0:70:Hihat.wav
402,192,344598,1,0,0:0:0:0:
475,192,344686,1,0,0:0:0:70:BaSS.wav
256,192,344686,1,0,0:0:0:0:
36,192,344686,1,0,0:0:0:0:
109,192,344774,1,0,0:0:0:0:
402,192,344774,1,0,0:0:0:0:
182,192,344863,1,0,0:0:0:0:
329,192,344863,1,0,0:0:0:70:Hihat.wav
109,192,345039,1,0,0:0:0:0:
36,192,345039,1,0,0:0:0:0:
475,192,345039,1,0,0:0:0:70:BaSS.wav
329,192,345039,1,0,0:0:0:70:KicK.wav
182,192,345127,1,0,0:0:0:0:
256,192,345127,1,0,0:0:0:0:
402,192,345215,1,0,0:0:0:70:Hihat.wav
109,192,345304,1,0,0:0:0:0:
182,192,345304,1,0,0:0:0:0:
475,192,345392,1,0,0:0:0:70:BaSS.wav
182,192,345480,1,0,0:0:0:0:
256,192,345480,1,0,0:0:0:0:
36,192,345568,1,0,0:0:0:0:
402,192,345568,1,0,0:0:0:70:Hihat.wav
109,192,345568,1,0,0:0:0:0:
329,192,345657,1,0,0:0:0:0:
475,192,345745,1,0,0:0:0:70:BaSS.wav
36,192,345745,1,0,0:0:0:70:KicK.wav
256,192,345745,1,0,0:0:0:0:
109,192,345833,1,0,0:0:0:0:
402,192,345921,1,0,0:0:0:70:Hihat.wav
182,192,345921,1,0,0:0:0:0:
329,192,345921,1,0,0:0:0:0:
475,192,346098,1,0,0:0:0:0:
36,192,346098,1,0,0:0:0:70:BaSS.wav
256,192,346098,1,0,0:0:0:0:
402,192,346186,1,0,0:0:0:0:
329,192,346274,1,0,0:0:0:0:
109,192,346274,1,0,0:0:0:70:Hihat.wav
402,192,346363,1,0,0:0:0:0:
182,192,346451,1,0,0:0:0:70:KicK.wav
36,192,346451,1,0,0:0:0:70:BaSS.wav
475,192,346451,1,0,0:0:0:0:
256,192,346539,1,0,0:0:0:0:
329,192,346627,1,0,0:0:0:0:
109,192,346627,1,0,0:0:0:70:Hihat.wav
402,192,346715,1,0,0:0:0:0:
36,192,346804,1,0,0:0:0:70:BaSS.wav
182,192,346804,1,0,0:0:0:0:
475,192,346804,1,0,0:0:0:0:
402,192,346892,1,0,0:0:0:0:
329,192,346980,1,0,0:0:0:70:Hihat.wav
182,192,346980,1,0,0:0:0:0:
109,192,347068,1,0,0:0:0:0:
256,192,347068,1,0,0:0:0:0:
36,192,347157,1,0,0:0:0:0:
402,192,347157,1,0,0:0:0:70:KicK.wav
475,192,347157,1,0,0:0:0:70:BaSS.wav
109,192,347245,1,0,0:0:0:0:
256,192,347245,1,0,0:0:0:0:
475,192,347333,1,0,0:0:0:70:BaSS.wav
182,192,347333,1,0,0:0:0:0:
329,192,347333,1,0,0:0:0:70:Hihat.wav
256,192,347510,1,0,0:0:0:0:
475,192,347510,1,0,0:0:0:0:
36,192,347510,1,0,0:0:0:70:BaSS.wav
402,192,347598,1,0,0:0:0:0:
329,192,347686,1,0,0:0:0:0:
109,192,347686,1,0,0:0:0:70:Hihat.wav
256,192,347774,1,0,0:0:0:0:
402,192,347863,1,0,0:0:0:0:
36,192,347863,1,0,0:0:0:70:KicK.wav
182,192,347863,1,0,0:0:0:70:BaSS.wav
329,192,347951,1,0,0:0:0:0:
109,192,348039,1,0,0:0:0:70:Hihat.wav
256,192,348039,1,0,0:0:0:0:
475,192,348039,1,0,0:0:0:0:
36,192,348215,1,0,0:0:0:0:
329,192,348215,1,0,0:0:0:70:BaSS.wav
109,192,348304,1,0,0:0:0:0:
182,192,348392,1,0,0:0:0:0:
402,192,348392,1,0,0:0:0:70:Hihat.wav
256,192,348480,1,0,0:0:0:0:
475,192,348568,1,0,0:0:0:70:KicK.wav
329,192,348568,1,0,0:0:0:70:BaSS.wav
109,192,348568,1,0,0:0:0:0:
256,192,348657,1,0,0:0:0:0:
36,192,348745,1,0,0:0:0:0:
182,192,348745,1,0,0:0:0:0:
402,192,348745,1,0,0:0:0:70:Hihat.wav
182,192,348921,1,0,0:0:0:0:
329,192,348921,1,0,0:0:0:0:
475,192,348921,1,0,0:0:0:70:BaSS.wav
109,192,349010,1,0,0:0:0:0:
256,192,349098,1,0,0:0:0:0:
36,192,349098,1,0,0:0:0:70:Hihat.wav
182,192,349186,1,0,0:0:0:0:
329,192,349186,1,0,0:0:0:0:
109,192,349274,1,0,0:0:0:0:
475,192,349274,1,0,0:0:0:70:BaSS.wav
402,192,349274,1,0,0:0:0:70:KicK.wav
182,192,349363,1,0,0:0:0:0:
475,192,349451,1,0,0:0:0:0:
256,192,349451,1,0,0:0:0:0:
36,192,349451,1,0,0:0:0:70:Hihat.wav
402,192,349539,1,0,0:0:0:0:
182,192,349627,1,0,0:0:0:0:
329,192,349627,1,0,0:0:0:70:BaSS.wav
109,192,349715,1,0,0:0:0:0:
402,192,349804,1,0,0:0:0:70:Hihat.wav
182,192,349804,1,0,0:0:0:0:
109,192,349892,1,0,0:0:0:0:
256,192,349980,1,0,0:0:0:0:
36,192,349980,1,0,0:0:0:70:KicK.wav
475,192,349980,1,0,0:0:0:70:BaSS.wav
109,192,350157,1,0,0:0:0:0:
402,192,350157,1,0,0:0:0:70:Hihat.wav
329,192,350245,1,0,0:0:0:0:
182,192,350245,1,0,0:0:0:0:
256,192,350333,1,0,0:0:0:0:
36,192,350333,1,0,0:0:0:0:
475,192,350333,1,0,0:0:0:70:BaSS.wav
109,192,350421,1,0,0:0:0:0:
36,192,350510,1,0,0:0:0:0:
329,192,350510,1,0,0:0:0:70:Hihat.wav
109,192,350598,1,0,0:0:0:0:
256,192,350598,1,0,0:0:0:0:
182,192,350686,1,0,0:0:0:0:
475,192,350686,1,0,0:0:0:70:BaSS.wav
402,192,350686,1,0,0:0:0:70:KicK.wav
256,192,350774,1,0,0:0:0:0:
109,192,350863,1,0,0:0:0:0:
36,192,350863,1,0,0:0:0:0:
329,192,350863,1,0,0:0:0:70:Hihat.wav
256,192,350951,1,0,0:0:0:0:
182,192,351039,1,0,0:0:0:0:
402,192,351039,1,0,0:0:0:0:
475,192,351039,1,0,0:0:0:70:BaSS.wav
329,192,351127,1,0,0:0:0:0:
256,192,351215,1,0,0:0:0:0:
109,192,351215,1,0,0:0:0:70:Hihat.wav
329,192,351304,1,0,0:0:0:0:
36,192,351392,1,0,0:0:0:0:
182,192,351392,1,0,0:0:0:0:
402,192,351392,1,0,0:0:0:70:KicK.wav
475,192,351392,1,0,0:0:0:70:BaSS.wav
256,192,351480,1,0,0:0:0:0:
329,192,351568,1,0,0:0:0:0:
109,192,351568,1,0,0:0:0:70:Hihat.wav
182,192,351657,1,0,0:0:0:0:
402,192,351657,1,0,0:0:0:0:
256,192,351745,1,0,0:0:0:0:
36,192,351745,1,0,0:0:0:70:BaSS.wav
475,192,351745,1,0,0:0:0:0:
402,192,351833,1,0,0:0:0:0:
329,192,351921,1,0,0:0:0:0:
109,192,351921,1,0,0:0:0:70:Hihat.wav
402,192,352010,5,0,0:0:0:0:
256,192,352010,1,0,0:0:0:0:
475,192,352098,1,0,0:0:0:0:
36,192,352098,1,0,0:0:0:70:BaSS.wav
182,192,352098,1,0,0:0:0:70:KicK.wav
256,192,352186,1,0,0:0:0:0:
329,192,352274,1,0,0:0:0:0:
36,192,352274,1,0,0:0:0:70:Hihat.wav
109,192,352363,1,0,0:0:0:0:
475,192,352451,1,0,0:0:0:70:BaSS.wav
329,192,352451,1,0,0:0:0:0:
182,192,352451,1,0,0:0:0:0:
109,192,352539,1,0,0:0:0:0:
36,192,352539,1,0,0:0:0:0:
475,192,352627,1,0,0:0:0:70:Hihat.wav
329,192,352627,1,0,0:0:0:0:
256,192,352715,1,0,0:0:0:0:
109,192,352715,1,0,0:0:0:0:
36,192,352715,1,0,0:0:0:70:BaSS.wav
402,192,352804,1,0,0:0:0:0:
475,192,352804,1,0,0:0:0:70:BaSS.wav
182,192,352804,1,0,0:0:0:70:KicK.wav
109,192,352892,1,0,0:0:0:0:
329,192,352892,1,0,0:0:0:0:
182,192,352980,1,0,0:0:0:70:Hihat.wav
402,192,352980,1,0,0:0:0:0:
475,192,352980,1,0,0:0:0:70:BaSS.wav
402,192,353157,5,0,0:0:0:0:
475,192,353157,1,0,0:0:0:70:CrashR.wav
182,192,353157,1,0,0:0:0:0:
36,192,353157,1,0,0:0:0:70:BaSS.wav
256,192,353245,1,0,0:0:0:0:
329,192,353333,1,0,0:0:0:0:
256,192,353421,1,0,0:0:0:0:
182,192,353510,1,0,0:0:0:70:KicK.wav
36,192,353510,1,0,0:0:0:70:BaSS.wav
475,192,353510,1,0,0:0:0:0:
329,192,353598,1,0,0:0:0:0:
402,192,353598,1,0,0:0:0:0:
329,192,353774,1,0,0:0:0:0:
402,192,353774,1,0,0:0:0:0:
36,192,353863,1,0,0:0:0:70:BaSS.wav
182,192,353863,1,0,0:0:0:0:
475,192,353863,1,0,0:0:0:0:
329,192,353951,1,0,0:0:0:0:
475,192,354039,1,0,0:0:0:0:
402,192,354127,1,0,0:0:0:0:
182,192,354215,1,0,0:0:0:70:KicK.wav
36,192,354215,1,0,0:0:0:70:BaSS.wav
329,192,354215,1,0,0:0:0:0:
402,192,354392,1,0,0:0:0:0:
256,192,354392,1,0,0:0:0:0:
329,192,354568,1,0,0:0:0:0:
36,192,354568,1,0,0:0:0:0:
475,192,354568,1,0,0:0:0:70:BaSS.wav
109,192,354657,1,0,0:0:0:0:
182,192,354745,1,0,0:0:0:0:
109,192,354833,1,0,0:0:0:0:
329,192,354921,1,0,0:0:0:70:KicK.wav
475,192,354921,1,0,0:0:0:70:BaSS.wav
36,192,354921,1,0,0:0:0:0:
182,192,355010,1,0,0:0:0:0:
256,192,355010,1,0,0:0:0:0:
109,192,355098,1,0,0:0:0:0:
182,192,355186,1,0,0:0:0:0:
256,192,355186,1,0,0:0:0:0:
329,192,355274,1,0,0:0:0:0:
475,192,355274,1,0,0:0:0:70:BaSS.wav
36,192,355274,1,0,0:0:0:0:
329,192,355392,1,0,0:0:0:0:
36,192,355392,1,0,0:0:0:0:
329,192,355510,1,0,0:0:0:0:
36,192,355510,1,0,0:0:0:0:
109,192,355627,1,0,0:0:0:0:
475,192,355627,1,0,0:0:0:70:BaSS.wav
402,192,355627,1,0,0:0:0:70:KicK.wav
256,192,355627,1,0,0:0:0:0:
109,192,355745,1,0,0:0:0:0:
256,192,355745,1,0,0:0:0:0:
109,192,355863,1,0,0:0:0:0:
256,192,355863,1,0,0:0:0:0:
475,192,355980,1,0,0:0:0:70:BaSS.wav
329,192,355980,1,0,0:0:0:0:
36,192,355980,1,0,0:0:0:0:
256,192,356068,1,0,0:0:0:0:
182,192,356157,1,0,0:0:0:0:
109,192,356245,1,0,0:0:0:0:
36,192,356333,1,0,0:0:0:0:
329,192,356333,1,0,0:0:0:70:KicK.wav
475,192,356333,1,0,0:0:0:70:BaSS.wav
256,192,356421,1,0,0:0:0:0:
182,192,356510,1,0,0:0:0:0:
329,192,356598,1,0,0:0:0:0:
36,192,356686,1,0,0:0:0:0:
475,192,356686,1,0,0:0:0:70:BaSS.wav
182,192,356686,1,0,0:0:0:0:
329,192,356774,1,0,0:0:0:0:
182,192,356863,1,0,0:0:0:0:
256,192,356951,1,0,0:0:0:0:
36,192,357039,1,0,0:0:0:0:
475,192,357039,1,0,0:0:0:70:BaSS.wav
329,192,357039,1,0,0:0:0:70:KicK.wav
109,192,357127,1,0,0:0:0:0:
182,192,357215,1,0,0:0:0:0:
256,192,357304,1,0,0:0:0:0:
329,192,357392,1,0,0:0:0:0:
475,192,357392,1,0,0:0:0:70:BaSS.wav
36,192,357392,1,0,0:0:0:0:
109,192,357480,1,0,0:0:0:0:
182,192,357568,1,0,0:0:0:0:
109,192,357657,1,0,0:0:0:0:
36,192,357657,1,0,0:0:0:0:
329,192,357745,1,0,0:0:0:70:KicK.wav
475,192,357745,1,0,0:0:0:70:BaSS.wav
182,192,357745,1,0,0:0:0:0:
256,192,357833,1,0,0:0:0:0:
109,192,357921,1,0,0:0:0:0:
182,192,357921,1,0,0:0:0:0:
256,192,358010,1,0,0:0:0:0:
329,192,358098,1,0,0:0:0:0:
36,192,358098,1,0,0:0:0:0:
475,192,358098,1,0,0:0:0:70:BaSS.wav
109,192,358186,1,0,0:0:0:0:
182,192,358274,1,0,0:0:0:0:
256,192,358363,1,0,0:0:0:0:
402,192,358363,1,0,0:0:0:0:
36,192,358451,1,0,0:0:0:70:BaSS.wav
109,192,358451,1,0,0:0:0:70:KicK.wav
475,192,358451,1,0,0:0:0:0:
402,192,358539,1,0,0:0:0:0:
329,192,358627,1,0,0:0:0:0:
182,192,358627,1,0,0:0:0:0:
36,192,358627,1,0,0:0:0:70:BaSS.wav
256,192,358804,1,0,0:0:0:70:CrashR.wav
402,192,358804,1,0,0:0:0:0:
475,192,358804,1,0,0:0:0:0:
109,192,358804,1,0,0:0:0:70:Snare.wav
36,192,358804,1,0,0:0:0:70:BaSS.wav
329,192,358892,1,0,0:0:0:0:
475,192,358980,1,0,0:0:0:0:
109,192,358980,1,0,0:0:0:70:Snare.wav
182,192,358980,1,0,0:0:0:0:
329,192,359068,1,0,0:0:0:0:
256,192,359157,1,0,0:0:0:0:
475,192,359157,1,0,0:0:0:70:Snare.wav
109,192,359157,1,0,0:0:0:70:KicK.wav
36,192,359157,1,0,0:0:0:70:BaSS.wav
182,192,359245,1,0,0:0:0:0:
402,192,359245,1,0,0:0:0:0:
329,192,359245,1,0,0:0:0:70:Snare.wav
109,192,359333,1,0,0:0:0:0:
36,192,359333,1,0,0:0:0:0:
475,192,359333,1,0,0:0:0:70:Snare.wav
402,192,359421,1,0,0:0:0:0:
109,192,359510,1,0,0:0:0:70:Snare.wav
329,192,359510,1,0,0:0:0:0:
182,192,359510,1,0,0:0:0:70:BaSS.wav
402,192,359598,1,0,0:0:0:0:
475,192,359686,1,0,0:0:0:0:
36,192,359686,1,0,0:0:0:0:
256,192,359686,1,0,0:0:0:70:Snare.wav
329,192,359774,1,0,0:0:0:0:
109,192,359774,1,0,0:0:0:0:
182,192,359774,1,0,0:0:0:70:Snare.wav
36,192,359863,1,0,0:0:0:0:
475,192,359863,1,0,0:0:0:70:KicK.wav
256,192,359863,1,0,0:0:0:70:Snare.wav
402,192,359863,1,0,0:0:0:70:BaSS.wav
182,192,359951,1,0,0:0:0:0:
329,192,360039,1,0,0:0:0:70:Snare.wav
109,192,360039,1,0,0:0:0:0:
36,192,360039,1,0,0:0:0:0:
256,192,360127,1,0,0:0:0:0:
182,192,360215,1,0,0:0:0:70:CrashR.wav
402,192,360215,1,0,0:0:0:70:Snare.wav
475,192,360215,1,0,0:0:0:70:BaSS.wav
36,192,360215,1,0,0:0:0:0:
109,192,360215,1,0,0:0:0:0:
329,192,360304,1,0,0:0:0:0:
256,192,360392,1,0,0:0:0:70:Snare.wav
36,192,360392,1,0,0:0:0:0:
109,192,360392,1,0,0:0:0:0:
475,192,360480,1,0,0:0:0:0:
402,192,360568,1,0,0:0:0:70:BaSS.wav
182,192,360568,1,0,0:0:0:70:Snare.wav
36,192,360568,1,0,0:0:0:0:
329,192,360568,1,0,0:0:0:70:KicK.wav
475,192,360657,1,0,0:0:0:0:
109,192,360657,1,0,0:0:0:70:Snare.wav
256,192,360657,1,0,0:0:0:0:
182,192,360745,1,0,0:0:0:70:Snare.wav
329,192,360745,1,0,0:0:0:0:
36,192,360745,1,0,0:0:0:0:
402,192,360833,1,0,0:0:0:0:
36,192,360921,1,0,0:0:0:70:BaSS.wav
475,192,360921,1,0,0:0:0:0:
109,192,360921,1,0,0:0:0:70:Snare.wav
402,192,361010,1,0,0:0:0:0:
182,192,361010,1,0,0:0:0:70:Snare.wav
329,192,361010,1,0,0:0:0:0:
36,192,361098,1,0,0:0:0:70:BaSS.wav
109,192,361098,1,0,0:0:0:70:Snare.wav
475,192,361098,1,0,0:0:0:0:
182,192,361186,1,0,0:0:0:70:Snare.wav
329,192,361186,1,0,0:0:0:0:
402,192,361186,1,0,0:0:0:0:
109,192,361274,1,0,0:0:0:70:Snare.wav
475,192,361274,1,0,0:0:0:0:
36,192,361274,1,0,0:0:0:70:BaSS.wav
256,192,361274,1,0,0:0:0:70:KicK.wav
402,192,361363,1,0,0:0:0:0:
329,192,361451,1,0,0:0:0:0:
182,192,361451,1,0,0:0:0:70:BaSS.wav
109,192,361451,1,0,0:0:0:70:Snare.wav
402,192,361539,1,0,0:0:0:0:
182,192,361627,1,0,0:0:0:0:
256,192,361627,1,0,0:0:0:70:Snare.wav
475,192,361627,1,0,0:0:0:70:BaSS.wav
109,192,361627,1,0,0:0:0:0:
36,192,361627,1,0,0:0:0:70:CrashR.wav
402,192,361715,1,0,0:0:0:0:
329,192,361715,1,0,0:0:0:70:Snare.wav
475,192,361804,1,0,0:0:0:70:BaSS.wav
36,192,361804,1,0,0:0:0:0:
182,192,361804,1,0,0:0:0:70:Snare.wav
329,192,361892,1,0,0:0:0:0:
256,192,361892,1,0,0:0:0:70:Snare.wav
475,192,361980,1,0,0:0:0:70:BaSS.wav
402,192,361980,1,0,0:0:0:70:KicK.wav
36,192,361980,1,0,0:0:0:0:
109,192,361980,1,0,0:0:0:70:Snare.wav
182,192,362068,1,0,0:0:0:70:Snare.wav
256,192,362068,1,0,0:0:0:0:
329,192,362157,1,0,0:0:0:0:
36,192,362157,1,0,0:0:0:70:Snare.wav
475,192,362157,1,0,0:0:0:70:BaSS.wav
109,192,362245,1,0,0:0:0:0:
182,192,362245,1,0,0:0:0:70:Snare.wav
402,192,362333,1,0,0:0:0:0:
36,192,362333,1,0,0:0:0:70:BaSS.wav
329,192,362333,1,0,0:0:0:70:CrashR.wav
256,192,362333,1,0,0:0:0:70:Snare.wav
475,192,362333,1,0,0:0:0:0:
109,192,362421,1,0,0:0:0:0:
182,192,362421,1,0,0:0:0:70:Snare.wav
36,192,362510,1,0,0:0:0:70:BaSS.wav
329,192,362510,1,0,0:0:0:70:Snare.wav
475,192,362510,1,0,0:0:0:0:
182,192,362598,1,0,0:0:0:0:
256,192,362598,1,0,0:0:0:70:Snare.wav
109,192,362686,1,0,0:0:0:70:KicK.wav
402,192,362686,1,0,0:0:0:70:Snare.wav
36,192,362686,1,0,0:0:0:70:BaSS.wav
475,192,362686,1,0,0:0:0:0:
329,192,362774,1,0,0:0:0:70:Snare.wav
256,192,362774,1,0,0:0:0:0:
475,192,362863,1,0,0:0:0:70:Snare.wav
182,192,362863,1,0,0:0:0:0:
36,192,362863,1,0,0:0:0:70:BaSS.wav
329,192,362951,1,0,0:0:0:0:
402,192,362951,1,0,0:0:0:70:Snare.wav
36,192,363039,1,0,0:0:0:70:BaSS.wav
256,192,363039,1,0,0:0:0:70:CrashR.wav
182,192,363039,1,0,0:0:0:70:Sub bass.wav
475,192,363039,1,0,0:0:0:70:Snare.wav
109,192,363039,1,0,0:0:0:70:PunK.wav
402,192,363127,1,0,0:0:0:0:
329,192,363127,1,0,0:0:0:70:Sub bass.wav
182,192,363215,1,0,0:0:0:70:Sub bass.wav
109,192,363215,1,0,0:0:0:0:
402,192,363304,1,0,0:0:0:70:PunK.wav
256,192,363304,1,0,0:0:0:70:Sub bass.wav
329,192,363304,1,0,0:0:0:0:
182,192,363392,1,0,0:0:0:70:KicK.wav
109,192,363392,1,0,0:0:0:70:Sub bass.wav
329,192,363480,1,0,0:0:0:0:
402,192,363480,1,0,0:0:0:70:Sub bass.wav
109,192,363568,1,0,0:0:0:70:Sub bass.wav
182,192,363568,1,0,0:0:0:70:PunK.wav
36,192,363568,1,0,0:0:0:0:
475,192,363657,1,0,0:0:0:70:Sub bass.wav
402,192,363657,1,0,0:0:0:70:PunK.wav
329,192,363657,1,0,0:0:0:0:
256,192,363745,128,0,363833:0:0:0:70:Sub bass.wav
109,192,363745,1,0,0:0:0:0:
36,192,363745,1,0,0:0:0:0:
182,192,363745,1,0,0:0:0:70:BaSS.wav
329,192,363789,128,0,363877:0:0:0:70:Sub bass.wav
402,192,363833,128,0,363921:0:0:0:70:Sub bass.wav
475,192,363877,128,0,363965:0:0:0:70:Sub bass.wav
182,192,363921,1,0,0:0:0:70:Sub bass.wav
256,192,363965,1,0,0:0:0:70:Sub bass.wav
36,192,364010,1,0,0:0:0:70:BaSS.wav
329,192,364010,1,0,0:0:0:70:Sub bass.wav
109,192,364010,1,0,0:0:0:0:
402,192,364054,1,0,0:0:0:70:Sub bass.wav
475,192,364098,128,0,364186:0:0:0:70:Sub bass.wav
329,192,364142,128,0,364230:0:0:0:70:Sub bass.wav
182,192,364186,128,0,364274:0:0:0:70:Sub bass.wav
36,192,364230,128,0,364318:0:0:0:70:Sub bass.wav
475,192,364274,1,0,0:0:0:70:Sub bass.wav
329,192,364318,1,0,0:0:0:70:Sub bass.wav
182,192,364363,1,0,0:0:0:70:Sub bass.wav
36,192,364407,1,0,0:0:0:70:Sub bass.wav
475,192,364451,1,0,0:0:0:70:CrashR.wav
402,192,364451,1,0,0:0:0:0:
256,192,364451,1,0,0:0:0:70:BaSS.wav
