osu file format v14

[General]
AudioFilename: audio.mp3
AudioLeadIn: 0
PreviewTime: 228168
Countdown: 0
SampleSet: Normal
StackLeniency: 0.7
Mode: 1
LetterboxInBreaks: 0
WidescreenStoryboard: 0

[Editor]
DistanceSpacing: 0.8
BeatDivisor: 4
GridSize: 32
TimelineZoom: 2.5

[Metadata]
Title:Downburst
TitleUnicode:Downburst
Artist:BlackY
ArtistUnicode:BlackY
Creator:TKS
Version:Oni
Source:
Tags:AD:PIANO V Noir Diverse System piano dance fusion
BeatmapID:1756302
BeatmapSetID:838902

[Difficulty]
HPDrainRate:6
CircleSize:2
OverallDifficulty:6
ApproachRate:5
SliderMultiplier:1.4
SliderTickRate:1

[Events]
//Background and Video events
0,0,"60306570_p0.jpg",0,0
//Break Periods
//Storyboard Layer 0 (Background)
//Storyboard Layer 1 (Fail)
//Storyboard Layer 2 (Pass)
//Storyboard Layer 3 (Foreground)
//Storyboard Sound Samples

[TimingPoints]
2880,384.615384615385,4,1,0,85,1,0
30668,-111.111111111111,4,1,0,60,0,0
41245,-111.111111111111,4,1,0,85,0,0
42880,-100,4,1,0,85,0,0
79899,-111.111111111111,4,1,0,85,0,0
81341,-100,4,1,0,85,0,0
104514,-125,4,1,0,60,0,0
110572,-100,4,1,0,85,0,0
118264,-100,4,1,0,85,0,1
130572,-100,4,1,0,85,0,0
130956,-100,4,1,0,85,0,1
142495,-100,4,1,0,85,0,0
142687,-125,4,1,0,60,0,0
148360,-125,4,1,0,70,0,0
148553,-125,4,1,0,85,0,0
155187,-100,4,1,0,85,0,0
167495,-100,4,1,0,85,0,1
192110,-100,4,1,0,85,0,0
192206,-133.333333333333,4,1,0,60,0,0
204322,-117.647058823529,4,1,0,70,0,0
213745,-125,4,1,0,60,0,0
219706,-100,4,1,0,85,0,0
225860,-100,4,1,0,30,0,0
228168,-100,4,1,0,60,0,0
228553,-100,4,1,0,85,0,0
229033,-100,4,1,0,85,0,1
241341,-100,4,1,0,85,0,0
241726,-100,4,1,0,85,0,1
249803,-100,4,1,0,85,0,0
250283,-98.0392156862745,4,1,0,85,0,0
250380,-96.1538461538461,4,1,0,85,0,0
250476,-93.4579439252336,4,1,0,85,0,0
250572,-90.9090909090909,4,1,0,85,0,1
262880,-90.9090909090909,4,1,0,85,0,0
263264,-90.9090909090909,4,1,0,85,0,1
274803,-93.4579439252336,4,1,0,85,0,1
274995,-97.0873786407767,4,1,0,85,0,1
275187,-100,4,1,0,85,0,0
302206,-100,4,1,0,50,0,0
302880,400,4,1,0,50,1,0
303780,500,4,1,0,50,1,8
303780,-83.3333333333333,4,1,0,50,0,0
304155,576.923076923077,4,1,0,50,1,8
304155,-76.9230769230769,4,1,0,50,0,0
304586,576.923076923077,4,1,0,50,1,0
304586,-83.3333333333333,4,1,0,50,0,0
305162,-100,4,1,0,30,0,0
305333,600,4,1,0,30,1,0

[HitObjects]
256,192,2495,5,8,0:0:0:0:
256,192,2880,1,4,0:0:0:0:
256,192,3168,1,4,0:0:0:0:
256,192,3456,1,12,0:0:0:0:
256,192,3649,1,4,0:0:0:0:
256,192,3937,1,4,0:0:0:0:
256,192,4226,1,12,0:0:0:0:
256,192,4418,1,4,0:0:0:0:
256,192,4706,1,4,0:0:0:0:
256,192,4995,1,12,0:0:0:0:
256,192,5187,1,4,0:0:0:0:
256,192,5380,1,8,0:0:0:0:
256,192,5764,1,8,0:0:0:0:
256,192,5956,1,4,0:0:0:0:
256,192,6245,1,4,0:0:0:0:
256,192,6533,1,12,0:0:0:0:
256,192,6726,1,4,0:0:0:0:
256,192,7014,1,4,0:0:0:0:
256,192,7303,1,12,0:0:0:0:
256,192,7495,1,4,0:0:0:0:
256,192,7783,1,12,0:0:0:0:
256,192,8072,1,12,0:0:0:0:
256,192,8360,1,12,0:0:0:0:
256,192,8553,1,0,0:0:0:0:
256,192,8841,1,8,0:0:0:0:
256,192,9033,1,4,0:0:0:0:
256,192,9322,1,4,0:0:0:0:
256,192,9610,1,12,0:0:0:0:
256,192,9803,1,4,0:0:0:0:
256,192,10091,1,4,0:0:0:0:
256,192,10380,1,12,0:0:0:0:
256,192,10572,1,4,0:0:0:0:
256,192,10860,1,4,0:0:0:0:
256,192,11149,1,12,0:0:0:0:
256,192,11341,1,0,0:0:0:0:
256,192,11533,1,12,0:0:0:0:
256,192,11822,1,12,0:0:0:0:
256,192,12110,1,4,0:0:0:0:
256,192,12399,1,4,0:0:0:0:
256,192,12687,1,12,0:0:0:0:
256,192,12880,1,4,0:0:0:0:
256,192,13168,1,12,0:0:0:0:
256,192,13456,1,12,0:0:0:0:
256,192,13649,1,4,0:0:0:0:
256,192,13841,1,8,0:0:0:0:
256,192,13937,1,8,0:0:0:0:
256,192,14033,1,0,0:0:0:0:
256,192,14226,1,8,0:0:0:0:
256,192,14418,1,0,0:0:0:0:
256,192,14514,1,8,0:0:0:0:
256,192,14706,1,8,0:0:0:0:
256,192,14803,1,0,0:0:0:0:
256,192,14899,1,0,0:0:0:0:
256,192,14995,1,8,0:0:0:0:
256,192,15187,1,4,0:0:0:0:
256,192,15476,1,8,0:0:0:0:
256,192,15572,1,0,0:0:0:0:
256,192,15764,1,8,0:0:0:0:
256,192,15956,1,0,0:0:0:0:
256,192,16149,1,0,0:0:0:0:
256,192,16245,1,8,0:0:0:0:
256,192,16341,1,0,0:0:0:0:
256,192,16533,1,8,0:0:0:0:
256,192,16726,1,0,0:0:0:0:
256,192,17014,1,8,0:0:0:0:
256,192,17110,1,0,0:0:0:0:
256,192,17303,1,8,0:0:0:0:
256,192,17495,1,0,0:0:0:0:
256,192,17591,1,0,0:0:0:0:
256,192,17687,1,8,0:0:0:0:
256,192,17783,1,8,0:0:0:0:
256,192,17880,1,0,0:0:0:0:
256,192,18072,1,8,0:0:0:0:
256,192,18264,1,0,0:0:0:0:
256,192,18553,1,8,0:0:0:0:
256,192,18649,1,0,0:0:0:0:
256,192,18841,1,8,0:0:0:0:
256,192,19033,1,0,0:0:0:0:
256,192,19226,1,0,0:0:0:0:
256,192,19322,1,8,0:0:0:0:
256,192,19418,1,0,0:0:0:0:
256,192,19514,1,0,0:0:0:0:
256,192,19610,1,8,0:0:0:0:
256,192,19803,1,4,0:0:0:0:
256,192,20091,1,12,0:0:0:0:
256,192,20380,1,12,0:0:0:0:
256,192,20668,1,12,0:0:0:0:
256,192,20860,1,0,0:0:0:0:
256,192,21149,1,8,0:0:0:0:
256,192,21341,1,4,0:0:0:0:
256,192,21630,1,8,0:0:0:0:
256,192,21726,1,0,0:0:0:0:
256,192,21918,1,8,0:0:0:0:
256,192,22110,1,0,0:0:0:0:
256,192,22303,1,0,0:0:0:0:
256,192,22399,1,8,0:0:0:0:
256,192,22495,1,0,0:0:0:0:
256,192,22687,1,8,0:0:0:0:
256,192,22880,1,4,0:0:0:0:
256,192,23168,1,8,0:0:0:0:
256,192,23264,1,0,0:0:0:0:
256,192,23456,1,8,0:0:0:0:
256,192,23649,1,0,0:0:0:0:
256,192,23841,1,12,0:0:0:0:
256,192,24130,1,12,0:0:0:0:
256,192,24418,1,4,0:0:0:0:
256,192,24610,1,0,0:0:0:0:
256,192,24706,1,8,0:0:0:0:
256,192,24803,1,0,0:0:0:0:
256,192,24995,1,8,0:0:0:0:
256,192,25187,1,4,0:0:0:0:
256,192,25380,1,0,0:0:0:0:
256,192,25476,1,8,0:0:0:0:
256,192,25572,1,0,0:0:0:0:
256,192,25668,1,0,0:0:0:0:
256,192,25764,1,8,0:0:0:0:
256,192,25956,1,0,0:0:0:0:
256,192,26053,1,0,0:0:0:0:
256,192,26149,1,0,0:0:0:0:
256,192,26245,1,8,0:0:0:0:
256,192,26341,1,0,0:0:0:0:
256,192,26533,1,8,0:0:0:0:
256,192,26726,1,0,0:0:0:0:
256,192,26822,1,8,0:0:0:0:
256,192,27014,1,8,0:0:0:0:
256,192,27110,1,0,0:0:0:0:
256,192,27303,1,8,0:0:0:0:
256,192,27495,1,0,0:0:0:0:
256,192,27687,1,0,0:0:0:0:
256,192,27880,1,0,0:0:0:0:
256,192,28072,1,0,0:0:0:0:
256,192,28264,1,0,0:0:0:0:
256,192,28360,1,0,0:0:0:0:
256,192,28456,1,0,0:0:0:0:
256,192,28553,1,0,0:0:0:0:
256,192,28649,1,0,0:0:0:0:
256,192,28745,1,0,0:0:0:0:
256,192,28841,1,0,0:0:0:0:
256,192,28937,1,0,0:0:0:0:
256,192,29033,1,8,0:0:0:0:
256,192,29130,1,8,0:0:0:0:
256,192,29226,1,0,0:0:0:0:
256,192,29322,1,8,0:0:0:0:
256,192,29418,1,0,0:0:0:0:
256,192,29514,1,0,0:0:0:0:
256,192,29610,1,8,0:0:0:0:
256,192,29706,1,0,0:0:0:0:
256,192,29803,1,8,0:0:0:0:
256,192,29867,1,8,0:0:0:0:
256,192,29931,1,8,0:0:0:0:
256,192,29995,1,0,0:0:0:0:
256,192,30059,1,0,0:0:0:0:
256,192,30123,1,0,0:0:0:0:
256,192,30187,1,8,0:0:0:0:
256,192,30283,1,0,0:0:0:0:
256,192,30380,1,8,0:0:0:0:
256,192,30476,1,8,0:0:0:0:
256,192,30572,1,0,0:0:0:0:
256,192,30956,1,8,0:0:0:0:
256,192,31726,1,8,0:0:0:0:
256,192,32495,1,8,0:0:0:0:
256,192,33264,1,8,0:0:0:0:
256,192,34033,1,8,0:0:0:0:
256,192,34803,1,8,0:0:0:0:
256,192,35572,1,8,0:0:0:0:
256,192,36149,1,0,0:0:0:0:
256,192,36341,1,8,0:0:0:0:
256,192,36533,1,8,0:0:0:0:
256,192,36726,1,0,0:0:0:0:
256,192,37110,1,8,0:0:0:0:
256,192,37880,1,8,0:0:0:0:
256,192,38072,1,8,0:0:0:0:
256,192,38264,1,0,0:0:0:0:
256,192,38649,1,8,0:0:0:0:
256,192,39418,1,8,0:0:0:0:
256,192,39610,1,0,0:0:0:0:
256,192,39803,1,0,0:0:0:0:
256,192,40187,1,8,0:0:0:0:
256,192,40572,1,0,0:0:0:0:
256,192,40956,1,8,0:0:0:0:
256,192,41149,1,8,0:0:0:0:
256,192,41341,1,4,0:0:0:0:
256,192,41630,1,4,0:0:0:0:
256,192,41918,1,12,0:0:0:0:
256,192,42399,1,12,0:0:0:0:
256,192,42687,1,8,0:0:0:0:
256,192,42880,1,4,0:0:0:0:
256,192,43168,1,0,0:0:0:0:
256,192,43456,1,8,0:0:0:0:
256,192,43649,1,0,0:0:0:0:
256,192,43745,1,0,0:0:0:0:
256,192,43841,1,8,0:0:0:0:
256,192,44033,1,0,0:0:0:0:
256,192,44226,1,8,0:0:0:0:
256,192,44418,1,0,0:0:0:0:
256,192,44706,1,8,0:0:0:0:
256,192,44995,1,0,0:0:0:0:
256,192,45187,1,0,0:0:0:0:
256,192,45380,1,8,0:0:0:0:
256,192,45476,1,8,0:0:0:0:
256,192,45572,1,0,0:0:0:0:
256,192,45764,1,8,0:0:0:0:
256,192,45956,1,0,0:0:0:0:
256,192,46245,1,0,0:0:0:0:
256,192,46533,1,8,0:0:0:0:
256,192,46726,1,0,0:0:0:0:
256,192,46822,1,0,0:0:0:0:
256,192,46918,1,8,0:0:0:0:
256,192,47110,1,0,0:0:0:0:
256,192,47303,1,8,0:0:0:0:
256,192,47495,1,0,0:0:0:0:
256,192,47783,1,8,0:0:0:0:
256,192,48072,1,8,0:0:0:0:
256,192,48264,1,0,0:0:0:0:
256,192,48360,1,0,0:0:0:0:
256,192,48456,1,8,0:0:0:0:
256,192,48553,1,8,0:0:0:0:
256,192,48649,1,0,0:0:0:0:
256,192,48841,1,8,0:0:0:0:
256,192,49033,1,4,0:0:0:0:
256,192,49322,1,8,0:0:0:0:
256,192,49418,1,0,0:0:0:0:
256,192,49610,1,8,0:0:0:0:
256,192,49803,1,0,0:0:0:0:
256,192,49899,1,0,0:0:0:0:
256,192,49995,1,8,0:0:0:0:
256,192,50187,1,0,0:0:0:0:
256,192,50380,1,8,0:0:0:0:
256,192,50572,1,0,0:0:0:0:
256,192,50860,1,0,0:0:0:0:
256,192,50956,1,8,0:0:0:0:
256,192,51149,1,0,0:0:0:0:
256,192,51341,1,0,0:0:0:0:
256,192,51533,1,8,0:0:0:0:
256,192,51630,1,8,0:0:0:0:
256,192,51726,1,0,0:0:0:0:
256,192,51918,1,8,0:0:0:0:
256,192,52110,1,4,0:0:0:0:
256,192,52303,1,0,0:0:0:0:
256,192,52495,1,0,0:0:0:0:
256,192,52687,1,8,0:0:0:0:
256,192,52880,1,4,0:0:0:0:
256,192,53072,1,8,0:0:0:0:
256,192,53168,1,8,0:0:0:0:
256,192,53264,1,0,0:0:0:0:
256,192,53456,1,8,0:0:0:0:
256,192,53649,1,4,0:0:0:0:
256,192,53937,1,4,0:0:0:0:
256,192,54226,1,12,0:0:0:0:
256,192,55860,1,8,0:0:0:0:
256,192,55956,1,8,0:0:0:0:
256,192,56053,1,0,0:0:0:0:
256,192,56149,1,8,0:0:0:0:
256,192,56245,1,8,0:0:0:0:
256,192,56437,1,0,0:0:0:0:
256,192,56533,1,8,0:0:0:0:
256,192,56726,1,4,0:0:0:0:
256,192,57014,1,0,0:0:0:0:
256,192,57303,1,8,0:0:0:0:
256,192,57495,1,0,0:0:0:0:
256,192,57783,1,0,0:0:0:0:
256,192,57976,1,8,0:0:0:0:
256,192,58072,1,8,0:0:0:0:
256,192,58264,1,0,0:0:0:0:
256,192,58456,1,0,0:0:0:0:
256,192,58553,1,0,0:0:0:0:
256,192,58649,1,8,0:0:0:0:
256,192,58841,1,0,0:0:0:0:
256,192,59033,1,8,0:0:0:0:
256,192,59322,1,8,0:0:0:0:
256,192,59610,1,8,0:0:0:0:
256,192,59803,1,0,0:0:0:0:
256,192,59995,1,8,0:0:0:0:
256,192,60091,1,0,0:0:0:0:
256,192,60187,1,0,0:0:0:0:
256,192,60380,1,8,0:0:0:0:
256,192,60572,1,0,0:0:0:0:
256,192,60764,1,0,0:0:0:0:
256,192,60860,1,8,0:0:0:0:
256,192,60956,1,0,0:0:0:0:
288,192,61149,1,8,0:0:0:0:
256,192,61341,1,0,0:0:0:0:
256,192,61630,1,8,0:0:0:0:
256,192,61918,1,8,0:0:0:0:
256,192,62110,1,0,0:0:0:0:
256,192,62206,1,8,0:0:0:0:
256,192,62399,1,8,0:0:0:0:
256,192,62495,1,0,0:0:0:0:
256,192,62687,1,8,0:0:0:0:
256,192,62880,1,0,0:0:0:0:
256,192,63168,1,0,0:0:0:0:
256,192,63456,1,8,0:0:0:0:
256,192,63649,1,0,0:0:0:0:
256,192,63937,1,8,0:0:0:0:
256,192,64226,1,8,0:0:0:0:
256,192,64418,1,0,0:0:0:0:
256,192,64610,1,0,0:0:0:0:
256,192,64706,1,0,0:0:0:0:
256,192,64803,1,8,0:0:0:0:
256,192,64995,1,0,0:0:0:0:
256,192,65187,1,8,0:0:0:0:
256,192,65283,1,0,0:0:0:0:
256,192,65380,1,8,0:0:0:0:
256,192,65476,1,8,0:0:0:0:
256,192,65572,1,0,0:0:0:0:
256,192,65668,1,0,0:0:0:0:
256,192,65764,1,8,0:0:0:0:
256,192,65860,1,8,0:0:0:0:
256,192,65956,1,0,0:0:0:0:
256,192,66149,1,8,0:0:0:0:
256,192,66245,1,8,0:0:0:0:
256,192,66533,1,8,0:0:0:0:
256,192,66726,1,0,0:0:0:0:
256,192,66822,1,8,0:0:0:0:
256,192,66918,1,0,0:0:0:0:
256,192,67014,1,0,0:0:0:0:
256,192,67110,1,8,0:0:0:0:
256,192,67303,1,8,0:0:0:0:
256,192,67495,1,0,0:0:0:0:
256,192,67687,1,0,0:0:0:0:
256,192,67783,1,0,0:0:0:0:
256,192,67880,1,8,0:0:0:0:
256,192,68072,1,0,0:0:0:0:
256,192,68264,1,0,0:0:0:0:
256,192,68360,1,8,0:0:0:0:
256,192,68553,1,8,0:0:0:0:
256,192,68649,1,0,0:0:0:0:
256,192,68841,1,8,0:0:0:0:
256,192,69033,1,4,0:0:0:0:
256,192,69226,1,0,0:0:0:0:
256,192,69322,1,8,0:0:0:0:
256,192,69610,1,8,0:0:0:0:
256,192,69803,1,0,0:0:0:0:
256,192,70091,1,0,0:0:0:0:
256,192,70283,1,8,0:0:0:0:
256,192,70380,1,8,0:0:0:0:
256,192,70572,1,0,0:0:0:0:
256,192,70764,1,0,0:0:0:0:
256,192,70860,1,0,0:0:0:0:
256,192,70956,1,8,0:0:0:0:
256,192,71149,1,0,0:0:0:0:
256,192,71341,1,8,0:0:0:0:
256,192,71533,1,0,0:0:0:0:
256,192,71630,1,8,0:0:0:0:
256,192,71918,1,8,0:0:0:0:
256,192,72110,1,0,0:0:0:0:
256,192,72303,1,8,0:0:0:0:
256,192,72399,1,0,0:0:0:0:
256,192,72495,1,0,0:0:0:0:
256,192,72687,1,8,0:0:0:0:
256,192,72880,1,0,0:0:0:0:
256,192,73072,1,0,0:0:0:0:
256,192,73168,1,8,0:0:0:0:
256,192,73264,1,0,0:0:0:0:
288,192,73456,1,8,0:0:0:0:
256,192,73649,1,0,0:0:0:0:
256,192,73841,1,0,0:0:0:0:
256,192,73937,1,8,0:0:0:0:
256,192,74226,1,8,0:0:0:0:
256,192,74418,1,0,0:0:0:0:
256,192,74514,1,8,0:0:0:0:
256,192,74706,1,8,0:0:0:0:
256,192,74803,1,0,0:0:0:0:
256,192,74995,1,8,0:0:0:0:
256,192,75187,1,0,0:0:0:0:
256,192,75380,1,0,0:0:0:0:
256,192,75476,1,8,0:0:0:0:
256,192,75764,1,8,0:0:0:0:
256,192,75956,1,0,0:0:0:0:
256,192,76149,1,0,0:0:0:0:
256,192,76245,1,0,0:0:0:0:
256,192,76341,1,8,0:0:0:0:
256,192,76533,1,8,0:0:0:0:
256,192,76726,1,0,0:0:0:0:
256,192,76918,1,0,0:0:0:0:
256,192,77014,1,8,0:0:0:0:
256,192,77110,1,0,0:0:0:0:
256,192,77303,1,8,0:0:0:0:
256,192,77495,1,0,0:0:0:0:
256,192,77687,1,8,0:0:0:0:
256,192,78072,1,8,0:0:0:0:
256,192,78264,1,0,0:0:0:0:
256,192,78360,1,8,0:0:0:0:
256,192,78456,1,8,0:0:0:0:
256,192,78553,1,0,0:0:0:0:
256,192,78649,1,8,0:0:0:0:
256,192,78745,1,0,0:0:0:0:
256,192,78841,1,8,0:0:0:0:
256,192,78937,1,0,0:0:0:0:
256,192,79033,1,0,0:0:0:0:
256,192,79130,1,0,0:0:0:0:
256,192,79226,1,8,0:0:0:0:
256,192,79322,1,0,0:0:0:0:
256,192,79418,1,0,0:0:0:0:
256,192,79514,1,8,0:0:0:0:
256,192,79610,1,8,0:0:0:0:
256,192,79706,1,8,0:0:0:0:
256,192,79803,1,0,0:0:0:0:
256,192,80187,1,8,0:0:0:0:
256,192,80380,1,0,0:0:0:0:
256,192,80572,1,0,0:0:0:0:
256,192,80668,1,8,0:0:0:0:
256,192,80860,1,8,0:0:0:0:
256,192,80956,1,0,0:0:0:0:
256,192,81053,1,0,0:0:0:0:
256,192,81149,1,8,0:0:0:0:
256,192,81341,1,4,0:0:0:0:
256,192,81630,1,0,0:0:0:0:
256,192,81822,1,0,0:0:0:0:
256,192,81918,1,8,0:0:0:0:
256,192,82110,1,0,0:0:0:0:
256,192,82399,1,0,0:0:0:0:
256,192,82591,1,8,0:0:0:0:
256,192,82687,1,8,0:0:0:0:
256,192,82880,1,0,0:0:0:0:
256,192,83072,1,0,0:0:0:0:
256,192,83168,1,0,0:0:0:0:
256,192,83264,1,8,0:0:0:0:
256,192,83456,1,0,0:0:0:0:
256,192,83649,1,8,0:0:0:0:
256,192,83841,1,0,0:0:0:0:
256,192,83937,1,8,0:0:0:0:
256,192,84226,1,8,0:0:0:0:
256,192,84418,1,0,0:0:0:0:
256,192,84610,1,8,0:0:0:0:
256,192,84706,1,0,0:0:0:0:
256,192,84803,1,0,0:0:0:0:
256,192,84995,1,8,0:0:0:0:
256,192,85187,1,0,0:0:0:0:
256,192,85380,1,0,0:0:0:0:
256,192,85476,1,8,0:0:0:0:
256,192,85572,1,0,0:0:0:0:
288,192,85764,1,8,0:0:0:0:
256,192,85956,1,0,0:0:0:0:
256,192,86149,1,8,0:0:0:0:
256,192,86245,1,8,0:0:0:0:
256,192,86533,1,8,0:0:0:0:
256,192,86726,1,0,0:0:0:0:
256,192,86822,1,8,0:0:0:0:
256,192,87014,1,8,0:0:0:0:
256,192,87110,1,0,0:0:0:0:
256,192,87303,1,8,0:0:0:0:
256,192,87495,1,0,0:0:0:0:
256,192,87783,1,8,0:0:0:0:
256,192,87879,1,0,0:0:0:0:
256,192,88072,1,8,0:0:0:0:
256,192,88264,1,0,0:0:0:0:
256,192,88456,1,0,0:0:0:0:
256,192,88553,1,8,0:0:0:0:
256,192,88841,1,8,0:0:0:0:
256,192,89033,1,0,0:0:0:0:
256,192,89226,1,0,0:0:0:0:
256,192,89322,1,0,0:0:0:0:
256,192,89418,1,8,0:0:0:0:
256,192,89610,1,0,0:0:0:0:
256,192,89803,1,8,0:0:0:0:
256,192,89899,1,0,0:0:0:0:
256,192,89995,1,8,0:0:0:0:
256,192,90091,1,8,0:0:0:0:
256,192,90187,1,0,0:0:0:0:
256,192,90283,1,0,0:0:0:0:
256,192,90380,1,8,0:0:0:0:
256,192,90476,1,8,0:0:0:0:
256,192,90572,1,0,0:0:0:0:
256,192,90764,1,8,0:0:0:0:
256,192,90860,1,8,0:0:0:0:
256,192,91149,1,8,0:0:0:0:
256,192,91341,1,0,0:0:0:0:
256,192,91437,1,8,0:0:0:0:
256,192,91533,1,0,0:0:0:0:
256,192,91630,1,0,0:0:0:0:
256,192,91726,1,8,0:0:0:0:
256,192,91918,1,8,0:0:0:0:
256,192,92110,1,0,0:0:0:0:
256,192,92303,1,0,0:0:0:0:
256,192,92399,1,0,0:0:0:0:
256,192,92495,1,8,0:0:0:0:
256,192,92687,1,0,0:0:0:0:
256,192,92880,1,0,0:0:0:0:
256,192,92976,1,8,0:0:0:0:
256,192,93168,1,8,0:0:0:0:
256,192,93264,1,0,0:0:0:0:
256,192,93456,1,8,0:0:0:0:
256,192,93649,1,4,0:0:0:0:
256,192,93841,1,0,0:0:0:0:
256,192,93937,1,8,0:0:0:0:
256,192,94130,1,0,0:0:0:0:
256,192,94226,1,8,0:0:0:0:
256,192,94418,1,0,0:0:0:0:
256,192,94610,1,0,0:0:0:0:
256,192,94706,1,0,0:0:0:0:
256,192,94899,1,8,0:0:0:0:
256,192,94995,1,8,0:0:0:0:
256,192,95187,1,0,0:0:0:0:
256,192,95380,1,0,0:0:0:0:
256,192,95476,1,0,0:0:0:0:
256,192,95572,1,8,0:0:0:0:
256,192,95764,1,0,0:0:0:0:
256,192,95956,1,8,0:0:0:0:
256,192,96149,1,0,0:0:0:0:
256,192,96245,1,8,0:0:0:0:
256,192,96533,1,8,0:0:0:0:
256,192,96726,1,0,0:0:0:0:
256,192,96918,1,8,0:0:0:0:
256,192,97014,1,0,0:0:0:0:
256,192,97110,1,0,0:0:0:0:
256,192,97303,1,8,0:0:0:0:
256,192,97495,1,0,0:0:0:0:
256,192,97687,1,0,0:0:0:0:
256,192,97783,1,8,0:0:0:0:
256,192,97880,1,0,0:0:0:0:
288,192,98072,1,8,0:0:0:0:
256,192,98264,1,0,0:0:0:0:
256,192,98456,1,0,0:0:0:0:
256,192,98553,1,8,0:0:0:0:
256,192,98841,1,8,0:0:0:0:
256,192,99033,1,0,0:0:0:0:
256,192,99130,1,8,0:0:0:0:
256,192,99322,1,8,0:0:0:0:
256,192,99418,1,0,0:0:0:0:
256,192,99610,1,8,0:0:0:0:
256,192,99803,1,4,0:0:0:0:
256,192,99995,1,0,0:0:0:0:
256,192,100091,1,8,0:0:0:0:
256,192,100283,1,8,0:0:0:0:
256,192,100380,1,0,0:0:0:0:
256,192,100572,1,0,0:0:0:0:
256,192,100668,1,8,0:0:0:0:
256,192,100764,1,8,0:0:0:0:
256,192,100860,1,0,0:0:0:0:
256,192,100956,1,8,0:0:0:0:
256,192,101149,1,8,0:0:0:0:
256,192,101341,1,4,0:0:0:0:
256,192,101533,1,0,0:0:0:0:
256,192,101630,1,8,0:0:0:0:
256,192,101726,1,0,0:0:0:0:
256,192,101918,1,8,0:0:0:0:
256,192,102110,1,0,0:0:0:0:
256,192,102303,1,12,0:0:0:0:
256,192,102687,1,12,0:0:0:0:
256,192,102880,1,0,0:0:0:0:
256,192,102976,1,8,0:0:0:0:
256,192,103072,1,8,0:0:0:0:
256,192,103168,1,0,0:0:0:0:
256,192,103264,1,0,0:0:0:0:
256,192,103360,1,0,0:0:0:0:
256,192,103456,1,8,0:0:0:0:
256,192,103553,1,0,0:0:0:0:
256,192,103649,1,0,0:0:0:0:
256,192,103745,1,8,0:0:0:0:
256,192,103841,1,8,0:0:0:0:
256,192,103937,1,0,0:0:0:0:
256,192,104033,1,0,0:0:0:0:
256,192,104130,1,8,0:0:0:0:
256,192,104226,1,8,0:0:0:0:
256,192,104322,1,8,0:0:0:0:
256,192,104418,1,0,0:0:0:0:
256,192,104803,1,8,0:0:0:0:
256,192,104995,1,0,0:0:0:0:
256,192,105187,1,8,0:0:0:0:
256,192,105380,1,0,0:0:0:0:
256,192,105572,1,8,0:0:0:0:
256,192,105764,1,8,0:0:0:0:
256,192,105956,1,0,0:0:0:0:
256,192,106149,1,0,0:0:0:0:
256,192,106341,1,8,0:0:0:0:
256,192,106533,1,0,0:0:0:0:
256,192,106726,1,8,0:0:0:0:
256,192,106918,1,0,0:0:0:0:
256,192,107014,1,0,0:0:0:0:
256,192,107110,1,8,0:0:0:0:
256,192,107206,1,0,0:0:0:0:
256,192,107303,1,8,0:0:0:0:
256,192,107399,1,8,0:0:0:0:
256,192,107495,1,0,0:0:0:0:
256,192,107880,1,8,0:0:0:0:
256,192,108072,1,0,0:0:0:0:
256,192,108264,1,8,0:0:0:0:
256,192,108456,1,0,0:0:0:0:
256,192,108649,1,8,0:0:0:0:
256,192,108841,1,8,0:0:0:0:
256,192,109033,1,8,0:0:0:0:
256,192,109226,1,0,0:0:0:0:
256,192,109418,1,8,0:0:0:0:
256,192,109610,1,8,0:0:0:0:
256,192,109803,1,8,0:0:0:0:
256,192,109899,1,0,0:0:0:0:
256,192,109995,1,0,0:0:0:0:
256,192,110091,1,8,0:0:0:0:
256,192,110380,1,8,0:0:0:0:
256,192,110572,1,4,0:0:0:0:
256,192,110860,1,4,0:0:0:0:
256,192,111149,1,12,0:0:0:0:
256,192,111341,1,4,0:0:0:0:
256,192,111630,1,4,0:0:0:0:
256,192,111918,1,12,0:0:0:0:
256,192,112110,1,4,0:0:0:0:
256,192,112399,1,4,0:0:0:0:
256,192,112687,1,12,0:0:0:0:
256,192,112880,1,4,0:0:0:0:
256,192,113168,1,12,0:0:0:0:
256,192,113456,1,12,0:0:0:0:
256,192,113649,1,0,0:0:0:0:
256,192,113841,1,0,0:0:0:0:
256,192,114033,1,0,0:0:0:0:
256,192,114130,1,8,0:0:0:0:
256,192,114226,1,0,0:0:0:0:
256,192,114322,1,8,0:0:0:0:
256,192,114418,1,0,0:0:0:0:
256,192,114514,1,0,0:0:0:0:
256,192,114610,1,8,0:0:0:0:
256,192,114706,1,0,0:0:0:0:
256,192,114803,1,0,0:0:0:0:
256,192,114899,1,8,0:0:0:0:
256,192,114995,1,8,0:0:0:0:
256,192,115091,1,8,0:0:0:0:
256,192,115187,1,0,0:0:0:0:
256,192,115283,1,8,0:0:0:0:
256,192,115380,1,8,0:0:0:0:
256,192,115476,1,0,0:0:0:0:
256,192,115572,1,8,0:0:0:0:
256,192,115668,1,8,0:0:0:0:
256,192,115764,1,0,0:0:0:0:
256,192,115860,1,8,0:0:0:0:
256,192,115956,1,8,0:0:0:0:
256,192,116053,1,0,0:0:0:0:
256,192,116149,1,0,0:0:0:0:
256,192,116245,1,8,0:0:0:0:
256,192,116341,5,0,0:0:0:0:
256,192,116437,1,8,0:0:0:0:
256,192,116533,1,0,0:0:0:0:
256,192,117495,5,0,0:0:0:0:
256,192,117880,1,8,0:0:0:0:
256,192,118264,1,4,0:0:0:0:
256,192,118456,1,8,0:0:0:0:
256,192,118553,1,8,0:0:0:0:
256,192,118649,1,0,0:0:0:0:
256,192,118841,1,8,0:0:0:0:
256,192,119033,1,0,0:0:0:0:
256,192,119226,1,8,0:0:0:0:
256,192,119322,1,8,0:0:0:0:
256,192,119418,1,0,0:0:0:0:
256,192,119514,1,0,0:0:0:0:
256,192,119610,1,8,0:0:0:0:
256,192,119803,1,0,0:0:0:0:
256,192,119995,1,0,0:0:0:0:
256,192,120091,1,8,0:0:0:0:
256,192,120187,1,0,0:0:0:0:
256,192,120380,1,8,0:0:0:0:
256,192,120476,1,8,0:0:0:0:
256,192,120572,1,0,0:0:0:0:
256,192,120668,1,0,0:0:0:0:
256,192,120764,1,0,0:0:0:0:
256,192,120956,1,8,0:0:0:0:
256,192,121149,1,8,0:0:0:0:
256,192,121245,1,8,0:0:0:0:
256,192,121341,1,0,0:0:0:0:
256,192,121533,1,0,0:0:0:0:
256,192,121630,1,8,0:0:0:0:
256,192,121726,1,0,0:0:0:0:
256,192,121918,1,8,0:0:0:0:
256,192,122110,1,0,0:0:0:0:
256,192,122206,1,0,0:0:0:0:
256,192,122303,1,8,0:0:0:0:
256,192,122399,1,8,0:0:0:0:
256,192,122495,1,0,0:0:0:0:
256,192,122687,1,8,0:0:0:0:
256,192,122880,1,4,0:0:0:0:
256,192,123264,1,4,0:0:0:0:
256,192,123649,1,12,0:0:0:0:
256,192,124033,1,12,0:0:0:0:
256,192,124418,1,0,0:0:0:0:
256,192,124514,1,0,0:0:0:0:
256,192,124610,1,8,0:0:0:0:
256,192,124706,1,8,0:0:0:0:
256,192,124803,1,0,0:0:0:0:
256,192,124995,1,8,0:0:0:0:
256,192,125187,1,0,0:0:0:0:
256,192,125380,1,8,0:0:0:0:
256,192,125476,1,8,0:0:0:0:
256,192,125572,1,0,0:0:0:0:
256,192,125668,1,0,0:0:0:0:
256,192,125764,1,8,0:0:0:0:
256,192,125956,1,0,0:0:0:0:
256,192,126149,1,0,0:0:0:0:
256,192,126245,1,8,0:0:0:0:
256,192,126341,1,0,0:0:0:0:
256,192,126533,1,8,0:0:0:0:
256,192,126630,1,8,0:0:0:0:
256,192,126726,1,0,0:0:0:0:
256,192,126822,1,0,0:0:0:0:
256,192,126918,1,0,0:0:0:0:
256,192,127110,1,8,0:0:0:0:
256,192,127206,1,0,0:0:0:0:
256,192,127303,1,8,0:0:0:0:
256,192,127399,1,8,0:0:0:0:
256,192,127495,1,0,0:0:0:0:
256,192,127687,1,0,0:0:0:0:
256,192,127783,1,8,0:0:0:0:
256,192,127880,1,0,0:0:0:0:
256,192,128072,1,8,0:0:0:0:
256,192,128264,1,0,0:0:0:0:
256,192,128360,1,0,0:0:0:0:
256,192,128456,1,8,0:0:0:0:
256,192,128553,1,8,0:0:0:0:
256,192,128649,1,0,0:0:0:0:
256,192,128841,1,8,0:0:0:0:
256,192,129033,1,0,0:0:0:0:
256,192,129130,1,8,0:0:0:0:
256,192,129226,1,0,0:0:0:0:
256,192,129322,1,8,0:0:0:0:
256,192,129418,1,0,0:0:0:0:
256,192,129610,1,0,0:0:0:0:
256,192,129803,1,8,0:0:0:0:
256,192,130091,1,0,0:0:0:0:
256,192,130187,1,8,0:0:0:0:
256,192,130380,1,8,0:0:0:0:
256,192,130572,1,0,0:0:0:0:
256,192,130764,1,0,0:0:0:0:
256,192,130956,1,12,0:0:0:0:
256,192,131341,1,0,0:0:0:0:
256,192,131533,1,8,0:0:0:0:
256,192,131630,1,8,0:0:0:0:
256,192,131726,1,0,0:0:0:0:
256,192,131822,1,0,0:0:0:0:
256,192,131918,1,8,0:0:0:0:
256,192,132110,1,0,0:0:0:0:
256,192,132303,1,0,0:0:0:0:
256,192,132399,1,8,0:0:0:0:
256,192,132495,1,0,0:0:0:0:
256,192,132687,1,8,0:0:0:0:
256,192,132783,1,8,0:0:0:0:
256,192,132880,1,0,0:0:0:0:
256,192,132976,1,0,0:0:0:0:
256,192,133072,1,0,0:0:0:0:
256,192,133264,1,8,0:0:0:0:
256,192,133456,1,8,0:0:0:0:
256,192,133553,1,8,0:0:0:0:
256,192,133649,1,0,0:0:0:0:
256,192,133841,1,0,0:0:0:0:
256,192,133937,1,8,0:0:0:0:
256,192,134033,1,0,0:0:0:0:
256,192,134226,1,8,0:0:0:0:
256,192,134418,1,0,0:0:0:0:
256,192,134514,1,0,0:0:0:0:
256,192,134610,1,8,0:0:0:0:
256,192,134706,1,8,0:0:0:0:
256,192,134803,1,0,0:0:0:0:
256,192,134995,1,8,0:0:0:0:
256,192,135187,1,4,0:0:0:0:
256,192,135572,1,4,0:0:0:0:
256,192,135956,1,12,0:0:0:0:
256,192,136341,1,12,0:0:0:0:
256,192,136533,1,0,0:0:0:0:
256,192,136726,1,4,0:0:0:0:
256,192,136918,1,8,0:0:0:0:
256,192,137014,1,8,0:0:0:0:
256,192,137110,1,0,0:0:0:0:
256,192,137303,1,8,0:0:0:0:
256,192,137495,1,0,0:0:0:0:
256,192,137591,1,0,0:0:0:0:
256,192,137783,1,8,0:0:0:0:
256,192,137880,1,0,0:0:0:0:
256,192,138072,1,8,0:0:0:0:
256,192,138264,1,0,0:0:0:0:
256,192,138456,1,0,0:0:0:0:
256,192,138553,1,8,0:0:0:0:
256,192,138649,1,0,0:0:0:0:
256,192,138841,1,8,0:0:0:0:
256,192,138937,1,8,0:0:0:0:
256,192,139033,1,0,0:0:0:0:
256,192,139097,1,0,0:0:0:0:
256,192,139162,1,0,0:0:0:0:
256,192,139226,1,8,0:0:0:0:
256,192,139322,1,0,0:0:0:0:
256,192,139418,1,8,0:0:0:0:
256,192,139514,1,8,0:0:0:0:
256,192,139610,1,0,0:0:0:0:
256,192,139706,1,8,0:0:0:0:
256,192,139803,1,0,0:0:0:0:
256,192,139995,1,8,0:0:0:0:
256,192,140091,1,0,0:0:0:0:
256,192,140283,1,0,0:0:0:0:
256,192,140380,1,8,0:0:0:0:
256,192,140572,1,8,0:0:0:0:
256,192,140668,1,0,0:0:0:0:
256,192,140860,1,0,0:0:0:0:
256,192,140956,1,8,0:0:0:0:
256,192,141149,1,8,0:0:0:0:
256,192,141341,1,0,0:0:0:0:
256,192,141630,1,8,0:0:0:0:
256,192,141918,1,8,0:0:0:0:
256,192,142110,1,0,0:0:0:0:
256,192,142303,1,0,0:0:0:0:
256,192,142495,1,12,0:0:0:0:
256,192,142880,1,0,0:0:0:0:
256,192,143168,1,0,0:0:0:0:
256,192,143456,1,8,0:0:0:0:
256,192,144226,1,8,0:0:0:0:
256,192,144418,1,0,0:0:0:0:
256,192,144706,1,8,0:0:0:0:
256,192,144995,1,0,0:0:0:0:
256,192,145956,1,0,0:0:0:0:
256,192,146245,1,0,0:0:0:0:
256,192,146533,1,8,0:0:0:0:
256,192,147303,1,8,0:0:0:0:
256,192,147495,1,0,0:0:0:0:
256,192,147783,1,8,0:0:0:0:
256,192,148072,1,8,0:0:0:0:
256,192,148456,1,0,0:0:0:0:
256,192,148649,1,0,0:0:0:0:
256,192,148745,1,0,0:0:0:0:
256,192,148841,1,0,0:0:0:0:
256,192,148937,1,0,0:0:0:0:
256,192,149033,1,0,0:0:0:0:
256,192,149322,1,0,0:0:0:0:
256,192,149610,1,8,0:0:0:0:
256,192,149803,1,0,0:0:0:0:
256,192,150187,1,0,0:0:0:0:
256,192,150380,1,8,0:0:0:0:
256,192,150572,1,0,0:0:0:0:
256,192,150860,1,8,0:0:0:0:
256,192,151149,1,0,0:0:0:0:
256,192,151341,1,0,0:0:0:0:
256,192,151726,1,0,0:0:0:0:
256,192,151918,1,8,0:0:0:0:
256,192,152110,1,0,0:0:0:0:
256,192,152399,1,0,0:0:0:0:
256,192,152687,1,8,0:0:0:0:
256,192,152880,1,0,0:0:0:0:
256,192,152976,1,0,0:0:0:0:
256,192,153168,1,0,0:0:0:0:
256,192,153264,1,8,0:0:0:0:
256,192,153360,1,8,0:0:0:0:
256,192,153456,1,0,0:0:0:0:
256,192,153649,1,4,0:0:0:0:
256,192,153937,1,4,0:0:0:0:
256,192,154226,1,12,0:0:0:0:
256,192,154706,1,12,0:0:0:0:
256,192,154995,1,8,0:0:0:0:
256,192,155187,1,4,0:0:0:0:
256,192,155476,1,0,0:0:0:0:
256,192,155764,1,8,0:0:0:0:
256,192,155956,1,0,0:0:0:0:
256,192,156053,1,0,0:0:0:0:
256,192,156149,1,8,0:0:0:0:
256,192,156341,1,0,0:0:0:0:
256,192,156533,1,8,0:0:0:0:
256,192,156726,1,0,0:0:0:0:
256,192,157014,1,8,0:0:0:0:
256,192,157303,1,0,0:0:0:0:
256,192,157495,1,0,0:0:0:0:
256,192,157687,1,8,0:0:0:0:
256,192,157783,1,8,0:0:0:0:
256,192,157880,1,0,0:0:0:0:
256,192,158072,1,8,0:0:0:0:
256,192,158264,1,0,0:0:0:0:
256,192,158553,1,0,0:0:0:0:
256,192,158841,1,8,0:0:0:0:
256,192,159033,1,0,0:0:0:0:
256,192,159130,1,0,0:0:0:0:
256,192,159226,1,8,0:0:0:0:
256,192,159418,1,0,0:0:0:0:
256,192,159610,1,8,0:0:0:0:
256,192,159803,1,0,0:0:0:0:
256,192,160091,1,8,0:0:0:0:
256,192,160380,1,8,0:0:0:0:
256,192,160572,1,0,0:0:0:0:
256,192,160668,1,0,0:0:0:0:
256,192,160764,1,8,0:0:0:0:
256,192,160860,1,8,0:0:0:0:
256,192,160956,1,0,0:0:0:0:
256,192,161149,1,8,0:0:0:0:
256,192,161341,1,4,0:0:0:0:
256,192,161630,1,8,0:0:0:0:
256,192,161726,1,0,0:0:0:0:
256,192,161918,1,8,0:0:0:0:
256,192,162110,1,0,0:0:0:0:
256,192,162206,1,0,0:0:0:0:
256,192,162303,1,8,0:0:0:0:
256,192,162495,1,0,0:0:0:0:
256,192,162687,1,8,0:0:0:0:
256,192,162880,1,4,0:0:0:0:
256,192,163168,1,0,0:0:0:0:
256,192,163264,1,8,0:0:0:0:
256,192,163456,1,0,0:0:0:0:
256,192,163649,1,0,0:0:0:0:
256,192,163841,1,8,0:0:0:0:
256,192,163937,1,8,0:0:0:0:
256,192,164033,1,0,0:0:0:0:
256,192,164226,1,8,0:0:0:0:
256,192,164418,1,4,0:0:0:0:
256,192,164610,1,0,0:0:0:0:
256,192,164706,1,8,0:0:0:0:
256,192,164803,1,0,0:0:0:0:
256,192,164995,1,8,0:0:0:0:
256,192,165187,1,4,0:0:0:0:
256,192,165380,1,8,0:0:0:0:
256,192,165476,1,8,0:0:0:0:
256,192,165572,1,0,0:0:0:0:
256,192,165668,1,0,0:0:0:0:
256,192,165764,1,8,0:0:0:0:
256,192,165956,1,4,0:0:0:0:
256,192,166245,1,4,0:0:0:0:
256,192,166533,1,4,0:0:0:0:
256,192,166726,1,0,0:0:0:0:
256,192,166790,1,0,0:0:0:0:
256,192,166854,1,0,0:0:0:0:
256,192,166918,1,0,0:0:0:0:
256,192,166982,1,0,0:0:0:0:
256,192,167046,1,0,0:0:0:0:
256,192,167110,1,8,0:0:0:0:
256,192,167495,5,8,0:0:0:0:
256,192,167591,1,8,0:0:0:0:
256,192,167687,1,0,0:0:0:0:
256,192,167783,1,0,0:0:0:0:
256,192,167880,1,8,0:0:0:0:
256,192,167976,1,8,0:0:0:0:
256,192,168072,1,8,0:0:0:0:
256,192,168168,1,8,0:0:0:0:
256,192,168264,1,0,0:0:0:0:
256,192,168360,1,8,0:0:0:0:
256,192,168456,1,0,0:0:0:0:
256,192,168553,1,0,0:0:0:0:
256,192,168649,1,8,0:0:0:0:
256,192,168745,1,0,0:0:0:0:
256,192,168841,1,8,0:0:0:0:
256,192,168937,1,8,0:0:0:0:
256,192,169033,1,0,0:0:0:0:
256,192,169130,1,8,0:0:0:0:
256,192,169226,1,8,0:0:0:0:
256,192,169322,1,8,0:0:0:0:
256,192,169418,1,8,0:0:0:0:
256,192,169514,1,0,0:0:0:0:
256,192,169610,1,0,0:0:0:0:
256,192,169706,1,8,0:0:0:0:
256,192,169899,1,8,0:0:0:0:
256,192,170091,1,0,0:0:0:0:
256,192,170187,1,8,0:0:0:0:
256,192,170283,1,0,0:0:0:0:
256,192,170380,1,8,0:0:0:0:
256,192,170476,1,8,0:0:0:0:
256,192,170572,1,0,0:0:0:0:
256,192,170668,1,0,0:0:0:0:
256,192,170764,1,0,0:0:0:0:
256,192,170860,1,8,0:0:0:0:
256,192,170956,1,8,0:0:0:0:
256,192,171053,1,0,0:0:0:0:
256,192,171149,1,0,0:0:0:0:
256,192,171245,1,8,0:0:0:0:
256,192,171341,1,8,0:0:0:0:
256,192,171437,1,8,0:0:0:0:
256,192,171533,1,0,0:0:0:0:
256,192,171630,1,8,0:0:0:0:
256,192,171822,1,8,0:0:0:0:
256,192,172014,1,0,0:0:0:0:
256,192,172110,1,8,0:0:0:0:
256,192,172206,1,8,0:0:0:0:
256,192,172303,1,0,0:0:0:0:
256,192,172399,1,8,0:0:0:0:
256,192,172495,1,8,0:0:0:0:
256,192,172591,1,8,0:0:0:0:
256,192,172687,1,0,0:0:0:0:
256,192,172783,1,0,0:0:0:0:
256,192,172880,1,8,0:0:0:0:
256,192,172976,1,8,0:0:0:0:
256,192,173072,1,0,0:0:0:0:
256,192,173168,1,8,0:0:0:0:
256,192,173264,1,0,0:0:0:0:
256,192,173360,1,0,0:0:0:0:
256,192,173456,1,8,0:0:0:0:
256,192,173553,1,8,0:0:0:0:
256,192,173649,1,8,0:0:0:0:
256,192,173745,1,0,0:0:0:0:
256,192,173841,1,0,0:0:0:0:
256,192,173937,1,8,0:0:0:0:
256,192,174130,1,8,0:0:0:0:
256,192,174322,1,0,0:0:0:0:
256,192,174418,1,0,0:0:0:0:
256,192,174514,1,8,0:0:0:0:
256,192,174706,1,0,0:0:0:0:
256,192,174803,1,8,0:0:0:0:
256,192,174899,1,0,0:0:0:0:
256,192,174995,1,8,0:0:0:0:
256,192,175091,1,8,0:0:0:0:
256,192,175187,1,0,0:0:0:0:
256,192,175283,1,0,0:0:0:0:
256,192,175380,1,8,0:0:0:0:
256,192,175476,1,0,0:0:0:0:
256,192,175572,1,8,0:0:0:0:
256,192,175668,1,8,0:0:0:0:
256,192,175764,1,0,0:0:0:0:
256,192,175860,1,8,0:0:0:0:
256,192,175956,1,0,0:0:0:0:
256,192,176053,1,0,0:0:0:0:
256,192,176149,1,0,0:0:0:0:
256,192,176245,1,8,0:0:0:0:
256,192,176341,1,0,0:0:0:0:
256,192,176437,1,0,0:0:0:0:
256,192,176533,1,8,0:0:0:0:
256,192,176630,1,8,0:0:0:0:
256,192,176726,1,0,0:0:0:0:
256,192,176822,1,8,0:0:0:0:
256,192,177014,1,0,0:0:0:0:
256,192,177206,1,8,0:0:0:0:
256,192,177399,1,0,0:0:0:0:
256,192,177495,1,0,0:0:0:0:
256,192,177591,1,8,0:0:0:0:
256,192,177783,1,0,0:0:0:0:
256,192,177976,1,8,0:0:0:0:
256,192,178168,1,0,0:0:0:0:
256,192,178264,1,8,0:0:0:0:
256,192,178360,1,8,0:0:0:0:
256,192,178456,1,8,0:0:0:0:
256,192,178553,1,0,0:0:0:0:
256,192,178649,1,8,0:0:0:0:
256,192,178745,1,8,0:0:0:0:
256,192,178937,1,0,0:0:0:0:
256,192,179033,1,8,0:0:0:0:
256,192,179097,1,8,0:0:0:0:
256,192,179162,1,8,0:0:0:0:
256,192,179226,1,0,0:0:0:0:
256,192,179354,1,8,0:0:0:0:
256,192,179482,1,8,0:0:0:0:
256,192,179610,1,8,0:0:0:0:
256,192,179706,1,8,0:0:0:0:
256,192,179803,1,0,0:0:0:0:
256,192,179899,1,8,0:0:0:0:
256,192,179995,1,0,0:0:0:0:
256,192,180091,1,0,0:0:0:0:
256,192,180187,1,8,0:0:0:0:
256,192,180283,1,8,0:0:0:0:
256,192,180380,1,0,0:0:0:0:
256,192,180476,1,0,0:0:0:0:
256,192,180572,1,8,0:0:0:0:
256,192,180668,1,0,0:0:0:0:
256,192,180764,1,0,0:0:0:0:
256,192,180860,1,8,0:0:0:0:
256,192,180956,1,0,0:0:0:0:
256,192,181053,1,0,0:0:0:0:
256,192,181149,1,8,0:0:0:0:
256,192,181245,1,8,0:0:0:0:
256,192,181341,1,0,0:0:0:0:
256,192,181437,1,8,0:0:0:0:
256,192,181533,1,0,0:0:0:0:
256,192,181630,1,0,0:0:0:0:
256,192,181726,1,8,0:0:0:0:
256,192,181822,1,8,0:0:0:0:
256,192,181918,1,0,0:0:0:0:
256,192,182014,1,0,0:0:0:0:
256,192,182110,1,8,0:0:0:0:
256,192,182206,1,8,0:0:0:0:
256,192,182303,1,0,0:0:0:0:
256,192,182399,1,8,0:0:0:0:
256,192,182495,1,8,0:0:0:0:
256,192,182591,1,8,0:0:0:0:
256,192,182687,1,0,0:0:0:0:
256,192,182783,1,0,0:0:0:0:
256,192,182880,1,8,0:0:0:0:
256,192,182976,1,8,0:0:0:0:
256,192,183072,1,8,0:0:0:0:
256,192,183168,1,0,0:0:0:0:
256,192,183264,1,0,0:0:0:0:
256,192,183360,1,0,0:0:0:0:
256,192,183456,1,8,0:0:0:0:
256,192,183553,1,8,0:0:0:0:
256,192,183649,1,0,0:0:0:0:
256,192,183745,1,0,0:0:0:0:
256,192,183841,1,8,0:0:0:0:
256,192,183937,1,0,0:0:0:0:
256,192,184033,1,8,0:0:0:0:
256,192,184130,1,0,0:0:0:0:
256,192,184226,1,8,0:0:0:0:
256,192,184322,1,8,0:0:0:0:
256,192,184418,1,0,0:0:0:0:
256,192,184514,1,0,0:0:0:0:
256,192,184610,1,8,0:0:0:0:
256,192,184706,1,0,0:0:0:0:
256,192,184803,1,8,0:0:0:0:
256,192,184899,1,8,0:0:0:0:
256,192,184995,1,0,0:0:0:0:
256,192,185091,1,0,0:0:0:0:
256,192,185187,1,8,0:0:0:0:
256,192,185283,1,0,0:0:0:0:
256,192,185380,1,8,0:0:0:0:
256,192,185476,1,8,0:0:0:0:
256,192,185572,1,0,0:0:0:0:
256,192,185668,1,0,0:0:0:0:
256,192,185764,1,8,0:0:0:0:
256,192,185956,1,4,0:0:0:0:
256,192,186245,1,8,0:0:0:0:
256,192,186341,1,0,0:0:0:0:
256,192,186533,1,8,0:0:0:0:
256,192,186726,1,0,0:0:0:0:
256,192,186822,1,0,0:0:0:0:
256,192,186918,1,8,0:0:0:0:
256,192,187014,1,8,0:0:0:0:
256,192,187110,1,0,0:0:0:0:
256,192,187303,1,8,0:0:0:0:
256,192,187495,1,4,0:0:0:0:
256,192,187687,1,0,0:0:0:0:
256,192,187783,1,8,0:0:0:0:
256,192,187880,1,0,0:0:0:0:
256,192,188072,1,8,0:0:0:0:
256,192,188264,1,0,0:0:0:0:
256,192,188456,1,8,0:0:0:0:
256,192,188553,1,8,0:0:0:0:
256,192,188649,1,0,0:0:0:0:
256,192,188745,1,0,0:0:0:0:
256,192,188841,1,8,0:0:0:0:
256,192,189033,1,0,0:0:0:0:
256,192,189226,1,0,0:0:0:0:
256,192,189418,1,0,0:0:0:0:
256,192,189610,1,0,0:0:0:0:
256,192,189803,1,0,0:0:0:0:
256,192,189899,1,0,0:0:0:0:
256,192,189995,1,0,0:0:0:0:
256,192,190091,1,0,0:0:0:0:
256,192,190187,1,0,0:0:0:0:
256,192,190283,1,0,0:0:0:0:
256,192,190380,1,0,0:0:0:0:
256,192,190476,1,0,0:0:0:0:
256,192,190572,1,8,0:0:0:0:
256,192,190668,1,8,0:0:0:0:
256,192,190764,1,0,0:0:0:0:
256,192,190860,1,8,0:0:0:0:
256,192,190956,1,0,0:0:0:0:
256,192,191053,1,0,0:0:0:0:
256,192,191149,1,8,0:0:0:0:
256,192,191213,1,8,0:0:0:0:
256,192,191277,1,8,0:0:0:0:
256,192,191341,1,0,0:0:0:0:
256,192,191437,1,8,0:0:0:0:
256,192,191533,1,0,0:0:0:0:
256,192,191630,1,0,0:0:0:0:
256,192,191726,1,8,0:0:0:0:
256,192,191822,1,0,0:0:0:0:
256,192,191918,1,8,0:0:0:0:
256,192,192014,1,8,0:0:0:0:
256,192,192110,1,0,0:0:0:0:
256,192,192687,1,0,0:0:0:0:
256,192,193649,1,8,0:0:0:0:
256,192,194418,1,8,0:0:0:0:
256,192,194674,1,8,0:0:0:0:
256,192,194931,1,8,0:0:0:0:
256,192,195187,1,0,0:0:0:0:
256,192,195764,1,8,0:0:0:0:
256,192,196726,1,8,0:0:0:0:
256,192,197495,1,0,0:0:0:0:
256,192,197687,1,8,0:0:0:0:
256,192,197880,1,8,0:0:0:0:
256,192,198072,1,8,0:0:0:0:
256,192,198264,1,0,0:0:0:0:
256,192,198841,1,8,0:0:0:0:
256,192,199418,1,8,0:0:0:0:
256,192,199995,1,0,0:0:0:0:
256,192,200380,1,8,0:0:0:0:
256,192,200668,1,8,0:0:0:0:
256,192,200764,1,8,0:0:0:0:
256,192,200860,1,8,0:0:0:0:
256,192,200956,1,8,0:0:0:0:
256,192,201053,1,8,0:0:0:0:
256,192,201149,1,8,0:0:0:0:
256,192,201245,1,8,0:0:0:0:
256,192,201341,1,0,0:0:0:0:
256,192,201918,1,8,0:0:0:0:
256,192,202110,1,0,0:0:0:0:
256,192,202495,1,0,0:0:0:0:
256,192,202687,1,8,0:0:0:0:
256,192,203072,1,0,0:0:0:0:
256,192,203168,1,0,0:0:0:0:
256,192,203264,1,8,0:0:0:0:
256,192,203360,1,8,0:0:0:0:
256,192,203456,1,0,0:0:0:0:
256,192,203553,1,0,0:0:0:0:
256,192,203649,1,8,0:0:0:0:
256,192,203745,1,8,0:0:0:0:
256,192,203841,1,8,0:0:0:0:
256,192,203937,1,8,0:0:0:0:
256,192,204033,1,0,0:0:0:0:
256,192,204130,1,0,0:0:0:0:
256,192,204226,1,8,0:0:0:0:
256,192,204418,1,0,0:0:0:0:
256,192,204706,1,8,0:0:0:0:
256,192,204803,1,0,0:0:0:0:
256,192,204995,1,8,0:0:0:0:
256,192,205187,1,0,0:0:0:0:
256,192,205283,1,8,0:0:0:0:
256,192,205572,1,0,0:0:0:0:
256,192,205860,1,8,0:0:0:0:
256,192,205956,1,0,0:0:0:0:
256,192,206149,1,8,0:0:0:0:
256,192,206341,1,0,0:0:0:0:
256,192,206437,1,0,0:0:0:0:
256,192,206533,1,8,0:0:0:0:
256,192,206630,1,8,0:0:0:0:
256,192,206726,1,0,0:0:0:0:
256,192,206918,1,0,0:0:0:0:
256,192,207110,1,8,0:0:0:0:
256,192,207303,1,8,0:0:0:0:
256,192,207495,1,0,0:0:0:0:
256,192,207591,1,0,0:0:0:0:
256,192,207687,1,8,0:0:0:0:
256,192,207783,1,8,0:0:0:0:
256,192,207976,1,0,0:0:0:0:
256,192,208168,1,8,0:0:0:0:
256,192,208264,1,8,0:0:0:0:
256,192,208360,1,8,0:0:0:0:
256,192,208456,1,0,0:0:0:0:
256,192,208553,1,0,0:0:0:0:
256,192,208745,1,0,0:0:0:0:
256,192,208937,1,8,0:0:0:0:
256,192,209033,1,0,0:0:0:0:
256,192,209226,1,0,0:0:0:0:
256,192,209322,1,0,0:0:0:0:
256,192,209418,1,8,0:0:0:0:
256,192,209514,1,8,0:0:0:0:
256,192,209610,1,0,0:0:0:0:
256,192,209706,1,0,0:0:0:0:
256,192,209803,1,8,0:0:0:0:
256,192,209899,1,0,0:0:0:0:
256,192,209995,1,0,0:0:0:0:
256,192,210091,1,8,0:0:0:0:
256,192,210187,1,0,0:0:0:0:
256,192,210283,1,8,0:0:0:0:
256,192,210380,1,8,0:0:0:0:
256,192,210476,1,8,0:0:0:0:
256,192,210572,1,0,0:0:0:0:
256,192,210860,1,8,0:0:0:0:
256,192,210956,1,0,0:0:0:0:
256,192,211149,1,8,0:0:0:0:
256,192,211341,1,0,0:0:0:0:
256,192,211533,1,0,0:0:0:0:
256,192,211726,1,8,0:0:0:0:
256,192,212110,1,8,0:0:0:0:
256,192,212206,1,0,0:0:0:0:
256,192,212303,1,0,0:0:0:0:
256,192,212399,1,8,0:0:0:0:
256,192,212495,1,8,0:0:0:0:
256,192,212591,1,0,0:0:0:0:
256,192,212687,1,0,0:0:0:0:
256,192,212783,1,8,0:0:0:0:
256,192,212880,1,0,0:0:0:0:
256,192,212976,1,8,0:0:0:0:
256,192,213072,1,0,0:0:0:0:
256,192,213168,1,0,0:0:0:0:
256,192,213264,1,8,0:0:0:0:
256,192,213360,1,0,0:0:0:0:
256,192,213456,1,8,0:0:0:0:
256,192,213553,1,8,0:0:0:0:
256,192,213649,1,0,0:0:0:0:
256,192,214033,1,8,0:0:0:0:
256,192,214226,1,0,0:0:0:0:
256,192,214418,1,8,0:0:0:0:
256,192,214610,1,0,0:0:0:0:
256,192,214803,1,8,0:0:0:0:
256,192,214995,1,8,0:0:0:0:
256,192,215187,1,0,0:0:0:0:
256,192,215380,1,0,0:0:0:0:
256,192,215572,1,8,0:0:0:0:
256,192,215764,1,0,0:0:0:0:
256,192,215956,1,8,0:0:0:0:
256,192,216149,1,0,0:0:0:0:
256,192,216245,1,0,0:0:0:0:
256,192,216341,1,8,0:0:0:0:
256,192,216437,1,0,0:0:0:0:
256,192,216533,1,8,0:0:0:0:
256,192,216630,1,8,0:0:0:0:
256,192,216726,1,0,0:0:0:0:
256,192,217110,1,8,0:0:0:0:
256,192,217303,1,0,0:0:0:0:
256,192,217495,1,8,0:0:0:0:
256,192,217687,1,0,0:0:0:0:
256,192,217880,1,8,0:0:0:0:
256,192,218072,1,8,0:0:0:0:
256,192,218264,1,8,0:0:0:0:
256,192,218456,1,0,0:0:0:0:
256,192,218649,1,8,0:0:0:0:
256,192,218841,1,8,0:0:0:0:
256,192,219033,1,8,0:0:0:0:
256,192,219130,1,0,0:0:0:0:
256,192,219226,1,0,0:0:0:0:
256,192,219322,1,8,0:0:0:0:
256,192,219610,1,8,0:0:0:0:
256,192,219803,1,4,0:0:0:0:
256,192,220091,1,4,0:0:0:0:
256,192,220380,1,12,0:0:0:0:
256,192,220572,1,4,0:0:0:0:
256,192,220860,1,4,0:0:0:0:
256,192,221149,1,12,0:0:0:0:
256,192,221341,1,4,0:0:0:0:
256,192,221630,1,4,0:0:0:0:
256,192,221918,1,12,0:0:0:0:
256,192,222110,1,4,0:0:0:0:
256,192,222399,1,12,0:0:0:0:
256,192,222687,1,12,0:0:0:0:
256,192,222880,1,0,0:0:0:0:
256,192,223072,1,0,0:0:0:0:
256,192,223264,1,0,0:0:0:0:
256,192,223360,1,8,0:0:0:0:
256,192,223456,1,0,0:0:0:0:
256,192,223553,1,8,0:0:0:0:
256,192,223649,1,0,0:0:0:0:
256,192,223745,1,0,0:0:0:0:
256,192,223841,1,8,0:0:0:0:
256,192,223937,1,0,0:0:0:0:
256,192,224033,1,0,0:0:0:0:
256,192,224130,1,8,0:0:0:0:
256,192,224226,1,8,0:0:0:0:
256,192,224322,1,8,0:0:0:0:
256,192,224418,1,0,0:0:0:0:
256,192,224514,1,8,0:0:0:0:
256,192,224610,1,8,0:0:0:0:
256,192,224706,1,0,0:0:0:0:
256,192,224803,1,8,0:0:0:0:
256,192,224899,1,8,0:0:0:0:
256,192,224995,1,0,0:0:0:0:
256,192,225091,1,8,0:0:0:0:
256,192,225187,1,8,0:0:0:0:
256,192,225283,1,0,0:0:0:0:
256,192,225380,1,0,0:0:0:0:
256,192,225476,1,8,0:0:0:0:
256,192,225572,1,0,0:0:0:0:
256,192,225668,1,8,0:0:0:0:
256,192,225764,1,0,0:0:0:0:
256,192,228264,5,0,0:0:0:0:
256,192,228649,1,12,0:0:0:0:
256,192,229033,1,4,0:0:0:0:
256,192,229226,1,0,0:0:0:0:
256,192,229322,1,8,0:0:0:0:
256,192,229418,1,0,0:0:0:0:
256,192,229514,1,0,0:0:0:0:
256,192,229610,1,8,0:0:0:0:
256,192,229803,1,8,0:0:0:0:
256,192,229899,1,0,0:0:0:0:
256,192,229995,1,0,0:0:0:0:
256,192,230091,1,8,0:0:0:0:
256,192,230187,1,0,0:0:0:0:
256,192,230380,1,8,0:0:0:0:
256,192,230572,1,0,0:0:0:0:
256,192,230668,1,0,0:0:0:0:
256,192,230764,1,0,0:0:0:0:
256,192,230860,1,8,0:0:0:0:
256,192,230956,1,0,0:0:0:0:
256,192,231149,1,8,0:0:0:0:
256,192,231245,1,8,0:0:0:0:
256,192,231341,1,0,0:0:0:0:
256,192,231437,1,8,0:0:0:0:
256,192,231533,1,0,0:0:0:0:
256,192,231726,1,8,0:0:0:0:
256,192,231918,1,8,0:0:0:0:
256,192,232014,1,8,0:0:0:0:
256,192,232110,1,0,0:0:0:0:
256,192,232303,1,0,0:0:0:0:
256,192,232399,1,8,0:0:0:0:
256,192,232495,1,0,0:0:0:0:
256,192,232591,1,0,0:0:0:0:
256,192,232687,1,8,0:0:0:0:
256,192,232880,1,8,0:0:0:0:
256,192,232976,1,0,0:0:0:0:
256,192,233072,1,0,0:0:0:0:
256,192,233168,1,8,0:0:0:0:
256,192,233264,1,0,0:0:0:0:
256,192,233456,1,8,0:0:0:0:
256,192,233649,1,4,0:0:0:0:
256,192,234033,1,4,0:0:0:0:
256,192,234418,1,12,0:0:0:0:
256,192,234803,1,12,0:0:0:0:
256,192,235187,1,0,0:0:0:0:
256,192,235283,1,0,0:0:0:0:
256,192,235380,1,0,0:0:0:0:
256,192,235476,1,8,0:0:0:0:
256,192,235572,1,0,0:0:0:0:
256,192,235764,1,8,0:0:0:0:
256,192,235956,1,8,0:0:0:0:
256,192,236053,1,0,0:0:0:0:
256,192,236149,1,0,0:0:0:0:
256,192,236245,1,8,0:0:0:0:
256,192,236341,1,0,0:0:0:0:
256,192,236533,1,8,0:0:0:0:
256,192,236726,1,0,0:0:0:0:
256,192,236918,1,0,0:0:0:0:
256,192,237014,1,8,0:0:0:0:
256,192,237110,1,0,0:0:0:0:
256,192,237206,1,0,0:0:0:0:
256,192,237303,1,8,0:0:0:0:
256,192,237495,1,0,0:0:0:0:
256,192,237591,1,8,0:0:0:0:
256,192,237687,1,0,0:0:0:0:
256,192,237880,1,8,0:0:0:0:
256,192,237976,1,0,0:0:0:0:
256,192,238072,1,8,0:0:0:0:
256,192,238168,1,8,0:0:0:0:
256,192,238264,1,0,0:0:0:0:
256,192,238456,1,0,0:0:0:0:
256,192,238553,1,8,0:0:0:0:
256,192,238649,1,0,0:0:0:0:
256,192,238841,1,8,0:0:0:0:
256,192,239033,1,8,0:0:0:0:
256,192,239130,1,0,0:0:0:0:
256,192,239226,1,0,0:0:0:0:
256,192,239322,1,8,0:0:0:0:
256,192,239418,1,0,0:0:0:0:
256,192,239610,1,8,0:0:0:0:
256,192,239803,1,0,0:0:0:0:
256,192,239899,1,8,0:0:0:0:
256,192,239995,1,0,0:0:0:0:
256,192,240091,1,8,0:0:0:0:
256,192,240187,1,0,0:0:0:0:
256,192,240380,1,8,0:0:0:0:
256,192,240572,1,0,0:0:0:0:
256,192,240764,1,0,0:0:0:0:
256,192,240860,1,0,0:0:0:0:
256,192,240956,1,8,0:0:0:0:
256,192,241149,1,0,0:0:0:0:
256,192,241277,1,8,0:0:0:0:
256,192,241341,1,8,0:0:0:0:
256,192,241533,1,0,0:0:0:0:
256,192,241726,1,12,0:0:0:0:
256,192,242110,1,8,0:0:0:0:
256,192,242206,1,0,0:0:0:0:
256,192,242303,1,0,0:0:0:0:
256,192,242399,1,8,0:0:0:0:
256,192,242495,1,0,0:0:0:0:
256,192,242687,1,8,0:0:0:0:
256,192,242880,1,0,0:0:0:0:
256,192,242976,1,0,0:0:0:0:
256,192,243072,1,0,0:0:0:0:
256,192,243168,1,8,0:0:0:0:
256,192,243264,1,0,0:0:0:0:
256,192,243456,1,8,0:0:0:0:
256,192,243553,1,0,0:0:0:0:
256,192,243649,1,8,0:0:0:0:
256,192,243745,1,8,0:0:0:0:
256,192,243841,1,0,0:0:0:0:
256,192,244033,1,8,0:0:0:0:
256,192,244226,1,8,0:0:0:0:
256,192,244322,1,8,0:0:0:0:
256,192,244418,1,0,0:0:0:0:
256,192,244610,1,0,0:0:0:0:
256,192,244706,1,8,0:0:0:0:
256,192,244803,1,0,0:0:0:0:
256,192,244899,1,0,0:0:0:0:
256,192,244995,1,8,0:0:0:0:
256,192,245187,1,8,0:0:0:0:
256,192,245283,1,0,0:0:0:0:
256,192,245380,1,0,0:0:0:0:
256,192,245476,1,8,0:0:0:0:
256,192,245572,1,0,0:0:0:0:
256,192,245764,1,8,0:0:0:0:
256,192,245956,1,4,0:0:0:0:
256,192,246341,1,4,0:0:0:0:
256,192,246726,1,12,0:0:0:0:
256,192,247110,1,12,0:0:0:0:
256,192,247303,1,0,0:0:0:0:
256,192,247495,1,4,0:0:0:0:
256,192,247687,1,8,0:0:0:0:
256,192,247783,1,8,0:0:0:0:
256,192,247880,1,0,0:0:0:0:
256,192,248072,1,8,0:0:0:0:
256,192,248264,1,0,0:0:0:0:
256,192,248360,1,0,0:0:0:0:
256,192,248553,1,8,0:0:0:0:
256,192,248649,1,0,0:0:0:0:
256,192,248841,1,8,0:0:0:0:
256,192,249033,1,0,0:0:0:0:
256,192,249130,1,8,0:0:0:0:
256,192,249226,1,0,0:0:0:0:
256,192,249322,1,8,0:0:0:0:
256,192,249418,1,0,0:0:0:0:
256,192,249514,1,0,0:0:0:0:
256,192,249610,1,8,0:0:0:0:
256,192,249706,1,0,0:0:0:0:
256,192,249803,1,8,0:0:0:0:
256,192,249867,1,8,0:0:0:0:
256,192,249931,1,8,0:0:0:0:
256,192,249995,1,0,0:0:0:0:
256,192,250059,1,0,0:0:0:0:
256,192,250123,1,0,0:0:0:0:
256,192,250187,1,8,0:0:0:0:
256,192,250283,1,0,0:0:0:0:
256,192,250380,1,8,0:0:0:0:
256,192,250476,1,8,0:0:0:0:
256,192,250572,1,0,0:0:0:0:
256,192,250764,1,0,0:0:0:0:
256,192,250860,1,8,0:0:0:0:
256,192,250956,1,0,0:0:0:0:
256,192,251053,1,0,0:0:0:0:
256,192,251149,1,8,0:0:0:0:
256,192,251341,1,0,0:0:0:0:
256,192,251437,1,0,0:0:0:0:
256,192,251533,1,0,0:0:0:0:
256,192,251630,1,8,0:0:0:0:
256,192,251822,1,0,0:0:0:0:
256,192,251918,1,8,0:0:0:0:
256,192,252110,1,0,0:0:0:0:
256,192,252303,1,0,0:0:0:0:
256,192,252399,1,8,0:0:0:0:
256,192,252495,1,0,0:0:0:0:
256,192,252591,1,0,0:0:0:0:
256,192,252687,1,8,0:0:0:0:
256,192,252783,1,8,0:0:0:0:
256,192,252880,1,0,0:0:0:0:
256,192,253072,1,0,0:0:0:0:
256,192,253168,1,0,0:0:0:0:
256,192,253264,1,8,0:0:0:0:
256,192,253456,1,8,0:0:0:0:
256,192,253553,1,8,0:0:0:0:
256,192,253649,1,0,0:0:0:0:
256,192,253745,1,0,0:0:0:0:
256,192,253841,1,0,0:0:0:0:
256,192,253937,1,8,0:0:0:0:
256,192,254130,1,0,0:0:0:0:
256,192,254226,1,8,0:0:0:0:
256,192,254418,1,0,0:0:0:0:
256,192,254610,1,0,0:0:0:0:
256,192,254706,1,8,0:0:0:0:
256,192,254803,1,0,0:0:0:0:
256,192,254899,1,0,0:0:0:0:
256,192,254995,1,8,0:0:0:0:
256,192,255187,1,4,0:0:0:0:
256,192,255572,1,4,0:0:0:0:
256,192,255956,1,12,0:0:0:0:
256,192,256341,1,12,0:0:0:0:
256,192,256726,1,0,0:0:0:0:
256,192,256918,1,0,0:0:0:0:
256,192,257014,1,8,0:0:0:0:
256,192,257110,1,0,0:0:0:0:
256,192,257206,1,0,0:0:0:0:
256,192,257303,1,8,0:0:0:0:
256,192,257495,1,0,0:0:0:0:
256,192,257591,1,0,0:0:0:0:
256,192,257687,1,0,0:0:0:0:
256,192,257783,1,8,0:0:0:0:
256,192,257976,1,0,0:0:0:0:
256,192,258072,1,8,0:0:0:0:
256,192,258264,1,0,0:0:0:0:
256,192,258456,1,0,0:0:0:0:
256,192,258553,1,8,0:0:0:0:
256,192,258649,1,0,0:0:0:0:
256,192,258745,1,0,0:0:0:0:
256,192,258841,1,8,0:0:0:0:
256,192,258937,1,8,0:0:0:0:
256,192,259033,1,0,0:0:0:0:
256,192,259226,1,0,0:0:0:0:
256,192,259322,1,0,0:0:0:0:
256,192,259418,1,8,0:0:0:0:
256,192,259610,1,8,0:0:0:0:
256,192,259706,1,8,0:0:0:0:
256,192,259803,1,0,0:0:0:0:
256,192,259899,1,0,0:0:0:0:
256,192,259995,1,0,0:0:0:0:
256,192,260091,1,8,0:0:0:0:
256,192,260283,1,0,0:0:0:0:
256,192,260380,1,8,0:0:0:0:
256,192,260572,1,0,0:0:0:0:
256,192,260764,1,0,0:0:0:0:
256,192,260860,1,8,0:0:0:0:
256,192,260956,1,0,0:0:0:0:
256,192,261053,1,0,0:0:0:0:
256,192,261149,1,8,0:0:0:0:
256,192,261341,1,0,0:0:0:0:
256,192,261437,1,8,0:0:0:0:
256,192,261533,1,0,0:0:0:0:
256,192,261630,1,8,0:0:0:0:
256,192,261726,1,0,0:0:0:0:
256,192,261918,1,8,0:0:0:0:
256,192,262110,1,0,0:0:0:0:
256,192,262303,1,0,0:0:0:0:
256,192,262399,1,0,0:0:0:0:
256,192,262495,1,8,0:0:0:0:
256,192,262687,1,0,0:0:0:0:
256,192,262815,1,8,0:0:0:0:
256,192,262880,1,8,0:0:0:0:
256,192,263072,1,0,0:0:0:0:
256,192,263264,1,12,0:0:0:0:
256,192,263456,1,8,0:0:0:0:
256,192,263649,1,0,0:0:0:0:
256,192,263745,1,0,0:0:0:0:
256,192,263841,1,0,0:0:0:0:
256,192,263937,1,8,0:0:0:0:
256,192,264130,1,0,0:0:0:0:
256,192,264226,1,8,0:0:0:0:
256,192,264418,1,0,0:0:0:0:
256,192,264610,1,0,0:0:0:0:
256,192,264706,1,8,0:0:0:0:
256,192,264803,1,0,0:0:0:0:
256,192,264899,1,0,0:0:0:0:
256,192,264995,1,8,0:0:0:0:
256,192,265091,1,8,0:0:0:0:
256,192,265187,1,0,0:0:0:0:
256,192,265380,1,0,0:0:0:0:
256,192,265476,1,0,0:0:0:0:
256,192,265572,1,8,0:0:0:0:
256,192,265764,1,8,0:0:0:0:
256,192,265860,1,8,0:0:0:0:
256,192,265956,1,0,0:0:0:0:
256,192,266053,1,8,0:0:0:0:
256,192,266149,1,0,0:0:0:0:
256,192,266245,1,8,0:0:0:0:
256,192,266437,1,0,0:0:0:0:
256,192,266533,1,8,0:0:0:0:
256,192,266726,1,0,0:0:0:0:
256,192,266918,1,0,0:0:0:0:
256,192,267014,1,8,0:0:0:0:
256,192,267110,1,0,0:0:0:0:
256,192,267206,1,0,0:0:0:0:
256,192,267303,1,8,0:0:0:0:
256,192,267495,1,4,0:0:0:0:
256,192,267783,1,0,0:0:0:0:
256,192,267880,1,0,0:0:0:0:
256,192,268072,1,8,0:0:0:0:
256,192,268168,1,8,0:0:0:0:
256,192,268264,1,0,0:0:0:0:
256,192,268456,1,8,0:0:0:0:
256,192,268649,1,0,0:0:0:0:
256,192,268745,1,0,0:0:0:0:
256,192,268841,1,8,0:0:0:0:
256,192,268937,1,8,0:0:0:0:
256,192,269033,1,0,0:0:0:0:
256,192,269226,1,0,0:0:0:0:
256,192,269418,1,8,0:0:0:0:
256,192,269610,1,0,0:0:0:0:
256,192,269706,1,0,0:0:0:0:
256,192,269803,1,0,0:0:0:0:
256,192,269995,1,0,0:0:0:0:
256,192,270187,1,8,0:0:0:0:
256,192,270380,1,0,0:0:0:0:
256,192,270476,1,8,0:0:0:0:
256,192,270572,1,0,0:0:0:0:
256,192,270668,1,0,0:0:0:0:
256,192,270764,1,8,0:0:0:0:
256,192,270860,1,0,0:0:0:0:
256,192,270956,1,8,0:0:0:0:
256,192,271053,1,8,0:0:0:0:
256,192,271149,1,0,0:0:0:0:
256,192,271245,1,8,0:0:0:0:
256,192,271341,1,0,0:0:0:0:
256,192,271405,1,0,0:0:0:0:
256,192,271469,1,0,0:0:0:0:
256,192,271533,1,8,0:0:0:0:
256,192,271630,1,0,0:0:0:0:
256,192,271726,1,8,0:0:0:0:
256,192,271790,1,8,0:0:0:0:
256,192,271854,1,8,0:0:0:0:
256,192,271918,1,0,0:0:0:0:
256,192,272014,1,8,0:0:0:0:
256,192,272110,1,0,0:0:0:0:
256,192,272303,1,8,0:0:0:0:
256,192,272399,1,0,0:0:0:0:
256,192,272591,1,0,0:0:0:0:
256,192,272687,1,8,0:0:0:0:
256,192,272880,1,0,0:0:0:0:
256,192,272976,1,8,0:0:0:0:
256,192,273168,1,8,0:0:0:0:
256,192,273264,1,0,0:0:0:0:
256,192,273360,1,0,0:0:0:0:
256,192,273456,1,8,0:0:0:0:
256,192,273649,1,0,0:0:0:0:
256,192,273745,1,0,0:0:0:0:
256,192,273841,1,0,0:0:0:0:
256,192,273937,1,0,0:0:0:0:
256,192,274033,1,0,0:0:0:0:
256,192,274130,1,0,0:0:0:0:
256,192,274226,1,8,0:0:0:0:
256,192,274290,1,8,0:0:0:0:
256,192,274354,1,8,0:0:0:0:
256,192,274418,1,0,0:0:0:0:
256,192,274514,1,0,0:0:0:0:
256,192,274610,1,8,0:0:0:0:
256,192,274803,1,8,0:0:0:0:
256,192,274995,1,8,0:0:0:0:
256,192,275187,1,4,0:0:0:0:
256,192,275476,1,4,0:0:0:0:
256,192,275764,1,12,0:0:0:0:
256,192,275956,1,4,0:0:0:0:
256,192,276245,1,4,0:0:0:0:
256,192,276533,1,12,0:0:0:0:
256,192,276726,1,4,0:0:0:0:
256,192,277014,1,4,0:0:0:0:
256,192,277303,1,12,0:0:0:0:
256,192,277495,1,4,0:0:0:0:
256,192,277687,1,8,0:0:0:0:
256,192,278072,1,8,0:0:0:0:
256,192,278264,1,4,0:0:0:0:
256,192,278553,1,4,0:0:0:0:
256,192,278841,1,12,0:0:0:0:
256,192,279033,1,4,0:0:0:0:
256,192,279322,1,4,0:0:0:0:
256,192,279610,1,12,0:0:0:0:
256,192,279803,1,4,0:0:0:0:
256,192,280091,1,12,0:0:0:0:
256,192,280380,1,12,0:0:0:0:
256,192,280668,1,12,0:0:0:0:
256,192,280860,1,0,0:0:0:0:
256,192,281149,1,8,0:0:0:0:
256,192,281341,1,4,0:0:0:0:
256,192,281630,1,4,0:0:0:0:
256,192,281918,1,12,0:0:0:0:
256,192,282110,1,4,0:0:0:0:
256,192,282399,1,4,0:0:0:0:
256,192,282687,1,12,0:0:0:0:
256,192,282880,1,4,0:0:0:0:
256,192,283168,1,4,0:0:0:0:
256,192,283456,1,12,0:0:0:0:
256,192,283649,1,0,0:0:0:0:
256,192,283841,1,12,0:0:0:0:
256,192,284130,1,12,0:0:0:0:
256,192,284418,1,4,0:0:0:0:
256,192,284706,1,4,0:0:0:0:
256,192,284995,1,12,0:0:0:0:
256,192,285187,1,4,0:0:0:0:
256,192,285476,1,12,0:0:0:0:
256,192,285764,1,12,0:0:0:0:
256,192,285956,1,4,0:0:0:0:
256,192,286149,1,8,0:0:0:0:
256,192,286245,1,8,0:0:0:0:
256,192,286341,1,0,0:0:0:0:
256,192,286533,1,8,0:0:0:0:
256,192,286726,1,0,0:0:0:0:
256,192,286822,1,8,0:0:0:0:
256,192,287014,1,8,0:0:0:0:
256,192,287110,1,0,0:0:0:0:
256,192,287206,1,0,0:0:0:0:
256,192,287303,1,8,0:0:0:0:
256,192,287495,1,4,0:0:0:0:
256,192,287783,1,8,0:0:0:0:
256,192,287880,1,0,0:0:0:0:
256,192,288072,1,8,0:0:0:0:
256,192,288264,1,0,0:0:0:0:
256,192,288456,1,0,0:0:0:0:
256,192,288553,1,8,0:0:0:0:
256,192,288649,1,0,0:0:0:0:
256,192,288841,1,8,0:0:0:0:
256,192,289033,1,0,0:0:0:0:
256,192,289322,1,8,0:0:0:0:
256,192,289418,1,0,0:0:0:0:
256,192,289610,1,8,0:0:0:0:
256,192,289803,1,0,0:0:0:0:
256,192,289899,1,0,0:0:0:0:
256,192,289995,1,8,0:0:0:0:
256,192,290091,1,8,0:0:0:0:
256,192,290187,1,0,0:0:0:0:
256,192,290380,1,8,0:0:0:0:
256,192,290572,1,0,0:0:0:0:
256,192,290860,1,8,0:0:0:0:
256,192,290956,1,0,0:0:0:0:
256,192,291149,1,8,0:0:0:0:
256,192,291341,1,0,0:0:0:0:
256,192,291533,1,0,0:0:0:0:
256,192,291630,1,8,0:0:0:0:
256,192,291726,1,0,0:0:0:0:
256,192,291822,1,0,0:0:0:0:
256,192,291918,1,8,0:0:0:0:
256,192,292110,1,4,0:0:0:0:
256,192,292399,1,12,0:0:0:0:
256,192,292687,1,12,0:0:0:0:
256,192,292976,1,12,0:0:0:0:
256,192,293168,1,0,0:0:0:0:
256,192,293456,1,8,0:0:0:0:
256,192,293649,1,4,0:0:0:0:
256,192,293937,1,8,0:0:0:0:
256,192,294033,1,0,0:0:0:0:
256,192,294226,1,8,0:0:0:0:
256,192,294418,1,0,0:0:0:0:
256,192,294610,1,0,0:0:0:0:
256,192,294706,1,8,0:0:0:0:
256,192,294803,1,0,0:0:0:0:
256,192,294995,1,8,0:0:0:0:
256,192,295187,1,4,0:0:0:0:
256,192,295476,1,8,0:0:0:0:
256,192,295572,1,0,0:0:0:0:
256,192,295764,1,8,0:0:0:0:
256,192,295956,1,0,0:0:0:0:
256,192,296149,1,12,0:0:0:0:
256,192,296437,1,12,0:0:0:0:
256,192,296726,1,4,0:0:0:0:
256,192,296918,1,0,0:0:0:0:
256,192,297014,1,8,0:0:0:0:
256,192,297110,1,0,0:0:0:0:
256,192,297303,1,8,0:0:0:0:
256,192,297495,1,4,0:0:0:0:
256,192,297687,1,0,0:0:0:0:
256,192,297783,1,8,0:0:0:0:
256,192,297880,1,0,0:0:0:0:
256,192,297976,1,0,0:0:0:0:
256,192,298072,1,8,0:0:0:0:
256,192,298264,1,0,0:0:0:0:
256,192,298360,1,0,0:0:0:0:
256,192,298456,1,0,0:0:0:0:
256,192,298553,1,8,0:0:0:0:
256,192,298649,1,0,0:0:0:0:
256,192,298841,1,8,0:0:0:0:
256,192,299033,1,0,0:0:0:0:
256,192,299130,1,8,0:0:0:0:
256,192,299322,1,8,0:0:0:0:
256,192,299418,1,0,0:0:0:0:
256,192,299610,1,8,0:0:0:0:
256,192,299803,1,0,0:0:0:0:
256,192,299995,1,0,0:0:0:0:
256,192,300187,1,0,0:0:0:0:
256,192,300380,1,0,0:0:0:0:
256,192,300572,1,0,0:0:0:0:
256,192,300668,1,0,0:0:0:0:
256,192,300764,1,0,0:0:0:0:
256,192,300860,1,0,0:0:0:0:
256,192,300956,1,0,0:0:0:0:
256,192,301053,1,0,0:0:0:0:
256,192,301149,1,0,0:0:0:0:
256,192,301245,1,0,0:0:0:0:
256,192,301341,1,8,0:0:0:0:
256,192,301533,1,8,0:0:0:0:
256,192,301726,1,0,0:0:0:0:
256,192,301918,1,8,0:0:0:0:
256,192,302303,1,8,0:0:0:0:
256,192,302591,1,8,0:0:0:0:
256,192,302880,1,0,0:0:0:0:
256,192,303180,1,0,0:0:0:0:
256,192,303480,1,8,0:0:0:0:
256,192,303780,1,0,0:0:0:0:
256,192,304155,1,0,0:0:0:0:
256,192,304587,1,0,0:0:0:0:
256,192,305333,12,8,310133,0:0:0:0:
