osu file format v14

[General]
AudioFilename: audio.mp3
AudioLeadIn: 0
PreviewTime: 122866
Countdown: 0
SampleSet: Soft
StackLeniency: 0.2
Mode: 0
LetterboxInBreaks: 0
WidescreenStoryboard: 1

[Editor]
Bookmarks: 10976,22488,44814,67139,78302,100628,122997,145322,160628,175976,189886,212168,234581,245744,268069,290395,312764,328069,329465,335046,346209
DistanceSpacing: 0.1
BeatDivisor: 4
GridSize: 8
TimelineZoom: 2.000006

[Metadata]
Title:Double Pendulum
TitleUnicode:Double Pendulum
Artist:BlackY
ArtistUnicode:BlackY
Creator:rrtyui
Version:Reflector Program v1.0 -Next Generation-
Source:
Tags:Ameth Rianno Firis Mistlud Kurantemelodii -tochi tyui
BeatmapID:1472242
BeatmapSetID:695053

[Difficulty]
HPDrainRate:5
CircleSize:4
OverallDifficulty:9
ApproachRate:9.3
SliderMultiplier:2.1
SliderTickRate:1

[Events]
//Background and Video events
0,0,"bg.jpg",0,0
//Break Periods
//Storyboard Layer 0 (Background)
Sprite,Background,Centre,"bg.jpg",320,240
//Storyboard Layer 1 (Fail)
//Storyboard Layer 2 (Pass)
//Storyboard Layer 3 (Foreground)
//Storyboard Sound Samples

[TimingPoints]
163,348.837209302326,4,2,1,60,1,0
163,-200,4,2,1,60,0,0
5046,-80,4,2,1,60,0,0
5308,-200,4,2,1,60,0,0
10628,-66.6666666666667,4,2,1,60,0,0
11151,-200,4,2,1,70,0,0
16209,-80,4,2,1,70,0,0
16471,-200,4,2,1,70,0,0
21442,-1000,4,2,1,70,0,0
21790,-200,4,2,1,70,0,0
22139,-50,4,2,1,70,0,0
22488,-100,4,2,1,80,0,0
23360,-100,4,2,1,50,0,0
23535,-50,4,2,1,50,0,0
23709,-90.9090909090909,4,2,1,50,0,0
24407,-64.5161290322581,4,2,1,50,0,0
24752,-100,4,2,1,50,0,0
24930,-50,4,2,1,50,0,0
25104,-400,4,2,1,50,0,0
26500,-100,4,2,1,50,0,0
26674,-68.9655172413793,4,2,1,50,0,0
27023,-100,4,2,1,40,0,0
27197,-68.9655172413793,4,2,1,50,0,0
27546,-100,4,2,1,40,0,0
27721,-400,4,2,1,50,0,0
28942,-100,4,2,1,40,0,0
29116,-100,4,2,1,50,0,0
29988,-76.9230769230769,4,2,1,50,0,0
30860,-68.9655172413793,4,2,1,50,0,0
31209,-100,4,2,1,50,0,0
31383,-68.9655172413793,4,2,1,50,0,0
31732,-100,4,2,1,50,0,0
31907,-200,4,2,1,50,0,0
32081,-500,4,2,1,50,0,0
34523,-100,4,2,1,50,0,0
34697,-50,4,2,1,50,0,0
34872,-90.9090909090909,4,2,1,50,0,0
35395,-100,4,2,1,50,0,0
35569,-64.5161290322581,4,2,1,50,0,0
35918,-100,4,2,1,50,0,0
36093,-50,4,2,1,50,0,0
36267,-400,4,2,1,50,0,0
37663,-100,4,2,1,50,0,0
37837,-68.9655172413793,4,2,1,50,0,0
38186,-100,4,2,1,40,0,0
38360,-68.9655172413793,4,2,1,50,0,0
38709,-100,4,2,1,40,0,0
38883,-416.666666666667,4,2,1,50,0,0
40104,-111.111111111111,4,2,1,50,0,0
41151,-80,4,2,1,50,0,0
42023,-74.6268656716418,4,2,1,50,0,0
42372,-117.647058823529,4,2,1,50,0,0
42546,-74.6268656716418,4,2,1,50,0,0
42895,-117.647058823529,4,2,1,50,0,0
43069,-250,4,2,1,50,0,0
43244,-500,4,2,1,50,0,0
44465,-200,4,2,1,60,0,0
44814,-66.6666666666667,4,2,1,80,0,1
44857,-66.6666666666667,4,2,1,80,0,0
45337,-66.6666666666667,4,2,1,80,0,1
45381,-66.6666666666667,4,2,1,80,0,0
45860,-200,4,2,1,80,0,1
45947,-200,4,2,1,60,0,1
50046,-100,4,2,1,60,0,0
50395,-66.6666666666667,4,2,1,80,0,1
50439,-66.6666666666667,4,2,1,80,0,0
50918,-66.6666666666667,4,2,1,80,0,1
50962,-66.6666666666667,4,2,1,80,0,0
51442,-200,4,2,1,80,0,1
51529,-200,4,2,1,60,0,1
55628,-100,4,2,1,60,0,0
55976,-66.6666666666667,4,2,1,80,0,1
56020,-66.6666666666667,4,2,1,80,0,0
56500,-66.6666666666667,4,2,1,80,0,1
56543,-66.6666666666667,4,2,1,80,0,0
57023,-200,4,2,1,80,0,1
57110,-200,4,2,1,60,0,1
61209,-100,4,2,1,60,0,0
61558,-66.6666666666667,4,2,1,80,0,1
61601,-66.6666666666667,4,2,1,80,0,0
62081,-66.6666666666667,4,2,1,80,0,1
62125,-66.6666666666667,4,2,1,80,0,0
62604,-200,4,2,1,80,0,1
62692,-200,4,2,1,60,0,1
65744,-100,4,2,1,60,0,0
66616,-83.3333333333333,4,2,1,65,0,0
66790,-71.4285714285714,4,2,1,70,0,0
66965,-62.5,4,2,1,75,0,0
67139,-100,4,2,1,80,0,1
67183,-100,4,2,2,60,0,0
70628,-83.3333333333333,4,2,2,60,0,0
72023,-66.6666666666667,4,2,2,60,0,0
72721,-58.8235294117647,4,2,2,70,0,0
76907,-200,4,2,2,50,0,0
77779,-83.3333333333333,4,2,1,50,0,0
77953,-40,4,2,1,60,0,0
78302,-58.8235294117647,4,2,1,80,0,1
78346,-57.1428571428571,4,2,1,80,0,0
82837,-50,4,2,1,80,0,0
85453,-133.333333333333,4,2,1,80,0,0
85628,-50,4,2,1,80,0,0
88069,-133.333333333333,4,2,1,80,0,0
88418,-50,4,2,1,80,0,0
89116,-200,4,2,1,80,0,0
89465,-50,4,2,1,80,0,0
90337,-100,4,2,1,80,0,0
90511,-50,4,2,1,80,0,0
91035,-100,4,2,1,80,0,0
91209,-50,4,2,1,80,0,0
93564,-100,4,2,1,80,0,0
94000,-50,4,2,1,80,0,0
94697,-100,4,2,1,80,0,0
95046,-50,4,2,1,80,0,0
96267,-100,4,2,1,80,0,0
96442,-66.6666666666667,4,2,1,80,0,0
96790,-50,4,2,1,80,0,0
100366,-200,4,2,1,80,0,0
100628,-100,4,2,1,60,0,0
100715,-133.333333333333,4,2,1,60,0,0
100802,-200,4,2,1,60,0,0
100976,-50,4,2,1,80,0,0
101020,-57.1428571428571,4,2,1,80,0,0
101500,-100,4,2,1,80,0,0
101674,-50,4,2,1,80,0,0
101849,-50,4,2,1,80,0,0
102197,-57.1428571428571,4,2,1,80,0,0
102372,-44.4444444444445,4,2,1,80,0,0
102721,-50,4,2,1,80,0,0
103069,-44.4444444444445,4,2,1,80,0,0
103418,-57.1428571428571,4,2,1,80,0,0
104465,-57.1428571428571,4,2,1,80,0,0
104814,-100,4,2,1,80,0,0
105163,-40,4,2,1,80,0,0
105511,-57.1428571428571,4,2,1,80,0,0
105860,-50,4,2,1,80,0,0
106209,-44.4444444444445,4,2,1,80,0,0
106558,-66.6666666666667,4,2,1,80,0,0
106732,-50,4,2,1,80,0,0
107081,-100,4,2,1,80,0,0
107256,-50,4,2,1,80,0,0
108651,-40,4,2,1,80,0,0
109000,-40,4,2,1,80,0,0
109349,-50,4,2,1,80,0,0
109523,-57.1428571428571,4,2,1,80,0,0
110046,-50,4,2,1,80,0,0
110395,-50,4,2,1,80,0,0
110744,-57.1428571428571,4,2,1,80,0,0
111093,-100,4,2,1,80,0,0
111267,-66.6666666666667,4,2,1,80,0,0
111442,-57.1428571428571,4,2,1,80,0,0
111616,-50,4,2,1,80,0,0
112226,-50,4,2,1,80,0,0
112663,-57.1428571428571,4,2,1,80,0,0
112837,-50,4,2,1,80,0,0
113535,-57.1428571428571,4,2,1,80,0,0
113883,-50,4,2,1,80,0,0
114058,-66.6666666666667,4,2,1,80,0,0
114232,-57.1428571428571,4,2,1,80,0,0
114930,-50,4,2,1,80,0,0
115104,-50,4,2,1,80,0,0
116325,-57.1428571428571,4,2,1,80,0,0
116674,-66.6666666666667,4,2,1,80,0,0
116849,-57.1428571428571,4,2,1,80,0,0
117023,-40,4,2,1,80,0,0
117372,-57.1428571428571,4,2,1,80,0,0
118767,-100,4,2,1,80,0,0
119116,-57.1428571428571,4,2,1,80,0,0
120163,-44.4444444444445,4,2,1,80,0,0
120686,-50,4,2,1,80,0,0
121209,-50,4,2,1,80,0,0
122604,-200,4,2,1,60,0,0
122953,-50,4,2,1,80,0,1
123476,-47.6190476190476,4,2,1,80,0,1
124000,-45.4545454545455,4,2,1,80,0,1
124349,-133.333333333333,4,2,1,80,0,1
124697,-50,4,2,1,80,0,1
125046,-100,4,2,1,80,0,1
125395,-41.6666666666667,4,2,1,80,0,1
125744,-50,4,2,1,80,0,1
126267,-66.6666666666667,4,2,1,80,0,1
126790,-50,4,2,1,80,0,1
127139,-333.333333333333,4,2,1,80,0,1
127837,-47.6190476190476,4,2,1,80,0,1
128535,-50,4,2,1,80,0,1
129407,-100,4,2,1,80,0,1
129930,-333.333333333333,4,2,1,80,0,1
130453,-100,4,2,1,80,0,1
130628,-83.3333333333333,4,2,1,80,0,1
130802,-71.4285714285714,4,2,1,80,0,1
130976,-62.5,4,2,1,80,0,1
131151,-55.5555555555556,4,2,1,80,0,1
131325,-50,4,2,1,80,0,1
132721,-66.6666666666667,4,2,1,80,0,1
133069,-50,4,2,1,80,0,1
133418,-200,4,2,1,80,0,1
133680,-133.333333333333,4,2,1,80,0,1
133942,-50,4,2,1,80,0,1
134639,-47.6190476190476,4,2,1,80,0,1
135511,-133.333333333333,4,2,1,80,0,1
135860,-50,4,2,1,80,0,1
136209,-100,4,2,1,80,0,1
136558,-41.6666666666667,4,2,1,80,0,1
136907,-50,4,2,1,80,0,1
138302,-200,4,2,1,80,0,1
139000,-47.6190476190476,4,2,1,80,0,1
139697,-200,4,2,1,80,0,1
140046,-50,4,2,1,80,0,1
140569,-200,4,2,1,80,0,1
140918,-50,4,2,1,80,0,1
143883,-500,4,2,1,80,0,1
144581,-50,4,2,1,80,0,1
144930,-100,4,2,1,80,0,1
145235,-100,4,2,1,80,0,0
145279,-50,4,2,1,80,0,1
145322,-50,4,2,1,80,0,0
145453,-46.5116279069767,4,2,1,80,0,0
145976,-50,4,2,1,80,0,0
146325,-33.3333333333333,4,2,1,80,0,0
146674,-50,4,2,1,80,0,0
146761,-66.6666666666667,4,2,1,80,0,0
146849,-40,4,2,1,80,0,0
147285,-66.6666666666667,4,2,1,80,0,0
147546,-50,4,2,1,80,0,0
148069,-50,4,2,1,80,0,0
148331,-200,4,2,1,80,0,0
148418,-50,4,2,1,80,0,0
148680,-133.333333333333,4,2,1,80,0,0
148767,-50,4,2,1,80,0,0
149116,-33.3333333333333,4,2,1,80,0,0
149290,-133.333333333333,4,2,1,80,0,0
149465,-33.3333333333333,4,2,1,80,0,0
149639,-133.333333333333,4,2,1,80,0,0
149726,-33.3333333333333,4,2,1,80,0,0
149988,-50,4,2,1,80,0,0
150337,-80,4,2,1,80,0,0
150511,-33.3333333333333,4,2,1,80,0,0
150686,-50,4,2,1,80,0,0
150860,-66.6666666666667,4,2,1,80,0,0
151035,-44.4444444444445,4,2,1,80,0,0
151558,-50,4,2,1,80,0,0
151819,-33.3333333333333,4,2,1,80,0,0
152256,-50,4,2,1,80,0,0
152343,-66.6666666666667,4,2,1,80,0,0
152430,-47.6190476190476,4,2,1,80,0,0
152692,-40,4,2,1,80,0,0
152953,-66.6666666666667,4,2,1,80,0,0
153128,-66.6666666666667,4,2,1,80,0,0
153651,-50,4,2,1,80,0,1
154000,-33.3333333333333,4,2,1,80,0,1
154174,-100,4,2,1,80,0,1
154349,-50,4,2,1,80,0,1
154697,-50,4,2,1,80,0,1
155046,-33.3333333333333,4,2,1,80,0,1
156093,-100,4,2,1,80,0,1
156398,-100,4,2,1,80,0,0
156442,-50,4,2,1,80,0,1
156485,-100,4,2,1,80,0,0
156616,-33.3333333333333,4,2,1,80,0,0
157139,-50,4,2,1,80,0,0
157488,-33.3333333333333,4,2,1,80,0,0
157837,-33.3333333333333,4,2,1,80,0,0
158011,-33.3333333333333,4,2,1,80,0,0
158055,-40,4,2,1,80,0,0
158535,-66.6666666666667,4,2,1,80,0,0
158709,-57.1428571428571,4,2,1,80,0,0
159232,-50,4,2,1,80,0,0
159494,-200,4,2,1,80,0,0
159581,-50,4,2,1,80,0,0
159843,-200,4,2,1,80,0,0
159886,-50,4,2,1,80,0,0
160279,-33.3333333333333,4,2,1,80,0,0
160453,-133.333333333333,4,2,1,80,0,0
160628,-50,4,2,1,80,0,0
160889,-45.4545454545455,4,2,1,80,0,0
161151,-83.3333333333333,4,2,1,80,0,0
161674,-33.3333333333333,4,2,1,80,0,0
161849,-133.333333333333,4,2,1,80,0,0
162023,-50,4,2,1,80,0,0
162197,-33.3333333333333,4,2,1,80,0,0
162721,-100,4,2,1,80,0,0
163069,-50,4,2,1,80,0,0
163418,-33.3333333333333,4,2,1,80,0,0
163506,-41.6666666666667,4,2,1,80,0,0
163854,-33.3333333333333,4,2,1,80,0,0
164116,-28.5714285714286,4,2,1,80,0,0
164378,-33.3333333333333,4,2,1,80,0,0
164465,-50,4,2,1,80,0,0
164683,-66.6666666666667,4,2,1,80,0,0
164814,-66.6666666666667,4,2,1,80,0,1
165337,-100,4,2,1,80,0,1
165860,-50,4,2,1,80,0,1
167256,-40,4,2,1,80,0,0
167343,-50,4,2,1,80,0,0
167604,-100,4,2,1,80,0,1
167648,-100,4,2,1,80,0,0
167735,-50,4,2,1,80,0,0
168302,-66.6666666666667,4,2,1,80,0,0
168651,-50,4,2,1,80,0,0
169000,-133.333333333333,4,2,1,80,0,0
169174,-33.3333333333333,4,2,1,80,0,0
169872,-200,4,2,1,80,0,0
170046,-50,4,2,1,80,0,0
170395,-40,4,2,1,80,0,0
171093,-33.3333333333333,4,2,1,80,0,0
171442,-50,4,2,1,80,0,0
172052,-33.3333333333333,4,2,1,80,0,0
172314,-66.6666666666667,4,2,1,80,0,0
172663,-80,4,2,1,80,0,0
172837,-200,4,2,1,80,0,0
173011,-333.333333333333,4,2,1,80,0,0
173186,-66.6666666666667,4,2,1,80,0,0
173360,-45.4545454545455,4,2,1,80,0,0
173883,-100,4,2,1,80,0,0
174232,-50,4,2,1,80,0,0
175017,-33.3333333333333,4,2,1,80,0,0
175279,-28.5714285714286,4,2,1,80,0,0
175453,-50,4,2,1,80,0,0
175976,-33.3333333333333,4,2,1,80,0,1
176500,-200,4,2,1,80,0,1
176674,-33.3333333333333,4,2,1,80,0,1
176849,-28.5714285714286,4,2,1,80,0,0
177023,-37.037037037037,4,2,1,80,0,1
178244,-200,4,2,1,80,0,1
178724,-100,4,2,1,80,0,0
178767,-28.5714285714286,4,2,1,80,0,1
178811,-28.5714285714286,4,2,1,80,0,0
178942,-41.6666666666667,4,2,1,80,0,0
179116,-33.3333333333333,4,2,1,80,0,0
179465,-40,4,2,1,80,0,0
179639,-33.3333333333333,4,2,1,80,0,0
179814,-100,4,2,1,80,0,0
179988,-33.3333333333333,4,2,1,80,0,0
180163,-100,4,2,1,80,0,0
180337,-28.5714285714286,4,2,1,80,0,0
180773,-133.333333333333,4,2,1,80,0,0
181209,-28.5714285714286,4,2,1,80,0,0
182256,-31.25,4,2,1,80,0,0
183651,-200,4,2,1,80,0,0
183738,-31.25,4,2,1,80,0,0
184523,-37.037037037037,4,2,1,80,0,0
185221,-45.4545454545455,4,2,1,80,0,0
185395,-100,4,2,1,80,0,0
185569,-200,4,2,1,80,0,0
185744,-50,4,2,1,80,0,0
185831,-100,4,2,1,80,0,0
185918,-31.25,4,2,1,80,0,0
186442,-28.5714285714286,4,2,1,80,0,0
187139,-28.5714285714286,4,2,1,80,0,1
188011,-133.333333333333,4,2,1,80,0,1
188186,-50,4,2,1,80,0,1
189581,-133.333333333333,4,2,1,80,0,1
189886,-100,4,2,1,80,0,0
189930,-100,4,2,1,70,0,1
189974,-100,4,2,1,70,0,0
192721,-100,4,2,1,60,0,0
195511,-100,4,2,1,50,0,0
198302,-100,4,2,1,40,0,0
201093,-100,4,2,1,20,0,0
203883,-100,4,2,1,30,0,0
206674,-100,4,2,1,40,0,0
209465,-100,4,2,1,50,0,0
211732,-100,4,2,1,30,0,0
211907,-100,4,2,1,60,0,0
212256,-40,4,2,1,80,0,1
212299,-66.6666666666667,4,2,1,80,0,0
212779,-50,4,2,1,80,0,1
212822,-100,4,2,1,80,0,0
213128,-40,4,2,1,80,0,0
213302,-400,4,2,1,80,0,1
213389,-400,4,2,1,60,0,1
215046,-200,4,2,1,60,0,1
215744,-133.333333333333,4,2,1,60,0,1
217314,-66.6666666666667,4,2,1,60,0,1
217488,-40,4,2,1,60,0,0
217837,-33.3333333333333,4,2,1,80,0,1
217881,-100,4,2,1,80,0,0
218186,-40,4,2,1,80,0,0
218360,-66.6666666666667,4,2,1,80,0,1
218404,-100,4,2,1,80,0,0
218883,-33.3333333333333,4,2,1,80,0,1
219407,-133.333333333333,4,2,1,60,0,1
220279,-200,4,2,1,60,0,1
223069,-40,4,2,1,60,0,0
223418,-33.3333333333333,4,2,1,80,0,1
223462,-100,4,2,1,80,0,0
223942,-33.3333333333333,4,2,1,80,0,1
223985,-100,4,2,1,80,0,0
224290,-33.3333333333333,4,2,1,80,0,0
224465,-200,4,2,1,80,0,1
224988,-200,4,2,1,60,0,1
225163,-100,4,2,1,60,0,1
226732,-200,4,2,1,60,0,1
228476,-142.857142857143,4,2,1,60,0,1
228651,-66.6666666666667,4,2,1,60,0,0
228825,-33.3333333333333,4,2,1,60,0,0
229000,-34.4827586206897,4,2,1,80,0,1
229043,-34.4827586206897,4,2,1,80,0,0
229349,-40,4,2,1,80,0,0
229523,-40,4,2,1,80,0,1
229567,-100,4,2,1,80,0,0
229872,-40,4,2,1,80,0,0
230046,-33.3333333333333,4,2,1,80,0,1
230744,-200,4,2,1,50,0,1
232663,-100,4,2,1,50,0,1
233186,-200,4,2,1,50,0,0
233360,-133.333333333333,4,2,1,50,0,0
233535,-100,4,2,1,50,0,0
233709,-80,4,2,1,50,0,0
233887,-66.6666666666667,4,2,1,60,0,0
234058,-57.1428571428571,4,2,1,65,0,0
234232,-50,4,2,1,70,0,0
234407,-44.4444444444445,4,2,1,75,0,0
234581,-100,4,2,1,80,0,1
234668,-100,4,2,2,60,0,0
237197,-66.6666666666667,4,2,2,60,0,0
237372,-100,4,2,2,60,0,0
238593,-66.6666666666667,4,2,2,60,0,0
238767,-100,4,2,2,60,0,0
239290,-66.6666666666667,4,2,2,60,0,0
239465,-100,4,2,2,60,0,0
239726,-66.6666666666667,4,2,2,60,0,0
240163,-58.8235294117647,4,2,2,80,0,0
244349,-200,4,2,2,80,0,0
245395,-200,4,2,1,80,0,0
245744,-58.8235294117647,4,2,1,80,0,1
245788,-58.8235294117647,4,2,1,80,0,0
246267,-52.6315789473684,4,2,1,80,0,0
246616,-100,4,2,1,80,0,0
246965,-58.8235294117647,4,2,1,80,0,0
247488,-52.6315789473684,4,2,1,80,0,0
247837,-100,4,2,1,80,0,0
248186,-50,4,2,1,80,0,0
248535,-58.8235294117647,4,2,1,80,0,0
249058,-52.6315789473684,4,2,1,80,0,0
250279,-66.6666666666667,4,2,1,80,0,0
250976,-50,4,2,1,80,0,0
251325,-58.8235294117647,4,2,1,80,0,0
251849,-52.6315789473684,4,2,1,80,0,0
252372,-50,4,2,1,80,0,0
252895,-100,4,2,1,80,0,0
253069,-52.6315789473684,4,2,1,80,0,0
253418,-200,4,2,1,80,0,0
253767,-50,4,2,1,80,0,0
254639,-66.6666666666667,4,2,1,80,0,0
255511,-200,4,2,1,80,0,0
255860,-58.8235294117647,4,2,1,80,0,0
256558,-50,4,2,1,80,0,0
257953,-100,4,2,1,80,0,0
258476,-66.6666666666667,4,2,1,80,0,0
259349,-50,4,2,1,80,0,0
259697,-58.8235294117647,4,2,1,80,0,0
260221,-52.6315789473684,4,2,1,80,0,0
260744,-66.6666666666667,4,2,1,80,0,0
261442,-58.8235294117647,4,2,1,80,0,0
262139,-50,4,2,1,80,0,0
262488,-58.8235294117647,4,2,1,80,0,0
263011,-40,4,2,1,80,0,0
263360,-58.8235294117647,4,2,1,80,0,0
263535,-45.4545454545455,4,2,1,80,0,0
263883,-250,4,2,1,80,0,0
264232,-50,4,2,1,80,0,0
264581,-66.6666666666667,4,2,1,80,0,0
264930,-38.4615384615385,4,2,1,80,0,0
265279,-50,4,2,1,80,0,0
266325,-41.6666666666667,4,2,1,80,0,0
268069,-133.333333333333,4,2,1,80,0,0
268418,-50,4,2,1,80,0,1
268462,-100,4,2,1,80,0,0
269290,-40,4,2,1,80,0,0
270511,-47.6190476190476,4,2,1,80,0,0
270860,-40,4,2,1,80,0,0
271209,-66.6666666666667,4,2,1,80,0,0
271383,-40,4,2,1,80,0,0
272256,-66.6666666666667,4,2,1,80,0,0
272604,-40,4,2,1,80,0,0
273128,-45.4545454545455,4,2,1,80,0,0
273651,-40,4,2,1,80,0,0
274523,-62.5,4,2,1,80,0,0
274697,-40,4,2,1,80,0,0
275221,-100,4,2,1,80,0,0
275395,-40,4,2,1,80,0,0
276093,-100,4,2,1,80,0,0
276442,-33.3333333333333,4,2,1,80,0,0
276965,-40,4,2,1,80,0,0
277750,-100,4,2,1,80,0,0
278186,-40,4,2,1,80,0,0
283593,-50,4,2,1,80,0,0
283767,-40,4,2,1,80,0,0
284465,-33.3333333333333,4,2,1,80,0,0
285163,-40,4,2,1,80,0,0
285686,-133.333333333333,4,2,1,80,0,0
285860,-33.3333333333333,4,2,1,80,0,0
286907,-66.6666666666667,4,2,1,80,0,0
287604,-28.5714285714286,4,2,1,80,0,0
287953,-200,4,2,1,80,0,0
288128,-28.5714285714286,4,2,1,80,0,0
288476,-200,4,2,1,80,0,0
288651,-34.1296928327645,4,2,1,80,0,0
290046,-200,4,2,1,80,0,0
290133,-125,4,2,1,80,0,0
290221,-86.9565217391304,4,2,1,80,0,0
290395,-57.1428571428571,4,2,1,80,0,1
290744,-50,4,2,1,80,0,1
290918,-44.4444444444445,4,2,1,80,0,1
291267,-200,4,2,1,80,0,1
291442,-40,4,2,1,80,0,1
291783,-100,4,2,1,80,0,1
292139,-50,4,2,1,80,0,1
292663,-200,4,2,1,80,0,1
292837,-50,4,2,1,80,0,1
293186,-57.1428571428571,4,2,1,80,0,1
293535,-50,4,2,1,80,0,1
293709,-44.4444444444445,4,2,1,80,0,1
294058,-200,4,2,1,80,0,1
294232,-36.3636363636364,4,2,1,80,0,1
294581,-100,4,2,1,80,0,1
294930,-50,4,2,1,80,0,1
295192,-50,4,2,1,80,0,1
295279,-50,4,2,1,80,0,1
295976,-57.1428571428571,4,2,1,80,0,1
296805,-100,4,2,1,80,0,1
297721,-50,4,2,1,80,0,1
297895,-100,4,2,1,80,0,1
298593,-66.6666666666667,4,2,1,80,0,1
298767,-57.1428571428571,4,2,1,80,0,1
299639,-100,4,2,1,80,0,1
299814,-80,4,2,1,80,0,1
299988,-66.6666666666667,4,2,1,80,0,1
300163,-66.6666666666667,4,2,1,80,0,1
300511,-40,4,2,1,80,0,1
300860,-200,4,2,1,80,0,1
301122,-133.333333333333,4,2,1,80,0,1
301383,-50,4,2,1,80,0,1
301558,-57.1428571428571,4,2,1,80,0,1
301907,-50,4,2,1,80,0,1
302430,-200,4,2,1,80,0,1
302604,-40,4,2,1,80,0,1
302953,-66.6666666666667,4,2,1,80,0,1
303302,-50,4,2,1,80,0,1
303651,-200,4,2,1,80,0,1
304000,-50,4,2,1,80,0,1
305221,-200,4,2,1,80,0,1
305395,-44.4444444444445,4,2,1,80,0,1
305744,-100,4,2,1,80,0,1
306093,-50,4,2,1,80,0,1
307139,-200,4,2,1,80,0,1
307488,-50,4,2,1,80,0,1
308011,-200,4,2,1,80,0,1
308186,-50,4,2,1,80,0,1
308360,-57.1428571428571,4,2,1,80,0,1
308709,-50,4,2,1,80,0,1
308883,-50,4,2,1,80,0,1
309058,-50,4,2,1,80,0,1
309930,-50,4,2,1,80,0,1
310453,-57.1428571428571,4,2,1,80,0,1
310802,-200,4,2,1,80,0,1
310976,-66.6666666666667,4,2,1,80,0,1
311500,-400,4,2,1,80,0,1
312023,-100,4,2,1,80,0,1
312372,-100,4,2,1,80,0,1
312546,-66.6666666666667,4,2,1,80,0,1
312677,-100,4,2,1,80,0,0
312721,-40,4,2,1,80,0,1
313069,-50,4,2,1,80,0,1
313418,-38.4615384615385,4,2,1,80,0,1
313593,-133.333333333333,4,2,1,80,0,1
313767,-35.7142857142857,4,2,1,80,0,1
314116,-76.9230769230769,4,2,1,80,0,1
314465,-35.7142857142857,4,2,1,80,0,1
314988,-50,4,2,1,80,0,1
315511,-38.4615384615385,4,2,1,80,0,1
316383,-35.7142857142857,4,2,1,80,0,1
317779,-133.333333333333,4,2,1,80,0,1
317953,-38.4615384615385,4,2,1,80,0,1
319174,-200,4,2,1,80,0,1
319349,-35.7142857142857,4,2,1,80,0,1
319697,-40,4,2,1,80,0,1
320569,-100,4,2,1,80,0,1
320744,-40,4,2,1,80,0,1
321616,-43.4782608695652,4,2,1,80,0,1
321965,-66.6666666666667,4,2,1,80,0,1
322837,-45.4545454545455,4,2,1,80,0,1
323186,-100,4,2,1,80,0,1
323447,-80,4,2,1,80,0,1
323709,-33.3333333333333,4,2,1,80,0,1
323883,-38.4615384615385,4,2,1,80,0,1
324581,-100,4,2,1,80,0,1
324756,-66.6666666666667,4,2,1,80,0,1
324930,-38.4615384615385,4,2,1,80,0,1
325279,-66.6666666666667,4,2,1,80,0,1
325628,-33.3333333333333,4,2,1,80,0,1
325976,-100,4,2,1,80,0,1
326674,-38.4615384615385,4,2,1,80,0,1
327372,-100,4,2,1,80,0,1
327721,-38.4615384615385,4,2,1,80,0,1
328069,-28.5714285714286,4,2,1,80,0,1
328418,-33.3333333333333,4,2,1,80,0,1
329116,-44.4444444444445,4,2,1,80,0,1
329465,-133.333333333333,4,2,1,80,0,0
329814,-28.5714285714286,4,2,1,80,0,1
330075,-100,4,2,1,80,0,1
330337,-50,4,2,1,80,0,1
330511,-33.3333333333333,4,2,1,80,0,1
330860,-40,4,2,1,80,0,1
331209,-33.3333333333333,4,2,1,80,0,1
331383,-40,4,2,1,80,0,1
331732,-100,4,2,1,80,0,1
331907,-33.3333333333333,4,2,1,80,0,1
332256,-40,4,2,1,80,0,1
332604,-100,4,2,1,80,0,1
332779,-50,4,2,1,80,0,1
333128,-33.3333333333333,4,2,1,80,0,1
333302,-66.6666666666667,4,2,1,80,0,1
333651,-66.6666666666667,4,2,1,80,0,0
333825,-133.333333333333,4,2,1,80,0,0
334349,-66.6666666666667,4,2,1,80,0,0
334697,-50,4,2,1,80,0,0
335003,-100,4,2,1,80,0,0
335046,-100,4,2,1,70,0,1
335090,-200,4,2,1,70,0,0
339930,-66.6666666666667,4,2,1,70,0,0
340192,-200,4,2,1,70,0,0
345511,-66.6666666666667,4,2,1,70,0,0
346035,-200,4,2,1,70,0,0
346209,-200,4,2,1,60,0,0
351093,-66.6666666666667,4,2,1,60,0,0
351354,-200,4,2,1,60,0,0
356325,-200,4,2,0,60,0,0
356674,-66.6666666666667,4,2,0,60,0,0
356849,-66.6666666666667,4,2,0,60,0,0
357197,-500,4,2,1,80,0,0
360947,-10000,4,2,1,80,0,0
361012,-10,4,2,1,80,0,0

[HitObjects]
18,161,163,5,4,0:0:0:0:
18,161,338,1,0,0:0:0:0:
141,198,512,1,8,0:0:0:0:
18,161,687,1,0,0:0:0:0:
18,161,861,1,0,0:0:0:0:
83,116,1210,1,8,0:0:0:0:
83,116,1384,1,0,0:0:0:0:
160,113,1733,1,0,0:0:0:0:
228,149,1907,1,8,0:0:0:0:
261,221,2082,1,0,0:0:0:0:
260,227,2169,1,0,0:0:0:0:
259,233,2257,1,0,0:0:0:0:
248,310,2431,5,0,0:0:0:0:
131,351,2518,2,0,L|105:346,2,26.25,0|8|0,0:0|0:0|0:0,0:0:0:0:
273,384,2780,2,0,L|299:389,1,26.25,2|0,0:0|0:0,0:0:0:0:
446,338,2954,5,0,1:0:0:0:
446,338,3128,1,0,0:0:0:0:
424,249,3303,1,8,0:0:0:0:
446,338,3477,1,0,0:0:0:0:
446,338,3651,1,0,0:0:0:0:
506,287,4001,1,8,0:0:0:0:
506,287,4175,1,0,0:0:0:0:
507,209,4524,1,0,0:0:0:0:
447,161,4698,1,8,0:0:0:0:
370,175,4873,1,0,0:0:0:0:
369,181,4960,1,0,0:0:0:0:
368,187,5047,2,0,P|311:218|247:214,1,131.25,2|0,0:3|0:0,0:0:0:0:
236,210,5309,6,0,L|232:184,2,26.25,0|8|0,0:0|0:0|0:0,0:0:0:0:
213,47,5570,2,0,L|209:21,1,26.25
64,6,5745,5,0,1:0:0:0:
64,6,5919,1,0,0:0:0:0:
130,65,6094,1,8,0:0:0:0:
64,6,6268,1,0,0:0:0:0:
64,6,6442,1,0,0:0:0:0:
30,78,6791,1,8,0:0:0:0:
30,78,6966,1,0,0:0:0:0:
81,140,7315,1,0,0:0:0:0:
132,202,7489,1,8,0:0:0:0:
98,274,7663,1,0,0:0:0:0:
99,280,7750,1,0,0:0:0:0:
100,286,7837,1,0,0:0:0:0:
153,348,8012,5,0,0:0:0:0:
25,307,8099,2,0,L|-1:312,2,26.25,0|8|0,0:0|0:0|0:0,0:0:0:0:
178,273,8361,2,0,L|204:268,1,26.25,2|0,0:0|0:0,0:0:0:0:
406,358,8535,5,0,1:0:0:0:
406,358,8710,1,0,0:0:0:0:
331,304,8884,1,8,0:0:0:0:
406,358,9059,1,0,0:0:0:0:
406,358,9233,1,0,0:0:0:0:
419,280,9582,1,8,0:0:0:0:
419,280,9756,1,0,0:0:0:0:
432,202,10105,1,0,0:0:0:0:
445,124,10279,1,8,0:0:0:0:
458,46,10475,1,0,0:0:0:0:
453,47,10562,1,0,0:0:0:0:
448,48,10649,6,0,L|282:74,1,157.500006008148,0|0,1:0|0:0,0:0:0:0:
280,75,10910,1,0,1:0:0:0:
84,100,11172,2,0,L|42:106,1,26.25,8|0,1:2|0:0,0:0:0:0:
45,106,11325,5,4,0:0:0:0:
130,17,11499,1,0,0:0:0:0:
113,139,11673,1,8,0:0:0:0:
55,30,11849,1,0,0:0:0:0:
166,84,12022,1,0,0:0:0:0:
250,43,12371,5,8,0:0:0:0:
247,59,12545,1,0,0:0:0:0:
312,112,12894,5,0,0:0:0:0:
388,102,13069,1,8,0:0:0:0:
467,92,13243,1,0,0:0:0:0:
466,98,13330,1,0,0:0:0:0:
465,104,13418,1,0,0:0:0:0:
272,304,13592,5,0,0:0:0:0:
155,263,13679,2,0,L|129:268,2,26.25,0|8|0,0:0|0:0|0:0,0:0:0:0:
297,230,13941,2,0,L|323:225,1,26.25,2|0,0:0|0:0,0:0:0:0:
403,208,14115,5,0,1:0:0:0:
377,388,14290,1,0,0:0:0:0:
512,316,14464,1,8,0:0:0:0:
452,268,14638,1,0,0:0:0:0:
441,345,14813,1,0,0:0:0:0:
366,302,15162,5,8,0:0:0:0:
362,285,15336,1,0,0:0:0:0:
287,242,15686,5,0,0:0:0:0:
246,308,15859,1,8,0:0:0:0:
271,382,16034,1,0,0:0:0:0:
277,381,16121,1,0,0:0:0:0:
284,380,16209,2,0,P|234:339|170:332,1,131.25,2|0,0:3|0:0,0:0:0:0:
158,335,16471,6,0,L|154:309,2,26.25,0|8|0,0:0|0:0|0:0,0:0:0:0:
135,172,16731,2,0,L|131:146,1,26.25,2|0,0:0|0:0,0:0:0:0:
303,29,16906,5,0,1:0:0:0:
245,138,17080,1,0,0:0:0:0:
228,16,17256,1,8,0:0:0:0:
313,105,17430,1,0,0:0:0:0:
192,83,17603,1,0,0:0:0:0:
109,68,17952,5,8,0:0:0:0:
94,66,18127,1,0,0:0:0:0:
11,51,18476,5,0,0:0:0:0:
88,40,18650,1,8,0:0:0:0:
167,30,18825,1,0,0:0:0:0:
166,36,18912,1,0,0:0:0:0:
165,42,19000,1,0,0:0:0:0:
380,208,19173,5,0,0:0:0:0:
339,91,19261,2,0,L|344:65,2,26.25,0|8|0,0:0|0:0|0:0,0:0:0:0:
306,233,19522,2,0,L|301:259,1,26.25,2|0,0:0|0:0,0:0:0:0:
287,344,19697,5,0,1:0:0:0:
406,260,19871,1,0,0:0:0:0:
504,368,20045,1,8,2:2:0:0:
360,322,20220,1,0,0:0:0:0:
436,331,20394,1,0,0:0:0:0:
492,262,20743,5,8,0:0:0:0:
488,244,20918,1,0,0:0:0:0:
433,181,21266,5,0,0:0:0:0:
444,105,21442,2,0,L|446:90,1,15.75,4|0,0:0|0:0,0:0:0:0:
461,10,21790,5,2,2:2:0:0:
463,19,21877,1,2,0:0:0:0:
465,28,21964,1,2,0:0:0:0:
467,37,22052,1,2,0:0:0:0:
491,123,22139,6,2,L|179:83,1,315,4|0,2:1|0:0,1:2:0:0:
164,81,22488,1,4,0:0:0:0:
225,225,23360,6,0,P|234:196|253:178,1,52.5
304,242,23535,2,2,P|347:214|398:220,1,105,2|0,0:0|0:0,2:1:0:0:
446,321,23709,2,2,P|412:251|434:325,1,231.000007049561,0|0,0:0|0:0,2:1:0:0:
254,101,24232,6,2,P|228:102|206:115,1,52.5,2|0,0:0|0:0,2:1:0:0:
156,216,24407,2,2,P|187:140|169:220,1,244.125001862526,0|0,0:0|0:0,2:1:0:0:
237,286,24756,2,0,P|263:269|276:248,1,52.5
356,242,24930,2,2,P|384:198|382:147,1,105,2|0,0:0|0:0,2:1:0:0:
287,26,25104,6,2,P|366:63|431:6,1,183.75,0|0,0:0|0:0,2:1:0:0:
371,91,26500,2,2,P|361:115|361:141,1,52.5,0|0,0:0|0:0,2:1:0:0:
476,266,26674,6,2,P|444:196|464:270,1,228.375006969452,0|0,0:0|0:0,2:1:0:0:
432,349,27023,2,2,P|412:364|384:367,1,52.5,2|0,0:0|0:0,2:1:0:0:
249,172,27197,2,2,P|231:246|261:176,1,228.375006969452,0|0,0:0|0:0,2:1:0:0:
233,90,27546,2,2,P|213:75|185:71,1,52.5,2|0,0:0|0:0,2:1:0:0:
38,158,27721,6,2,P|53:83|8:21,1,157.5,0|0,0:0|0:0,2:1:0:0:
136,73,28942,6,2,P|147:49|145:23,1,52.5,2|0,0:0|0:0,2:1:0:0:
213,141,29116,2,0,P|199:125|201:145,1,52.5
242,50,29290,2,0,P|239:23|224:2,1,52.5
143,346,29465,2,2,P|157:331|154:351,1,52.5,2|0,0:0|0:0,2:1:0:0:
222,279,29639,2,0,P|212:254|216:228,1,52.5
119,250,29813,2,0,P|123:223|139:203,1,52.5
372,321,29988,6,2,P|338:236|358:326,2,272.999987503052,2|0|0,0:0|0:0|0:0,2:1:0:0:
329,248,30860,6,2,P|358:318|341:243,1,228.375006969452,0|0,0:0|0:0,2:1:0:0:
304,170,31209,2,2,P|292:147|294:121,1,52.5,2|0,0:0|0:0,2:1:0:0:
344,20,31383,6,2,P|308:87|332:15,1,228.375006969452,0|0,0:0|0:0,2:1:0:0:
442,38,31732,2,2,P|453:60|452:87,1,52.5,2|0,0:0|0:0,2:1:0:0:
477,166,31907,2,0,P|473:178|461:187,1,26.25
370,280,32081,6,2,P|290:245|220:305,1,189,0|0,0:0|0:0,2:1:0:0:
63,65,34523,6,0,P|73:92|93:109,1,52.5
139,41,34698,2,2,P|183:65|233:55,1,105,2|0,0:0|0:0,2:1:0:0:
346,83,34872,2,2,P|270:62|340:94,1,231.000007049561,0|0,0:0|0:0,2:1:0:0:
459,200,35395,2,0,P|461:224|449:251,1,52.5,2|0,0:0|0:0,0:0:0:0:
358,306,35569,2,2,P|434:275|353:292,1,244.125001862526,0|0,0:0|0:0,2:1:0:0:
301,209,35918,6,0,P|274:207|250:221,1,52.5
190,165,36093,2,2,P|148:190|130:244,1,105,2|0,0:0|0:0,2:1:0:0:
67,382,36267,6,2,P|132:324|211:361,1,183.75,0|0,0:0|0:0,2:1:0:0:
127,294,37663,2,2,P|116:269|119:241,1,52.5,0|0,0:0|0:0,2:1:0:0:
179,76,37837,6,2,P|149:146|166:71,1,228.375006969452,0|0,0:0|0:0,2:1:0:0:
232,14,38186,2,0,P|264:18|281:33,1,52.5,2|0,2:2|0:0,0:0:0:0:
419,148,38360,6,2,P|389:77|406:152,1,228.375006969452,0|0,0:0|0:0,2:1:0:0:
366,226,38709,2,2,P|341:239|317:239,1,52.5,2|0,0:0|0:0,2:1:0:0:
149,192,38883,6,2,P|190:252|168:326,1,154.350003768311,0|0,0:0|0:0,2:1:0:0:
358,214,40104,6,2,P|347:191|348:166,1,47.2499985580445,2|0,2:2|0:0,2:0:0:0:
292,283,40278,2,0,P|292:265|281:280,1,47.2499985580445
256,190,40452,2,0,P|258:165|271:144,1,47.2499985580445
164,351,40628,6,2,P|167:332|177:349,1,47.2499985580445,2|0,2:2|0:0,2:1:0:0:
198,256,40802,2,0,P|180:240|174:219,1,47.2499985580445
98,285,40976,2,0,P|90:265|94:238,1,47.2499985580445
79,75,41151,6,2,P|105:158|93:69,2,262.5,0|0|0,0:0|0:0|0:0,2:1:0:0:
117,146,42023,6,2,P|94:78|105:149,1,211.049990016861,0|0,0:0|0:0,2:1:0:0:
152,220,42372,2,2,P|153:242|144:262,1,44.6250008511543,2|0,2:0|0:0,2:1:0:0:
111,359,42546,6,2,P|135:291|125:362,1,211.049990016861,0|0,0:0|0:0,2:1:0:0:
250,384,42895,2,2,P|241:361|243:341,1,44.6250008511543,2|0,0:0|0:0,2:1:0:0:
313,300,43070,2,0,P|317:288|329:279,1,21
481,344,43244,2,2,P|452:288|457:228,1,123.375,0|0,2:0|0:0,2:1:0:0:
493,155,44465,6,0,L|506:153,1,13.125,8|0,1:3|0:0,0:0:0:0:
488,143,44553,2,0,L|498:134,1,13.125,8|0,1:3|0:0,0:0:0:0:
478,136,44639,2,0,L|482:123,1,13.125,4|0,1:3|0:0,0:0:0:0:
314,240,44814,6,2,P|329:142|236:174,1,236.250009012223,4|0,0:0|0:0,1:2:0:0:
249,289,45163,2,0,P|269:326|267:365,1,78.7500030040742,0|0,1:0|0:0,0:0:0:0:
187,344,45337,6,2,B|110:374|21:337|21:337|131:312,1,236.250009012223,4|0,0:0|0:0,1:2:0:0:
236,174,45686,2,0,L|145:158,1,78.7500030040742
25,185,45860,6,2,B|97:223|168:168|168:168|239:107|314:152|314:152|332:217|278:272|233:265|199:242|151:270|151:270|209:246|282:262|310:338|268:423|201:431|163:345|227:253|330:261|366:356|366:356|335:294|360:238|411:219|451:238|464:279|439:311,1,1207.5,4|0,0:0|0:0,1:2:0:0:
446,122,50046,5,8,1:3:0:0:
456,123,50133,1,8,1:3:0:0:
466,124,50221,2,0,L|367:112,1,52.5,4|0,1:3|0:0,0:0:0:0:
215,22,50395,6,2,B|207:92|207:92|229:183|229:183|217:284,1,236.250009012223,4|0,0:0|0:0,1:2:0:0:
152,320,50744,2,0,P|138:277|147:213,1,78.7500030040742,0|0,1:0|0:0,0:0:0:0:
381,108,50918,6,2,B|389:179|389:179|367:270|367:270|375:340,1,236.250009012223,4|0,0:0|0:0,1:2:0:0:
310,42,51267,2,0,P|298:87|308:148,1,78.7500030040742,0|0,1:0|0:0,0:0:0:0:
421,257,51442,6,2,B|417:222|446:193|491:192|537:214|544:283|520:373|420:399|319:357|306:261|360:179|360:179|315:222|248:215|207:162|215:107|215:107|190:186|115:216|46:206|34:154|74:139|103:160,1,945,4|0,0:0|0:0,1:2:0:0:
247,253,55628,5,8,1:3:0:0:
236,252,55715,1,8,1:3:0:0:
225,250,55802,2,0,L|145:240,1,52.5,4|0,1:3|0:0,0:0:0:0:
142,117,55976,6,2,B|178:123|178:123|143:321,1,236.250009012223,4|0,0:0|0:0,1:2:0:0:
6,383,56325,2,0,P|84:374|108:344,1,78.7500030040742,0|0,1:0|0:0,0:0:0:0:
39,102,56500,6,2,B|3:108|3:108|38:305,1,236.250009012223,4|0,0:0|0:0,1:2:0:0:
101,46,56849,2,0,P|176:43|205:85,1,78.7500030040742,0|0,1:0|0:0,0:0:0:0:
364,75,57023,6,2,B|401:16|339:-41|227:-16|249:83|257:211|352:221|455:267|455:267|332:239|179:238|291:323|129:348|4:313|4:313|126:326|205:290|250:224,1,1207.5,4|0,1:2|0:0,0:0:0:0:
302,350,61209,5,8,1:3:0:0:
312,349,61296,1,8,1:3:0:0:
322,348,61383,2,0,L|223:360,1,52.5,4|0,1:3|0:0,0:0:0:0:
56,230,61558,6,2,B|92:206|94:162|94:162|154:233|112:305,1,236.250009012223,4|0,0:0|0:0,1:2:0:0:
43,384,61907,2,0,P|31:346|30:307,1,78.7500030040742,0|0,1:0|0:0,0:0:0:0:
9,159,62081,6,2,P|66:83|175:138,1,236.250009012223,4|0,0:0|0:0,1:2:0:0:
112,286,62430,2,0,P|114:246|127:209,1,78.7500030040742,0|0,1:0|0:0,0:0:0:0:
275,357,62604,6,2,B|306:377|345:364|368:330|366:274|310:224|230:233|230:233|289:183|383:174|357:235|453:218|503:170|503:170|408:205|293:199|287:127|291:62|342:39|399:55|409:106|392:143,1,945,4|0,0:0|0:0,1:2:0:0:
275,357,66442,6,0,P|284:357|269:347,1,52.5,2|0,0:0|0:0,0:0:0:0:
377,317,66616,2,0,P|387:313|366:308,1,62.9999980773926,2|0,0:0|0:0,0:0:0:0:
458,213,66790,2,0,P|467:205|442:207,1,73.4999977569581,2|0,0:0|0:0,0:0:0:0:
464,57,66965,2,0,P|472:44|446:57,1,84,2|0,0:0|0:0,0:0:0:0:
380,129,67139,6,0,P|323:131|281:97,1,105,4|0,3:2|0:0,0:0:0:0:
259,20,67488,1,0,3:2:0:0:
380,129,67663,6,0,P|299:100|231:185,1,157.5
165,166,68011,2,0,B|131:156|113:181|113:181|138:190|158:175,1,105,0|0,0:0|3:0,0:0:0:0:
135,2,68360,2,0,P|173:29|176:94,1,105,0|0,0:0|3:0,0:0:0:0:
334,102,68709,5,0,0:0:0:0:
192,307,68883,2,0,P|198:256|240:226,1,105,0|0,3:0|0:0,0:0:0:0:
436,120,69232,2,0,L|318:100,1,105,0|0,3:0|0:0,0:0:0:0:
180,83,69581,2,0,L|120:72,1,52.5,0|0,3:0|0:0,0:0:0:0:
332,102,69756,1,0,1:0:0:0:
100,43,69930,6,0,B|65:65|65:65|182:83,1,157.5,4|0,3:2|0:0,0:0:0:0:
265,27,70279,2,0,L|238:191,1,157.5,0|0,3:0|0:0,0:0:0:0:
211,370,70628,6,0,L|248:134,1,188.999994232178,0|0,3:0|0:0,0:0:0:0:
323,171,70976,2,0,L|385:160,1,62.9999980773926,0|0,3:0|0:0,0:0:0:0:
153,196,71151,2,0,L|90:206,1,62.9999980773926,0|0,1:0|0:0,0:0:0:0:
152,118,71325,2,0,B|203:98|214:52|214:52|236:93|295:97,1,188.999994232178,4|0,3:2|0:0,0:0:0:0:
385,160,71674,2,0,L|393:97,1,62.9999980773926,0|0,3:0|0:0,0:0:0:0:
90,206,71849,2,0,L|60:150,1,62.9999980773926,0|0,1:0|0:0,0:0:0:0:
239,182,72023,2,0,L|252:273,1,78.7500030040742,4|0,3:2|0:0,0:0:0:0:
327,298,72197,1,0,0:0:0:0:
327,298,72285,1,0,3:0:0:0:
327,298,72372,2,0,P|246:345|181:305,1,157.500006008148,0|0,1:0|0:0,0:0:0:0:
33,384,72721,6,0,P|77:305|94:375,1,178.500003404617,4|0,1:2|0:0,0:0:0:0:
194,321,73069,2,0,P|158:232|197:142,1,178.500003404617,0|0,1:0|0:0,0:0:0:0:
9,111,73418,2,0,B|-20:123|-20:123|54:172|126:93,1,178.500003404617,0|0,1:0|0:0,0:0:0:0:
9,7,73767,2,0,P|49:29|121:10,1,89.2500017023087,0|0,1:0|0:0,0:0:0:0:
170,1,73942,1,0,0:0:0:0:
410,70,74116,6,0,P|309:21|223:34,1,178.500003404617,4|0,1:2|0:0,0:0:0:0:
393,248,74465,2,0,B|358:196|405:147|405:147|445:152|474:115,1,178.500003404617,0|0,1:0|0:0,0:0:0:0:
245,26,74814,2,0,B|375:-1|375:-1|349:8|334:38,1,178.500003404617,0|0,1:0|0:0,0:0:0:0:
465,124,75163,6,0,P|449:80|392:77,1,89.2500017023087,0|0,1:0|0:0,0:0:0:0:
245,26,75337,2,0,P|198:19|169:68,1,89.2500017023087
0,89,75511,5,4,1:2:0:0:
48,99,75599,1,0,0:0:0:0:
96,110,75686,1,0,1:0:0:0:
145,120,75773,1,0,0:0:0:0:
205,190,75860,5,0,1:0:0:0:
169,197,75947,1,0,0:0:0:0:
134,205,76035,1,0,1:0:0:0:
99,212,76122,1,0,0:0:0:0:
44,283,76209,5,4,1:2:0:0:
63,286,76296,1,0,1:0:0:0:
83,290,76383,1,0,1:0:0:0:
103,295,76471,1,0,1:0:0:0:
148,367,76558,5,0,1:0:0:0:
138,368,76645,1,0,1:0:0:0:
128,370,76732,1,0,1:0:0:0:
116,373,76819,1,0,1:0:0:0:
32,334,76907,6,0,L|46:274,2,52.5,0|0|0,1:2|0:0|0:0,0:0:0:0:
148,367,77430,6,0,L|139:323,1,26.25
99,156,77604,2,0,L|104:181,1,26.25
123,262,77779,1,0,0:0:0:0:
18,285,77953,6,0,L|62:276,1,26.25,0|0,1:2|0:0,0:0:0:0:
229,236,78128,2,0,L|204:241,1,26.25
40,366,78302,6,2,B|3:318|3:318|260:365,1,267.750005106926,4|0,1:2|0:0,1:2:0:0:
32,245,78651,2,0,L|152:266,1,91.8750008761883,8|0,1:2|0:0,0:0:0:0:
247,141,78825,6,2,B|213:203|225:272|225:272|208:203|141:165,1,275.625002628565,0|0,1:0|0:0,1:2:0:0:
18,84,79174,2,0,B|26:44|26:44|23:43|23:43|26:44|26:44|38:-22,1,91.8750008761883,0|0,1:0|0:0,0:0:0:0:
109,15,79349,2,2,B|101:55|101:55|104:56|104:56|101:55|101:55|89:121,1,91.8750008761883,8|0,1:2|0:0,1:2:0:0:
57,170,79523,2,0,P|111:182|143:163,1,91.8750008761883
365,26,79697,6,2,P|275:50|256:159,1,183.750001752377,0|0,0:0|1:0,2:1:0:0:
182,251,79959,5,0,0:0:0:0:
169,268,80046,2,0,B|198:112|67:169|109:11,1,275.625002628565,8|0,1:2|0:0,0:0:0:0:
247,128,80395,2,0,P|255:74|243:35,1,91.8750008761883,0|0,1:0|0:0,0:0:0:0:
15,120,80569,2,0,P|30:162|61:195,1,91.8750008761883,0|0,1:0|0:0,0:0:0:0:
141,349,80744,2,2,B|181:282|275:300|275:300|270:341,1,183.750001752377,8|0,1:2|0:0,1:2:0:0:
406,374,81093,6,2,B|412:387|412:387|125:347,1,275.625002628565,0|0,1:0|0:0,1:2:0:0:
141,349,81442,2,0,B|129:305|129:305|161:257,1,91.8750008761883,8|0,1:2|0:0,0:0:0:0:
345,255,81616,2,2,B|249:240|249:240|220:182|220:182|67:162,1,275.625002628565,0|0,1:0|0:0,1:2:0:0:
39,124,81965,2,0,B|14:165|14:165|44:227,1,91.8750008761883,0|0,1:0|0:0,0:0:0:0:
49,285,82139,2,2,L|169:258,1,91.8750008761883,8|0,1:2|0:0,1:2:0:0:
12,352,82314,2,0,B|-5:382|-5:382|197:336,1,183.750001752377,0|2,0:0|0:1,0:0:0:0:
431,282,82663,6,0,L|416:189,1,91.8750008761883,0|0,1:0|0:0,0:0:0:0:
498,351,82837,2,2,B|411:400|355:334|355:334|300:263|213:303,1,315,8|0,1:2|0:0,1:2:0:0:
140,348,83186,2,0,P|182:301|181:231,1,105,0|0,1:0|0:0,0:0:0:0:
205,8,83360,2,0,P|247:55|246:125,1,105,0|0,1:0|0:0,0:0:0:0:
213,301,83535,2,2,P|192:162|131:133,1,210,8|0,1:2|0:0,1:2:0:0:
130,35,83883,6,2,B|93:54|93:54|194:177|341:116,1,315,0|0,1:0|0:0,1:2:0:0:
411,145,84232,2,0,P|413:95|357:42,1,105,8|0,1:2|0:0,0:0:0:0:
213,9,84407,2,2,B|274:0|297:53|297:53|234:91|250:210|363:198,1,315,0|0,1:0|0:0,1:2:0:0:
476,67,84756,2,0,P|432:42|366:65,1,105,0|0,1:0|0:0,0:0:0:0:
347,198,84930,2,2,P|401:300|377:393,1,210,8|0,1:2|0:0,1:2:0:0:
21,216,85279,5,2,0:0:0:0:
16,224,85366,1,2,0:0:0:0:
11,232,85453,2,0,L|52:226,1,39.3750015020371,0|0,1:0|0:0,0:0:0:0:
218,368,85628,2,2,B|24:399|24:399|114:261,1,315,8|0,1:2|0:0,1:2:0:0:
71,57,85976,2,2,B|47:104|47:104|78:163,1,105,0|0,1:0|0:0,1:2:0:0:
88,299,86151,2,0,L|241:273,1,105,0|0,1:0|0:0,0:0:0:0:
393,247,86325,6,2,B|401:214|401:214|291:190|199:274|220:386,1,315,8|0,1:2|0:0,1:2:0:0:
429,318,86674,6,2,B|366:353|303:298|314:240|314:240|351:71,1,315,0|0,1:0|0:0,1:2:0:0:
269,0,87023,2,0,B|242:14|242:14|262:108,1,105,8|0,1:2|0:0,0:0:0:0:
393,247,87197,2,2,P|293:128|84:179,1,315,0|0,1:0|0:0,1:2:0:0:
30,141,87546,2,0,P|100:149|134:129,1,105,0|0,1:0|0:0,0:0:0:0:
340,18,87721,2,2,P|276:49|259:84,1,105,8|0,1:2|0:0,1:2:0:0:
132,0,87895,2,0,P|156:66|189:87,1,105
378,91,88069,6,0,L|446:77,1,59.0625022530557,2|0,0:0|0:0,0:0:0:0:
492,67,88244,2,0,L|435:79,1,59.0625022530557,0|0,1:0|0:0,0:0:0:0:
340,18,88418,2,2,B|329:111|240:114|240:114|145:113|131:211,1,315,8|0,1:2|0:0,1:2:0:0:
0,278,88767,2,0,P|50:260|109:304,1,105,0|0,1:0|0:0,0:0:0:0:
198,355,88942,2,0,B|235:388|235:388|167:377,1,105,0|0,1:0|0:0,0:0:0:0:
48,340,89116,6,2,L|149:318,1,78.75,8|0,1:2|0:0,1:2:0:0:
198,355,89465,6,2,P|143:262|292:284,1,315,0|0,1:0|0:0,1:2:0:0:
198,355,89814,2,0,P|179:306|244:293,1,105,8|0,1:2|0:0,0:0:0:0:
357,186,89988,2,2,P|361:290|307:398,1,210,0|0,1:0|0:0,1:2:0:0:
475,38,90337,2,0,L|490:113,1,52.5,0|0,1:0|0:0,0:0:0:0:
512,165,90511,2,2,B|450:178|418:134|418:134|386:91|324:103,1,210,8|0,1:2|0:0,1:2:0:0:
197,6,90860,5,2,0:0:0:0:
189,9,90947,1,2,0:0:0:0:
181,12,91035,2,0,L|160:85,1,52.5,0|0,1:0|0:0,0:0:0:0:
128,128,91209,2,2,B|186:152|226:115|226:115|265:79|324:103,1,210,8|0,1:2|0:0,1:2:0:0:
309,276,91558,2,0,L|273:137,1,105,0|0,1:0|0:0,0:0:0:0:
63,21,91732,2,0,P|137:34|164:75,1,105,0|0,1:0|0:0,0:0:0:0:
385,52,91907,2,0,P|194:41|128:127,1,315,8|0,1:2|0:0,0:0:0:0:
31,157,92256,6,2,B|148:139|148:139|163:146|163:146|367:113,1,315,0|0,1:2|0:0,1:2:0:0:
474,31,92604,2,0,P|424:20|382:57,1,105,8|0,1:2|0:0,0:0:0:0:
307,276,92779,2,2,B|375:322|375:322|448:192|334:112,1,315,0|0,1:0|0:0,1:2:0:0:
130,122,93128,2,0,L|156:-11,1,105,0|0,1:0|0:0,0:0:0:0:
88,227,93302,2,2,P|177:149|275:156,1,210,8|0,1:2|0:0,1:2:0:0:
235,301,93564,5,0,0:0:0:0:
230,295,93651,2,0,P|226:271|243:240,1,52.5,2|2,0:0|0:0,0:0:0:0:
384,51,93825,2,0,P|406:59|425:89,1,52.5,0|0,1:0|0:0,0:0:0:0:
488,244,94000,6,2,B|456:141|352:168|352:168|327:244|245:238,1,315,8|0,1:2|0:0,1:2:0:0:
242,48,94349,2,0,L|268:179,1,105,0|0,1:0|0:0,0:0:0:0:
288,319,94523,2,0,B|252:357|252:357|313:376,1,105,0|0,1:0|0:0,0:0:0:0:
380,365,94697,6,2,B|434:307|434:307|358:283,1,157.5,8|0,1:2|0:0,1:2:0:0:
127,198,95046,2,2,B|141:99|230:67|310:102|310:102|271:112|257:165,1,315,0|0,1:0|0:0,1:2:0:0:
341,176,95395,2,0,B|369:203|394:187|394:187|383:168|340:174,1,105,8|0,1:2|0:0,0:0:0:0:
99,47,95569,2,2,B|77:-12|77:-12|194:17|161:131,1,210,0|0,1:0|0:0,1:2:0:0:
0,134,95918,2,0,P|51:114|122:157,1,105,0|0,1:0|0:0,0:0:0:0:
231,279,96093,5,8,1:2:0:0:
231,279,96267,2,0,L|220:224,1,52.5
97,128,96442,6,0,L|81:204,1,78.7500030040742,2|2,0:0|0:0,0:0:0:0:
67,286,96616,2,0,L|51:362,1,78.7500030040742,0|0,1:0|0:0,0:0:0:0:
339,383,96790,6,2,L|291:160,1,210,8|0,1:2|0:0,1:2:0:0:
266,110,97052,5,0,0:0:0:0:
278,102,97139,2,0,P|337:105|371:166,1,105,0|0,1:0|0:0,0:0:0:0:
254,355,97314,2,0,P|195:352|161:291,1,105,0|0,1:0|0:0,0:0:0:0:
505,197,97488,2,2,P|343:261|340:386,1,315,8|0,1:2|0:0,1:2:0:0:
481,248,97837,6,2,B|510:311|562:264|545:184|436:176|353:219|343:307,1,315,0|0,1:0|0:0,1:2:0:0:
255,334,98186,2,0,P|306:341|338:382,1,105,8|0,1:2|0:0,0:0:0:0:
418,366,98360,2,2,P|336:260|168:295,1,315,0|0,1:0|0:0,1:2:0:0:
101,344,98709,6,0,P|76:357|112:354,1,105,0|0,1:2|0:0,0:0:0:0:
34,160,98883,6,2,B|-41:79|-41:79|276:35|276:35|141:17|141:17|107:123|107:123|238:151|238:151|247:161|247:161|375:190|375:190|429:14|429:14|352:-8|352:-8|445:229|445:229|506:28,1,1680,4|4,1:2|0:0,1:2:0:0:
512,25,100366,6,0,L|504:0,2,26.25
420,331,100628,6,0,L|428:307,1,26.25,8|0,1:3|0:0,0:0:0:0:
430,329,100715,2,0,L|436:311,1,19.6875007510186,8|0,1:3|0:0,0:0:0:0:
440,328,100802,2,0,L|443:315,1,13.125,4|0,1:3|0:0,0:0:0:0:
113,210,100976,6,2,B|119:249|119:249|351:225|351:225|357:266,1,315,8|0,1:2|0:0,1:2:0:0:
357,266,101325,1,0,0:0:0:0:
191,107,101500,6,0,L|183:158,1,52.5,0|0,1:0|0:0,0:0:0:0:
51,353,101674,2,2,B|98:346|98:346|106:337|106:337|151:331,1,105,8|0,1:2|0:0,1:2:0:0:
351,58,101849,6,2,B|298:97|298:97|337:344,1,315,0|0,1:0|0:0,1:2:0:0:
415,361,102197,2,2,L|431:270,1,91.8750008761883,0|0,1:0|0:0,1:2:0:0:
85,66,102372,6,2,B|217:105|217:105|230:182|230:182|363:220,1,354.375013518334,8|0,1:2|0:0,1:2:0:0:
43,210,102721,6,0,L|147:194,1,105,0|0,1:0|0:0,0:0:0:0:
423,160,102895,2,0,L|531:142,1,105,0|0,1:0|0:0,0:0:0:0:
285,0,103069,6,0,B|341:-17|341:-17|385:23,1,118.125004506111,8|0,1:2|0:0,0:0:0:0:
362,219,103244,2,0,B|306:235|306:235|261:195,1,118.125004506111,8|0,1:2|0:0,0:0:0:0:
512,24,103418,6,2,B|445:-1|376:49|412:93|347:144|277:112,1,275.625002628565,4|0,1:2|0:0,1:2:0:0:
216,56,103767,2,0,P|190:47|221:49,1,91.8750008761883,8|0,1:2|0:0,0:0:0:0:
475,269,103942,2,2,B|509:242|539:194|538:125|511:89|481:71|454:91|453:131|472:156|494:161,1,275.625002628565,0|0,1:0|0:0,1:2:0:0:
444,349,104290,2,0,P|500:360|525:338,1,91.8750008761883,0|0,1:0|0:0,0:0:0:0:
394,79,104465,6,2,P|286:11|139:32,1,275.625002628565,8|0,1:2|0:0,1:2:0:0:
66,95,104814,5,2,0:0:0:0:
71,103,104901,1,2,0:0:0:0:
76,111,104988,2,0,L|114:105,1,39.3750015020371,0|0,1:0|0:0,0:0:0:0:
362,7,105163,6,2,B|422:22|456:82|442:140|442:140|397:166|404:215,1,262.5,8|0,1:2|0:0,1:2:0:0:
460,270,105424,1,0,0:0:0:0:
453,278,105511,6,0,P|403:298|363:284,1,91.8750008761883,0|0,1:0|0:0,0:0:0:0:
197,343,105686,2,0,P|204:289|236:262,1,91.8750008761883,0|0,1:0|0:0,0:0:0:0:
342,381,105860,6,2,P|281:299|303:201,1,210,8|0,1:2|0:0,1:2:0:0:
164,52,106209,6,2,B|141:32|101:37|101:37|190:-18|304:12|329:121,1,354.375013518334,0|0,1:0|0:0,1:2:0:0:
320,204,106558,2,0,P|306:230|305:200,1,78.7500030040742,8|0,1:2|0:0,0:0:0:0:
90,271,106732,6,2,B|151:229|260:246|193:325|323:342|377:286,1,315,0|0,1:0|0:0,1:2:0:0:
445,225,107081,2,0,P|456:240|454:221,1,52.5,0|0,1:0|0:0,0:0:0:0:
353,2,107256,6,2,B|317:172|442:115|400:301,1,315,8|0,1:2|0:0,1:2:0:0:
465,362,107604,1,2,0:0:0:0:
465,362,107779,2,0,B|474:309|503:330|512:270,1,105,0|0,1:0|2:0,1:0:0:0:
412,102,107953,6,2,P|339:30|238:38,1,210,8|0,1:2|0:0,1:2:0:0:
176,114,108215,1,0,0:0:0:0:
171,127,108302,6,0,B|220:120|220:120|226:122|226:122|275:116,1,105,0|0,1:2|0:0,0:0:0:0:
412,102,108476,2,0,L|535:87,1,105,0|0,1:0|0:0,0:0:0:0:
381,307,108651,6,2,B|319:286|280:337|280:337|339:64,1,393.75,8|0,1:2|0:0,1:2:0:0:
450,352,109000,6,2,B|510:361|510:361|547:295|514:234|514:234|522:230|522:230|513:232|513:232|476:173|397:180|397:180|386:225,1,393.75,0|0,1:0|0:0,1:2:0:0:
311,253,109349,2,0,B|321:297|321:297|381:307,1,105,8|0,1:2|0:0,0:0:0:0:
186,380,109523,6,2,P|231:249|216:115,1,275.625002628565,0|0,1:2|0:0,1:1:0:0:
230,36,109872,2,0,B|184:31|184:31|151:64,1,91.8750008761883,0|0,1:0|0:0,0:0:0:0:
26,298,110046,6,2,P|170:318|152:194,1,315,8|0,1:2|0:0,1:1:0:0:
77,171,110395,6,0,B|67:216|67:216|95:252,1,91.8750008761883,2|2,0:0|0:0,0:0:0:0:
228,218,110569,2,0,B|237:172|237:172|209:136,1,91.8750008761883,0|0,1:0|0:0,0:0:0:0:
186,13,110744,6,2,L|151:193,1,183.750001752377,8|0,1:2|0:0,1:2:0:0:
267,289,111006,1,0,0:0:0:0:
278,287,111093,6,0,L|342:276,1,52.5,0|0,1:0|0:0,0:0:0:0:
408,263,111267,2,0,L|505:247,1,78.7500030040742,0|0,1:0|0:0,0:0:0:0:
327,129,111442,6,0,P|293:158|294:202,1,91.8750008761883,8|0,1:2|0:0,0:0:0:0:
374,348,111616,2,0,P|411:313|407:262,1,105,2|0,0:0|0:0,0:0:0:0:
506,44,111790,6,0,P|511:148|485:249,1,210,4|0,1:2|0:0,0:0:0:0:
428,136,112052,1,0,1:0:0:0:
434,137,112139,1,8,1:2:0:0:
498,331,112314,6,2,B|428:339|404:273|404:273|397:253|397:253|399:248|399:248|392:250|392:250|394:245|394:245|385:220|385:220|359:146|273:166,1,315,0|0,1:2|2:2,1:2:0:0:
221,213,112663,2,0,B|176:220|176:220|134:175,1,91.8750008761883,0|0,1:0|0:0,0:0:0:0:
88,32,112837,6,2,B|174:18|174:18|255:139|255:139|221:214,1,315,8|0,1:2|0:0,1:2:0:0:
146,168,113186,5,2,0:0:0:0:
145,177,113273,1,2,0:0:0:0:
144,186,113360,2,2,B|138:230|138:230|133:235|133:235|138:240|138:240|133:285,1,105,0|0,1:0|0:0,0:0:0:0:
76,346,113535,2,2,B|52:380|52:380|215:353,1,183.750001752377,8|0,1:2|0:0,1:2:0:0:
410,147,113883,6,0,P|358:151|322:185,1,105,0|0,1:0|0:0,0:0:0:0:
340,338,114058,2,0,P|318:357|264:361,1,78.7500030040742,0|0,1:0|0:0,0:0:0:0:
65,174,114232,2,2,B|87:244|177:224|177:224|259:206|284:284,1,275.625002628565,8|0,1:2|0:0,1:2:0:0:
498,365,114581,6,2,B|445:364|374:297|370:196|412:148,1,275.625002628565,0|0,1:0|0:0,1:2:0:0:
461,88,114930,2,0,P|481:61|454:84,1,105,8|0,1:2|0:0,0:0:0:0:
146,157,115104,6,2,B|215:171|246:97|246:97|350:131|345:236,1,315,0|0,1:2|0:0,1:2:0:0:
424,251,115453,6,0,P|461:252|426:242,1,105,0|0,1:0|0:0,0:0:0:0:
166,75,115628,6,2,B|110:99|84:153|96:220|149:256|219:250|263:205,1,315,8|0,1:2|0:0,1:2:0:0:
411,148,115976,1,2,0:0:0:0:
404,157,116064,1,2,0:0:0:0:
396,166,116151,2,0,P|347:173|313:135,1,105,0|0,1:0|0:0,0:0:0:0:
296,25,116325,6,2,B|282:115|282:115|275:120|275:120|263:204,1,183.750001752377,8|0,1:2|2:2,1:2:0:0:
352,376,116587,1,0,0:0:0:0:
362,374,116674,6,0,P|369:336|353:300,1,78.7500030040742,0|0,1:0|0:0,0:0:0:0:
263,203,116849,2,0,P|252:246|273:286,1,91.8750008761883,0|0,1:0|0:0,0:0:0:0:
456,321,117023,6,2,B|438:348|465:366|492:351|495:315|487:275|457:231|400:209|342:221,1,262.5,8|0,1:2|0:0,1:2:0:0:
114,360,117372,6,2,P|170:243|140:87,1,275.625002628565,0|0,1:0|0:0,1:2:0:0:
173,26,117721,2,0,P|217:-1|270:17,1,91.8750008761883,8|0,1:2|0:0,0:0:0:0:
489,146,117895,6,2,B|340:169|381:62|230:83,1,275.625002628565,0|0,1:0|0:0,1:2:0:0:
230,83,118244,1,0,1:0:0:0:
458,320,118418,6,2,B|396:343|396:343|338:289|351:197|409:158,1,275.625002628565,8|0,1:2|0:0,1:2:0:0:
475,73,118767,1,2,0:0:0:0:
477,84,118854,1,2,0:0:0:0:
479,94,118942,2,0,L|488:145,1,52.5,0|0,1:2|0:0,0:0:0:0:
373,264,119116,6,2,P|406:181|489:145,1,183.750001752377,8|0,1:2|0:0,1:2:0:0:
502,308,119378,1,0,0:0:0:0:
499,321,119465,6,0,B|462:348|462:348|416:333,1,91.8750008761883,0|0,1:0|0:0,0:0:0:0:
381,99,119639,2,0,B|337:113|337:113|324:157,1,91.8750008761883,0|0,1:0|0:0,0:0:0:0:
204,226,119814,6,2,B|174:198|174:198|312:145|374:264,1,275.625002628565,8|0,1:2|0:0,1:2:0:0:
419,334,120163,6,2,B|443:337|443:337|486:36|486:36|513:39,1,354.375013518334,4|0,1:2|0:0,1:2:0:0:
511,39,120511,1,8,1:2:0:0:
374,263,120686,6,2,B|352:265|352:265|314:0|314:0|290:3,1,315,4|0,1:2|0:0,1:2:0:0:
290,3,121035,1,8,1:2:0:0:
436,321,121209,6,2,B|499:378|499:378|285:335|285:335|259:178|259:178|306:135|306:135|452:172|452:172|474:232|474:232|421:244|421:244|411:240|411:240|402:248|402:248|393:245|393:245|385:251|385:251|374:248|374:248|364:255|364:255|354:252|354:252|346:259|346:259|334:255|334:255|324:263|324:263|1:328|1:328|208:359|208:359|186:222,1,1575,4|0,1:2|0:0,1:2:0:0:
135,152,122604,6,0,L|118:149,1,13.125,0|0,1:3|0:0,0:0:0:0:
132,163,122692,2,0,L|115:160,1,13.125,0|0,1:3|0:0,0:0:0:0:
130,173,122779,2,0,L|113:170,1,13.125,0|0,1:3|0:0,0:0:0:0:
404,36,122953,6,2,B|367:-4|367:-4|389:206|389:206|353:171,1,315,4|0,1:2|0:0,1:2:0:0:
231,30,123302,2,0,P|225:-6|240:27,1,105,8|0,1:2|0:0,0:0:0:0:
59,118,123476,6,2,B|304:101|304:101|270:126|267:173,1,330.749989906311,0|0,0:0|0:0,1:0:0:0:
187,231,123825,2,0,P|184:150|208:100,1,110.249996635437,0|0,1:0|0:0,0:0:0:0:
370,259,124000,6,2,B|362:299|362:299|109:238|109:238|87:315,1,346.500010574341,8|0,1:2|0:0,1:0:0:0:
14,306,124349,6,0,L|45:190,1,118.125004506111,0|0,1:0|0:0,0:0:0:0:
93,142,124697,6,0,B|31:377|31:377|154:350,1,315,8|0,1:2|0:0,0:0:0:0:
225,288,125046,5,0,0:0:0:0:
223,298,125133,1,0,0:0:0:0:
219,307,125221,2,0,L|205:365,1,52.5,0|0,1:2|0:0,0:0:0:0:
326,246,125395,6,0,B|216:226|211:109|211:109|296:144,1,251.999992309571,8|2,1:2|0:0,0:0:0:0:
428,177,125657,1,2,0:0:0:0:
506,150,125744,6,2,B|428:116|335:162|335:162|386:173|426:211|404:286,1,315,0|0,1:0|0:0,1:2:0:0:
330,351,126093,2,0,P|314:356|336:338,1,105,8|0,1:2|0:0,0:0:0:0:
196,185,126267,6,2,B|16:138|16:138|66:204,1,236.250009012223,0|0,2:0|0:0,1:0:0:0:
169,266,126616,2,0,P|213:264|266:238,1,78.7500030040742,0|0,1:0|0:0,0:0:0:0:
363,74,126790,6,2,B|322:105|322:105|316:178|316:178|369:254|369:254|364:316|364:316|335:338,1,315,8|0,1:2|0:0,1:0:0:0:
142,364,127139,6,0,L|169:362,1,15.7499995193482,0|0,1:0|0:0,0:0:0:0:
242,354,127314,2,0,L|226:355,1,15.7499995193482
191,359,127488,1,8,1:2:0:0:
73,254,127663,5,2,0:0:0:0:
82,253,127750,1,2,0:0:0:0:
91,252,127837,6,2,B|133:226|169:243|169:243|135:250,1,110.249996635437,2|0,0:0|0:0,1:0:0:0:
252,251,128011,2,2,B|294:277|330:260|330:260|296:253,1,110.249996635437,0|0,1:0|0:0,1:0:0:0:
91,155,128186,6,2,B|63:160|63:160|99:177|141:151,1,110.249996635437,8|0,1:2|0:0,1:0:0:0:
252,149,128360,2,2,B|224:143|224:143|260:126|302:152,1,110.249996635437,0|0,0:0|0:0,1:0:0:0:
478,301,128535,6,2,B|450:322|424:386|424:386|440:156,1,315,0|0,1:0|0:0,1:0:0:0:
452,0,128883,2,2,B|448:41|448:41|452:47|452:47|447:53|447:53|442:131,1,105,8|0,1:2|0:0,1:0:0:0:
354,315,129058,6,2,B|366:156|366:156|169:252,1,315,0|0,0:0|0:0,1:0:0:0:
240,355,129407,6,2,P|265:318|263:269,1,52.5,0|0,1:0|0:0,1:0:0:0:
252,149,129581,2,8,P|232:108|189:86,1,52.5,8|0,1:2|0:0,0:0:0:0:
79,35,129756,2,2,P|34:31|-6:58,1,52.5,0|0,0:0|0:0,1:0:0:0:
43,208,129930,6,0,L|59:209,1,15.7499995193482,0|0,1:0|0:0,0:0:0:0:
143,218,130104,2,0,L|127:216,1,15.7499995193482
94,213,130279,1,8,1:2:0:0:
87,339,130453,6,0,P|53:347|26:335,1,52.5,2|0,0:0|0:0,0:0:0:0:
244,282,130628,2,0,P|214:301|185:299,1,62.9999980773926,2|0,0:0|0:0,0:0:0:0:
372,174,130802,2,0,P|347:206|315:215,1,73.4999977569581,2|0,1:2|0:0,0:0:0:0:
455,28,130976,2,0,P|442:71|411:93,1,84,8|0,1:2|0:0,0:0:0:0:
198,160,131151,6,0,B|176:140|176:140|264:147,1,94.499997116089,2|0,2:1|2:2,0:0:0:0:
472,216,131325,6,2,B|469:261|469:261|250:232|250:232|243:281,1,315,0|0,1:0|0:0,1:0:0:0:
152,356,131674,2,2,B|148:307|148:307|143:301|143:301|147:295|147:295|143:254,1,105,8|0,1:2|0:0,1:0:0:0:
128,90,131849,6,2,B|142:45|97:-2|97:-2|57:12|36:35|17:84|15:132|48:176,1,315,0|0,0:0|0:0,1:0:0:0:
198,160,132197,2,2,B|214:170|214:170|106:176,1,105,0|0,1:0|0:0,1:0:0:0:
355,153,132372,2,2,B|371:163|371:163|263:169,1,105,8|0,1:2|0:0,1:2:0:0:
512,146,132546,2,2,B|528:156|528:156|420:162,1,105,0|0,0:0|0:0,1:0:0:0:
305,349,132721,6,0,B|266:328|245:279|278:206|321:210|321:210|313:287,1,236.250009012223,0|0,1:0|0:0,0:0:0:0:
355,153,133069,6,0,B|333:368|333:368|230:322,1,315,8|0,1:2|0:0,0:0:0:0:
13,255,133418,6,0,P|38:254|63:245,1,52.5,0|0,1:0|0:0,0:0:0:0:
146,246,133680,2,0,P|179:225|194:190,1,78.7500030040742,0|0,1:0|0:0,0:0:0:0:
270,162,133942,2,0,P|290:127|274:66,1,105,8|0,1:2|0:0,0:0:0:0:
55,144,134116,6,2,B|110:223|80:366|80:366|108:329|154:324,1,315,4|0,1:2|0:0,1:2:0:0:
232,347,134465,2,0,P|272:352|242:327,1,105,8|0,1:2|0:0,0:0:0:0:
468,244,134639,6,2,B|512:237|529:193|487:105|421:124|349:132|326:175|303:219|312:270,1,330.749989906311,0|0,0:0|0:0,1:0:0:0:
365,345,134988,2,0,B|392:380|426:349|416:298|376:279,1,110.249996635437,0|0,1:0|0:0,0:0:0:0:
309,101,135163,6,2,B|204:19|73:67|73:67|148:115,1,330.749989906311,8|0,1:2|0:0,1:0:0:0:
240,211,135511,6,0,L|112:214,1,118.125004506111,0|0,1:0|0:0,0:0:0:0:
45,368,135860,6,2,B|-18:310|-22:215|15:170|51:157|124:190|98:261|91:283|72:302,1,315,8|0,1:2|0:0,1:2:0:0:
197,288,136209,5,0,0:0:0:0:
195,298,136296,1,4,0:3:0:0:
191,307,136383,2,0,L|177:365,1,52.5,0|0,1:0|0:0,0:0:0:0:
237,107,136558,6,0,B|51:82|51:82|119:126,1,251.999992309571,8|2,1:2|0:0,0:0:0:0:
240,211,136819,1,2,0:0:0:0:
304,268,136907,6,2,B|384:156|304:57|304:57|330:98|311:150,1,315,0|0,1:0|0:0,1:2:0:0:
429,231,137256,2,0,P|452:237|425:211,1,105,8|0,1:2|0:0,0:0:0:0:
509,366,137430,6,2,B|397:286|298:366|298:366|339:340|391:359,1,315,0|0,0:0|0:0,1:0:0:0:
219,306,137779,2,0,P|180:314|217:330,1,105,0|0,1:0|0:0,0:0:0:0:
314,138,137953,6,2,B|356:101|335:53|335:53|244:0|123:43|98:82,1,315,8|0,1:2|0:0,1:0:0:0:
97,239,138302,6,0,P|104:230|121:222,1,26.25,0|0,1:0|0:0,0:0:0:0:
114,198,138476,2,0,P|117:208|116:227,1,26.25
141,233,138651,1,8,1:2:0:0:
240,76,138825,5,2,0:0:0:0:
239,68,138913,1,2,0:0:0:0:
238,59,139000,2,0,L|251:195,1,110.249996635437,2|0,2:1|0:0,0:0:0:0:
258,253,139174,2,0,L|271:389,1,110.249996635437,0|0,1:0|0:0,0:0:0:0:
37,320,139349,6,0,L|47:210,1,110.249996635437,8|0,1:2|0:0,0:0:0:0:
57,126,139523,2,2,L|67:16,1,110.249996635437,4|0,2:2|0:0,2:1:0:0:
160,225,139697,6,0,L|156:261,1,26.25,8|8,1:3|1:3,0:0:0:0:
160,225,139872,1,8,1:3:0:0:
57,126,140046,6,2,L|170:102,1,105,4|0,1:2|0:0,1:0:0:0:
349,61,140221,2,2,B|325:67|325:67|386:328|386:328|340:340,1,315,0|0,0:0|0:0,1:0:0:0:
159,308,140569,6,2,P|147:306|132:295,1,26.25,0|0,1:2|0:0,1:0:0:0:
95,206,140744,2,0,P|99:217|97:235,1,26.25,8|0,1:2|0:0,0:0:0:0:
39,313,140918,6,2,B|113:221|207:211|290:224|290:224|272:279,1,315,0|0,0:0|0:0,1:0:0:0:
249,334,141267,2,2,B|231:383|231:383|225:330,1,105,0|0,0:0|0:0,1:0:0:0:
204,135,141442,2,0,B|222:86|222:86|228:139,1,105,8|0,1:2|0:0,0:0:0:0:
417,255,141616,5,0,0:0:0:0:
399,267,141703,1,0,0:0:0:0:
380,276,141790,2,2,P|328:275|270:251,1,105,0|0,2:2|0:0,1:0:0:0:
128,157,141965,2,2,P|95:116|76:56,1,105,0|0,1:0|0:0,1:0:0:0:
359,62,142139,6,2,P|341:111|308:151,1,105,8|0,1:2|0:0,1:0:0:0:
158,251,142314,2,2,P|109:269|56:270,1,105,0|0,0:0|0:0,1:0:0:0:
252,374,142488,6,2,B|349:253|485:276|485:276|432:308,1,315,0|0,1:0|2:0,1:0:0:0:
259,259,142837,2,0,B|210:255|210:255|204:250|204:250|198:254|198:254|157:250,1,105,8|0,1:2|0:0,0:0:0:0:
77,67,143011,6,2,B|35:41|35:41|171:18|268:139,1,315,0|0,0:0|0:0,1:0:0:0:
353,201,143360,2,0,P|389:188|356:187,1,105,0|0,1:0|0:0,0:0:0:0:
128,157,143535,2,2,L|135:375,1,210,8|0,1:2|0:0,1:0:0:0:
272,49,143883,5,4,0:2:0:0:
262,224,144058,2,2,L|258:273,1,42,2|0,2:0|2:0,1:2:0:0:
252,365,144581,2,0,P|227:360|180:348,1,52.5,0|0,1:0|0:0,0:0:0:0:
271,365,144668,2,0,P|296:359|322:353,1,52.5,0|0,1:0|0:0,0:0:0:0:
245,345,144756,2,0,P|220:340|173:328,1,52.5,0|0,1:0|0:0,0:0:0:0:
275,344,144843,2,0,P|300:338|326:332,1,52.5,0|0,1:3|0:0,0:0:0:0:
258,265,144930,6,0,L|244:171,1,52.5,8|0,0:3|0:0,0:0:0:0:
290,141,145104,2,0,L|297:89,1,52.5,8|0,0:3|0:0,0:0:0:0:
237,31,145279,6,0,P|228:-4|244:28,1,105,4|0,1:2|0:0,0:0:0:0:
504,86,145453,6,2,B|523:124|523:124|308:80|308:80|331:55|333:17|333:17|480:8|480:8|436:24|425:69,1,564.375008611679,2|0,2:0|0:0,0:1:0:0:
383,180,145976,6,0,B|397:231|397:231|370:275,1,105,8|0,1:2|0:0,0:0:0:0:
441,388,146151,2,0,B|427:337|427:337|454:293,1,105,0|0,1:2|0:0,0:0:0:0:
310,219,146325,6,0,B|193:185|224:291|109:255,1,210.000008010865,0|0,1:0|0:0,0:0:0:0:
20,273,146500,2,0,B|15:286|27:292|46:284|56:254|36:218|14:237|-5:195|7:153,1,157.500006008148,2|0,0:1|0:0,0:0:0:0:
159,131,146674,6,0,P|150:155|151:183,1,52.5,2|0,0:1|0:0,0:0:0:0:
164,138,146761,2,0,P|164:158|157:177,1,39.3750015020371,2|0,0:1|0:0,0:0:0:0:
91,88,146849,6,0,B|66:100|40:78|40:78|96:9|170:88|230:24,1,262.5,2|0,2:1|1:0,0:0:0:0:
309,42,147110,2,0,B|292:114|354:111|335:190|335:190|326:231|326:231|321:233|321:233|325:235|325:235|312:289,1,262.5,2|0,0:1|0:0,0:0:0:0:
379,349,147372,6,0,P|377:335|386:348,1,39.3750015020371,8|0,0:0|0:0,0:0:0:0:
122,304,147546,6,2,B|152:301|152:301|150:291|150:291|87:291|87:291|153:284|153:284|159:281|159:281|338:266|338:266|352:204,1,420,0|2,1:0|0:0,0:1:0:0:
352,204,148069,6,0,B|276:186|276:186|243:313,1,210,0|2,1:0|0:0,0:0:0:0:
392,112,148331,2,0,L|405:108,1,13.125,2|0,0:0|0:0,0:0:0:0:
443,174,148418,6,0,B|410:301|410:301|334:283,1,210,0|2,1:0|0:0,0:0:0:0:
228,309,148680,2,0,L|233:334,1,19.6875007510186,2|0,0:0|0:0,0:0:0:0:
242,312,148767,6,0,P|253:263|224:222,1,105,8|0,1:2|0:0,0:0:0:0:
354,124,148942,2,0,P|326:81|276:73,1,105,0|0,1:0|0:0,0:0:0:0:
502,222,149116,6,0,B|467:218|467:218|464:212|464:212|460:217|460:217|341:202,1,157.500006008148,2|0,1:0|0:0,0:0:0:0:
95,28,149290,6,0,L|74:31,1,19.6875007510186
105,106,149378,2,0,L|85:109,1,19.6875007510186
113,183,149465,2,0,B|92:193|90:218|128:228|159:218|136:181|158:155|203:143,1,157.500006008148,2|0,0:1|0:0,0:0:0:0:
403,37,149639,2,0,L|407:18,1,19.6875,0|0,1:0|0:0,0:0:0:0:
320,47,149726,6,2,B|246:77|221:153|257:222|257:222|292:214|292:214|299:218|299:218|304:213|304:213|308:208|308:208|314:211|314:211|352:203,1,315.000012016297,2|0,0:1|0:1,0:1:0:0:
470,332,149988,6,2,B|496:332|508:352|479:380|440:369|438:349|459:335,1,105,2|0,0:1|0:1,0:1:0:0:
416,157,150163,5,8,1:2:0:0:
418,147,150250,1,0,1:0:0:0:
420,137,150337,2,0,P|464:136|494:164,1,87.5,0|0,1:0|0:0,0:0:0:0:
495,165,150511,6,0,P|420:187|342:182,1,157.500006008148,2|0,1:0|0:0,0:0:0:0:
296,250,150686,2,0,P|244:238|192:275,1,105,2|0,1:0|0:0,0:0:0:0:
61,36,150860,6,0,P|65:61|66:34,1,78.7500030040742,0|0,1:0|0:0,0:0:0:0:
299,82,151035,6,2,B|290:9|210:-26|138:-13|138:-13|168:22|156:73|156:73|193:100|193:100|172:109|172:109|167:133|167:133|225:108|305:122|341:182,1,590.625022530557,2|0,0:1|0:0,1:0:0:0:
283,346,151558,6,0,B|269:295|269:295|296:251,1,105,8|0,1:2|0:0,0:0:0:0:
464,278,151732,2,0,B|478:329|478:329|451:373,1,105,0|0,1:0|0:0,0:0:0:0:
385,105,151907,6,2,P|385:210|355:310,1,210.000008010865,2|0,1:0|0:0,2:1:0:0:
355,309,152081,2,2,P|388:242|340:182,1,157.500006008148,2|0,2:1|0:0,2:1:0:0:
68,203,152256,6,2,P|77:179|76:151,1,52.5,2|0,2:1|0:0,2:1:0:0:
63,196,152343,2,2,P|63:176|70:157,1,39.3750015020371,2|0,2:1|0:0,2:1:0:0:
100,275,152430,6,2,B|154:298|203:264|203:264|198:258|198:258|243:225|296:248,1,220.499993270874,2|0,0:1|1:0,2:1:0:0:
488,340,152692,2,2,B|459:297|459:297|482:211|429:150|429:150|441:98,1,262.5,2|0,2:1|0:0,2:1:0:0:
414,10,152953,6,0,P|420:23|421:8,1,39.3750015020371,8|0,0:0|0:0,0:0:0:0:
143,206,153128,6,2,B|119:190|85:216|93:269|149:289|203:262|161:199|221:176|292:184|337:220|345:271|345:271|323:249|295:248,1,393.750015020371,4|0,1:1|0:0,2:1:0:0:
459,57,153651,6,2,B|442:166|442:166|448:197|448:197|432:223|432:223|407:364,1,315,4|0,1:2|0:0,1:0:0:0:
401,377,154000,2,0,B|510:364|510:364|501:308,1,157.500006008148,0|0,1:0|2:0,1:0:0:0:
376,85,154174,2,0,L|368:31,1,52.5,0|0,1:0|0:0,0:0:0:0:
493,309,154349,6,2,B|488:254|488:254|491:250|491:250|487:246|487:246|485:222|485:222|450:225|423:201|423:201|396:177|361:182|361:182|365:158|365:158|362:153|362:153|366:149|366:149|375:92,1,315,0|0,0:0|0:0,2:1:0:0:
444,6,154697,2,2,B|492:-8|560:47|525:138|479:143,1,210,0|0,1:2|2:0,1:1:0:0:
371,261,154959,1,0,0:0:0:0:
375,273,155046,6,2,B|319:266|319:266|298:255|298:255|276:260|276:260|254:249|254:249|230:253|230:253|150:242|150:242|176:221|176:221|225:227,1,315.000012016297,4|0,1:2|0:0,1:0:0:0:
146,147,155308,1,0,0:0:0:0:
150,134,155395,6,2,B|251:120|251:120|283:165,1,157.500006008148,4|0,1:2|0:0,1:0:0:0:
456,48,155569,2,2,B|423:93|423:93|322:78,1,157.500006008148,0|0,0:0|0:0,1:0:0:0:
54,0,155744,6,0,B|72:149|72:149|63:170|63:170|80:313,1,315.000012016297,4|0,1:1|1:0,0:0:0:0:
139,363,156006,1,0,1:0:0:0:
242,239,156093,6,0,L|246:212,1,26.25,0|0,1:0|0:0,0:0:0:0:
253,233,156180,2,0,L|279:237,1,26.25,0|0,1:0|0:0,0:0:0:0:
258,244,156267,2,0,L|253:270,1,26.25,0|0,1:0|0:0,0:0:0:0:
247,250,156354,2,0,L|220:245,1,26.25,0|0,1:0|0:0,0:0:0:0:
151,81,156442,6,0,P|168:49|158:84,1,105,4|0,1:2|2:0,0:0:0:0:
462,201,156616,6,2,B|490:210|490:210|493:257|439:297|383:273|353:219|374:147|434:125|434:125|443:88|423:59|388:51|388:51|328:38|328:38|321:33|321:33|251:19|251:19|321:59|307:156|307:156|273:122|229:132,1,787.500030040742,2|0,1:1|2:0,1:0:0:0:
64,13,157139,6,0,B|50:64|50:64|77:108,1,105,8|0,1:2|0:0,0:0:0:0:
158,97,157314,2,0,B|172:46|172:46|145:2,1,105,0|0,1:2|0:0,0:0:0:0:
86,277,157488,6,2,B|207:256|163:346|280:324,1,210.000008010865,2|0,1:1|0:0,2:1:0:0:
370,216,157663,2,2,B|343:246|301:247|301:247|343:257|357:299,1,157.500006008148,2|0,0:1|0:0,2:1:0:0:
493,352,157837,6,2,P|457:335|419:345,1,78.7500030040742,2|0,0:1|2:2,0:1:0:0:
497,326,157924,2,2,P|458:319|424:339,1,78.7500030040742,2|0,0:1|0:2,0:1:0:0:
447,192,158011,6,2,B|522:206|552:309|497:377|497:377|467:343|417:354,1,315.000012016297,2|0,0:1|1:0,2:1:0:0:
493,122,158273,2,2,B|422:81|365:140|377:146|323:200|253:162,1,262.5,2|0,2:1|0:0,2:1:0:0:
425,19,158535,6,0,P|416:31|418:16,1,39.3750015020371,8|0,0:0|0:0,0:0:0:0:
262,193,158709,6,2,B|279:204|279:204|348:189|348:189|357:193|357:193|410:180|410:180|416:167|416:167|498:149|498:149|518:116|518:116|500:33,1,367.500003504753,0|0,1:0|0:0,1:0:0:0:
502,42,159232,6,0,B|450:32|450:32|446:26|446:26|440:31|440:31|380:20|380:20|421:38|428:81,1,210,0|2,1:0|0:0,0:0:0:0:
501,185,159494,2,0,L|504:199,1,13.125,2|0,0:0|0:0,0:0:0:0:
512,177,159581,6,0,B|412:164|412:164|405:158|405:158|295:144,1,210,0|2,1:0|0:0,0:0:0:0:
84,98,159843,2,0,L|87:112,1,13.125,2|0,0:0|0:0,0:0:0:0:
130,34,159930,6,0,P|182:26|220:58,1,105,8|0,1:2|0:0,0:0:0:0:
237,192,160104,2,0,P|214:237|165:251,1,105,0|0,1:2|0:0,0:0:0:0:
80,344,160279,6,0,B|153:335|153:335|158:337|158:337|164:334|164:334|238:325,1,157.500006008148,2|0,1:1|0:0,0:0:0:0:
452,378,160453,6,0,L|471:374,1,19.6875007510186
437,300,160540,2,0,L|456:296,1,19.6875007510186
423,223,160628,2,0,B|413:167|452:179|444:123,1,105,2|0,0:1|0:0,0:0:0:0:
375,32,160802,5,0,1:0:0:0:
285,137,160889,2,2,B|268:174|265:178|159:128|241:84|331:85|373:125,1,231.000007049561,2|0,0:1|0:0,0:1:0:0:
496,217,161151,2,2,B|514:223|526:215|526:215|510:207|493:214,1,62.9999980773926,2|0,2:1|0:0,0:1:0:0:
299,295,161325,5,8,1:2:0:0:
294,307,161413,1,2,0:1:0:0:
290,318,161500,2,0,P|348:325|396:297,1,83.9999974365235
370,316,161674,6,0,P|279:290|179:373,1,157.500006008148,2|0,0:1|0:0,0:0:0:0:
141,358,161849,6,0,L|150:311,1,39.3750015020371,2|0,0:1|0:0,0:0:0:0:
81,191,162023,6,0,P|114:182|75:174,1,105,4|0,1:2|0:0,0:0:0:0:
219,140,162197,6,2,B|185:149|185:149|196:198|168:240|168:240|241:221|241:221|264:203|264:203|317:190|317:190|294:121|341:5|501:54|529:129|491:267|393:226|393:226|409:198|397:161,1,787.500030040742,2|0,2:1|0:0,1:0:0:0:
456,85,162721,6,0,P|462:53|456:29,1,52.5,8|0,1:2|0:0,0:0:0:0:
457,33,162895,2,0,P|451:65|457:89,1,52.5,0|0,1:0|0:0,0:0:0:0:
489,199,163069,6,2,P|449:166|397:163,1,105,2|0,1:1|0:0,2:1:0:0:
320,36,163244,2,2,P|271:53|244:97,1,105,2|0,2:1|0:0,2:1:0:0:
290,305,163418,6,2,P|297:275|282:221,1,78.7500030040742,2|0,0:1|0:0,2:1:0:0:
275,293,163506,2,2,P|280:263|274:238,1,52.5,2|0,2:1|2:1,2:1:0:0:
199,272,163593,6,2,B|165:296|165:296|424:273,1,251.999992309571,2|0,2:1|1:0,2:1:0:0:
508,270,163854,2,2,B|448:277|448:277|455:345|455:345|186:373,1,315.000012016297,2|0,2:1|0:0,2:1:0:0:
17,294,164116,6,2,B|-24:233|-24:233|82:249|82:249|110:281|110:281|220:297|220:297|195:268,1,367.500003504753,8|2,1:2|2:1,2:1:0:0:
232,142,164378,6,0,P|264:152|321:143,1,78.7500030040742
278,67,164465,6,0,P|202:61|149:115,1,157.500006008148,2|0,2:1|0:0,0:0:0:0:
93,166,164683,6,2,P|136:190|167:191,1,78.7500030040742,0|0,2:0|0:0,2:1:0:0:
164,191,164814,6,2,B|77:141|-8:168|-8:168|26:241,1,236.250009012223,4|0,0:0|0:0,1:0:0:0:
17,294,165163,2,0,L|115:285,1,78.7500030040742,0|0,1:0|0:0,0:0:0:0:
240,288,165337,6,2,B|303:251|365:271|365:271|340:324,1,157.5,4|0,2:2|0:0,1:0:0:0:
339,366,165686,2,0,L|267:359,1,52.5,0|0,1:0|0:0,0:0:0:0:
70,142,165860,6,2,B|2:77|2:77|236:54|236:54|137:-15|137:-15|143:138|143:138|477:99|477:99|304:7|304:7|319:190|319:190|517:166|517:166|447:242,1,1575,4|0,2:2|0:0,1:1:0:0:
366,350,167256,6,0,L|361:279,1,65.625,0|0,1:0|0:0,0:0:0:0:
351,348,167343,2,0,L|346:289,1,52.5,0|0,1:0|0:0,0:0:0:0:
334,346,167430,1,0,1:0:0:0:
166,323,167604,6,0,P|153:340|172:334,1,52.5,4|0,1:2|0:0,0:0:0:0:
244,364,167779,6,2,B|253:317|242:268|187:247|187:247|190:235|190:235|188:247|188:247|149:237|103:243|65:291|67:323|78:351|78:351|73:320|83:293|106:270|106:270|132:220|86:150,1,525,2|0,2:1|0:0,2:1:0:0:
79,90,168302,6,0,P|61:80|2:79,1,78.7500030040742,0|0,1:0|0:0,0:0:0:0:
4,78,168476,2,0,P|22:88|81:89,1,78.7500030040742,0|0,1:0|0:0,0:0:0:0:
270,47,168651,6,2,P|217:50|171:73,1,105,8|0,1:2|0:0,2:1:0:0:
171,72,168825,2,2,P|223:68|269:45,1,105,2|0,2:1|0:0,2:1:0:0:
422,81,169000,6,2,L|451:73,1,19.6875007510186,2|0,2:1|2:2,2:1:0:0:
354,77,169087,2,2,L|325:69,1,19.6875007510186,2|0,2:1|2:2,1:0:0:0:
389,15,169174,6,2,B|334:62|336:196|458:185|497:158|496:142|496:142|475:158|432:153,1,315.000012016297,2|8,2:1|1:2,2:1:0:0:
290,190,169436,6,2,B|310:166|310:166|227:179|227:179|214:189|214:189|145:198|145:198|104:182|38:176|16:205,1,315.000012016297,2|0,2:1|0:0,2:1:0:0:
64,323,169697,6,2,B|25:325|4:282|39:229|116:248|141:298,1,157.500006008148,2|0,2:1|0:0,2:1:0:0:
282,349,169872,2,0,L|247:348,1,26.25,0|0,1:2|2:1,2:1:0:0:
166,338,170046,6,2,B|192:316|198:282|198:282|208:284|208:284|198:283|198:283|206:230|166:204|164:165|164:165|152:165|152:165|164:166|164:166|161:112|191:87,1,315,8|0,1:2|0:0,1:0:0:0:
387,123,170395,6,2,B|432:186|432:186|233:145,1,262.5,0|0,1:0|0:0,1:0:0:0:
49,65,170657,5,0,0:0:0:0:
49,65,170744,2,2,B|230:27|230:27|185:90,1,262.5,8|0,1:2|0:0,1:0:0:0:
49,65,171006,5,0,0:0:0:0:
49,65,171093,2,2,B|138:166|281:166|369:78|369:78|314:117|243:108,1,472.500018024445,0|0,1:0|0:0,1:2:0:0:
136,205,171442,2,2,P|70:183|31:149,1,105,8|0,1:2|0:0,2:1:0:0:
225,213,171616,6,0,L|219:281,1,52.5,2|0,0:3|0:0,0:0:0:0:
314,221,171703,2,0,L|308:289,1,52.5,2|0,3:0|0:0,0:0:0:0:
403,229,171790,2,0,P|446:174|348:153,1,210,0|0,1:0|0:0,0:0:0:0:
185,117,172052,6,2,B|236:146|275:132|275:132|302:78|365:31|418:52|465:71,1,315.000012016297,2|0,2:1|0:0,2:1:0:0:
481,232,172314,6,2,L|393:228,1,78.7500030040742,2|0,2:1|0:0,2:1:0:0:
190,290,172488,5,4,3:3:0:0:
191,280,172575,1,2,2:2:0:0:
192,270,172663,2,0,P|236:266|295:309,1,118.125004506111,4|0,3:0|0:0,0:0:0:0:
302,330,172837,6,0,L|265:326,1,26.25,2|0,1:2|0:0,0:0:0:0:
151,360,173011,2,0,L|129:358,1,15.7499995193482,2|0,0:0|0:0,0:0:0:0:
37,233,173186,6,0,P|31:217|49:237,1,78.7500030040742,0|0,1:0|0:0,0:0:0:0:
63,317,173360,6,2,B|12:350|12:350|179:326|179:326|286:262|286:262|461:238|461:238|387:302,1,577.500017623902,2|0,2:1|0:0,1:0:0:0:
365,383,173883,6,0,P|361:363|366:327,1,52.5,0|0,1:0|0:0,1:0:0:0:
365,383,174058,2,0,P|369:363|364:327,1,52.5,0|0,1:0|0:0,1:0:0:0:
330,88,174232,6,2,P|305:133|308:185,1,105,8|0,1:2|2:1,2:1:0:0:
331,88,174407,2,2,P|365:117|380:196,1,105,2|0,2:1|0:0,2:1:0:0:
425,268,174581,2,2,L|365:249,1,52.5,2|0,2:1|0:0,2:1:0:0:
425,268,174668,2,2,L|438:328,1,52.5,2|0,2:1|0:0,2:1:0:0:
425,268,174756,6,2,B|446:215|506:209|506:209|478:268|426:268,1,210,2|8,2:1|1:2,2:1:0:0:
365,331,175017,6,2,B|124:284|124:284|195:261,1,315.000012016297,0|0,0:0|0:0,2:1:0:0:
291,201,175279,6,2,B|354:252|354:252|220:225,1,183.750001752377,0|0,0:0|0:0,2:1:0:0:
155,167,175453,6,2,B|190:147|190:147|146:152|146:152|110:136|110:136|274:120|274:120|332:96|332:96|446:84|446:84|353:133,1,525,0|0,1:2|2:0,1:0:0:0:
394,258,175976,6,2,B|416:227|406:192|406:192|512:227|493:337|493:337|394:258|294:306,1,472.500018024445,4|0,1:2|0:0,1:0:0:0:
97,209,176325,2,2,P|88:272|133:318,1,118.125004506111,8|0,1:2|0:0,1:0:0:0:
309,201,176500,6,0,L|284:207,1,26.25,4|0,0:3|0:0,0:0:0:0:
176,243,176674,6,2,B|218:234|218:234|218:238|218:238|220:233|220:233|344:205,1,157.500006008148,2|0,2:0|0:0,1:1:0:0:
6,369,176849,1,4,0:3:0:0:
216,379,177023,2,2,P|175:289|5:289,1,283.500001081467,8|2,1:2|0:3,1:0:0:0:
0,364,177285,5,2,0:3:0:0:
0,364,177372,2,2,B|24:305|100:301|100:301|87:254|87:254|135:218|110:153,1,283.500001081467,4|2,1:2|0:3,1:0:0:0:
8,136,177633,1,2,0:3:0:0:
0,147,177721,2,2,P|59:144|97:52,1,141.750000540733,4|0,1:2|0:0,1:0:0:0:
450,37,177895,2,2,P|397:64|317:5,1,141.750000540733,2|2,2:3|0:3,1:0:0:0:
175,47,178069,6,0,B|162:11|129:2|129:2|217:-1|272:89|224:158,1,283.500001081467,4|8,1:0|2:3,0:0:0:0:
389,237,178331,2,0,L|394:221,1,13.125,8|0,0:3|0:0,0:0:0:0:
303,218,178418,2,0,L|304:200,1,13.125,4|0,0:3|0:0,0:0:0:0:
222,248,178506,2,0,L|208:229,1,13.125,4|0,0:3|0:0,0:0:0:0:
172,313,178593,2,0,L|155:306,2,13.125,4|0|0,0:3|0:0|0:0,0:0:0:0:
379,327,178767,6,0,B|346:293|302:303|302:303|299:297|299:297|302:303|302:303|257:313|242:362,1,183.750001752377,4|0,1:2|0:0,0:0:0:0:
89,145,178942,2,2,B|64:139|64:139|58:192|131:214,1,125.999996154785,2|0,2:1|0:0,1:0:0:0:
480,224,179116,6,0,B|502:209|502:209|562:243|539:310|539:310|523:307|523:307|514:310|514:310|507:305|507:305|463:298|463:298|384:426|245:363,1,472.500018024445,8|0,1:2|0:0,1:0:0:0:
16,258,179465,2,2,B|97:244|97:244|108:248|108:248|212:230,1,196.875,0|0,1:0|0:0,1:2:0:0:
221,214,179639,2,2,B|232:192|232:192|389:227,1,157.500006008148,0|0,1:0|0:0,1:2:0:0:
67,64,179814,6,2,L|55:11,1,52.5,8|0,1:2|0:0,2:1:0:0:
1,128,179988,2,2,P|87:116|135:177,1,157.500006008148,0|0,0:0|0:0,2:1:0:0:
100,375,180163,6,2,P|105:357|87:370,1,52.5,0|0,1:0|0:0,2:1:0:0:
16,258,180337,2,2,B|4:284|4:284|109:229|179:317|179:317|345:281,1,367.500003504753,0|8,0:0|1:2,2:1:0:0:
195,206,180599,2,2,B|203:229|203:229|129:164|33:193,1,183.750001752377,0|0,0:0|0:0,2:1:0:0:
147,34,180773,5,4,0:3:0:0:
60,26,180860,2,0,P|64:56|73:75,1,39.3750015020371,2|0,2:1|0:0,0:0:0:0:
231,38,181035,2,2,P|227:8|218:-11,1,39.3750015020371,4|0,1:3|0:0,1:2:0:0:
396,116,181209,6,2,B|427:56|381:-26|311:-22|311:-22|352:37|308:78|308:78|261:119|279:188|279:188|254:121|182:121,1,551.25000525713,8|0,1:2|0:0,1:2:0:0:
185,121,181558,6,2,B|155:86|155:86|231:60|291:113,1,183.750001752377,0|0,1:0|0:0,1:0:0:0:
127,366,181732,2,0,P|134:277|199:214,1,183.750001752377
288,2,181907,6,2,B|285:32|237:22|208:-23|285:-85|349:-59|379:33|319:84|319:84|270:122|292:190,1,367.500003504753,8|0,1:2|0:0,1:0:0:0:
454,217,182168,5,0,0:0:0:0:
512,165,182256,2,2,B|490:135|490:135|334:154,1,168,0|0,1:0|0:0,1:0:0:0:
199,213,182430,2,2,B|221:243|221:243|350:227,1,168,0|0,1:0|0:0,1:0:0:0:
278,21,182604,6,2,B|296:14|296:14|238:-16|238:-16|175:-1|175:-1|189:10,1,168,8|0,1:2|0:0,1:0:0:0:
122,66,182779,1,2,0:3:0:0:
124,76,182866,1,2,0:3:0:0:
126,86,182953,2,0,B|171:91|171:91|173:87|173:87|171:91|171:91|301:109,1,168,0|0,1:0|0:0,0:0:0:0:
360,150,183128,5,0,0:0:0:0:
357,73,183215,2,2,B|385:65|385:65|312:47|283:106|283:106|231:197|112:169,1,336,2|0,2:1|0:0,2:1:0:0:
55,217,183476,2,2,B|32:140|32:140|125:75,1,168,2|0,2:1|0:0,2:1:0:0:
192,23,183651,6,0,L|188:3,1,13.125,4|0,0:3|0:0,0:0:0:0:
194,35,183738,2,0,B|197:56|197:56|2:30,1,168,4|0,0:3|2:0,0:0:0:0:
87,296,183913,5,4,3:0:0:0:
0,281,184000,2,0,P|67:213|161:255,1,168,8|0,1:2|0:0,0:0:0:0:
169,311,184174,2,0,P|102:379|8:337,1,168
157,119,184349,6,0,P|172:90|189:160,1,168,4|0,1:2|0:0,0:0:0:0:
447,183,184523,2,2,B|403:192|383:165|383:165|360:134|312:142|312:142|305:199|246:231|246:231|332:204|411:262|397:351|397:351|364:341|364:341|357:344|357:344|356:338|356:338|302:318|302:318|290:374|225:386,1,708.750002703667,2|0,2:1|0:0,1:0:0:0:
224,302,185046,6,2,P|200:239|108:229,1,141.750000540733,0|0,0:0|0:0,2:1:0:0:
66,141,185221,2,2,P|26:153|-16:235,1,115.50000352478,0|0,1:0|0:0,2:1:0:0:
2,287,185395,6,2,L|17:346,1,52.5,8|0,1:2|0:0,2:1:0:0:
18,351,185569,6,2,L|26:383,1,26.25,2|0,2:1|2:2,2:1:0:0:
131,52,185744,6,0,L|145:104,1,52.5,4|0,1:2|0:0,0:0:0:0:
147,115,185831,6,0,L|155:147,1,26.25,2|0,2:1|0:0,0:0:0:0:
131,232,185918,6,0,B|122:264|122:264|160:255|175:173|108:144|108:144|103:151|103:151|104:143|104:143|35:113|51:35,1,336,0|8,0:0|1:2,0:0:0:0:
255,0,186180,2,2,B|288:-13|288:-13|299:75|212:101,1,168,0|0,0:0|0:0,2:1:0:0:
13,165,186354,5,0,0:0:0:0:
3,159,186442,2,2,P|63:82|198:89,1,183.750001752377,0|0,0:0|0:0,2:1:0:0:
372,298,186616,2,2,P|368:200|255:126,1,183.750001752377,0|0,1:0|0:0,2:1:0:0:
0,286,186790,2,2,P|7:212|96:162,1,183.750001752377,8|0,1:2|0:0,2:1:0:0:
297,384,186964,2,2,P|334:319|291:227,1,183.750001752377,0|0,0:0|0:0,2:1:0:0:
63,355,187139,6,2,B|52:300|0:286|0:286|83:244|157:319|157:319|255:304|255:304|201:263|211:200|211:200|190:227|154:227,1,551.25000525713,4|0,1:2|0:0,1:0:0:0:
91,37,187488,2,0,B|101:42|103:51|92:64|72:64|52:40|55:11|88:-8|127:1|158:41|149:94,1,183.750001752377,8|0,1:2|0:0,0:0:0:0:
317,29,187663,6,2,B|385:84|375:184|299:220|299:220|289:111|178:90|126:118|126:118|87:140|45:116,1,551.25000525713,4|0,1:2|0:0,1:0:0:0:
231,12,188011,2,0,P|226:27|240:20,1,39.3750015020371,8|0,1:2|0:0,0:0:0:0:
383,272,188186,6,2,B|330:279|330:279|305:349|305:349|509:380|509:380|446:244|446:244|130:284|130:284|75:157|75:157|274:186|274:186|315:72,1,1260,4|0,1:2|1:3,1:0:0:0:
208,36,189319,1,0,1:3:0:0:
210,55,189406,1,0,1:3:0:0:
213,74,189493,1,0,1:3:0:0:
216,93,189581,2,0,L|228:56,1,39.3750015020371,4|0,0:3|0:0,0:0:0:0:
379,139,189756,2,0,L|391:102,1,39.3750015020371,8|0,2:3|0:0,0:0:0:0:
319,61,189930,5,4,2:0:0:0:
318,56,190104,1,0,0:0:0:0:
317,51,190279,1,0,0:0:0:0:
240,34,190453,5,0,0:0:0:0:
242,24,190628,1,2,0:0:0:0:
244,14,190802,1,0,0:0:0:0:
167,69,190976,5,0,0:0:0:0:
166,64,191151,1,0,0:0:0:0:
90,8,191325,5,0,0:0:0:0:
82,13,191500,1,0,0:0:0:0:
88,22,191674,1,0,0:0:0:0:
97,16,191849,1,0,0:0:0:0:
241,182,192023,5,2,0:0:0:0:
199,246,192198,1,0,0:0:0:0:
135,202,192373,1,0,0:0:0:0:
177,139,192547,1,0,0:0:0:0:
58,358,192721,5,0,2:0:0:0:
59,353,192895,1,0,0:0:0:0:
60,348,193070,1,0,0:0:0:0:
137,331,193244,5,0,0:0:0:0:
135,321,193419,1,2,0:0:0:0:
133,311,193593,1,0,0:0:0:0:
210,366,193767,5,0,0:0:0:0:
211,361,193942,1,0,0:0:0:0:
272,304,194116,5,0,0:0:0:0:
264,299,194291,1,0,0:0:0:0:
270,290,194465,1,0,0:0:0:0:
279,296,194640,1,0,0:0:0:0:
422,368,194814,5,2,0:0:0:0:
380,304,194989,1,0,0:0:0:0:
444,261,195164,1,0,0:0:0:0:
486,324,195338,1,0,0:0:0:0:
400,168,195511,5,0,2:0:0:0:
401,163,195685,1,0,0:0:0:0:
402,158,195860,1,0,0:0:0:0:
366,90,196035,5,0,0:0:0:0:
368,80,196210,1,2,0:0:0:0:
370,70,196384,1,0,0:0:0:0:
328,9,196558,5,0,2:0:0:0:
329,4,196732,1,0,0:0:0:0:
237,24,196907,5,0,0:0:0:0:
229,29,197082,1,0,0:0:0:0:
235,38,197256,1,0,0:0:0:0:
244,32,197431,1,0,0:0:0:0:
198,116,197604,5,2,0:0:0:0:
206,121,197779,1,0,0:0:0:0:
199,131,197953,1,0,0:0:0:0:
190,125,198128,1,0,0:0:0:0:
133,53,198302,5,0,2:0:0:0:
134,58,198476,1,0,0:0:0:0:
135,63,198651,1,0,0:0:0:0:
99,131,198826,5,0,0:0:0:0:
101,141,199001,1,2,0:0:0:0:
103,151,199175,1,0,0:0:0:0:
61,212,199349,5,0,2:0:0:0:
62,217,199523,1,0,0:0:0:0:
155,229,199697,5,0,0:0:0:0:
163,234,199872,1,0,0:0:0:0:
157,243,200046,1,0,0:0:0:0:
148,237,200221,1,0,0:0:0:0:
178,325,200394,5,2,0:0:0:0:
170,330,200569,1,0,0:0:0:0:
177,340,200743,1,0,0:0:0:0:
186,334,200918,1,0,0:0:0:0:
178,325,201093,5,0,0:0:0:0:
256,192,201180,12,0,211732,0:0:0:0:
477,277,211907,5,8,1:3:0:0:
477,277,211994,1,8,1:3:0:0:
477,277,212081,2,0,P|444:294|422:294,1,52.5,4|0,1:3|0:0,0:0:0:0:
369,384,212256,6,2,B|275:319|335:207|335:207|447:235|496:131,1,393.75,4|0,1:2|0:0,1:2:0:0:
491,55,212604,2,0,B|510:40|507:15|507:15|488:26|489:59,1,78.7500030040742,8|0,1:2|0:0,0:0:0:0:
379,135,212779,6,2,B|330:128|312:86|312:86|191:122|265:207|138:228,1,315,4|0,1:2|0:0,1:2:0:0:
133,0,213128,2,0,B|120:15|120:15|240:37,1,131.25,8|0,1:2|0:0,0:0:0:0:
388,55,213302,6,2,L|390:42,19,13.125,4|0|0|0|0|0|2|0|2|0|2|0|2|0|2|0|2|0|2|0,1:0|2:2|2:2|2:2|2:2|2:2|2:2|2:2|2:2|2:2|2:2|2:2|2:2|2:2|2:2|2:2|2:2|2:2|2:2|2:2,1:2:0:0:
259,96,215046,6,0,P|294:90|320:98,1,52.5,0|2,0:0|0:0,0:0:0:0:
504,2,215395,2,0,P|475:22|462:46,1,52.5,2|2,0:0|0:0,0:0:0:0:
181,178,215657,5,0,0:0:0:0:
190,173,215744,2,0,P|233:177|261:196,1,78.7500030040742,0|2,0:0|0:0,0:0:0:0:
512,143,216093,2,0,P|470:157|447:181,1,78.7500030040742,0|2,0:0|0:0,0:0:0:0:
363,244,216354,5,0,0:0:0:0:
361,230,216442,1,0,0:0:0:0:
345,147,216616,5,2,0:0:0:0:
387,73,216790,1,2,0:0:0:0:
468,50,216965,1,0,0:0:0:0:
467,60,217139,6,0,P|445:84|423:92,1,39.3750015020371,2|0,0:0|0:0,0:0:0:0:
345,147,217314,6,0,P|308:145|265:106,1,78.7500030040742,2|0,0:0|0:0,0:0:0:0:
206,0,217488,6,0,P|132:13|88:100,1,131.25,8|8,1:3|2:3,0:0:0:0:
0,8,217663,6,0,P|17:87|76:138,1,131.25,4|0,1:3|0:0,0:0:0:0:
341,384,217837,6,2,B|377:282|275:213|275:213|272:335|168:358|168:358|207:340|214:302,1,472.500018024445,4|0,1:2|0:0,1:2:0:0:
63,253,218186,2,0,P|106:226|134:286,1,131.25,8|0,1:2|0:0,0:0:0:0:
23,373,218360,6,2,P|24:211|-27:162,1,236.250009012223,0|0,1:2|0:0,1:2:0:0:
63,72,218709,2,0,L|37:164,1,52.5,8|0,1:2|0:0,0:0:0:0:
341,137,218883,6,2,B|308:125|295:92|295:92|346:192|267:278|151:270|88:154|169:78|169:78|149:81|149:81|193:-15|301:11|301:11|231:13|215:74,1,787.500030040742,4|0,1:0|0:0,1:2:0:0:
371,63,219407,6,0,L|470:48,1,78.7500030040742,2|2,0:0|0:0,0:0:0:0:
448,51,219756,1,2,0:0:0:0:
426,193,219930,6,0,L|525:178,1,78.7500030040742,2|2,0:0|0:0,0:0:0:0:
333,274,220279,6,0,L|384:266,1,52.5,2|2,0:0|0:0,0:0:0:0:
384,266,220628,1,2,0:0:0:0:
270,330,220802,1,2,0:0:0:0:
104,282,220976,1,0,0:0:0:0:
46,99,221151,6,0,P|53:63|77:46,1,52.5,2|0,0:0|0:0,0:0:0:0:
159,7,221500,2,0,P|152:43|128:60,1,52.5,2|0,0:0|0:0,0:0:0:0:
91,322,221849,2,0,P|81:378|95:320,1,210,2|0,0:0|0:0,0:0:0:0:
54,191,222721,6,0,L|16:185,1,26.25,2|0,0:0|0:0,0:0:0:0:
348,27,222895,2,0,L|373:31,1,26.25,2|0,0:0|0:0,0:0:0:0:
167,162,223069,1,8,1:3:0:0:
176,81,223157,1,8,1:3:0:0:
185,0,223244,2,0,B|138:42|138:42|170:172,1,157.500006008148,4|0,1:3|0:0,0:0:0:0:
113,317,223418,6,2,B|101:237|183:134|330:118|397:278|277:373|170:326|176:232|221:212,1,472.500018024445,4|0,1:2|0:0,1:2:0:0:
317,143,223767,2,0,P|341:156|355:181,1,52.5,8|0,1:2|0:0,0:0:0:0:
504,372,223942,6,2,B|547:265|447:258|474:147|474:147|447:258|360:213|347:338,1,472.500018024445,4|0,1:2|0:0,1:2:0:0:
69,384,224290,2,0,B|52:398|52:398|126:414|178:368,1,157.500006008148,8|0,1:2|0:0,0:0:0:0:
221,212,224465,6,2,B|251:249|236:311|165:311|151:266|161:242,1,157.5,4|2,1:0|0:0,1:2:0:0:
185,140,225163,6,0,P|213:131|286:165,1,105,2|2,0:0|0:0,0:0:0:0:
112,186,225511,2,0,P|83:194|11:161,1,105,2|2,0:0|0:0,0:0:0:0:
166,36,225860,2,0,L|185:140,1,105,2|2,0:0|0:0,0:0:0:0:
186,148,226383,1,2,0:0:0:0:
359,67,226558,1,2,0:0:0:0:
34,10,226732,6,0,L|86:20,1,52.5,2|0,0:0|0:0,0:0:0:0:
166,36,227081,2,0,L|218:46,1,52.5,2|0,0:0|0:0,0:0:0:0:
368,70,227430,1,2,0:0:0:0:
368,70,227779,5,2,0:0:0:0:
297,11,227953,1,2,0:0:0:0:
233,266,228128,5,0,0:0:0:0:
353,384,228302,6,0,L|346:355,1,26.25,2|0,0:0|0:0,0:0:0:0:
329,282,228476,6,0,L|320:245,1,36.749998878479,2|0,0:0|0:0,0:0:0:0:
296,176,228651,6,0,P|349:175|376:200,1,78.7500030040742,8|8,1:3|0:3,0:0:0:0:
368,189,228825,6,0,P|300:197|221:153,1,157.500006008148,4|0,1:3|0:0,0:0:0:0:
70,75,229000,6,2,B|51:70|51:70|25:114|25:114|19:115|19:115|22:120|22:120|-3:167|-3:167|73:209|135:126|135:126|193:47|275:87,1,456.750013938904,4|0,1:2|0:0,1:2:0:0:
168,1,229349,6,0,B|144:-3|144:-3|119:67|182:99,1,131.25,8|0,1:2|0:0,0:0:0:0:
349,298,229523,6,2,B|269:310|269:310|264:308|264:308|258:316|258:316|254:313|254:313|164:328|164:328|125:218|224:155,1,393.75,4|0,1:2|0:0,1:2:0:0:
274,86,229872,6,0,P|343:81|394:133,1,131.25,8|0,1:2|0:0,0:0:0:0:
502,284,230046,6,2,B|532:277|532:277|453:340|453:340|403:281|403:281|417:259|417:259|414:255|414:255|420:253|420:253|452:209|452:209|437:129|437:129|342:151|342:151|353:200|353:200|299:191|299:191|297:186|297:186|287:192|287:192|285:188|285:188|254:183|254:183|223:154|223:154|184:171|184:171|75:153|75:153|38:182|38:182|136:172,1,945.000036048891,4|2,1:0|0:0,1:2:0:0:
100,175,230744,6,0,L|86:122,1,52.5,2|2,0:0|0:0,0:0:0:0:
22,7,231093,5,2,0:0:0:0:
0,78,231267,1,2,0:0:0:0:
176,137,231442,5,2,0:0:0:0:
207,36,231616,1,2,0:0:0:0:
8,90,231790,5,2,0:0:0:0:
204,49,231965,1,2,0:0:0:0:
400,8,232139,1,0,0:0:0:0:
295,0,232314,6,0,L|308:50,1,52.5,2|0,0:0|0:0,0:0:0:0:
373,100,232663,6,0,P|321:94|274:146,1,105,2|0,0:0|0:0,0:0:0:0:
343,167,233011,1,2,0:0:0:0:
471,225,233186,6,0,L|509:242,1,26.25,4|0,0:0|0:0,0:0:0:0:
433,297,233360,6,0,L|447:357,1,39.3750015020371,2|0,0:0|0:0,0:0:0:0:
358,332,233535,6,0,L|345:393,1,52.5
279,316,233709,6,0,L|214:385,1,65.625,2|0,0:0|0:0,0:0:0:0:
239,373,233883,6,0,L|137:387,1,65.625,2|0,0:0|0:0,0:0:0:0:
14,354,234058,6,0,L|106:341,1,91.8750008761883,2|0,0:0|0:0,0:0:0:0:
233,251,234232,6,0,L|108:268,1,105,2|0,0:0|0:0,0:0:0:0:
0,204,234407,6,0,L|117:187,1,118.125004506111,2|0,0:0|0:0,0:0:0:0:
91,109,234581,6,0,P|150:94|217:105,1,105,4|2,3:2|0:0,0:0:0:0:
404,66,234930,1,2,3:2:0:0:
297,27,235104,6,0,P|272:125|316:191,1,157.5,2|0,0:0|0:0,0:0:0:0:
367,222,235453,2,0,B|401:237|417:218|417:218|398:207|368:216,1,105,2|0,0:2|3:0,0:0:0:0:
208,362,235802,2,0,L|97:344,1,105,2|0,0:0|3:0,0:0:0:0:
62,210,236151,6,0,P|37:260|36:325,1,105,2|2,0:0|2:0,0:0:0:0:
62,210,236500,1,0,0:0:0:0:
201,171,236674,2,0,P|226:221|227:286,1,105,2|2,2:0|2:0,0:0:0:0:
201,171,237023,1,0,0:0:0:0:
43,126,237197,6,0,L|129:138,1,78.7500030040742,0|0,1:0|0:0,0:0:0:0:
288,163,237372,6,0,B|317:179|337:163|337:163|307:142|277:155,1,105,4|0,3:1|0:0,0:0:0:0:
201,171,237721,2,0,B|171:188|175:213|175:213|209:198|212:166,1,105,0|0,3:2|0:0,0:0:0:0:
237,91,238069,2,0,B|236:57|213:47|213:47|208:84|235:103,1,105,0|0,3:0|0:0,0:0:0:0:
301,246,238418,6,0,L|355:242,1,52.5,0|0,3:0|0:0,0:0:0:0:
431,236,238593,2,0,L|311:245,1,78.7500030040742,0|0,1:0|0:0,0:0:0:0:
170,190,238767,6,0,B|272:179|272:179|247:192|233:217,1,157.5,4|0,3:1|0:0,0:0:0:0:
164,296,239116,6,0,L|110:292,1,52.5,0|0,3:0|0:0,0:0:0:0:
34,286,239290,2,0,L|154:295,1,78.7500030040742,0|0,1:0|0:0,0:0:0:0:
297,327,239465,6,0,P|307:295|259:312,1,105,0|0,3:0|0:0,0:0:0:0:
212,360,239726,1,0,3:0:0:0:
205,374,239814,6,0,P|219:273|188:186,1,157.500006008148,0|0,1:0|3:0,0:0:0:0:
66,104,240163,6,0,B|30:129|30:129|93:182|193:140,1,178.500003404617,0|0,1:0|0:0,0:0:0:0:
297,192,240511,2,0,P|322:134|254:181,1,178.500003404617,0|0,1:0|0:0,0:0:0:0:
357,251,240860,2,0,P|351:148|389:65,1,178.500003404617,0|0,1:0|0:0,0:0:0:0:
244,0,241209,6,0,P|257:52|289:93,1,89.2500017023087,0|0,1:0|0:0,0:0:0:0:
425,161,241383,2,0,P|478:166|527:150,1,89.2500017023087
357,251,241558,6,0,P|273:281|185:272,1,178.500003404617,0|0,1:0|0:0,0:0:0:0:
95,138,241907,2,0,P|70:203|148:183,1,178.500003404617,0|0,1:0|0:0,0:0:0:0:
276,81,242256,2,0,B|285:63|240:3|193:40|164:106|206:151|253:178,1,178.500003404617,0|0,1:0|0:0,0:0:0:0:
290,298,242604,6,0,P|276:255|248:220,1,89.2500017023087,0|0,1:0|0:0,0:0:0:0:
95,138,242779,2,0,P|50:136|8:150,1,89.2500017023087
62,324,242953,5,0,1:0:0:0:
59,313,243040,1,0,0:0:0:0:
135,317,243128,5,0,1:0:0:0:
138,328,243215,1,0,0:0:0:0:
211,313,243302,5,0,1:0:0:0:
214,302,243389,1,0,0:0:0:0:
290,298,243476,5,0,1:0:0:0:
287,309,243564,1,0,0:0:0:0:
366,324,243651,5,0,1:0:0:0:
363,313,243738,1,0,1:0:0:0:
363,288,243825,5,0,1:0:0:0:
365,276,243913,1,0,1:0:0:0:
378,255,244000,5,0,1:0:0:0:
386,245,244087,1,0,1:0:0:0:
407,233,244174,5,0,1:0:0:0:
419,229,244261,1,0,1:0:0:0:
448,305,244349,6,0,L|452:375,3,52.5,0|0|0|0,1:0|0:0|0:0|0:0,0:0:0:0:
455,160,245046,5,0,0:0:0:0:
355,190,245221,1,0,0:0:0:0:
455,160,245395,6,0,L|431:157,1,13.125,8|0,1:2|0:0,0:0:0:0:
355,190,245569,2,0,L|331:187,1,13.125
200,29,245744,6,2,P|270:152|237:312,1,267.750005106926,4|0,1:2|1:0,1:2:0:0:
190,331,246093,2,0,P|174:268|186:222,1,89.2500017023087,8|0,1:2|0:0,0:0:0:0:
370,66,246267,6,2,P|492:40|451:160,1,299.249992009163,0|0,1:0|0:0,1:2:0:0:
355,190,246616,6,0,L|292:192,1,52.5,0|0,1:0|0:0,0:0:0:0:
176,134,246790,2,0,L|113:136,1,52.5,8|0,1:2|0:0,0:0:0:0:
41,214,246965,6,0,B|18:256|18:256|191:207|191:207|177:250,1,267.750005106926
133,384,247314,2,2,B|113:356|113:356|135:287,1,89.2500017023087,0|0,1:0|0:0,1:2:0:0:
317,255,247488,6,2,B|338:236|338:236|263:217|263:217|223:342|223:342|258:399,1,299.249992009163,8|0,1:2|0:0,1:2:0:0:
356,346,247837,6,0,L|284:326,1,52.5,0|0,1:0|0:0,0:0:0:0:
443,370,248011,2,0,L|493:384,1,52.5,0|0,1:0|0:0,0:0:0:0:
447,224,248186,6,2,B|506:308|506:308|417:285|417:285|416:293|416:293|417:285|417:285|316:254,1,315,8|0,1:2|0:0,1:2:0:0:
305,331,248535,6,2,P|294:182|386:225,1,267.750005106926,0|0,1:2|0:0,1:2:0:0:
447,224,248883,2,0,P|426:181|432:135,1,89.2500017023087,8|0,1:2|0:0,0:0:0:0:
415,17,249058,6,2,B|492:31|492:31|392:115|238:19,1,299.249992009163,0|0,1:0|0:0,1:2:0:0:
194,19,249407,2,0,P|176:27|211:33,1,99.7499973363877,0|0,1:0|0:0,0:0:0:0:
352,188,249581,6,2,L|239:171,1,99.7499973363877,8|0,1:2|0:0,1:2:0:0:
154,154,249756,2,0,L|41:137,1,99.7499973363877
167,280,249930,5,2,0:1:0:0:
150,282,250104,2,2,L|248:267,1,99.7499973363877,0|0,1:0|0:0,1:2:0:0:
447,224,250279,2,2,P|431:205|367:314,1,236.250009012223,8|0,1:2|0:0,1:2:0:0:
511,329,250628,6,0,P|471:309|421:306,1,78.7500030040742,0|0,1:0|0:0,0:0:0:0:
350,125,250802,2,0,P|310:143|274:179,1,78.7500030040742,0|0,1:0|0:0,0:0:0:0:
258,384,250976,2,2,P|269:267|178:77,1,315,8|0,1:2|0:0,1:2:0:0:
0,37,251325,6,2,B|50:-12|150:16|150:16|99:48|107:102,1,267.750005106926,0|0,1:0|0:0,1:2:0:0:
145,203,251674,2,0,P|155:167|133:181,1,89.2500017023087,8|0,1:2|0:0,0:0:0:0:
24,223,251849,6,2,B|-25:261|-25:261|263:289,1,299.249992009163,0|0,1:0|0:0,1:2:0:0:
329,294,252197,2,0,L|452:304,1,99.7499973363877,0|0,1:0|0:0,0:0:0:0:
322,379,252372,6,2,P|250:263|416:299,1,315,8|0,1:2|0:0,1:2:0:0:
504,348,252721,5,2,0:0:0:0:
499,356,252808,1,2,0:0:0:0:
493,364,252895,2,0,L|499:263,1,52.5,0|0,1:0|0:0,0:0:0:0:
477,44,253069,6,2,B|508:50|545:100|482:186|321:175|284:67,1,299.249992009163,8|0,1:2|0:0,1:2:0:0:
211,145,253418,6,0,L|253:146,1,26.25,0|0,1:0|0:0,0:0:0:0:
256,37,253593,2,0,L|229:36,1,26.25,0|0,1:0|0:0,0:0:0:0:
42,117,253767,6,2,P|204:181|207:306,1,315,8|0,1:2|0:0,1:2:0:0:
66,168,254116,6,2,B|37:231|-15:184|2:104|111:96|194:139|204:227,1,315,0|0,1:0|0:0,1:2:0:0:
208,302,254465,2,0,B|228:287|251:302|203:364|157:330|138:302,1,105,8|0,1:2|0:0,0:0:0:0:
7,275,254639,6,2,B|-16:224|-57:262|-44:326|42:332|109:298|117:227,1,236.250009012223,0|0,1:0|0:0,1:2:0:0:
211,145,254988,2,0,P|245:127|310:149,1,78.7500030040742,0|0,1:0|0:0,0:0:0:0:
437,117,255163,6,2,P|324:132|276:235,1,236.250009012223,8|0,1:2|0:0,1:2:0:0:
328,371,255511,6,0,L|319:336,1,26.25,2|2,0:0|0:0,0:0:0:0:
409,321,255686,2,0,L|400:286,1,26.25,0|0,1:0|0:0,0:0:0:0:
464,212,255860,6,2,B|363:195|363:195|323:160|323:160|211:145,1,267.750005106926,8|0,1:2|0:0,1:2:0:0:
15,92,256209,6,0,P|71:80|114:108,1,89.2500017023087,0|0,1:2|0:0,0:0:0:0:
212,8,256383,2,0,P|262:34|277:83,1,89.2500017023087,0|0,1:0|0:0,0:0:0:0:
148,232,256558,6,2,B|140:199|140:199|250:175|342:259|321:371,1,315,8|0,1:2|0:0,1:2:0:0:
113,310,256907,6,2,B|175:338|238:283|231:223|231:223|196:87,1,315,0|0,1:0|0:0,1:2:0:0:
286,150,257256,2,0,L|314:259,1,105,8|0,1:2|0:0,0:0:0:0:
504,358,257430,6,2,B|471:285|392:300|392:300|323:390|234:327|209:271,1,315,0|0,1:2|0:0,1:2:0:0:
50,250,257779,2,0,P|96:226|147:231,1,105,0|0,1:0|0:0,0:0:0:0:
312,251,257953,6,2,L|317:193,1,52.5,8|0,1:2|0:0,1:2:0:0:
334,31,258128,2,0,L|329:83,1,52.5
436,153,258302,5,2,0:0:0:0:
465,155,258476,2,0,L|386:146,1,78.7500030040742,0|0,1:0|0:0,0:0:0:0:
260,136,258651,2,2,B|81:112|81:112|161:162,1,236.250009012223,8|0,1:2|0:0,1:2:0:0:
128,229,259000,6,0,P|166:220|197:196,1,78.7500030040742,0|0,1:0|0:0,0:0:0:0:
157,0,259174,2,0,P|190:20|212:52,1,78.7500030040742,0|0,1:0|0:0,0:0:0:0:
386,146,259349,6,2,P|323:77|330:205,1,315,8|0,1:2|0:0,1:2:0:0:
451,315,259697,6,2,B|537:263|468:163|468:163|451:223|408:226,1,267.750005106926,0|0,1:0|0:0,1:2:0:0:
287,284,260046,2,0,L|379:292,1,89.2500017023087,8|0,1:2|0:0,0:0:0:0:
508,375,260221,6,2,B|459:371|459:371|445:349|445:349|428:368|428:368|188:349,1,299.249992009163,0|0,1:0|0:0,1:2:0:0:
52,357,260569,2,0,L|159:347,1,99.7499973363877,0|0,1:0|0:0,0:0:0:0:
193,273,260744,6,2,B|27:287|27:287|81:240,1,236.250009012223,8|0,1:2|0:0,1:2:0:0:
213,188,261093,5,2,0:0:0:0:
219,192,261180,1,2,0:0:0:0:
223,197,261267,2,0,L|98:207,1,78.7500030040742,0|0,1:0|0:0,0:0:0:0:
60,133,261442,6,2,B|291:117|291:117|307:224,1,267.750005106926,8|0,1:2|0:0,1:2:0:0:
324,321,261790,6,0,B|313:278|313:278|334:201,1,89.2500017023087,0|0,1:0|0:0,0:0:0:0:
324,321,261965,2,0,B|335:278|335:278|314:201,1,89.2500017023087,0|0,1:0|0:0,0:0:0:0:
276,20,262139,6,2,B|239:49|239:49|466:27|466:27|407:70,1,315,8|0,1:2|0:0,1:2:0:0:
276,20,262488,6,2,B|74:7|74:7|148:67,1,267.750005106926,0|0,1:0|0:0,1:2:0:0:
296,152,262837,2,0,L|156:142,1,89.2500017023087,8|0,1:2|0:0,0:0:0:0:
30,153,263011,6,2,B|5:51|5:51|130:143|130:143|67:293,1,393.75,0|0,1:0|0:0,1:2:0:0:
34,354,263360,2,0,L|174:344,1,89.2500017023087,0|0,1:0|0:0,0:0:0:0:
310,275,263535,6,2,B|360:252|360:252|183:213|183:213|155:277|155:277|243:298,1,346.500010574341,8|0,1:2|0:0,1:2:0:0:
365,338,263883,6,0,L|389:336,1,21,2|2,0:0|0:0,0:0:0:0:
452,360,264058,2,0,L|476:358,1,21,0|0,1:2|0:0,0:0:0:0:
492,206,264232,6,2,B|274:156|274:156|371:102,1,315,8|0,1:2|0:0,1:2:0:0:
468,50,264581,6,0,B|482:90|482:90|465:145,1,78.7500030040742,0|0,1:0|0:0,0:0:0:0:
199,185,264756,6,0,B|188:150|188:150|202:110,1,78.7500030040742,0|0,1:0|0:0,0:0:0:0:
345,15,264930,6,2,B|366:60|343:102|343:102|351:108|351:108|344:101|344:101|293:171|321:253|321:253|492:290,1,409.499981254579,8|0,1:2|0:0,1:2:0:0:
460,356,265279,6,2,B|204:304|204:304|193:358,1,315,0|0,1:0|0:0,1:2:0:0:
193,356,265628,1,8,1:2:0:0:
94,221,265802,6,8,B|350:169|350:169|361:223,1,315,0|0,1:0|0:0,1:2:0:0:
360,221,266151,1,0,1:2:0:0:
144,137,266325,6,2,B|414:76|414:76|79:17|79:17|42:239|42:239|415:153|415:153|393:376|393:376|62:316|62:316|489:212|489:212|472:385,1,2393.99992694092,4|0,1:2|0:0,1:2:0:0:
489,366,268069,6,0,L|491:334,1,19.6875007510186,8|0,1:3|0:0,0:0:0:0:
494,327,268157,2,0,L|496:295,1,19.6875007510186,8|0,1:3|0:0,0:0:0:0:
500,289,268244,2,0,L|502:257,1,19.6875007510186,4|0,1:3|0:0,0:0:0:0:
120,197,268418,6,2,B|164:233|164:233|361:206|361:206|419:251,1,315,8|0,1:2|0:0,1:2:0:0:
407,242,268767,1,0,0:0:0:0:
197,146,268942,6,0,L|210:84,1,52.5,0|0,1:0|0:0,0:0:0:0:
221,17,269116,1,8,1:2:0:0:
238,382,269290,6,2,B|272:313|272:313|34:345|34:345|79:257,1,393.75,0|0,1:0|0:0,1:2:0:0:
221,17,269639,6,2,B|155:26|155:26|119:96,1,131.25,0|0,1:0|0:0,1:2:0:0:
0,107,269814,2,2,B|-18:70|-18:70|146:109|146:109|182:173|182:173|331:208,1,393.75,8|0,1:2|0:0,1:2:0:0:
102,192,270163,6,0,L|-33:212,1,131.25,0|0,1:0|0:0,0:0:0:0:
382,147,270337,2,0,L|511:127,1,131.25,0|0,1:0|0:0,0:0:0:0:
302,3,270511,6,0,P|286:53|330:116,1,110.249996635437,8|0,1:2|0:0,0:0:0:0:
466,318,270686,2,0,P|481:266|458:218,1,110.249996635437,8|0,1:2|0:0,0:0:0:0:
237,206,270860,6,2,B|249:136|336:84|447:96|435:184|372:185|354:153|386:144,1,262.5,4|0,1:2|0:0,1:2:0:0:
408,0,271122,1,0,0:0:0:0:
408,0,271209,2,0,P|433:28|429:66,1,78.7500030040742,8|0,1:2|0:0,0:0:0:0:
457,217,271383,6,2,B|350:278|280:187|280:187|207:98|107:156,1,393.75,0|0,1:0|0:0,1:2:0:0:
64,90,271732,2,0,P|45:81|81:83,1,131.25,0|0,1:0|0:0,0:0:0:0:
243,38,271907,2,2,B|342:59|345:162|345:162|227:117|155:233,1,393.75,8|0,1:2|0:0,1:2:0:0:
94,309,272256,6,0,L|78:229,1,78.7500030040742,2|2,0:0|0:0,0:0:0:0:
178,340,272430,1,0,1:0:0:0:
178,340,272604,2,2,B|158:388|110:398|110:398|415:352,1,393.75,8|0,1:2|0:0,1:2:0:0:
491,373,272953,6,0,B|503:328|503:328|438:255,1,131.25,0|0,1:0|0:0,0:0:0:0:
505,362,273128,2,0,B|514:326|514:326|462:267,1,115.50000352478,0|0,1:0|0:0,0:0:0:0:
480,104,273302,2,0,B|444:113|444:113|419:187,1,115.50000352478,8|0,1:2|0:0,0:0:0:0:
261,246,273476,2,0,B|287:272|287:272|363:256,1,115.50000352478,2|0,2:2|0:0,0:0:0:0:
262,159,273651,6,2,B|343:200|400:129|400:129|415:135|415:135|464:62|546:86|546:86|510:82|478:105,1,393.75,0|0,1:0|0:0,1:2:0:0:
306,1,274000,2,0,P|348:51|284:96,1,131.25,8|0,1:2|0:0,0:0:0:0:
302,293,274174,2,2,P|205:147|5:179,1,393.75,0|0,1:0|0:0,1:2:0:0:
9,174,274523,2,0,P|43:211|30:275,1,84,0|0,1:0|0:0,0:0:0:0:
80,380,274697,6,2,P|101:226|175:375,1,393.75,8|0,1:2|0:0,1:2:0:0:
198,346,275046,2,0,P|170:287|121:314,1,131.25,2|2,0:0|0:0,0:0:0:0:
28,67,275221,2,0,L|41:2,1,52.5,0|0,1:0|0:0,0:0:0:0:
109,94,275395,6,2,B|90:146|27:154|27:154|309:108,1,393.75,8|0,1:2|0:0,1:2:0:0:
304,24,275744,6,0,B|324:2|324:2|438:28,1,131.25,0|0,1:0|0:0,0:0:0:0:
428,108,275918,2,0,B|408:130|408:130|294:104,1,131.25,0|0,1:0|0:0,0:0:0:0:
200,41,276093,6,2,L|304:23,1,105,8|0,1:2|0:0,1:2:0:0:
368,277,276442,6,2,B|330:309|276:306|276:306|413:332|421:194|421:194|326:194|306:94,1,472.500018024445,0|0,1:0|0:0,1:2:0:0:
505,58,276790,2,0,B|520:48|520:48|439:17|400:103,1,157.500006008148,8|0,1:2|0:0,0:0:0:0:
214,116,276965,2,2,B|203:86|203:86|378:32|319:206|495:155|495:155|479:108,1,393.75,0|0,1:0|0:0,1:2:0:0:
331,3,277314,2,0,B|295:40|295:40|300:62|300:62|294:61|294:61|300:62|300:62|308:106,1,131.25,0|0,1:0|0:0,0:0:0:0:
474,384,277488,2,0,B|510:347|510:347|505:325|505:325|511:326|511:326|505:325|505:325|496:280,1,131.25,8|0,1:2|0:0,0:0:0:0:
354,230,277663,5,0,0:0:0:0:
354,230,277750,1,0,0:0:0:0:
354,230,277837,2,0,L|273:242,1,52.5,2|2,2:0|0:0,0:0:0:0:
224,251,278011,2,0,L|143:263,1,52.5,0|0,1:0|0:0,0:0:0:0:
65,216,278186,6,2,B|114:207|145:245|145:245|151:244|151:244|150:251|150:251|183:302|158:358|122:380|122:380|122:386|122:386|116:384|116:384|82:402|25:394|0:354,1,393.75,8|0,1:2|0:0,1:2:0:0:
59,203,278535,2,0,P|32:258|74:303,1,131.25,0|0,1:0|0:0,0:0:0:0:
282,312,278709,1,0,1:0:0:0:
133,372,278883,6,0,P|132:297|162:229,1,131.25,8|0,1:2|0:0,0:0:0:0:
265,155,279058,2,0,P|206:183|162:231,1,131.25,4|0,2:2|0:0,0:0:0:0:
133,372,279232,6,2,B|170:225|44:285|86:129,1,262.5,0|0,1:2|0:0,1:2:0:0:
118,57,279494,1,0,1:0:0:0:
110,54,279581,1,8,1:2:0:0:
159,184,279756,2,2,B|200:177|216:135|216:135|320:213|268:364|129:365,1,393.75,0|0,1:0|0:0,1:2:0:0:
58,326,280104,2,0,P|52:339|57:316,1,131.25,0|0,1:2|0:0,0:0:0:0:
50,223,280279,6,0,B|56:196|56:196|170:182,1,131.25,8|0,1:2|0:0,0:0:0:0:
428,95,280453,2,0,B|422:122|422:122|308:136,1,131.25
228,231,280628,1,2,0:0:0:0:
228,231,280802,2,2,L|250:80,1,131.25,0|0,1:0|0:0,1:2:0:0:
27,43,280976,6,2,B|10:16|10:16|143:9|164:168,1,262.5,8|0,1:2|0:0,1:2:0:0:
270,307,281238,1,0,0:0:0:0:
255,314,281325,2,0,P|191:310|148:262,1,131.25,0|0,1:0|0:0,0:0:0:0:
0,128,281500,2,0,P|66:120|114:75,1,131.25,0|0,1:0|0:0,0:0:0:0:
263,31,281674,2,2,B|202:37|167:-20|167:-20|225:68|185:178|83:200,1,393.75,8|0,1:2|0:0,1:2:0:0:
27,43,282023,6,2,B|13:-9|13:-9|385:51,1,393.75,0|0,1:0|0:0,1:2:0:0:
348,45,282372,1,8,1:2:0:0:
322,122,282546,2,2,B|336:174|336:174|-36:114,1,393.75,0|0,1:0|0:0,1:2:0:0:
27,43,282895,2,0,B|81:11|81:11|155:23,1,131.25,0|0,1:0|0:0,0:0:0:0:
322,122,283069,2,0,B|268:154|268:154|194:142,1,131.25,8|0,1:2|0:0,0:0:0:0:
0,288,283244,2,0,B|156:261,1,131.25,0|0,2:0|0:0,0:0:0:0:
348,45,283418,5,2,0:0:0:0:
355,39,283506,1,2,0:0:0:0:
362,34,283593,2,0,L|232:12,1,105,0|0,1:2|0:0,0:0:0:0:
204,156,283767,6,2,B|183:196|183:196|279:207|307:142|307:142|345:153|345:153|367:128|367:128|493:95,1,393.75,8|0,1:2|0:0,1:2:0:0:
355,16,284116,2,0,B|342:-6|342:-6|452:15,1,131.25,0|0,1:0|0:0,0:0:0:0:
465,275,284290,1,0,1:0:0:0:
492,96,284465,2,2,B|469:100|471:71|501:47|570:73|546:187|460:191|460:191|401:196|382:258,1,315.000012016297,8|0,1:2|0:0,1:2:0:0:
204,156,284814,6,2,B|200:104|200:104|432:103|444:328|444:328|397:337,1,472.500018024445,0|0,1:0|0:0,1:2:0:0:
328,298,285163,2,0,B|311:317|311:317|324:258|383:252,1,131.25,8|0,1:2|0:0,0:0:0:0:
202,127,285337,2,2,B|276:106|332:169|332:169|251:198|195:293|235:373,1,393.75,0|0,1:0|0:0,1:2:0:0:
400,337,285686,6,0,L|428:341,1,19.6875007510186,0|0,1:0|0:0,0:0:0:0:
232,368,285860,38,2,B|248:281|162:245|162:245|75:210|87:114,1,315.000012016297,8|0,1:2|0:0,1:2:0:0:
16,384,286122,5,0,0:0:0:0:
10,371,286209,2,0,P|59:328|161:337,1,157.500006008148,2|2,2:0|0:0,0:0:0:0:
312,108,286383,2,0,P|263:151|161:142,1,157.500006008148,0|0,1:0|0:0,0:0:0:0:
160,34,286558,2,2,B|133:-34|133:-34|214:3|188:83|188:83|200:88|200:88|188:83|188:83|143:211|3:189,1,472.500018024445,8|0,1:2|0:0,1:2:0:0:
15,92,286907,6,0,P|44:55|83:45,1,78.7500030040742,0|0,1:0|0:0,0:0:0:0:
299,0,287081,2,0,P|316:43|304:82,1,78.7500030040742,0|0,1:0|0:0,0:0:0:0:
225,292,287256,2,0,P|178:285|150:255,1,78.7500030040742,8|4,1:2|0:3,0:0:0:0:
174,149,287430,1,4,0:3:0:0:
387,272,287604,6,2,B|444:201|384:84|290:94|290:94|314:169|259:246|179:238|179:238|226:234|252:191,1,551.25000525713,4|0,1:2|0:0,1:2:0:0:
174,149,287953,2,0,L|177:131,1,13.125,8|0,1:2|0:0,0:0:0:0:
175,136,288128,6,6,B|86:120|86:120|63:260|63:260|71:273|71:273|56:363|56:363|283:327,1,551.25000525713,4|0,1:2|2:3,1:2:0:0:
355,366,288476,2,0,L|352:348,1,13.125,8|0,1:2|0:0,0:0:0:0:
355,366,288651,6,2,B|446:350|446:350|480:299|480:299|455:184|455:184|392:170|392:170|389:173|389:173|388:169|388:169|360:163|360:163|357:168|357:168|355:162|355:162|324:157|324:157|321:159|321:159|319:155|319:155|291:150|291:150|287:153|287:153|285:148|285:148|257:143|257:143|252:146|252:146|250:142|250:142|178:128|178:128|329:13|329:13|475:106|475:106|3:15|3:15|124:217|124:217|-21:189|-21:189|61:328|61:328|202:303|202:303|205:297|205:297|210:302|210:302|227:299|227:299|230:294|230:294|234:298|234:298|251:295|251:295|253:290|253:290|259:294|259:294|273:291|273:291|277:288|277:288|280:291|280:291|297:288|297:288|300:284|300:284|306:286|306:286|423:268,1,2307.37505105124,4|0,1:2|0:0,1:2:0:0:
381,274,290046,6,0,L|376:256,1,13.125,8|0,1:3|0:0,0:0:0:0:
355,279,290133,6,0,L|349:251,1,21,8|0,1:3|0:0,0:0:0:0:
327,283,290221,6,0,L|319:246,1,30.1875005757809,8|0,1:3|0:0,0:0:0:0:
80,56,290395,6,2,B|154:70|154:70|159:66|159:66|160:71|160:71|350:109,1,275.625002628565,4|0,1:2|0:0,1:2:0:0:
424,81,290744,2,0,P|454:58|418:68,1,105,8|0,1:2|0:0,0:0:0:0:
273,341,290918,2,2,B|191:328|191:328|156:151|156:151|60:133,1,354.375013518334,2|0,0:0|0:0,1:0:0:0:
0,181,291267,2,0,L|5:206,1,26.25,0|0,1:0|0:0,0:0:0:0:
291,331,291442,2,2,B|27:286|27:286|150:262,1,393.75,8|0,1:2|0:0,1:0:0:0:
382,234,291790,6,0,B|356:269|369:307|369:307|382:347|355:382,1,157.5,0|0,1:0|0:0,0:0:0:0:
376,375,292139,6,2,B|403:333|394:245|322:200|232:237|232:237|243:188,1,315,8|0,1:2|0:0,1:2:0:0:
334,30,292488,5,4,3:0:0:0:
332,40,292575,1,4,3:0:0:0:
318,117,292663,2,0,L|313:142,1,26.25,0|0,1:0|0:0,0:0:0:0:
62,22,292837,6,0,B|115:-7|162:30|162:30|189:75|251:64,1,210,8|2,1:2|0:0,0:0:0:0:
498,52,293099,1,2,0:0:0:0:
439,2,293186,6,2,B|368:20|368:20|330:221,1,275.625002628565,0|0,1:2|0:0,1:2:0:0:
450,363,293535,2,0,P|481:342|444:349,1,105,8|0,1:2|0:0,0:0:0:0:
120,276,293709,2,2,B|146:236|146:236|250:250|250:250|267:292|267:292|374:305|374:305|401:263,1,354.375013518334,0|0,2:2|0:0,1:0:0:0:
312,142,294058,2,0,L|317:117,1,26.25,0|0,1:0|0:0,0:0:0:0:
82,350,294232,2,2,B|-22:362|-22:362|94:171|94:171|106:167|106:167|98:129|98:129|101:128|101:128|97:126|97:126|86:78,1,433.125004130602,8|0,1:2|0:0,1:0:0:0:
69,1,294581,6,2,B|111:-7|140:20|140:20|171:48|214:39,1,157.5,0|0,1:0|0:0,1:2:0:0:
327,69,294930,2,0,P|292:55|329:56,1,105,8|0,1:2|0:0,0:0:0:0:
160,306,295104,5,2,0:0:0:0:
160,319,295192,1,2,0:0:0:0:
163,330,295279,2,0,P|207:358|258:352,1,105,2|0,0:0|0:0,0:0:0:0:
371,140,295453,2,0,P|422:133|465:161,1,105,2|0,1:2|0:0,0:0:0:0:
456,244,295628,6,0,P|406:259|359:240,1,105,8|0,1:2|0:0,0:0:0:0:
305,6,295802,2,0,P|257:-13|208:2,1,105,2|0,0:0|0:0,0:0:0:0:
27,204,295976,6,2,B|165:189|165:189|176:195|176:195|300:182,1,275.625002628565,0|0,1:0|0:0,1:0:0:0:
371,140,296325,2,0,P|395:117|365:131,1,91.8750008761883,8|0,1:2|0:0,0:0:0:0:
496,348,296500,6,2,B|358:333|358:333|347:339|347:339|223:326,1,275.625002628565,2|0,0:0|0:0,1:0:0:0:
150,367,296849,6,2,P|140:342|139:315,1,52.5,0|0,1:0|0:0,1:0:0:0:
93,172,297023,2,0,P|109:151|132:137,1,52.5,8|0,1:2|0:0,0:0:0:0:
233,25,297197,2,2,P|258:28|282:41,1,52.5,0|0,2:0|0:0,1:0:0:0:
464,188,297372,6,2,B|381:175|406:233|312:215,1,157.5,0|0,1:0|0:0,1:2:0:0:
275,142,297721,2,0,P|252:114|264:149,1,105,8|0,1:2|0:0,0:0:0:0:
129,315,297895,6,0,P|139:340|140:367,1,52.5,2|0,2:0|2:0,2:0:0:0:
149,209,298069,2,0,P|170:225|184:248,1,52.5,2|0,2:0|2:0,2:0:0:0:
113,107,298244,2,0,P|139:110|163:123,1,52.5,2|0,1:2|2:0,2:0:0:0:
30,36,298418,2,0,P|55:26|82:25,1,52.5,8|0,1:2|2:0,2:0:0:0:
345,137,298593,6,0,B|352:96|352:96|354:97|354:97|353:92|353:92|358:57,1,78.7500030040742,2|0,1:1|0:0,0:0:0:0:
469,19,298767,6,2,B|522:207|522:207|442:190,1,275.625002628565,0|0,1:0|0:0,1:0:0:0:
370,247,299116,2,0,P|346:218|359:253,1,105,8|0,1:2|0:0,0:0:0:0:
101,134,299290,6,2,B|48:322|48:322|128:305,1,275.625002628565,0|0,2:1|0:0,1:0:0:0:
203,347,299639,6,0,P|207:315|215:295,1,52.5,0|0,1:0|0:0,0:0:0:0:
180,218,299814,2,0,P|183:183|194:155,1,65.625,8|0,1:2|0:0,0:0:0:0:
160,76,299988,2,0,P|165:32|178:0,1,78.7500030040742,2|0,2:2|0:0,0:0:0:0:
459,151,300163,6,2,B|477:177|477:177|308:147|308:147|328:174,1,236.250009012223,0|0,1:0|0:0,1:2:0:0:
370,368,300511,6,2,B|465:304|402:208|402:208|381:250|335:257,1,262.5,8|0,1:2|0:0,1:2:0:0:
48,46,300860,6,0,P|75:40|98:47,1,52.5,0|0,1:0|0:0,0:0:0:0:
172,18,301122,2,0,P|208:32|228:64,1,78.7500030040742,0|0,1:0|0:0,0:0:0:0:
307,81,301383,2,0,P|332:111|327:174,1,105,8|0,1:2|0:0,0:0:0:0:
47,274,301558,6,2,B|247:245|247:245|207:262|197:296,1,275.625002628565,4|0,1:2|0:0,1:2:0:0:
121,346,301907,2,0,P|115:383|133:350,1,105,8|0,1:2|0:0,0:0:0:0:
427,375,302081,2,2,B|506:364|506:364|392:346|392:346|384:339|384:339|276:324,1,315,2|0,0:0|0:0,1:0:0:0:
183,214,302430,2,0,L|178:188,1,26.25,0|0,1:0|0:0,0:0:0:0:
380,5,302604,6,2,B|388:71|336:132|313:91|260:156|269:234|269:234|333:243|333:243|336:240|336:240|339:244|339:244|392:251,1,393.75,8|0,1:2|0:0,1:0:0:0:
473,263,302953,6,0,B|479:219|451:191|451:191|420:163|432:119,1,157.5,0|0,1:0|0:0,0:0:0:0:
288,20,303302,2,2,B|261:-6|261:-6|369:-42|460:-11|502:69,1,315,8|0,1:2|0:0,1:2:0:0:
507,170,303651,5,4,2:3:0:0:
505,179,303738,1,4,2:3:0:0:
435,237,303825,2,0,L|430:212,1,26.25,0|0,1:0|0:0,0:0:0:0:
508,383,304000,6,2,B|488:346|488:346|283:329,1,210,8|2,1:2|0:0,1:2:0:0:
122,268,304261,1,2,0:0:0:0:
83,343,304349,6,2,B|53:370|53:370|163:352|163:352|168:347|168:347|174:350|174:350|237:339|237:339|234:292|275:262,1,315,0|0,1:0|0:0,1:2:0:0:
373,255,304697,2,0,P|378:220|360:254,1,105,8|0,1:2|0:0,0:0:0:0:
75,56,304872,6,2,B|163:54|223:126|193:226|193:226|157:173|106:192,1,315,0|0,0:0|0:0,1:0:0:0:
251,23,305221,2,0,L|245:48,1,26.25,0|0,1:0|0:0,0:0:0:0:
464,260,305395,2,2,B|434:233|434:233|122:268,1,354.375013518334,8|0,1:2|0:0,1:0:0:0:
34,212,305744,6,0,B|18:251|40:285|40:285|62:320|46:361,1,157.5,0|0,1:0|0:0,0:0:0:0:
132,372,306093,2,0,P|166:356|129:360,1,105,8|0,1:2|0:0,0:0:0:0:
335,104,306267,5,2,0:0:0:0:
326,94,306354,1,2,0:0:0:0:
314,88,306442,2,0,P|262:90|225:125,1,105,2|0,0:0|0:0,0:0:0:0:
200,206,306616,2,0,P|162:241|111:242,1,105,2|0,1:2|0:0,0:0:0:0:
74,15,306790,6,0,P|125:16|162:51,1,105,8|0,1:2|0:0,0:0:0:0:
263,280,306965,2,0,P|300:315|351:316,1,105,4|0,2:2|0:0,0:0:0:0:
498,146,307139,6,0,L|502:110,1,26.25,4|4,3:0|3:0,0:0:0:0:
498,146,307314,1,4,3:0:0:0:
448,298,307488,6,0,B|439:249|439:249|441:245|441:245|438:240|438:240|430:195,1,105,8|0,1:2|0:0,0:0:0:0:
278,6,307663,6,2,B|336:-21|413:11|423:77|423:77|354:104|350:177,1,315,0|0,2:2|0:0,1:0:0:0:
325,253,308011,6,0,L|350:257,1,26.25,2|0,1:0|0:0,0:0:0:0:
507,350,308186,2,0,P|525:383|496:360,1,105,8|0,1:2|0:0,0:0:0:0:
438,58,308360,6,2,B|391:64|361:100|361:100|298:91|298:91|293:86|293:86|289:90|289:90|181:76,1,275.625002628565,0|0,2:0|0:0,1:0:0:0:
90,16,308709,6,0,L|105:119,1,105,2|0,2:1|0:0,0:0:0:0:
389,177,308883,2,0,P|394:214|375:182,1,105,8|0,1:2|0:0,0:0:0:0:
136,358,309058,1,2,0:0:0:0:
136,358,309145,1,2,0:0:0:0:
136,358,309232,6,2,P|124:306|146:261,1,105,2|0,0:0|0:0,2:1:0:0:
229,268,309407,2,0,P|241:320|219:365,1,105,2|0,1:2|0:0,0:0:0:0:
403,339,309581,6,0,P|408:302|389:334,1,105,8|0,1:2|0:0,0:0:0:0:
357,44,309756,1,2,0:0:0:0:
502,312,309930,6,2,B|484:231|484:231|344:208|344:208|342:202|342:202|337:206|337:206|255:194,1,315,0|0,1:0|0:0,1:0:0:0:
212,130,310279,2,0,P|197:95|224:121,1,105,8|0,1:2|0:0,0:0:0:0:
415,303,310453,2,2,B|393:356|393:356|175:371,1,275.625002628565,0|0,0:0|0:0,1:0:0:0:
99,351,310802,2,0,L|105:325,1,26.25,0|0,1:0|0:0,0:0:0:0:
49,15,310976,2,2,B|165:28|165:28|185:64,1,157.500006008148,8|0,1:2|0:0,1:0:0:0:
15,257,311325,5,4,0:0:0:0:
91,246,311500,2,0,L|143:238,1,52.5,2|0,0:0|0:0,0:0:0:0:
336,173,312023,6,0,L|332:199,1,26.25,0|0,1:0|0:0,0:0:0:0:
316,211,312110,2,0,L|312:236,1,26.25,0|0,1:0|0:0,0:0:0:0:
325,251,312197,2,0,L|321:277,1,26.25,0|0,1:0|0:0,0:0:0:0:
306,288,312285,2,0,L|302:314,1,26.25,0|0,1:0|0:0,0:0:0:0:
456,364,312372,6,0,L|448:310,1,52.5,8|0,0:3|0:0,0:0:0:0:
434,230,312546,2,0,L|422:152,1,78.7500030040742,8|0,0:3|0:0,0:0:0:0:
502,108,312721,6,2,B|515:31|515:31|277:-10|277:-10|260:83,1,393.75,4|0,1:2|0:0,1:2:0:0:
104,123,313069,2,0,B|156:95|210:129|199:138|246:168|303:140,1,210,8|0,1:2|0:0,0:0:0:0:
401,35,313331,5,0,0:0:0:0:
387,33,313418,2,0,B|324:22|324:22|247:73,1,136.499993751526
85,128,313593,6,0,L|95:65,1,39.3750015020371,2|0,1:2|0:0,0:0:0:0:
194,23,313767,6,2,B|123:46|110:124|110:124|103:123|103:123|110:124|110:124|100:196|160:234|160:234|157:261|157:261|208:218|285:226,1,440.999986541749,8|0,1:2|0:0,1:0:0:0:
512,263,314116,6,2,B|536:252|536:252|506:230|464:280|464:280|436:318|380:307,1,204.749990627289,0|0,1:0|0:0,1:2:0:0:
455,308,314465,6,0,B|382:347|323:289|323:289|264:228|186:263,1,293.999991027832,8|2,1:2|0:1,0:0:0:0:
156,340,314726,1,0,0:0:0:0:
148,358,314814,2,0,P|203:390|231:314,1,146.999995513916
390,227,314988,2,2,P|399:192|384:223,1,105,0|0,1:0|0:0,1:0:0:0:
186,262,315163,2,2,L|65:239,1,105,8|0,1:2|0:0,0:1:0:0:
439,49,315337,5,2,0:1:0:0:
448,61,315424,1,0,0:0:0:0:
457,73,315511,2,2,B|493:132|493:132|359:94|359:94|326:12|326:12|184:29,1,409.499981254579,0|0,1:0|0:0,1:2:0:0:
65,90,315860,2,2,B|43:126|43:126|272:98,1,272.999987503052,8|0,1:2|0:0,1:2:0:0:
214,25,316122,1,0,0:0:0:0:
214,25,316209,2,0,L|56:4,1,136.499993751526
457,73,316383,1,2,1:3:0:0:
272,97,316558,2,0,B|228:157|228:157|251:226,1,146.999995513916,8|0,1:2|0:0,0:0:0:0:
176,281,316732,2,0,L|334:261,1,146.999995513916,2|0,0:1|0:0,0:0:0:0:
455,67,316907,6,2,B|158:15|158:15|307:122,1,440.999986541749,2|0,1:0|0:0,1:0:0:0:
321,262,317256,2,2,B|365:202|365:202|342:133,1,146.999995513916,8|0,1:2|0:0,1:0:0:0:
395,318,317430,2,2,B|507:157|507:157|255:189,1,440.999986541749,0|0,0:0|0:0,1:0:0:0:
177,196,317779,2,2,L|194:132,1,39.3750015020371,0|0,1:0|2:0,1:0:0:0:
315,275,317953,2,2,B|151:316|226:176|68:212,1,272.999987503052,8|2,1:2|0:1,1:0:0:0:
185,5,318215,5,0,0:0:0:0:
201,1,318302,2,2,B|377:-25|377:-25|264:189|264:189|276:124|276:124|274:123|274:123|276:124|276:124|293:36,1,545.999975006105,0|8,1:0|1:2,1:2:0:0:
512,340,318825,2,0,B|479:304|479:304|341:325,1,136.499993751526
188,341,319000,2,0,B|221:377|221:377|359:356,1,136.499993751526
394,305,319174,2,0,L|400:272,1,26.25,2|0,1:0|0:0,0:0:0:0:
174,324,319349,2,0,B|101:242|101:242|354:285,1,330.749989906311,8|2,1:2|0:1,0:0:0:0:
29,293,319697,6,0,P|24:202|72:158,1,131.25,2|0,1:0|0:0,0:0:0:0:
193,164,319872,2,0,P|161:220|101:242,1,131.25
52,47,320046,2,0,P|67:91|34:55,1,131.25,8|0,1:2|0:0,0:0:0:0:
271,198,320221,6,2,B|292:95|412:56|492:113|492:113|410:112|385:199,1,393.75,0|0,0:0|0:0,1:0:0:0:
488,260,320569,2,0,L|481:198,1,52.5,0|0,1:0|0:0,0:0:0:0:
508,27,320744,2,2,P|318:21|191:163,1,393.75,8|0,1:2|0:0,1:0:0:0:
131,327,321093,6,2,P|248:235|99:242,1,393.75,0|0,1:0|0:0,1:0:0:0:
45,322,321442,2,0,P|-2:330|37:304,1,131.25,8|0,1:2|0:0,0:0:0:0:
190,163,321616,6,2,B|258:169|295:229|290:283|290:283|379:365|485:285,1,362.250006909371,2|0,2:1|0:0,1:0:0:0:
408,106,321965,2,0,P|384:136|381:175,1,78.7500030040742,0|0,1:0|0:0,0:0:0:0:
464,153,322139,2,0,P|443:121|408:106,1,78.7500030040742,8|0,1:2|0:0,0:0:0:0:
462,300,322314,2,0,P|482:267|480:229,1,78.7500030040742,2|0,0:1|0:0,0:0:0:0:
350,54,322488,6,0,P|306:135|373:288,1,236.250009012223,0|0,1:0|0:0,0:0:0:0:
462,300,322837,6,0,P|337:281|231:340,1,231.000007049561,8|0,1:2|0:0,0:0:0:0:
16,293,323186,6,0,P|50:352|107:366,1,105,0|0,1:0|0:0,0:0:0:0:
100,283,323447,2,0,P|173:271|207:221,1,131.25,0|0,1:0|0:0,0:0:0:0:
124,201,323709,2,0,P|142:156|92:68,1,157.500006008148,8|0,1:2|0:0,0:0:0:0:
100,283,323883,6,2,P|184:145|470:278,1,409.499981254579,4|0,1:2|0:0,1:2:0:0:
503,196,324232,2,0,P|412:218|475:117,1,272.999987503052,8|0,1:2|0:0,0:0:0:0:
470,279,324494,1,0,0:0:0:0:
462,300,324581,6,0,P|432:296|390:304,1,52.5
312,353,324756,6,0,P|273:321|266:264,1,78.7500030040742,2|0,1:0|0:0,0:0:0:0:
25,150,324930,6,2,B|86:113|232:115|171:233|341:230|408:162,1,409.499981254579,8|0,1:2|0:0,1:0:0:0:
271,33,325279,6,2,B|205:31|200:124|307:169|364:99,1,236.250009012223,0|0,1:0|0:0,1:2:0:0:
473,128,325628,6,2,B|534:86|503:-55|390:-36|262:46|299:227|466:274,1,472.500018024445,8|0,1:2|0:1,1:0:0:0:
481,333,325976,5,0,0:0:0:0:
481,333,326064,1,0,0:0:0:0:
481,333,326151,2,2,P|486:292|479:266,1,52.5,0|0,1:0|0:0,1:0:0:0:
353,277,326325,2,0,P|348:318|355:344,1,52.5,8|0,1:2|0:0,0:0:0:0:
212,313,326500,2,2,P|217:272|210:246,1,52.5,0|0,0:0|0:0,1:0:0:0:
57,235,326674,6,2,B|8:280|8:280|130:252|130:252|152:145|275:160|301:242,1,409.499981254579,0|0,1:0|0:0,1:2:0:0:
349,328,327023,2,2,B|312:358|312:358|351:36|351:36|382:74,1,409.499981254579,8|0,1:2|0:0,1:2:0:0:
482,164,327372,6,0,L|426:160,1,52.5
275,57,327546,2,0,L|219:61,1,52.5,0|0,1:2|0:0,0:0:0:0:
70,69,327721,6,2,B|4:151|4:151|337:126,1,409.499981254579,8|0,1:2|0:0,1:0:0:0:
434,32,328069,6,2,B|332:57|299:189|378:273|378:273|386:262|386:262|452:252|499:288|503:349|503:349|487:314|449:305,1,551.25000525713,0|0,1:0|0:0,1:0:0:0:
412,180,328418,2,0,B|326:174|350:230|265:223,1,157.500006008148,8|0,1:2|0:0,0:0:0:0:
41,278,328593,6,2,B|110:187|256:205|299:310|299:310|343:393|428:383,1,472.500018024445,0|0,0:0|0:0,1:0:0:0:
427,383,328942,2,0,B|475:333|475:333|459:242,1,157.500006008148,2|0,1:0|0:0,0:0:0:0:
490,25,329116,6,2,B|338:48|338:48|319:43|319:43|139:70,1,354.375013518334,12|0,1:2|0:0,1:0:0:0:
58,79,329465,6,0,L|61:59,1,19.6875007510186,8|0,1:3|0:0,0:0:0:0:
66,40,329552,2,0,L|70:21,1,19.6875007510186,8|0,1:3|0:0,0:0:0:0:
74,2,329639,2,0,L|78:-16,1,19.6875007510186,4|0,1:3|0:0,0:0:0:0:
400,122,329814,6,2,B|433:208|433:208|157:148,1,367.500003504753,4|0,1:2|0:0,1:2:0:0:
140,69,330075,1,0,0:0:0:0:
137,55,330163,2,0,L|124:-2,1,52.5
185,232,330337,6,2,P|185:270|199:235,1,105,0|0,1:0|0:0,1:0:0:0:
512,349,330511,6,0,P|432:226|288:264,1,315.000012016297,8|2,1:2|2:1,0:0:0:0:
61,377,330860,6,2,B|127:332|155:225|112:146|112:146|124:91|124:91|119:86|119:86|126:83|126:83|143:9,1,393.75,2|0,1:0|0:0,1:2:0:0:
226,8,331209,2,0,B|243:112|243:112|199:135,1,157.500006008148,8|0,1:2|0:0,0:0:0:0:
386,205,331383,6,2,P|229:91|36:100,1,393.75,0|0,0:0|0:0,0:1:0:0:
24,105,331732,2,0,L|33:54,1,52.5,2|0,1:0|0:0,0:0:0:0:
140,320,331907,6,2,B|211:310|211:310|216:304|216:304|223:308|223:308|452:280|452:280|500:64,1,472.500018024445,8|0,1:2|0:0,1:0:0:0:
444,56,332256,6,2,B|368:60|348:-20|348:-20|261:116|386:205,1,393.75,0|0,1:0|0:0,1:0:0:0:
385,204,332604,2,2,L|397:154,1,52.5,8|0,1:2|0:0,0:1:0:0:
498,295,332779,6,2,B|416:257|349:325|349:325|285:386|210:352,1,315,0|0,0:0|0:0,1:1:0:0:
130,365,333128,2,0,B|101:341|101:341|126:224,1,157.500006008148,2|0,1:0|0:0,0:0:0:0:
216,12,333302,6,2,B|232:118|232:118|240:124|240:124|263:267,1,255.937509763241,8|0,1:2|2:0,1:0:0:0:
262,259,333651,1,4,0:0:0:0:
38,9,333825,6,2,P|97:9|135:49,1,118.125004506111,2|0,0:0|0:0,1:2:0:0:
140,62,334174,1,0,0:0:0:0:
37,227,334349,6,0,L|80:220,1,39.3750015020371,0|0,1:0|0:0,0:0:0:0:
40,208,334436,2,0,L|2:200,1,39.3750015020371,0|0,1:0|0:0,0:0:0:0:
44,188,334523,2,0,L|87:181,1,39.3750015020371,0|0,1:0|0:0,0:0:0:0:
48,169,334610,2,0,L|10:161,1,39.3750015020371,0|0,1:0|0:0,0:0:0:0:
64,87,334697,6,2,B|206:73|206:73|222:78|222:78|378:62,1,315,4|0,0:0|0:0,2:2:0:0:
447,106,335046,5,4,0:1:0:0:
343,356,335221,1,0,0:0:0:0:
470,180,335395,1,8,0:0:0:0:
353,277,335569,1,0,0:0:0:0:
398,213,335744,1,0,0:0:0:0:
365,134,336093,5,8,0:0:0:0:
345,130,336267,1,0,0:0:0:0:
316,52,336616,5,0,0:0:0:0:
239,59,336790,1,8,0:0:0:0:
162,66,336965,1,0,0:0:0:0:
160,73,337052,1,0,0:0:0:0:
158,80,337140,1,0,0:0:0:0:
216,133,337314,5,0,0:0:0:0:
245,294,337401,2,0,L|280:302,2,26.25,0|8|0,0:0|0:0|0:0,0:0:0:0:
93,359,337663,2,0,L|88:385,1,26.25,2|0,0:0|0:0,0:0:0:0:
47,284,337837,5,0,0:0:0:0:
67,209,338011,1,0,0:0:0:0:
87,134,338186,1,8,0:0:0:0:
162,154,338360,1,0,0:0:0:0:
237,174,338535,1,0,0:0:0:0:
319,152,338883,5,8,0:0:0:0:
340,147,339058,1,0,0:0:0:0:
421,126,339407,5,0,0:0:0:0:
473,184,339581,1,8,0:0:0:0:
438,254,339756,1,0,0:0:0:0:
439,260,339843,1,0,0:0:0:0:
440,266,339930,2,0,P|365:219|299:224,1,157.500006008148,2|0,0:3|0:0,0:0:0:0:
287,230,340192,6,0,L|282:205,2,26.25,0|8|0,0:0|0:0|0:0,0:0:0:0:
254,66,340453,2,0,L|249:41,1,26.25,2|0,0:0|0:0,0:0:0:0:
61,8,340628,5,0,0:0:0:0:
164,256,340803,1,0,0:0:0:0:
37,81,340977,1,8,0:0:0:0:
154,178,341151,1,0,0:0:0:0:
109,114,341326,1,0,0:0:0:0:
70,193,341674,5,8,0:0:0:0:
50,197,341848,1,0,0:0:0:0:
23,278,342197,5,0,0:0:0:0:
100,285,342371,1,8,0:0:0:0:
177,292,342546,1,0,0:0:0:0:
179,299,342633,1,0,0:0:0:0:
181,306,342721,1,0,0:0:0:0:
246,350,342895,5,0,0:0:0:0:
275,189,342982,2,0,L|310:181,2,26.25,0|8|0,0:0|0:0|0:0,0:0:0:0:
437,156,343244,2,0,L|466:149,1,26.25,2|0,0:0|0:0,0:0:0:0:
512,221,343418,5,0,0:0:0:0:
487,293,343592,1,0,0:0:0:0:
464,367,343767,1,8,0:0:0:0:
390,344,343941,1,0,0:0:0:0:
316,320,344116,1,0,0:0:0:0:
300,235,344465,5,8,0:0:0:0:
297,215,344639,1,0,0:0:0:0:
344,140,344988,5,0,0:0:0:0:
320,66,345163,1,8,0:2:0:0:
247,37,345337,1,0,0:0:0:0:
246,43,345424,1,0,0:0:0:0:
245,49,345511,6,0,L|219:215,1,157.500006008148,0|0,1:0|0:0,0:0:0:0:
219,220,345773,1,0,1:0:0:0:
199,360,346035,2,0,L|192:401,1,26.25,8|0,0:2|0:0,0:0:0:0:
108,388,346209,5,4,0:0:0:0:
108,388,346383,1,0,0:0:0:0:
12,330,346557,1,8,0:2:0:0:
108,388,346732,1,0,0:0:0:0:
108,388,346906,1,0,0:0:0:0:
95,310,347255,1,8,0:0:0:0:
95,310,347429,1,0,0:0:0:0:
82,232,347778,1,0,0:0:0:0:
69,154,347953,1,8,0:2:0:0:
56,76,348128,1,0,0:0:0:0:
63,78,348215,1,0,0:0:0:0:
70,80,348303,1,0,0:0:0:0:
149,90,348477,5,0,0:0:0:0:
266,49,348564,2,0,L|292:54,2,26.25,0|8|0,0:0|0:0|0:0,0:0:0:0:
124,16,348826,2,0,L|98:11,1,26.25,2|0,0:0|0:0,0:0:0:0:
443,88,349000,5,0,0:0:0:0:
443,88,349174,1,0,0:0:0:0:
377,147,349349,1,8,0:0:0:0:
443,88,349523,1,0,0:0:0:0:
443,88,349697,1,0,0:0:0:0:
477,160,350046,1,8,0:0:0:0:
477,160,350221,1,0,0:0:0:0:
426,222,350570,1,0,0:0:0:0:
375,284,350744,1,8,0:0:0:0:
409,356,350918,1,0,0:0:0:0:
408,362,351005,1,0,0:0:0:0:
407,368,351093,6,0,P|361:323|272:321,1,157.500006008148,2|0,0:3|0:0,0:0:0:0:
260,328,351354,2,0,L|255:298,2,26.25,0|8|0,0:0|0:2|0:0,0:0:0:0:
233,172,351616,2,0,L|228:142,1,26.25,2|0,0:0|0:0,0:0:0:0:
206,4,351790,5,0,0:0:0:0:
206,4,351964,1,0,0:0:0:0:
172,89,352139,1,8,0:0:0:0:
206,4,352313,1,0,0:0:0:0:
206,4,352487,1,0,0:0:0:0:
126,10,352837,1,8,0:0:0:0:
126,10,353011,1,0,0:0:0:0:
81,74,353360,1,0,0:0:0:0:
103,147,353534,1,8,0:0:0:0:
174,180,353709,1,0,0:0:0:0:
180,178,353796,1,0,0:0:0:0:
186,176,353883,1,0,0:0:0:0:
263,156,354057,5,0,0:0:0:0:
315,283,354145,2,0,L|310:309,2,26.25,0|8|0,0:0|0:0|0:0,0:0:0:0:
340,138,354406,2,0,L|344:111,1,26.25,2|0,0:0|0:0,0:0:0:0:
357,30,354582,5,0,0:0:0:0:
357,30,354756,1,0,0:0:0:0:
437,89,354930,1,8,0:0:0:0:
357,30,355104,1,0,0:0:0:0:
357,30,355278,1,0,0:0:0:0:
428,0,355628,1,8,0:0:0:0:
428,0,355802,1,0,0:0:0:0:
503,13,356151,1,0,0:0:0:0:
456,84,356325,6,0,L|470:162,1,78.75,8|0,0:2|0:0,0:0:0:0:
489,247,356674,6,0,L|279:216,1,157.500006008148,8|2,0:2|0:0,0:0:0:0:
258,210,356936,2,0,L|163:196,2,78.7500030040742,2|2|2,0:0|0:0|0:0,0:0:0:0:
104,185,357197,2,0,L|92:183,1,10.5,4|0,0:0|0:0,0:0:0:0:
