osu file format v14

[General]
AudioFilename: audio.mp3
AudioLeadIn: 0
PreviewTime: 62718
Countdown: 0
SampleSet: Normal
StackLeniency: 0.5
Mode: 0
LetterboxInBreaks: 0
WidescreenStoryboard: 1

[Editor]
Bookmarks: 62718,84051
DistanceSpacing: 0.7
BeatDivisor: 4
GridSize: 32
TimelineZoom: 2.899999

[Metadata]
Title:Black Rose
TitleUnicode:Black Rose
Artist:BlackY
ArtistUnicode:BlackY
Creator:Luscent
Version:Insane
Source:
Tags:owc2021sfhd2 owc 2021 sf hd2 electronic instrumental fa featured artist down
BeatmapID:4226838
BeatmapSetID:1621706

[Difficulty]
HPDrainRate:5
CircleSize:4
OverallDifficulty:8
ApproachRate:8
SliderMultiplier:1.6
SliderTickRate:1

[Events]
//Background and Video events
0,0,"bg.jpg",0,0
//Break Periods
//Storyboard Layer 0 (Background)
//Storyboard Layer 1 (Fail)
//Storyboard Layer 2 (Pass)
//Storyboard Layer 3 (Foreground)
//Storyboard Layer 4 (Overlay)
//Storyboard Sound Samples

[TimingPoints]
52,333.333333333333,4,2,0,40,1,0
52,-125,4,2,0,40,0,0
10718,-111.111111111111,4,2,0,50,0,0
23218,-90.9090909090909,4,2,0,50,0,0
25385,-100,4,2,0,70,0,0
46718,-133.333333333333,4,2,0,70,0,0
57551,-100,4,2,0,70,0,0
62718,-100,4,1,0,80,0,0
106551,-100,4,2,0,80,0,0

[Colours]
Combo1 : 230,230,230
Combo2 : 150,150,150

[HitObjects]
59,119,51,5,2,0:0:0:0:
76,187,218,1,0,0:0:0:0:
143,204,384,1,0,0:0:0:0:
202,166,551,2,0,B|214:97|186:107|202:31,1,128,0|2,0:0|0:0,0:0:0:0:
303,117,1051,1,2,0:0:0:0:
303,117,1218,1,2,0:0:0:0:
350,185,1385,6,0,P|354:216|352:248,1,64,2|0,0:0|0:0,0:0:0:0:
292,364,1718,1,0,0:0:0:0:
382,321,1885,2,0,P|328:281|255:280,1,128,0|2,0:0|0:0,0:0:0:0:
192,308,2551,1,2,0:0:0:0:
67,223,2718,6,0,P|34:228|-14:231,2,64,2|0|0,0:0|0:0|0:0,0:0:0:0:
147,237,3218,2,0,P|176:164|164:111,1,128,2|0,0:0|0:0,0:0:0:0:
111,58,3718,1,2,0:0:0:0:
311,28,4051,5,2,0:0:0:0:
271,96,4218,1,2,0:0:0:0:
294,15,4385,1,2,0:0:0:0:
327,152,4551,1,2,0:0:0:0:
479,76,5051,1,2,0:0:0:0:
443,219,5385,6,0,P|438:177|445:121,2,64,2|0|0,0:0|0:0|0:0,0:0:0:0:
507,315,5885,1,2,0:0:0:0:
368,278,6051,2,0,P|305:284|255:296,1,96,2|2,0:0|0:0,0:0:0:0:
135,337,6551,1,2,0:0:0:0:
53,282,6718,6,0,P|47:241|56:196,1,64,2|0,0:0|0:0,0:0:0:0:
125,162,7051,1,0,0:0:0:0:
204,199,7218,1,2,0:0:0:0:
445,108,7718,1,2,0:0:0:0:
268,16,8051,6,0,B|254:80|254:80|272:144,1,128,2|2,0:0|0:0,0:0:0:0:
309,218,8551,2,0,P|362:201|443:197,1,128,2|2,0:0|0:0,0:0:0:0:
512,150,9051,1,2,0:0:0:0:
512,150,9218,1,0,0:0:0:0:
493,301,9385,5,2,0:0:0:0:
399,209,9551,1,2,0:0:0:0:
322,263,9718,1,2,0:0:0:0:
241,214,9885,1,2,0:0:0:0:
179,252,10051,1,2,0:0:0:0:
179,252,10218,1,2,0:0:0:0:
211,73,10718,6,0,P|159:85|117:85,1,71.9999978027344,4|0,0:2|0:0,0:0:0:0:
73,129,11051,1,8,0:0:0:0:
15,60,11218,2,0,B|31:134|31:134|13:222,1,143.999995605469,0|2,0:0|0:0,0:0:0:0:
76,264,11718,1,10,0:0:0:0:
76,264,11885,1,2,0:0:0:0:
116,372,12051,6,0,P|127:338|143:306,2,71.9999978027344,2|0|8,0:0|0:0|0:0,0:0:0:0:
221,344,12551,2,0,P|296:348|386:372,1,143.999995605469,0|2,0:0|0:0,0:0:0:0:
497,260,13218,1,2,0:0:0:0:
418,151,13385,6,0,P|410:191|413:235,1,71.9999978027344,2|0,0:0|0:0,0:0:0:0:
327,182,13718,1,8,0:0:0:0:
249,209,13885,2,0,B|163:218|179:189|101:199,1,143.999995605469,2|0,0:0|0:0,0:0:0:0:
28,230,14385,2,0,P|16:160|33:76,1,143.999995605469,10|2,0:0|0:0,0:0:0:0:
81,34,14885,1,0,0:0:0:0:
138,120,15051,1,10,0:0:0:0:
234,78,15218,1,2,0:0:0:0:
390,132,15551,1,2,0:0:0:0:
390,132,15718,1,10,0:0:0:0:
470,253,16051,5,2,3:2:0:0:
460,272,16218,1,0,3:0:0:0:
443,285,16385,1,8,3:2:0:0:
423,294,16551,1,0,3:0:0:0:
402,300,16718,1,2,3:2:0:0:
380,300,16885,1,0,3:0:0:0:
358,295,17051,1,8,3:2:0:0:
341,281,17218,1,2,3:2:0:0:
196,325,17385,5,2,3:2:0:0:
222,301,17551,1,0,3:0:0:0:
240,270,17718,1,8,3:2:0:0:
247,234,17885,1,2,3:2:0:0:
245,198,18051,1,0,3:0:0:0:
230,164,18218,1,0,3:0:0:0:
203,139,18385,1,10,3:2:0:0:
169,126,18551,1,0,3:0:0:0:
58,85,18718,5,2,3:2:0:0:
48,104,18801,1,0,3:0:0:0:
47,125,18885,1,0,3:0:0:0:
54,145,18968,1,0,3:0:0:0:
62,164,19051,1,8,3:2:0:0:
76,179,19135,1,0,3:0:0:0:
85,198,19218,1,2,3:2:0:0:
88,219,19301,1,0,3:0:0:0:
84,240,19385,2,0,P|57:244|36:251,3,35.9999989013672,0|0|2|0,3:0|3:0|3:2|3:0,3:0:0:0:
173,294,19718,2,0,P|200:290|221:283,3,35.9999989013672,10|0|2|0,3:2|3:0|3:2|3:0,3:0:0:0:
113,355,20051,5,6,0:2:0:0:
113,355,20218,1,2,0:2:0:0:
275,236,20385,1,6,0:2:0:0:
275,236,20552,1,2,0:2:0:0:
151,163,20718,2,0,L|148:140,6,17.9999994506836,6|0|2|0|2|0|2,0:2|0:0|0:2|0:0|0:2|0:0|0:2,0:0:0:0:
227,160,21051,5,6,0:2:0:0:
241,130,21135,1,2,0:2:0:0:
242,97,21218,1,2,0:2:0:0:
231,66,21301,1,2,0:2:0:0:
206,44,21385,1,2,0:2:0:0:
206,44,22718,6,0,B|253:64|253:64|296:49|350:48,1,143.999995605469,6|2,1:2|1:2,0:0:0:0:
445,18,23218,2,0,L|433:81,1,44.0000013427735,6|0,1:2|0:0,0:0:0:0:
467,125,23551,2,0,L|455:188,1,44.0000013427735,6|0,1:2|0:0,0:0:0:0:
489,236,23885,2,0,L|477:299,1,44.0000013427735,6|0,1:2|0:0,0:0:0:0:
512,341,24218,2,0,L|500:404,1,44.0000013427735,6|0,1:2|0:0,0:0:0:0:
458,166,24551,2,0,L|466:122,1,44.0000013427735,6|0,1:2|0:0,0:0:0:0:
364,289,25051,1,6,1:2:0:0:
124,342,25385,5,4,1:2:0:0:
201,275,25551,1,0,0:0:0:0:
201,275,25635,1,2,0:0:0:0:
201,275,25718,1,2,1:2:0:0:
105,207,25885,2,0,P|94:151|105:72,1,120,2|0,1:2|0:0,0:0:0:0:
100,88,26218,1,0,1:2:0:0:
203,167,26385,5,2,1:2:0:0:
308,117,26551,2,0,L|365:124,2,40,2|0|2,1:2|0:2|1:2,0:0:0:0:
226,38,26885,1,0,0:0:0:0:
226,38,26968,1,2,1:2:0:0:
303,240,27218,1,0,1:2:0:0:
303,240,27301,2,0,P|378:219|438:217,1,120,2|2,0:2|1:2,0:0:0:0:
494,143,27718,5,0,1:2:0:0:
506,100,27801,1,0,0:2:0:0:
496,56,27885,1,2,1:2:0:0:
463,26,27968,1,0,0:2:0:0:
419,26,28051,1,2,1:2:0:0:
509,220,28301,2,0,P|489:281|483:361,1,120,2|2,1:2|1:2,0:0:0:0:
303,240,28801,2,0,P|273:188|277:119,1,120,2|0,1:2|1:2,0:0:0:0:
129,11,29218,5,2,1:2:0:0:
129,11,29301,1,2,0:2:0:0:
129,11,29385,2,0,P|140:54|142:101,1,80,0|0,1:2|0:0,0:0:0:0:
95,111,29635,2,0,P|153:138|185:195,1,120,2|0,1:2|0:0,0:0:0:0:
151,349,30051,5,6,1:2:0:0:
63,295,30218,1,2,1:2:0:0:
63,295,30301,1,0,0:2:0:0:
63,295,30385,2,0,P|63:247|86:191,1,80,0|2,1:2|1:2,0:0:0:0:
288,277,30718,6,0,P|335:284|392:270,1,80,4|0,1:2|0:0,0:0:0:0:
415,294,30968,2,0,P|409:234|422:170,1,120,0|0,1:0|1:0,0:0:0:0:
321,83,31385,1,0,1:0:0:0:
321,83,31468,2,0,P|263:109|264:183,1,120,0|0,1:0|1:0,0:0:0:0:
331,194,31885,1,2,1:2:0:0:
138,156,32051,5,0,1:0:0:0:
138,156,32135,1,2,0:0:0:0:
138,156,32218,2,0,P|154:204|159:248,1,80,0|2,0:0|1:2,0:0:0:0:
219,368,32551,1,0,0:0:0:0:
219,368,32635,2,0,P|227:311|272:234,1,120,2|2,1:2|1:2,0:0:0:0:
353,303,33051,1,0,1:0:0:0:
463,270,33218,5,2,1:2:0:0:
463,270,33301,1,2,1:2:0:0:
463,270,33385,2,0,P|470:221|457:167,1,80,0|0,1:0|0:0,0:0:0:0:
374,53,33718,2,0,P|367:102|380:156,1,80,0|0,1:0|0:0,0:0:0:0:
463,270,34051,2,0,P|438:227|394:192,1,80,0|2,1:0|1:2,0:0:0:0:
247,184,34385,2,0,P|309:202|355:199,1,80,0|2,1:0|1:2,0:0:0:0:
507,140,34718,5,4,1:2:0:0:
416,206,34885,1,2,1:2:0:0:
321,273,35051,1,2,1:2:0:0:
206,253,35218,1,4,1:2:0:0:
206,253,35301,2,0,P|197:189|209:121,1,120,2|2,1:2|1:2,0:0:0:0:
287,73,35718,1,6,1:2:0:0:
287,73,35885,1,6,1:2:0:0:
116,12,36051,6,0,P|124:55|123:91,1,80,4|0,1:2|0:0,0:0:0:0:
138,198,36385,1,2,1:2:0:0:
28,267,36551,2,0,P|20:224|20:187,1,80,2|0,1:2|0:0,0:0:0:0:
83,365,36885,1,2,1:2:0:0:
176,323,37051,1,0,1:0:0:0:
289,347,37218,5,2,0:2:0:0:
289,347,37301,1,2,0:2:0:0:
289,347,37385,2,0,P|286:285|291:209,1,120,0|2,1:0|1:2,0:0:0:0:
288,227,37718,2,0,P|345:236|406:229,1,80,0|0,0:0|1:0,0:0:0:0:
478,267,38051,1,0,1:0:0:0:
474,239,38135,1,0,0:0:0:0:
476,211,38218,1,2,1:2:0:0:
408,138,38385,1,2,1:2:0:0:
507,101,38552,1,0,1:0:0:0:
381,21,38718,6,0,P|316:63|311:140,1,160,0|0,1:0|1:0,0:0:0:0:
199,203,39218,2,0,P|267:216|312:306,1,160,2|0,1:2|1:0,0:0:0:0:
402,341,39718,1,2,1:2:0:0:
512,222,39885,5,2,0:2:0:0:
512,222,39968,1,2,0:0:0:0:
512,222,40051,2,0,P|471:229|423:230,1,80,4|4,1:2|1:2,0:0:0:0:
230,326,40385,2,0,P|271:319|319:318,1,80,4|4,1:2|1:2,0:0:0:0:
404,377,40718,1,4,1:2:0:0:
329,180,41051,1,4,1:2:0:0:
154,259,41385,5,4,1:2:0:0:
10,158,41635,1,2,1:2:0:0:
10,158,41718,2,0,P|68:168|120:159,1,80,0|0,0:0|1:0,0:0:0:0:
181,140,42051,1,0,1:0:0:0:
189,113,42135,1,0,0:0:0:0:
190,85,42218,1,0,1:0:0:0:
287,34,42385,2,0,P|283:73|288:113,1,80,0|0,1:0|0:0,0:0:0:0:
364,194,42718,5,4,1:2:0:0:
364,194,42801,1,0,0:0:0:0:
364,194,42885,1,2,0:0:0:0:
324,332,43051,1,0,1:0:0:0:
169,283,43218,1,0,0:0:0:0:
169,283,43301,2,0,P|229:268|282:265,1,80,2|0,1:2|0:0,0:0:0:0:
246,265,43551,2,0,P|261:215|251:156,1,80,2|0,1:2|1:0,0:0:0:0:
64,111,43885,5,0,1:2:0:0:
64,111,43968,1,2,1:2:0:0:
64,111,44051,2,0,P|58:155|72:201,1,80,4|0,1:2|1:0,0:0:0:0:
5,321,44385,2,0,P|54:305|97:303,1,80,0|0,1:2|1:0,0:0:0:0:
183,366,44718,1,4,1:2:0:0:
195,341,44801,1,0,1:0:0:0:
210,317,44885,1,0,1:0:0:0:
227,295,44968,1,0,1:0:0:0:
246,275,45051,1,0,1:0:0:0:
273,281,45135,1,0,1:0:0:0:
299,290,45218,1,0,1:0:0:0:
323,302,45301,1,0,1:0:0:0:
346,317,45385,6,0,P|360:265|387:199,1,120,4|4,1:2|1:2,0:0:0:0:
186,38,45885,2,0,P|184:89|209:168,1,120,4|4,1:2|1:2,0:0:0:0:
478,157,46385,1,4,1:2:0:0:
478,157,46551,1,4,1:2:0:0:
430,67,46718,6,0,P|372:78|307:83,1,120.000004577637,4|2,1:2|0:0,0:0:0:0:
133,268,47385,2,0,P|191:257|256:252,1,120.000004577637,0|2,0:0|0:0,0:0:0:0:
368,355,48051,1,0,0:0:0:0:
507,288,48385,1,2,0:0:0:0:
507,288,48551,2,0,P|502:225|503:155,1,120.000004577637
447,110,49051,1,2,0:0:0:0:
253,182,49218,5,0,1:0:0:0:
253,182,49301,1,0,1:0:0:0:
253,182,49385,1,4,1:2:0:0:
253,182,49885,2,0,P|249:131|258:57,1,120.000004577637,4|2,1:2|0:0,0:0:0:0:
152,11,50385,2,0,P|157:56|156:96,1,60.0000022888184,0|2,0:0|0:0,0:0:0:0:
47,160,50718,2,0,P|93:154|128:157,1,60.0000022888184,0|2,0:0|0:0,0:0:0:0:
181,213,51051,1,0,0:0:0:0:
107,350,51385,5,0,1:0:0:0:
203,310,51551,2,0,L|221:313,4,15.0000005722046,0|0|0|0|0,1:0|1:0|1:0|1:0|1:0,1:0:0:0:
314,338,51885,2,0,L|332:341,4,15.0000005722046,0|0|0|0|4,1:0|1:0|1:0|1:0|1:2,1:0:0:0:
245,178,52385,5,2,0:0:0:0:
245,178,52551,2,0,B|288:194|288:194|374:183,1,120.000004577637,0|2,0:0|0:0,0:0:0:0:
481,247,53218,1,0,1:0:0:0:
481,247,53301,1,0,1:0:0:0:
481,247,53385,1,4,1:2:0:0:
245,178,53718,5,2,0:0:0:0:
245,178,53884,2,0,B|288:194|288:194|374:183,1,120.000004577637,0|2,0:0|0:0,0:0:0:0:
481,247,54551,1,0,1:0:0:0:
481,247,54634,1,0,1:0:0:0:
481,247,54718,1,4,1:2:0:0:
475,56,55051,5,2,0:0:0:0:
409,63,55218,1,0,1:0:0:0:
343,70,55385,1,4,1:2:0:0:
128,29,55718,5,2,0:0:0:0:
135,95,55885,1,0,1:0:0:0:
142,161,56052,1,4,1:2:0:0:
84,331,56385,5,2,0:0:0:0:
150,324,56552,1,0,1:0:0:0:
216,317,56719,1,4,1:2:0:0:
416,361,57051,5,2,0:0:0:0:
409,295,57218,1,0,1:0:0:0:
402,229,57385,1,4,1:2:0:0:
291,181,57551,5,0,1:0:0:0:
291,181,57635,1,0,1:0:0:0:
291,181,57718,2,0,B|265:191|265:191|196:196,1,80,4|0,1:2|1:0,0:0:0:0:
195,185,57968,1,0,1:0:0:0:
179,172,58051,2,0,B|169:146|169:146|164:77,1,80,4|0,1:2|1:0,0:0:0:0:
172,75,58301,1,0,1:0:0:0:
185,59,58385,1,4,1:2:0:0:
100,185,58551,5,0,1:0:0:0:
100,185,58635,1,0,1:0:0:0:
100,185,58718,2,0,B|126:175|126:175|195:170,1,80,4|0,1:2|1:0,0:0:0:0:
196,181,58968,1,0,1:0:0:0:
212,194,59051,2,0,B|222:220|222:220|227:289,1,80,4|0,1:2|1:0,0:0:0:0:
219,291,59301,1,0,1:0:0:0:
206,307,59385,1,4,1:2:0:0:
321,353,59551,2,0,L|374:373,2,40,0|0|4,1:0|1:0|1:2,0:0:0:0:
463,311,59885,1,0,1:0:0:0:
463,311,59968,1,0,1:0:0:0:
463,311,60051,5,4,1:2:0:0:
477,281,60135,1,0,1:0:0:0:
477,249,60218,1,0,1:0:0:0:
457,224,60301,1,0,1:0:0:0:
426,214,60385,1,4,1:2:0:0:
397,227,60468,1,0,1:0:0:0:
366,219,60551,1,0,1:0:0:0:
345,194,60635,1,0,1:0:0:0:
347,162,60718,2,0,P|378:158|402:148,7,40,4|0|0|0|4|0|0|0,1:2|1:0|1:0|1:0|1:2|1:0|1:0|1:0,0:0:0:0:
267,158,61385,6,0,B|258:131|258:131|279:56|279:56|276:33,2,120,4|4|4,1:2|1:2|1:2,0:0:0:0:
149,227,62051,2,0,B|175:239|175:239|227:328|227:328|260:335,1,160,4|4,1:2|1:2,1:2:0:0:
494,364,62718,6,2,L|516:271,1,80,4|0,0:2|0:0,0:0:0:0:
498,261,62968,1,0,0:0:0:0:
484,236,63051,1,2,0:0:0:0:
389,243,63218,2,0,B|371:222|371:222|357:129,1,120,2|0,1:0|0:0,0:0:0:0:
357,130,63551,2,0,B|331:142|331:142|273:147,1,80,0|2,1:0|1:0,0:0:0:0:
151,174,63885,5,0,1:0:0:0:
151,174,63968,1,0,1:0:0:0:
151,174,64051,2,2,B|126:119|126:119|132:54,1,120,2|2,1:0|1:0,1:0:0:0:
83,238,64552,1,2,1:0:0:0:
83,238,64635,2,0,B|101:263|101:263|116:359,1,120,0|2,1:0|1:0,0:0:0:0:
226,318,65051,1,2,1:0:0:0:
258,314,65135,1,0,1:0:0:0:
289,310,65218,1,0,1:0:0:0:
320,306,65301,1,0,1:0:0:0:
348,321,65385,6,0,B|337:233|337:233|352:196,1,120,2|0,1:0|1:0,0:0:0:0:
449,90,65885,2,0,B|460:178|460:178|445:215,1,120,2|0,1:0|1:0,0:0:0:0:
257,168,66385,1,2,1:0:0:0:
64,86,66551,5,0,1:0:0:0:
64,86,66635,1,0,1:0:0:0:
64,86,66718,2,0,L|144:74,1,80,2|2,1:0|0:0,0:0:0:0:
237,198,67051,2,0,L|157:210,1,80,0|2,0:0|1:0,0:0:0:0:
34,180,67385,1,6,0:2:0:0:
105,339,67551,1,0,1:0:0:0:
105,339,67635,1,0,0:0:0:0:
105,339,67718,1,2,1:2:0:0:
246,296,67885,1,0,1:0:0:0:
246,296,67968,1,0,0:0:0:0:
246,296,68051,6,2,B|283:290|283:290|356:298,1,80,6|2,0:0|2:0,0:0:0:0:
359,309,68301,2,0,B|383:254|383:254|375:209,1,80,2|0,1:0|1:0,0:0:0:0:
355,202,68551,1,2,0:0:0:0:
355,202,68635,2,0,B|353:157|353:157|389:75,1,120,0|2,0:0|2:0,0:0:0:0:
282,68,69051,1,0,0:0:0:0:
258,71,69135,1,0,1:0:0:0:
234,74,69218,1,2,1:0:0:0:
119,19,69385,5,0,1:0:0:0:
119,19,69468,2,2,B|100:62|100:62|121:144,1,120,2|2,1:0|1:0,0:0:0:0:
88,235,69885,1,0,1:0:0:0:
88,235,69968,2,2,L|190:213,1,80,2|2,1:0|2:0,0:0:0:0:
196,194,70218,2,2,B|237:206|237:206|267:234,1,80,2|2,1:0|0:0,0:0:0:0:
451,334,70551,5,0,1:0:0:0:
451,334,70635,1,0,1:0:0:0:
451,334,70718,2,0,B|479:298|479:298|483:251,1,80,2|0,1:0|1:0,0:0:0:0:
399,136,71051,2,0,B|371:172|371:172|367:219,1,80,0|2,0:0|1:0,0:0:0:0:
313,307,71385,1,0,1:0:0:0:
313,307,71468,1,0,1:0:0:0:
313,307,71551,1,0,1:0:0:0:
141,269,71718,2,0,L|221:252,1,80,2|0,1:0|1:0,0:0:0:0:
293,185,72051,5,4,1:2:0:0:
325,94,72218,1,0,1:0:0:0:
255,27,72385,1,0,1:0:0:0:
175,78,72551,1,4,1:2:0:0:
175,78,72635,2,0,B|168:122|168:122|177:167,1,80,0|0,1:0|1:0,0:0:0:0:
155,185,72885,1,0,1:0:0:0:
200,330,73051,2,0,L|226:225,1,80,4|4,1:2|1:2,0:0:0:0:
316,384,73385,5,6,1:2:0:0:
316,384,73718,1,2,1:0:0:0:
422,323,73885,2,2,L|396:218,1,80,2|0,1:0|0:0,0:0:0:0:
318,214,74218,1,0,1:0:0:0:
345,138,74385,1,2,1:0:0:0:
512,125,74551,1,0,1:0:0:0:
512,125,74635,1,0,0:0:0:0:
512,125,74718,2,0,B|481:119|481:119|429:89|429:89|386:87,1,120,2|2,1:0|1:0,0:0:0:0:
239,25,75218,1,0,1:0:0:0:
239,25,75301,2,2,B|229:60|229:60|245:120,1,80,2|2,1:0|2:0,0:0:0:0:
223,124,75551,1,0,1:0:0:0:
80,187,75718,1,0,1:0:0:0:
103,208,75801,1,2,0:0:0:0:
126,230,75885,1,0,1:0:0:0:
149,251,75968,1,0,0:0:0:0:
154,282,76051,6,0,B|184:288|184:288|246:264|246:264|291:269,1,120,2|2,1:0|1:0,0:0:0:0:
268,266,76385,2,0,L|286:173,1,80,0|2,0:0|1:0,0:0:0:0:
390,309,76718,1,0,0:0:0:0:
390,309,76801,1,2,1:0:0:0:
390,309,76885,1,0,0:0:0:0:
512,213,77051,2,0,B|456:200|456:200|419:211,1,80,2|2,1:0|1:0,0:0:0:0:
283,187,77385,5,4,1:2:0:0:
202,121,77551,1,4,1:2:0:0:
239,23,77718,1,4,1:2:0:0:
343,28,77885,1,4,1:2:0:0:
370,129,78051,1,4,1:2:0:0:
370,129,78385,1,4,1:2:0:0:
224,236,78718,6,0,B|166:247|166:247|135:240,1,80,6|0,1:2|0:0,0:0:0:0:
107,223,78968,2,0,B|135:308|135:308|132:371,1,120,2|2,1:0|1:0,0:0:0:0:
262,256,79385,1,0,1:0:0:0:
273,222,79468,1,0,0:0:0:0:
284,188,79551,1,2,0:0:0:0:
295,153,79635,1,0,1:0:0:0:
307,119,79718,2,0,B|381:112|381:112|433:124,1,120
425,122,80051,6,0,B|448:77|448:77|437:23,1,80,4|0,1:2|0:0,0:0:0:0:
367,229,80385,2,2,L|383:322,1,80,2|2,1:0|2:0,0:0:0:0:
380,307,80635,1,2,1:0:0:0:
380,307,80718,1,0,0:0:0:0:
247,270,80885,1,0,1:0:0:0:
108,191,81051,5,2,1:0:0:0:
141,177,81135,1,0,0:0:0:0:
174,163,81218,1,2,1:0:0:0:
207,150,81301,1,0,0:0:0:0:
240,137,81385,2,0,B|181:121|181:121|140:127,1,80,4|0,1:2|1:0,0:0:0:0:
27,28,81718,2,0,B|19:78|19:78|30:120,1,80,0|0,1:0|1:0,0:0:0:0:
21,231,82051,5,4,1:2:0:0:
47,256,82135,1,0,1:0:0:0:
72,281,82218,1,0,1:0:0:0:
97,306,82301,1,0,1:0:0:0:
98,342,82385,1,0,1:2:0:0:
132,333,82468,1,0,1:0:0:0:
166,324,82551,1,0,1:0:0:0:
201,315,82635,1,0,1:0:0:0:
232,332,82718,6,0,B|265:340|265:340|319:329|319:329|360:339,4,120,4|4|4|4|4,1:2|1:2|1:2|1:2|1:2,0:0:0:0:
436,375,83885,1,4,1:2:0:0:
498,264,84051,6,2,B|521:157|521:157|493:108,1,160,6|2,1:2|1:0,0:0:0:0:
333,180,84551,2,2,B|292:191|292:191|216:175,1,120,2|2,1:0|2:0,0:0:0:0:
190,196,84885,1,2,1:0:0:0:
35,80,85051,2,0,L|45:163,1,80,0|0,1:0|1:0,0:0:0:0:
44,159,85301,1,0,1:0:0:0:
44,159,85385,1,2,1:0:0:0:
207,80,85551,5,0,0:0:0:0:
207,80,85635,2,0,B|283:94|283:94|337:79,1,120,0|2,1:0|1:0,0:0:0:0:
457,31,86051,2,0,L|446:117,1,80,2|2,1:0|1:0,0:0:0:0:
465,141,86301,1,0,0:0:0:0:
482,172,86385,2,0,L|471:258,1,80,0|2,1:0|1:0,0:0:0:0:
389,334,86718,5,2,1:0:0:0:
286,272,86885,1,0,1:0:0:0:
286,272,86968,1,2,1:0:0:0:
185,319,87135,1,0,1:0:0:0:
185,319,87218,1,2,1:0:0:0:
77,271,87385,1,0,1:0:0:0:
77,271,87468,1,2,1:0:0:0:
135,177,87635,1,0,1:0:0:0:
135,177,87718,2,0,B|151:116|151:116|141:44,1,120,2|0,1:0|1:0,0:0:0:0:
143,59,88051,6,0,L|38:71,1,80,4|0,1:2|1:0,0:0:0:0:
265,168,88385,2,0,L|344:158,1,80,4|0,1:2|1:0,0:0:0:0:
446,202,88718,1,4,1:2:0:0:
446,202,88801,1,0,1:0:0:0:
512,80,88968,1,4,1:2:0:0:
512,80,89051,1,0,1:0:0:0:
512,271,89218,5,4,1:2:0:0:
512,271,89301,1,0,1:0:0:0:
512,271,89385,2,2,B|429:281|429:281|384:268,1,120,6|2,1:2|1:0,0:0:0:0:
394,270,89718,1,0,0:0:0:0:
159,339,89884,1,0,1:0:0:0:
159,339,89968,2,2,B|242:329|242:329|287:342,1,120,2|0,1:0|1:0,0:0:0:0:
337,231,90385,1,0,1:0:0:0:
328,200,90468,1,0,0:0:0:0:
319,169,90551,1,0,1:0:0:0:
311,137,90635,1,0,0:0:0:0:
303,106,90718,5,4,1:2:0:0:
271,107,90801,2,2,B|233:135|233:135|217:216,1,120,2|2,1:0|1:0,0:0:0:0:
73,293,91218,1,2,2:0:0:0:
73,293,91301,2,0,B|38:253|38:253|21:179,1,120,2|0,1:0|1:0,0:0:0:0:
42,162,91635,1,0,0:0:0:0:
59,135,91718,1,2,1:0:0:0:
76,108,91801,1,0,0:0:0:0:
74,75,91885,1,0,1:0:0:0:
72,43,91968,1,0,0:0:0:0:
93,19,92051,6,2,B|136:15|136:15|207:39|207:39|251:32,1,160,6|0,1:2|0:0,0:0:0:0:
333,115,92551,1,0,1:0:0:0:
466,60,92718,2,2,B|454:100|454:100|467:191,1,120,6|0,1:2|1:0,0:0:0:0:
465,177,93051,2,0,B|410:203|410:203|391:223,1,80,0|2,1:0|1:0,0:0:0:0:
253,207,93385,5,4,1:2:0:0:
281,323,93551,1,0,1:0:0:0:
410,369,93718,1,0,1:0:0:0:
410,369,93801,1,0,1:0:0:0:
410,369,93885,1,4,1:2:0:0:
187,279,94051,5,0,1:0:0:0:
354,240,94218,1,4,1:2:0:0:
364,209,94301,1,0,1:0:0:0:
374,178,94385,1,0,1:0:0:0:
356,151,94468,1,0,1:0:0:0:
351,119,94551,1,4,1:2:0:0:
347,86,94635,1,0,0:0:0:0:
368,57,94718,6,2,B|318:82|318:82|247:85|247:85,1,120,6|2,1:2|2:0,0:0:0:0:
253,84,95051,1,2,1:0:0:0:
74,15,95218,2,0,B|53:62|53:62|68:135,1,120,2|0,0:0|0:0,0:0:0:0:
66,129,95551,2,0,L|24:204,1,80,2|0,1:0|1:0,0:0:0:0:
185,203,95885,5,0,1:0:0:0:
185,203,95968,1,0,0:0:0:0:
185,203,96051,2,0,B|267:183|267:183|331:192,2,120,2|2|2,1:0|1:2|1:0,0:0:0:0:
16,281,96718,1,2,1:0:0:0:
101,367,96885,1,2,1:0:0:0:
196,302,97051,1,0,1:0:0:0:
114,201,97218,1,2,1:0:0:0:
9,126,97385,6,0,L|105:113,1,80,2|0,1:0|0:0,0:0:0:0:
111,93,97635,1,2,1:0:0:0:
134,71,97718,2,0,L|203:62,1,40
251,96,97885,1,2,1:0:0:0:
370,18,98051,1,0,1:0:0:0:
370,18,98135,2,0,B|392:68|392:68|391:106,1,80,2|0,1:0|0:0,0:0:0:0:
374,122,98385,2,0,L|404:206,1,80,2|0,1:0|1:0,0:0:0:0:
512,191,98718,5,4,1:2:0:0:
451,315,98885,1,0,1:0:0:0:
328,286,99051,1,4,1:2:0:0:
328,286,99135,1,0,1:0:0:0:
328,286,99218,1,0,1:0:0:0:
216,324,99385,2,0,B|178:332|178:332|126:321,1,80,4|0,1:2|1:0,0:0:0:0:
13,193,99718,2,0,B|51:185|51:185|103:196,1,80,4|0,1:2|1:0,0:0:0:0:
240,231,100051,6,2,B|260:192|260:192|242:105,1,120,6|2,1:2|0:0,0:0:0:0:
230,88,100385,2,0,L|242:26,1,40
343,123,100551,1,0,1:0:0:0:
343,123,100635,1,2,0:0:0:0:
343,123,100718,2,0,L|439:132,2,80,0|2|0,1:0|1:0|1:0,0:0:0:0:
405,238,101218,1,2,1:0:0:0:
255,289,101385,5,4,1:2:0:0:
255,289,101468,2,0,B|212:274|212:274|107:295,1,120,2|2,0:0|1:0,0:0:0:0:
32,218,101885,1,0,1:0:0:0:
57,198,101968,1,2,0:0:0:0:
82,178,102051,2,0,B|92:130|92:130|80:71,1,80,0|2,1:0|0:0,0:0:0:0:
174,47,102385,2,0,B|225:56|225:56|263:48,1,80,2|0,1:0|1:0,0:0:0:0:
373,9,102718,5,6,1:2:0:0:
392,43,102801,1,0,1:0:0:0:
411,78,102885,1,0,1:0:0:0:
401,116,102968,1,2,1:0:0:0:
392,154,103051,2,0,L|345:162,3,40,0|0|2|0,1:0|1:0|1:0|1:0,0:0:0:0:
258,226,103385,5,4,1:2:0:0:
296,235,103468,1,0,1:0:0:0:
334,244,103551,1,0,1:0:0:0:
358,275,103635,1,2,1:0:0:0:
382,306,103718,2,0,L|371:345,3,40,0|0|2|0,1:0|1:0|1:0|1:0,0:0:0:0:
474,250,104051,5,4,1:2:0:0:
501,147,104218,1,2,1:0:0:0:
419,51,104385,1,4,1:2:0:0:
392,154,104552,1,2,1:0:0:0:
277,112,104718,6,0,L|244:116,8,20,4|0|0|0|2|0|0|0|4,1:2|1:0|1:0|1:0|1:0|0:0|1:0|0:0|1:2,1:0:0:0:
165,176,105218,1,0,1:0:0:0:
44,104,105385,5,6,1:1:0:0:
69,334,105718,5,0,1:0:0:0:
167,300,105885,1,6,1:1:0:0:
436,337,106218,5,0,1:0:0:0:
347,180,106385,5,6,1:1:0:0:
435,142,106551,1,6,1:1:0:0:
