osu file format v14

[General]
AudioFilename: audio.mp3
AudioLeadIn: 0
PreviewTime: 127287
Countdown: 0
SampleSet: Soft
StackLeniency: 0.7
Mode: 3
LetterboxInBreaks: 0
SpecialStyle: 0
WidescreenStoryboard: 1

[Editor]
Bookmarks: 1518,13826,26133,52287,76903,89210,101518,113826,127672,152287,176903,192287
DistanceSpacing: 0.9
BeatDivisor: 4
GridSize: 4
TimelineZoom: 1.7

[Metadata]
Title:Babylon
TitleUnicode:Babylon
Artist:BlackY
ArtistUnicode:BlackY
Creator:Madoka2574
Version:6K Future
Source:
Tags:BlackmaniYa BlackY's BEATFLOOR Chenut_BS Chenut BS liaoxingyao electronic instrumental
BeatmapID:2262500
BeatmapSetID:634232

[Difficulty]
HPDrainRate:8.4
CircleSize:6
OverallDifficulty:8
ApproachRate:5
SliderMultiplier:1.4
SliderTickRate:1

[Events]
//Background and Video events
0,0,"BG for 6K.jpg",0,0
//Break Periods
//Storyboard Layer 0 (Background)
//Storyboard Layer 1 (Fail)
//Storyboard Layer 2 (Pass)
//Storyboard Layer 3 (Foreground)
//Storyboard Layer 4 (Overlay)
//Storyboard Sound Samples
Sample,49595,0,"clap.wav",50
Sample,50364,0,"kick.wav",60
Sample,50364,0,"clap.wav",50
Sample,191903,0,"clap.wav",50
Sample,198441,0,"0_D5.wav",70
Sample,198441,0,"0_F5.wav",70
Sample,204593,0,"0_D5.wav",70
Sample,204593,0,"0_F5.wav",70
Sample,207673,0,"0_D#5.wav",70
Sample,207673,0,"0_F5.wav",70
Sample,210746,0,"0_F5.wav",70

[TimingPoints]
-20,384.615384615385,4,2,1,40,1,0
127287,-166.666666666667,4,2,1,40,0,0
127480,-83.3333333333333,4,2,1,40,0,0
127576,-62.5,4,2,1,40,0,0
127672,-100,4,2,1,40,0,1
151903,-100,4,2,1,40,0,0
152287,-100,4,2,1,40,0,1
176518,-100,4,2,1,40,0,0
176903,-100,4,2,1,40,0,1
192287,-105.263157894737,4,2,1,40,0,0
193056,-111.111111111111,4,2,1,40,0,0
193826,-117.647058823529,4,2,1,40,0,0
194595,-125,4,2,1,40,0,0
195364,-133.333333333333,4,2,1,40,0,0
201133,379.746835443038,4,2,1,40,1,0
201133,-135.042735042735,4,2,1,40,0,0
201512,375,4,2,1,40,1,0
201512,-136.752136752137,4,2,1,40,0,0
202074,397.350993377483,4,2,1,40,1,0
202074,-129.059829059829,4,2,1,40,0,0
202670,461.538461538462,4,2,1,40,1,0
202670,-111.111111111111,4,2,1,40,0,0
203593,408.163265306122,4,2,1,40,1,0
203593,-125.641025641026,4,2,1,40,0,0
204001,394.736842105263,4,2,1,40,1,0
204001,-129.91452991453,4,2,1,40,0,0
204593,397.350993377483,4,2,1,40,1,0
204593,-129.059829059829,4,2,1,40,0,0
204990,415.22491349481,4,2,1,40,1,0
204990,-123.504273504273,4,2,1,40,0,0
207066,410.958904109589,4,2,1,40,1,0
207066,-124.786324786325,4,2,1,40,0,0
207374,363.636363636364,4,2,1,40,1,0
207374,-141.023833027782,4,2,1,40,0,0
207646,441.176470588235,4,2,1,40,1,0
207646,-116.238521446007,4,2,1,40,0,0
207673,431.654676258993,4,2,1,40,1,0
207673,-118.803418803419,4,2,1,40,0,0
208212,437.956204379562,4,2,1,40,1,0
208212,-117.094017094017,4,2,1,40,0,0
209306,451.127819548872,4,2,1,40,1,0
209306,-113.675213675214,4,2,1,40,0,0
209982,382.165605095541,4,2,1,40,1,0
209982,-134.188034188034,4,2,1,40,0,0
210746,378.548895899054,4,2,1,40,1,0
210746,-156.311637080868,4,2,1,40,0,0
212260,547.945205479452,4,2,1,40,1,0
212260,-140.384615384615,4,2,1,40,0,0

[HitObjects]
469,192,1518,128,0,4595:0:0:0:100:organ2_005.wav
298,192,3056,128,0,4595:0:0:0:100:organ2_003.wav
42,192,3826,128,0,4595:0:0:0:100:organ2_001.wav
128,192,4595,128,0,6133:0:0:0:100:organ2_000.wav
384,192,5364,128,0,6133:0:0:0:100:organ2_008.wav
42,192,6133,128,0,7672:0:0:0:25:organ2_009.wav
213,192,6133,128,0,7672:0:0:0:25:organ2_009.wav
298,192,6133,128,0,8441:0:0:0:25:organ2_009.wav
469,192,6133,128,0,9210:0:0:0:25:organ2_009.wav
128,192,7672,128,0,9210:0:0:0:50:organ2_006.wav
384,192,7672,128,0,8730:0:0:0:50:organ2_006.wav
213,192,8441,128,0,8730:0:0:0:100:organ2_002.wav
298,192,8730,128,0,9018:0:0:0:100:organ2_004.wav
384,192,9018,128,0,9210:0:0:0:100:organ2_007.wav
42,192,9210,128,0,10749:0:0:0:33:organ2_008.wav
213,192,9210,128,0,9980:0:0:0:34:organ2_008.wav
298,192,9210,128,0,10749:0:0:0:33:organ2_008.wav
469,192,9980,128,0,10749:0:0:0:100:organ2_006.wav
384,192,10749,128,0,12287:0:0:0:33:organ2_012.wav
213,192,10749,128,0,12287:0:0:0:33:organ2_012.wav
128,192,10749,128,0,11518:0:0:0:34:organ2_012.wav
42,192,11518,128,0,12287:0:0:0:100:organ2_011.wav
128,192,12287,128,0,13056:0:0:0:33:organ2_003.wav
298,192,12287,128,0,13056:0:0:0:33:organ2_003.wav
469,192,12287,128,0,13056:0:0:0:34:organ2_003.wav
213,192,13056,128,0,13633:0:0:0:100:organ2_010.wav
298,192,13633,1,0,0:0:0:60:kick.wav
384,192,13633,1,0,0:0:0:0:
469,192,13633,1,0,0:0:0:0:
42,192,13826,1,0,0:0:0:100:cymbal.wav
298,192,13826,1,0,0:0:0:60:kick.wav
384,192,13826,1,0,0:0:0:100:BassKickReverbXD.wav
469,192,13826,1,0,0:0:0:0:
128,192,13922,1,0,0:0:0:0:
213,192,14018,1,0,0:0:0:0:
384,192,14114,1,0,0:0:0:0:
42,192,14210,1,0,0:0:0:50:clap.wav
128,192,14210,1,0,0:0:0:0:
213,192,14306,1,0,0:0:0:0:
298,192,14403,1,0,0:0:0:0:
469,192,14499,1,0,0:0:0:0:
42,192,14595,1,0,0:0:0:0:
213,192,14595,1,0,0:0:0:0:
384,192,14691,1,0,0:0:0:0:
298,192,14787,1,0,0:0:0:0:
128,192,14883,1,0,0:0:0:0:
42,192,14980,1,0,0:0:0:50:clap.wav
469,192,14980,1,0,0:0:0:0:
384,192,15076,1,0,0:0:0:0:
213,192,15172,1,0,0:0:0:0:
128,192,15268,1,0,0:0:0:0:
298,192,15364,1,0,0:0:0:0:
469,192,15364,1,0,0:0:0:0:
42,192,15460,1,0,0:0:0:0:
213,192,15556,1,0,0:0:0:0:
298,192,15653,1,0,0:0:0:0:
384,192,15749,1,0,0:0:0:50:clap.wav
469,192,15749,1,0,0:0:0:0:
128,192,15845,1,0,0:0:0:0:
298,192,15941,1,0,0:0:0:0:
384,192,16037,1,0,0:0:0:0:
42,192,16133,1,0,0:0:0:0:
469,192,16133,1,0,0:0:0:0:
213,192,16230,1,0,0:0:0:0:
384,192,16326,1,0,0:0:0:0:
128,192,16422,1,0,0:0:0:0:
298,192,16518,1,0,0:0:0:50:clap.wav
469,192,16518,1,0,0:0:0:0:
42,192,16614,1,0,0:0:0:0:
384,192,16710,1,0,0:0:0:0:
128,192,16806,1,0,0:0:0:0:
42,192,16903,1,0,0:0:0:100:cymbal.wav
213,192,16903,1,0,0:0:0:60:kick.wav
298,192,16903,1,0,0:0:0:0:
469,192,16903,1,0,0:0:0:0:
384,192,16999,1,0,0:0:0:0:
128,192,17095,1,0,0:0:0:0:
298,192,17191,1,0,0:0:0:0:
42,192,17287,1,0,0:0:0:50:clap.wav
469,192,17287,1,0,0:0:0:0:
213,192,17383,1,0,0:0:0:0:
384,192,17480,1,0,0:0:0:0:
128,192,17576,1,0,0:0:0:0:
42,192,17672,1,0,0:0:0:0:
298,192,17672,1,0,0:0:0:0:
469,192,17768,1,0,0:0:0:0:
213,192,17864,1,0,0:0:0:0:
384,192,17960,1,0,0:0:0:0:
42,192,18056,1,0,0:0:0:50:clap.wav
128,192,18056,1,0,0:0:0:0:
469,192,18153,1,0,0:0:0:0:
213,192,18249,1,0,0:0:0:0:
298,192,18345,1,0,0:0:0:0:
42,192,18441,1,0,0:0:0:60:kick.wav
384,192,18441,1,0,0:0:0:0:
469,192,18441,1,0,0:0:0:0:
213,192,18537,1,0,0:0:0:0:
128,192,18633,1,0,0:0:0:0:
384,192,18730,1,0,0:0:0:0:
42,192,18826,1,0,0:0:0:50:clap.wav
469,192,18826,1,0,0:0:0:0:
128,192,18922,1,0,0:0:0:0:
298,192,19018,1,0,0:0:0:0:
213,192,19114,1,0,0:0:0:0:
42,192,19210,1,0,0:0:0:60:kick.wav
384,192,19210,1,0,0:0:0:0:
469,192,19210,1,0,0:0:0:0:
213,192,19306,1,0,0:0:0:0:
298,192,19403,1,0,0:0:0:0:
128,192,19499,1,0,0:0:0:0:
213,192,19595,1,0,0:0:0:50:clap.wav
384,192,19595,1,0,0:0:0:0:
469,192,19691,1,0,0:0:0:0:
42,192,19787,1,0,0:0:0:60:kick.wav
128,192,19787,1,0,0:0:0:0:
213,192,19787,1,0,0:0:0:0:
298,192,19883,1,0,0:0:0:0:
42,192,19980,1,0,0:0:0:100:cymbal.wav
128,192,19980,1,0,0:0:0:60:kick.wav
384,192,19980,1,0,0:0:0:0:
469,192,19980,1,0,0:0:0:0:
213,192,20076,1,0,0:0:0:0:
298,192,20172,1,0,0:0:0:0:
384,192,20268,1,0,0:0:0:0:
128,192,20364,1,0,0:0:0:50:clap.wav
469,192,20364,1,0,0:0:0:0:
42,192,20460,1,0,0:0:0:0:
213,192,20556,1,0,0:0:0:0:
384,192,20653,1,0,0:0:0:0:
128,192,20749,1,0,0:0:0:60:kick.wav
298,192,20749,1,0,0:0:0:0:
469,192,20749,1,0,0:0:0:0:
42,192,20845,1,0,0:0:0:0:
213,192,20941,1,0,0:0:0:0:
384,192,20941,1,0,0:0:0:0:
128,192,21037,1,0,0:0:0:0:
298,192,21133,1,0,0:0:0:50:clap.wav
469,192,21133,1,0,0:0:0:0:
42,192,21518,1,0,0:0:0:100:cymbal.wav
128,192,21518,1,0,0:0:0:60:kick.wav
213,192,21518,1,0,0:0:0:0:
384,192,21518,1,0,0:0:0:0:
469,192,21614,1,0,0:0:0:0:
384,192,21710,1,0,0:0:0:0:
298,192,21806,1,0,0:0:0:0:
42,192,21903,1,0,0:0:0:50:clap.wav
213,192,21903,1,0,0:0:0:0:
384,192,21999,1,0,0:0:0:0:
298,192,22095,1,0,0:0:0:0:
213,192,22191,1,0,0:0:0:0:
42,192,22287,1,0,0:0:0:60:kick.wav
128,192,22287,1,0,0:0:0:0:
469,192,22287,1,0,0:0:0:0:
384,192,22383,1,0,0:0:0:0:
298,192,22480,1,0,0:0:0:0:
128,192,22576,1,0,0:0:0:0:
42,192,22672,1,0,0:0:0:50:clap.wav
213,192,22672,1,0,0:0:0:0:
298,192,22768,1,0,0:0:0:0:
128,192,22864,1,0,0:0:0:60:kick.wav
384,192,22864,1,0,0:0:0:0:
469,192,22864,1,0,0:0:0:0:
213,192,22960,1,0,0:0:0:0:
42,192,23056,1,0,0:0:0:100:cymbal.wav
298,192,23056,1,0,0:0:0:60:kick.wav
384,192,23056,1,0,0:0:0:0:
469,192,23056,1,0,0:0:0:0:
128,192,23153,1,0,0:0:0:0:
213,192,23249,1,0,0:0:0:0:
384,192,23345,1,0,0:0:0:0:
128,192,23441,1,0,0:0:0:60:kick.wav
298,192,23441,1,0,0:0:0:50:clap.wav
469,192,23441,1,0,0:0:0:0:
42,192,23537,1,0,0:0:0:0:
213,192,23633,1,0,0:0:0:0:
384,192,23730,1,0,0:0:0:0:
42,192,23826,1,0,0:0:0:100:cymbal.wav
128,192,23826,1,0,0:0:0:60:kick.wav
213,192,23826,1,0,0:0:0:0:
469,192,23826,1,0,0:0:0:0:
298,192,23922,1,0,0:0:0:0:
128,192,24018,1,0,0:0:0:0:
469,192,24114,1,0,0:0:0:0:
42,192,24210,1,0,0:0:0:60:kick.wav
213,192,24210,1,0,0:0:0:50:clap.wav
298,192,24210,1,0,0:0:0:0:
384,192,24306,1,0,0:0:0:0:
128,192,24403,1,0,0:0:0:60:kick.wav
213,192,24403,1,0,0:0:0:0:
469,192,24403,1,0,0:0:0:0:
298,192,24499,1,0,0:0:0:0:
42,192,24595,1,0,0:0:0:100:cymbal.wav
128,192,24595,1,0,0:0:0:60:kick.wav
384,192,24595,1,0,0:0:0:0:
469,192,24595,1,0,0:0:0:0:
128,192,24787,1,0,0:0:0:60:kick.wav
213,192,24787,1,0,0:0:0:0:
384,192,24787,1,0,0:0:0:0:
42,192,24980,1,0,0:0:0:100:cymbal.wav
213,192,24980,1,0,0:0:0:60:kick.wav
298,192,24980,1,0,0:0:0:50:clap.wav
469,192,24980,1,0,0:0:0:0:
128,192,25172,1,0,0:0:0:60:kick.wav
298,192,25172,1,0,0:0:0:0:
384,192,25172,1,0,0:0:0:0:
213,192,25364,1,0,0:0:0:100:cymbal.wav
298,192,25364,1,0,0:0:0:60:kick.wav
384,192,25364,1,0,0:0:0:0:
469,192,25364,1,0,0:0:0:0:
42,192,25460,1,0,0:0:0:60:kick.wav
128,192,25460,1,0,0:0:0:0:
384,192,25556,1,0,0:0:0:60:kick.wav
469,192,25556,1,0,0:0:0:0:
42,192,25653,1,0,0:0:0:60:kick.wav
128,192,25653,1,0,0:0:0:0:
213,192,25749,1,0,0:0:0:100:cymbal.wav
298,192,25749,1,0,0:0:0:60:kick.wav
469,192,25749,1,0,0:0:0:50:clap.wav
42,192,25845,1,0,0:0:0:60:kick.wav
128,192,25845,1,0,0:0:0:0:
384,192,25941,1,0,0:0:0:60:kick.wav
469,192,25941,1,0,0:0:0:0:
213,192,26037,1,0,0:0:0:60:kick.wav
298,192,26037,1,0,0:0:0:0:
42,192,26133,1,0,0:0:0:100:cymbal.wav
128,192,26133,1,0,0:0:0:60:kick.wav
384,192,26133,128,0,26326:0:0:0:100:BassKickReverbXD.wav
469,192,26133,128,0,26326:0:0:0:0:
298,192,26230,1,0,0:0:0:0:
213,192,26326,1,0,0:0:0:0:
128,192,26422,1,0,0:0:0:0:
42,192,26518,1,0,0:0:0:60:kick.wav
384,192,26518,128,0,26710:0:0:0:50:clap.wav
469,192,26518,128,0,26710:0:0:0:0:
128,192,26614,1,0,0:0:0:0:
213,192,26710,1,0,0:0:0:0:
298,192,26806,1,0,0:0:0:0:
42,192,26903,1,0,0:0:0:60:kick.wav
384,192,26903,128,0,27095:0:0:0:0:
469,192,26903,128,0,27095:0:0:0:0:
128,192,26999,1,0,0:0:0:0:
298,192,27095,1,0,0:0:0:0:
213,192,27191,1,0,0:0:0:0:
128,192,27287,1,0,0:0:0:60:kick.wav
384,192,27287,128,0,27480:0:0:0:50:clap.wav
469,192,27287,128,0,27480:0:0:0:0:
42,192,27383,1,0,0:0:0:0:
298,192,27480,1,0,0:0:0:0:
213,192,27576,1,0,0:0:0:0:
42,192,27672,128,0,27864:0:0:0:60:kick.wav
128,192,27672,128,0,27864:0:0:0:0:
469,192,27672,1,0,0:0:0:0:
384,192,27768,1,0,0:0:0:0:
298,192,27864,1,0,0:0:0:0:
384,192,27960,1,0,0:0:0:0:
42,192,28056,128,0,28249:0:0:0:60:kick.wav
128,192,28056,128,0,28249:0:0:0:50:clap.wav
469,192,28056,1,0,0:0:0:0:
298,192,28153,1,0,0:0:0:0:
384,192,28249,1,0,0:0:0:0:
469,192,28345,1,0,0:0:0:0:
42,192,28441,128,0,28633:0:0:0:60:kick.wav
128,192,28441,128,0,28633:0:0:0:0:
213,192,28441,1,0,0:0:0:0:
469,192,28537,1,0,0:0:0:0:
384,192,28633,1,0,0:0:0:0:
298,192,28730,1,0,0:0:0:0:
42,192,28826,128,0,29018:0:0:0:60:kick.wav
128,192,28826,128,0,29018:0:0:0:50:clap.wav
213,192,28826,1,0,0:0:0:0:
469,192,28922,1,0,0:0:0:0:
384,192,29018,1,0,0:0:0:0:
298,192,29114,1,0,0:0:0:0:
42,192,29210,128,0,29403:0:0:0:60:kick.wav
213,192,29210,1,0,0:0:0:0:
469,192,29210,128,0,29403:0:0:0:0:
384,192,29306,1,0,0:0:0:0:
128,192,29403,1,0,0:0:0:0:
298,192,29499,1,0,0:0:0:0:
42,192,29595,128,0,29787:0:0:0:60:kick.wav
213,192,29595,1,0,0:0:0:50:clap.wav
469,192,29595,128,0,29787:0:0:0:0:
128,192,29691,1,0,0:0:0:0:
384,192,29787,1,0,0:0:0:0:
213,192,29883,1,0,0:0:0:0:
42,192,29980,128,0,30172:0:0:0:60:kick.wav
298,192,29980,1,0,0:0:0:0:
469,192,29980,128,0,30172:0:0:0:0:
128,192,30076,1,0,0:0:0:0:
213,192,30172,1,0,0:0:0:0:
298,192,30268,1,0,0:0:0:0:
42,192,30364,128,0,30556:0:0:0:60:kick.wav
384,192,30364,1,0,0:0:0:50:clap.wav
469,192,30364,128,0,30556:0:0:0:0:
213,192,30460,1,0,0:0:0:0:
128,192,30556,1,0,0:0:0:0:
298,192,30653,1,0,0:0:0:0:
42,192,30749,128,0,30941:0:0:0:60:kick.wav
213,192,30749,128,0,30941:0:0:0:0:
384,192,30749,1,0,0:0:0:0:
469,192,30845,1,0,0:0:0:0:
384,192,30941,1,0,0:0:0:0:
298,192,31037,1,0,0:0:0:0:
42,192,31133,128,0,31326:0:0:0:60:kick.wav
213,192,31133,128,0,31326:0:0:0:50:clap.wav
469,192,31133,1,0,0:0:0:0:
384,192,31230,1,0,0:0:0:0:
298,192,31326,1,0,0:0:0:0:
469,192,31422,1,0,0:0:0:0:
42,192,31518,128,0,31710:0:0:0:60:kick.wav
213,192,31518,128,0,31710:0:0:0:0:
384,192,31518,1,0,0:0:0:0:
298,192,31614,1,0,0:0:0:0:
384,192,31710,1,0,0:0:0:0:
469,192,31806,1,0,0:0:0:0:
42,192,31903,128,0,32095:0:0:0:60:kick.wav
213,192,31903,128,0,32095:0:0:0:50:clap.wav
298,192,31903,1,0,0:0:0:0:
384,192,31999,1,0,0:0:0:0:
128,192,32095,1,0,0:0:0:60:kick.wav
469,192,32095,1,0,0:0:0:0:
213,192,32191,1,0,0:0:0:0:
42,192,32287,1,0,0:0:0:60:kick.wav
298,192,32287,128,0,32480:0:0:0:0:
469,192,32287,128,0,32480:0:0:0:0:
128,192,32383,1,0,0:0:0:0:
213,192,32480,1,0,0:0:0:0:
128,192,32576,1,0,0:0:0:0:
42,192,32672,1,0,0:0:0:60:kick.wav
384,192,32672,128,0,32864:0:0:0:50:clap.wav
469,192,32672,128,0,32864:0:0:0:0:
213,192,32768,1,0,0:0:0:0:
128,192,32864,1,0,0:0:0:0:
42,192,32960,1,0,0:0:0:0:
213,192,33056,1,0,0:0:0:60:kick.wav
298,192,33056,128,0,33249:0:0:0:0:
469,192,33056,128,0,33249:0:0:0:0:
128,192,33153,1,0,0:0:0:0:
42,192,33249,1,0,0:0:0:0:
128,192,33345,1,0,0:0:0:0:
213,192,33441,1,0,0:0:0:60:kick.wav
384,192,33441,128,0,33633:0:0:0:50:clap.wav
469,192,33441,128,0,33633:0:0:0:0:
128,192,33826,128,0,34018:0:0:0:60:kick.wav
213,192,33826,128,0,34018:0:0:0:0:
469,192,33826,1,0,0:0:0:0:
384,192,33922,1,0,0:0:0:0:
298,192,34018,1,0,0:0:0:0:
384,192,34114,1,0,0:0:0:0:
42,192,34210,128,0,34403:0:0:0:60:kick.wav
128,192,34210,128,0,34403:0:0:0:50:clap.wav
469,192,34210,1,0,0:0:0:0:
213,192,34306,1,0,0:0:0:0:
298,192,34403,1,0,0:0:0:0:
384,192,34499,1,0,0:0:0:0:
128,192,34595,128,0,34787:0:0:0:60:kick.wav
213,192,34595,128,0,34787:0:0:0:0:
298,192,34595,1,0,0:0:0:0:
469,192,34691,1,0,0:0:0:0:
384,192,34787,1,0,0:0:0:0:
298,192,34883,1,0,0:0:0:0:
42,192,34980,128,0,35172:0:0:0:60:kick.wav
128,192,34980,128,0,35172:0:0:0:50:clap.wav
213,192,34980,1,0,0:0:0:0:
469,192,35076,1,0,0:0:0:0:
384,192,35172,1,0,0:0:0:0:
298,192,35268,1,0,0:0:0:0:
42,192,35364,128,0,35556:0:0:0:60:kick.wav
213,192,35364,128,0,35556:0:0:0:0:
469,192,35364,1,0,0:0:0:0:
384,192,35460,1,0,0:0:0:0:
298,192,35556,1,0,0:0:0:0:
384,192,35653,1,0,0:0:0:0:
42,192,35749,1,0,0:0:0:60:kick.wav
298,192,35749,128,0,35941:0:0:0:50:clap.wav
469,192,35749,128,0,35941:0:0:0:0:
128,192,35845,1,0,0:0:0:0:
213,192,35941,1,0,0:0:0:0:
384,192,36037,1,0,0:0:0:0:
42,192,36133,128,0,36326:0:0:0:60:kick.wav
213,192,36133,128,0,36326:0:0:0:0:
469,192,36133,1,0,0:0:0:0:
298,192,36230,1,0,0:0:0:0:
384,192,36326,1,0,0:0:0:0:
128,192,36422,1,0,0:0:0:0:
213,192,36518,1,0,0:0:0:60:kick.wav
298,192,36518,128,0,36710:0:0:0:50:clap.wav
469,192,36518,128,0,36710:0:0:0:0:
42,192,36614,1,0,0:0:0:0:
128,192,36710,1,0,0:0:0:0:
213,192,36806,1,0,0:0:0:0:
42,192,36903,1,0,0:0:0:60:kick.wav
298,192,36903,128,0,36999:0:0:0:0:
469,192,36903,128,0,36999:0:0:0:0:
298,192,37095,128,0,37191:0:0:0:0:
469,192,37095,128,0,37191:0:0:0:0:
42,192,37287,128,0,37383:0:0:0:60:kick.wav
213,192,37287,128,0,37383:0:0:0:50:clap.wav
384,192,37287,1,0,0:0:0:0:
42,192,37480,128,0,37576:0:0:0:60:kick.wav
213,192,37480,128,0,37576:0:0:0:0:
298,192,37480,1,0,0:0:0:0:
384,192,37672,1,0,0:0:0:60:kick.wav
469,192,37672,1,0,0:0:0:0:
42,192,37768,1,0,0:0:0:60:kick.wav
213,192,37768,1,0,0:0:0:0:
298,192,37864,1,0,0:0:0:60:kick.wav
469,192,37864,1,0,0:0:0:0:
42,192,37960,1,0,0:0:0:60:kick.wav
128,192,37960,1,0,0:0:0:0:
298,192,38056,1,0,0:0:0:60:kick.wav
384,192,38056,1,0,0:0:0:50:clap.wav
298,192,38249,1,0,0:0:0:60:kick.wav
384,192,38249,1,0,0:0:0:0:
42,192,38441,1,0,0:0:0:100:cymbal.wav
128,192,38441,1,0,0:0:0:60:kick.wav
213,192,38441,1,0,0:0:0:100:BassKickReverbXD.wav
469,192,38441,1,0,0:0:0:0:
384,192,38537,1,0,0:0:0:0:
298,192,38633,1,0,0:0:0:0:
42,192,38730,1,0,0:0:0:0:
213,192,38826,1,0,0:0:0:60:kick.wav
384,192,38826,1,0,0:0:0:50:clap.wav
469,192,38826,1,0,0:0:0:0:
128,192,38922,1,0,0:0:0:0:
298,192,39018,1,0,0:0:0:0:
213,192,39114,1,0,0:0:0:0:
42,192,39210,1,0,0:0:0:60:kick.wav
128,192,39210,1,0,0:0:0:0:
469,192,39210,128,0,39306:0:0:0:0:
384,192,39306,128,0,39403:0:0:0:0:
298,192,39403,128,0,39499:0:0:0:0:
213,192,39499,128,0,39595:0:0:0:0:
42,192,39595,1,0,0:0:0:60:kick.wav
384,192,39595,128,0,39691:0:0:0:50:clap.wav
469,192,39595,1,0,0:0:0:0:
298,192,39691,128,0,39787:0:0:0:0:
213,192,39787,128,0,39883:0:0:0:0:
128,192,39883,128,0,39980:0:0:0:0:
42,192,39980,1,0,0:0:0:60:kick.wav
298,192,39980,1,0,0:0:0:0:
469,192,39980,1,0,0:0:0:0:
213,192,40076,1,0,0:0:0:0:
384,192,40172,1,0,0:0:0:0:
298,192,40268,1,0,0:0:0:0:
42,192,40364,1,0,0:0:0:60:kick.wav
128,192,40364,1,0,0:0:0:50:clap.wav
469,192,40364,1,0,0:0:0:0:
384,192,40460,1,0,0:0:0:0:
213,192,40556,1,0,0:0:0:0:
298,192,40653,1,0,0:0:0:0:
42,192,40749,128,0,40845:0:0:0:60:kick.wav
384,192,40749,1,0,0:0:0:0:
469,192,40749,1,0,0:0:0:0:
128,192,40845,128,0,40941:0:0:0:0:
213,192,40941,128,0,41037:0:0:0:0:
298,192,41037,128,0,41133:0:0:0:0:
42,192,41133,1,0,0:0:0:60:kick.wav
128,192,41133,128,0,41230:0:0:0:50:clap.wav
469,192,41133,1,0,0:0:0:0:
213,192,41230,128,0,41326:0:0:0:0:
298,192,41326,128,0,41422:0:0:0:0:
384,192,41422,128,0,41518:0:0:0:0:
42,192,41518,1,0,0:0:0:60:kick.wav
128,192,41518,1,0,0:0:0:0:
469,192,41518,1,0,0:0:0:0:
213,192,41614,1,0,0:0:0:0:
384,192,41710,1,0,0:0:0:0:
298,192,41806,1,0,0:0:0:0:
42,192,41903,1,0,0:0:0:60:kick.wav
213,192,41903,1,0,0:0:0:50:clap.wav
469,192,41903,1,0,0:0:0:0:
384,192,41999,1,0,0:0:0:0:
128,192,42095,1,0,0:0:0:0:
298,192,42191,1,0,0:0:0:0:
42,192,42287,1,0,0:0:0:60:kick.wav
213,192,42287,1,0,0:0:0:0:
469,192,42287,1,0,0:0:0:0:
384,192,42383,1,0,0:0:0:0:
128,192,42480,1,0,0:0:0:0:
213,192,42576,1,0,0:0:0:0:
42,192,42672,1,0,0:0:0:60:kick.wav
298,192,42672,1,0,0:0:0:50:clap.wav
469,192,42672,1,0,0:0:0:0:
128,192,42768,1,0,0:0:0:0:
213,192,42864,1,0,0:0:0:0:
298,192,42960,1,0,0:0:0:0:
42,192,43056,1,0,0:0:0:60:kick.wav
384,192,43056,128,0,43153:0:0:0:0:
469,192,43056,1,0,0:0:0:0:
213,192,43153,128,0,43249:0:0:0:0:
298,192,43249,128,0,43345:0:0:0:0:
128,192,43345,128,0,43441:0:0:0:0:
42,192,43441,1,0,0:0:0:60:kick.wav
384,192,43441,128,0,43537:0:0:0:50:clap.wav
469,192,43441,1,0,0:0:0:0:
213,192,43537,128,0,43633:0:0:0:0:
42,192,43633,128,0,43730:0:0:0:0:
298,192,43730,128,0,43826:0:0:0:0:
128,192,43826,128,0,43922:0:0:0:60:kick.wav
384,192,43826,1,0,0:0:0:0:
469,192,43826,1,0,0:0:0:0:
42,192,43922,128,0,44018:0:0:0:0:
213,192,44018,128,0,44114:0:0:0:0:
298,192,44114,128,0,44210:0:0:0:60:kick.wav
384,192,44114,1,0,0:0:0:0:
469,192,44114,1,0,0:0:0:0:
42,192,44210,128,0,44306:0:0:0:50:clap.wav
128,192,44306,128,0,44403:0:0:0:0:
213,192,44403,128,0,44499:0:0:0:60:kick.wav
384,192,44403,1,0,0:0:0:0:
469,192,44403,1,0,0:0:0:0:
298,192,44499,128,0,44595:0:0:0:0:
42,192,44595,1,0,0:0:0:100:cymbal.wav
128,192,44595,1,0,0:0:0:60:kick.wav
384,192,44595,1,0,0:0:0:100:BassKickReverbXD.wav
469,192,44595,1,0,0:0:0:0:
213,192,44691,1,0,0:0:0:0:
298,192,44787,1,0,0:0:0:0:
469,192,44787,1,0,0:0:0:0:
128,192,44883,1,0,0:0:0:0:
42,192,44980,1,0,0:0:0:50:clap.wav
384,192,44980,1,0,0:0:0:0:
213,192,45076,1,0,0:0:0:0:
128,192,45172,1,0,0:0:0:0:
469,192,45172,1,0,0:0:0:0:
298,192,45268,1,0,0:0:0:0:
42,192,45364,1,0,0:0:0:0:
384,192,45364,1,0,0:0:0:0:
213,192,45460,1,0,0:0:0:0:
42,192,45556,1,0,0:0:0:0:
469,192,45556,1,0,0:0:0:0:
298,192,45653,1,0,0:0:0:0:
128,192,45749,1,0,0:0:0:50:clap.wav
469,192,45749,1,0,0:0:0:0:
384,192,45845,1,0,0:0:0:0:
42,192,45941,1,0,0:0:0:60:kick.wav
213,192,45941,1,0,0:0:0:0:
298,192,45941,1,0,0:0:0:0:
384,192,46037,1,0,0:0:0:0:
42,192,46133,1,0,0:0:0:100:cymbal.wav
128,192,46133,1,0,0:0:0:60:kick.wav
213,192,46133,1,0,0:0:0:0:
469,192,46133,1,0,0:0:0:0:
298,192,46230,1,0,0:0:0:0:
128,192,46326,1,0,0:0:0:0:
384,192,46326,1,0,0:0:0:0:
213,192,46422,1,0,0:0:0:0:
42,192,46518,1,0,0:0:0:50:clap.wav
469,192,46518,1,0,0:0:0:0:
298,192,46614,1,0,0:0:0:0:
128,192,46710,1,0,0:0:0:0:
213,192,46710,1,0,0:0:0:0:
384,192,46806,1,0,0:0:0:0:
42,192,46903,1,0,0:0:0:60:kick.wav
298,192,46903,1,0,0:0:0:0:
469,192,46903,1,0,0:0:0:0:
213,192,46999,1,0,0:0:0:0:
384,192,47095,1,0,0:0:0:0:
42,192,47191,1,0,0:0:0:60:kick.wav
128,192,47191,1,0,0:0:0:0:
298,192,47191,1,0,0:0:0:0:
469,192,47287,1,0,0:0:0:50:clap.wav
213,192,47383,1,0,0:0:0:0:
42,192,47480,1,0,0:0:0:60:kick.wav
384,192,47480,1,0,0:0:0:0:
469,192,47480,1,0,0:0:0:0:
128,192,47576,1,0,0:0:0:0:
42,192,47672,1,0,0:0:0:100:cymbal.wav
213,192,47672,1,0,0:0:0:60:kick.wav
298,192,47672,1,0,0:0:0:0:
469,192,47672,1,0,0:0:0:0:
384,192,47768,1,0,0:0:0:0:
42,192,47864,1,0,0:0:0:60:kick.wav
213,192,47864,1,0,0:0:0:0:
298,192,47864,1,0,0:0:0:0:
469,192,47960,1,0,0:0:0:0:
42,192,48056,1,0,0:0:0:60:kick.wav
213,192,48056,1,0,0:0:0:50:clap.wav
384,192,48056,1,0,0:0:0:0:
298,192,48153,1,0,0:0:0:0:
42,192,48249,1,0,0:0:0:60:kick.wav
213,192,48249,1,0,0:0:0:0:
469,192,48249,1,0,0:0:0:0:
384,192,48345,1,0,0:0:0:0:
42,192,48441,1,0,0:0:0:100:cymbal.wav
213,192,48441,1,0,0:0:0:60:kick.wav
298,192,48441,1,0,0:0:0:0:
469,192,48441,1,0,0:0:0:0:
128,192,48537,1,0,0:0:0:0:
213,192,48633,1,0,0:0:0:60:kick.wav
298,192,48633,1,0,0:0:0:0:
469,192,48633,1,0,0:0:0:0:
42,192,48730,1,0,0:0:0:0:
128,192,48826,1,0,0:0:0:60:kick.wav
298,192,48826,1,0,0:0:0:50:clap.wav
469,192,48826,1,0,0:0:0:0:
213,192,48922,1,0,0:0:0:0:
42,192,49018,1,0,0:0:0:60:kick.wav
298,192,49018,1,0,0:0:0:0:
469,192,49018,1,0,0:0:0:0:
128,192,49114,1,0,0:0:0:0:
213,192,49210,1,0,0:0:0:100:cymbal.wav
298,192,49210,1,0,0:0:0:60:kick.wav
384,192,49210,1,0,0:0:0:0:
469,192,49210,1,0,0:0:0:0:
42,192,49306,1,0,0:0:0:60:kick.wav
128,192,49306,1,0,0:0:0:0:
469,192,49403,1,0,0:0:0:60:kick.wav
384,192,49451,1,0,0:0:0:60:kick.wav
298,192,49499,1,0,0:0:0:60:kick.wav
213,192,49547,1,0,0:0:0:60:kick.wav
42,192,49595,1,0,0:0:0:100:cymbal.wav
128,192,49595,1,0,0:0:0:60:kick.wav
384,192,49691,1,0,0:0:0:60:kick.wav
469,192,49691,1,0,0:0:0:0:
42,192,49787,1,0,0:0:0:60:kick.wav
128,192,49835,1,0,0:0:0:60:kick.wav
213,192,49883,1,0,0:0:0:60:kick.wav
298,192,49931,1,0,0:0:0:60:kick.wav
384,192,49980,1,0,0:0:0:100:cymbal.wav
469,192,49980,1,0,0:0:0:60:kick.wav
42,192,50076,1,0,0:0:0:60:kick.wav
128,192,50076,1,0,0:0:0:0:
384,192,50172,1,0,0:0:0:60:kick.wav
469,192,50172,1,0,0:0:0:0:
42,192,50268,1,0,0:0:0:60:kick.wav
128,192,50268,1,0,0:0:0:0:
469,192,50364,1,0,0:0:0:100:cymbal.wav
384,192,50412,1,0,0:0:0:60:kick.wav
298,192,50460,1,0,0:0:0:60:kick.wav
213,192,50508,1,0,0:0:0:60:kick.wav
42,192,50556,1,0,0:0:0:60:kick.wav
128,192,50556,1,0,0:0:0:0:
384,192,50653,1,0,0:0:0:60:kick.wav
469,192,50653,1,0,0:0:0:0:
42,192,50749,1,0,0:0:0:0:
213,192,50813,1,0,0:0:0:0:
384,192,50877,1,0,0:0:0:0:
469,192,50941,1,0,0:0:0:0:
128,192,51005,1,0,0:0:0:0:
298,192,51069,1,0,0:0:0:0:
42,192,51133,1,0,0:0:0:0:
384,192,51197,1,0,0:0:0:0:
213,192,51262,1,0,0:0:0:0:
469,192,51326,1,0,0:0:0:0:
298,192,51390,1,0,0:0:0:0:
128,192,51454,1,0,0:0:0:0:
42,192,51518,1,0,0:0:0:0:
384,192,51582,1,0,0:0:0:0:
213,192,51646,1,0,0:0:0:0:
469,192,51710,1,0,0:0:0:0:
128,192,51774,1,0,0:0:0:0:
298,192,51838,1,0,0:0:0:0:
384,192,51903,1,0,0:0:0:0:
469,192,51967,1,0,0:0:0:0:
42,192,52031,1,0,0:0:0:0:
128,192,52095,1,0,0:0:0:0:
213,192,52159,1,0,0:0:0:0:
298,192,52223,1,0,0:0:0:0:
42,192,52287,128,0,52864:0:0:0:100:cymbal.wav
128,192,52287,128,0,52864:0:0:0:60:kick.wav
384,192,52287,1,0,0:0:0:100:BassKickReverbXD.wav
469,192,52287,1,0,0:0:0:0:
213,192,52864,1,0,0:0:0:60:kick.wav
298,192,52864,1,0,0:0:0:0:
469,192,52864,1,0,0:0:0:0:
42,192,53056,1,0,0:0:0:70:snare.wav
128,192,53056,1,0,0:0:0:0:
384,192,53056,1,0,0:0:0:0:
469,192,53056,1,0,0:0:0:0:
298,192,53249,1,0,0:0:0:60:kick.wav
384,192,53249,1,0,0:0:0:0:
42,192,53345,1,0,0:0:0:60:kick.wav
128,192,53345,1,0,0:0:0:0:
213,192,53441,1,0,0:0:0:60:kick.wav
298,192,53441,1,0,0:0:0:0:
469,192,53441,1,0,0:0:0:0:
213,192,53633,1,0,0:0:0:60:kick.wav
298,192,53633,1,0,0:0:0:0:
469,192,53633,1,0,0:0:0:0:
42,192,54018,1,0,0:0:0:60:kick.wav
384,192,54018,1,0,0:0:0:0:
469,192,54018,1,0,0:0:0:0:
298,192,54066,1,0,0:0:0:60:kick.wav
213,192,54114,1,0,0:0:0:60:kick.wav
128,192,54162,1,0,0:0:0:60:kick.wav
42,192,54210,1,0,0:0:0:60:kick.wav
384,192,54210,1,0,0:0:0:0:
469,192,54210,1,0,0:0:0:0:
128,192,54403,1,0,0:0:0:60:kick.wav
213,192,54403,1,0,0:0:0:0:
298,192,54403,1,0,0:0:0:0:
42,192,54595,1,0,0:0:0:70:snare.wav
213,192,54595,1,0,0:0:0:0:
384,192,54595,1,0,0:0:0:0:
469,192,54595,1,0,0:0:0:0:
128,192,54787,1,0,0:0:0:60:kick.wav
298,192,54787,128,0,54883:0:0:0:0:
469,192,54787,1,0,0:0:0:0:
384,192,54883,128,0,54980:0:0:0:0:
298,192,54980,128,0,55076:0:0:0:0:
128,192,55076,1,0,0:0:0:60:kick.wav
384,192,55076,128,0,55172:0:0:0:0:
213,192,55172,1,0,0:0:0:60:kick.wav
298,192,55172,128,0,55268:0:0:0:0:
128,192,55268,1,0,0:0:0:60:kick.wav
384,192,55268,128,0,55364:0:0:0:0:
42,192,55364,1,0,0:0:0:60:kick.wav
213,192,55364,1,0,0:0:0:0:
469,192,55364,1,0,0:0:0:0:
42,192,55653,1,0,0:0:0:60:kick.wav
213,192,55653,1,0,0:0:0:0:
469,192,55653,1,0,0:0:0:0:
42,192,55845,1,0,0:0:0:60:kick.wav
213,192,55845,1,0,0:0:0:0:
469,192,55845,1,0,0:0:0:0:
128,192,55941,1,0,0:0:0:60:kick.wav
298,192,55941,1,0,0:0:0:0:
384,192,55941,1,0,0:0:0:0:
42,192,56133,1,0,0:0:0:70:snare.wav
213,192,56133,1,0,0:0:0:0:
384,192,56133,1,0,0:0:0:0:
469,192,56133,1,0,0:0:0:0:
298,192,56326,1,0,0:0:0:60:kick.wav
469,192,56326,1,0,0:0:0:0:
42,192,56422,1,0,0:0:0:60:kick.wav
128,192,56422,1,0,0:0:0:0:
298,192,56518,1,0,0:0:0:60:kick.wav
469,192,56518,1,0,0:0:0:0:
298,192,56646,1,0,0:0:0:60:kick.wav
469,192,56646,1,0,0:0:0:0:
298,192,56774,1,0,0:0:0:60:kick.wav
469,192,56774,1,0,0:0:0:0:
42,192,57095,1,0,0:0:0:60:kick.wav
384,192,57095,1,0,0:0:0:0:
469,192,57095,1,0,0:0:0:0:
128,192,57143,1,0,0:0:0:60:kick.wav
213,192,57191,1,0,0:0:0:60:kick.wav
298,192,57239,1,0,0:0:0:60:kick.wav
42,192,57287,1,0,0:0:0:60:kick.wav
384,192,57287,1,0,0:0:0:0:
469,192,57287,1,0,0:0:0:0:
128,192,57480,1,0,0:0:0:60:kick.wav
213,192,57480,1,0,0:0:0:0:
384,192,57480,1,0,0:0:0:0:
42,192,57672,128,0,57800:0:0:0:70:snare.wav
213,192,57672,1,0,0:0:0:0:
298,192,57672,1,0,0:0:0:0:
469,192,57672,128,0,57800:0:0:0:0:
128,192,57800,128,0,57928:0:0:0:0:
384,192,57800,128,0,57928:0:0:0:0:
213,192,57928,128,0,58056:0:0:0:0:
298,192,57928,128,0,58056:0:0:0:0:
384,192,58056,1,0,0:0:0:60:kick.wav
469,192,58056,128,0,58153:0:0:0:0:
42,192,58153,128,0,58249:0:0:0:60:kick.wav
128,192,58153,1,0,0:0:0:0:
298,192,58249,1,0,0:0:0:60:kick.wav
384,192,58249,128,0,58345:0:0:0:0:
128,192,58345,128,0,58441:0:0:0:60:kick.wav
213,192,58345,1,0,0:0:0:0:
42,192,58441,1,0,0:0:0:100:cymbal.wav
469,192,58441,1,0,0:0:0:60:kick.wav
384,192,58489,1,0,0:0:0:60:kick.wav
298,192,58537,1,0,0:0:0:60:kick.wav
213,192,58585,1,0,0:0:0:60:kick.wav
42,192,58633,1,0,0:0:0:60:kick.wav
128,192,58633,1,0,0:0:0:0:
213,192,58730,1,0,0:0:0:60:kick.wav
298,192,58730,1,0,0:0:0:0:
384,192,58826,1,0,0:0:0:60:kick.wav
469,192,58826,1,0,0:0:0:0:
128,192,58954,1,0,0:0:0:60:kick.wav
213,192,58954,1,0,0:0:0:0:
298,192,59082,1,0,0:0:0:60:kick.wav
384,192,59082,1,0,0:0:0:0:
42,192,59210,1,0,0:0:0:70:snare.wav
128,192,59210,1,0,0:0:0:0:
213,192,59210,1,0,0:0:0:0:
469,192,59210,1,0,0:0:0:0:
298,192,59403,1,0,0:0:0:60:kick.wav
384,192,59403,128,0,59595:0:0:0:0:
469,192,59403,128,0,59595:0:0:0:0:
42,192,59691,128,0,59787:0:0:0:60:kick.wav
213,192,59691,128,0,59787:0:0:0:0:
384,192,59691,1,0,0:0:0:0:
42,192,59883,1,0,0:0:0:60:kick.wav
298,192,59883,128,0,59980:0:0:0:0:
469,192,59883,128,0,59980:0:0:0:0:
128,192,60076,128,0,60172:0:0:0:60:kick.wav
213,192,60076,1,0,0:0:0:0:
384,192,60076,128,0,60172:0:0:0:0:
42,192,60268,1,0,0:0:0:60:kick.wav
298,192,60268,128,0,60364:0:0:0:0:
469,192,60268,128,0,60364:0:0:0:0:
128,192,60316,1,0,0:0:0:60:kick.wav
213,192,60364,1,0,0:0:0:60:kick.wav
384,192,60460,128,0,60556:0:0:0:0:
469,192,60460,128,0,60556:0:0:0:0:
42,192,60556,128,0,60653:0:0:0:60:kick.wav
128,192,60556,128,0,60653:0:0:0:0:
42,192,60749,1,0,0:0:0:70:snare.wav
213,192,60749,1,0,0:0:0:0:
298,192,60749,1,0,0:0:0:0:
469,192,60749,1,0,0:0:0:0:
128,192,60941,1,0,0:0:0:60:kick.wav
298,192,60941,1,0,0:0:0:0:
384,192,60941,1,0,0:0:0:0:
384,192,61133,128,0,61518:0:0:0:0:
469,192,61133,128,0,61518:0:0:0:0:
42,192,61518,128,0,62287:0:0:0:60:kick.wav
128,192,61518,128,0,61710:0:0:0:0:
213,192,61518,128,0,61710:0:0:0:0:
298,192,61518,1,0,0:0:0:0:
298,192,61903,128,0,62095:0:0:0:60:kick.wav
384,192,61903,128,0,62095:0:0:0:0:
469,192,61903,1,0,0:0:0:0:
128,192,62287,1,0,0:0:0:70:snare.wav
213,192,62287,1,0,0:0:0:0:
384,192,62287,1,0,0:0:0:0:
469,192,62287,1,0,0:0:0:0:
298,192,62480,1,0,0:0:0:60:kick.wav
384,192,62480,128,0,62672:0:0:0:0:
469,192,62480,128,0,62672:0:0:0:0:
42,192,62768,128,0,62864:0:0:0:0:
213,192,62768,128,0,62864:0:0:0:0:
469,192,62864,128,0,63056:0:0:0:60:kick.wav
128,192,62960,128,0,63056:0:0:0:60:kick.wav
298,192,62960,128,0,63056:0:0:0:0:
384,192,63056,1,0,0:0:0:60:kick.wav
213,192,63153,128,0,63249:0:0:0:0:
469,192,63153,128,0,63249:0:0:0:0:
42,192,63345,128,0,63441:0:0:0:60:kick.wav
128,192,63345,1,0,0:0:0:0:
298,192,63345,128,0,63441:0:0:0:0:
384,192,63537,128,0,63633:0:0:0:60:kick.wav
469,192,63537,128,0,63633:0:0:0:0:
42,192,63633,128,0,63730:0:0:0:60:kick.wav
128,192,63633,128,0,63730:0:0:0:0:
298,192,63730,1,0,0:0:0:60:kick.wav
384,192,63778,1,0,0:0:0:60:kick.wav
42,192,63826,1,0,0:0:0:70:snare.wav
213,192,63826,1,0,0:0:0:0:
469,192,63826,1,0,0:0:0:0:
128,192,64018,128,0,64595:0:0:0:60:kick.wav
384,192,64018,128,0,64595:0:0:0:0:
42,192,64595,128,0,65172:0:0:0:100:cymbal.wav
213,192,64595,1,0,0:0:0:60:kick.wav
298,192,64595,1,0,0:0:0:0:
469,192,64595,128,0,65172:0:0:0:0:
128,192,65172,1,0,0:0:0:60:kick.wav
298,192,65172,1,0,0:0:0:0:
384,192,65172,1,0,0:0:0:0:
42,192,65364,1,0,0:0:0:70:snare.wav
213,192,65364,1,0,0:0:0:0:
298,192,65364,1,0,0:0:0:0:
469,192,65364,1,0,0:0:0:0:
128,192,65556,1,0,0:0:0:60:kick.wav
213,192,65556,1,0,0:0:0:0:
384,192,65653,1,0,0:0:0:60:kick.wav
469,192,65653,1,0,0:0:0:0:
42,192,65749,1,0,0:0:0:60:kick.wav
128,192,65749,1,0,0:0:0:0:
298,192,65749,1,0,0:0:0:0:
42,192,65941,1,0,0:0:0:60:kick.wav
128,192,65941,1,0,0:0:0:0:
298,192,65941,1,0,0:0:0:0:
298,192,66326,1,0,0:0:0:60:kick.wav
384,192,66326,1,0,0:0:0:0:
469,192,66326,1,0,0:0:0:0:
42,192,66374,1,0,0:0:0:60:kick.wav
128,192,66422,1,0,0:0:0:60:kick.wav
213,192,66470,1,0,0:0:0:60:kick.wav
298,192,66518,1,0,0:0:0:60:kick.wav
384,192,66518,1,0,0:0:0:0:
469,192,66518,1,0,0:0:0:0:
42,192,66710,1,0,0:0:0:60:kick.wav
128,192,66710,1,0,0:0:0:0:
213,192,66710,1,0,0:0:0:0:
42,192,66903,1,0,0:0:0:70:snare.wav
128,192,66903,1,0,0:0:0:0:
298,192,66903,1,0,0:0:0:0:
384,192,66903,1,0,0:0:0:0:
42,192,67095,1,0,0:0:0:60:kick.wav
213,192,67095,1,0,0:0:0:0:
469,192,67095,1,0,0:0:0:0:
384,192,67191,1,0,0:0:0:0:
469,192,67287,128,0,67672:0:0:0:0:
42,192,67672,1,0,0:0:0:60:kick.wav
213,192,67672,1,0,0:0:0:0:
298,192,67672,1,0,0:0:0:0:
42,192,67960,1,0,0:0:0:60:kick.wav
213,192,67960,1,0,0:0:0:0:
298,192,67960,1,0,0:0:0:0:
42,192,68153,1,0,0:0:0:60:kick.wav
213,192,68153,1,0,0:0:0:0:
298,192,68153,1,0,0:0:0:0:
128,192,68249,1,0,0:0:0:60:kick.wav
384,192,68249,1,0,0:0:0:0:
469,192,68249,1,0,0:0:0:0:
42,192,68441,1,0,0:0:0:70:snare.wav
213,192,68441,1,0,0:0:0:0:
298,192,68441,1,0,0:0:0:0:
469,192,68441,1,0,0:0:0:0:
128,192,68633,1,0,0:0:0:60:kick.wav
213,192,68633,1,0,0:0:0:0:
298,192,68730,1,0,0:0:0:60:kick.wav
384,192,68730,1,0,0:0:0:0:
128,192,68826,1,0,0:0:0:60:kick.wav
213,192,68826,1,0,0:0:0:0:
128,192,68954,1,0,0:0:0:60:kick.wav
213,192,68954,1,0,0:0:0:0:
128,192,69082,1,0,0:0:0:60:kick.wav
213,192,69082,1,0,0:0:0:0:
42,192,69403,1,0,0:0:0:60:kick.wav
384,192,69403,1,0,0:0:0:0:
469,192,69403,1,0,0:0:0:0:
298,192,69451,1,0,0:0:0:60:kick.wav
213,192,69499,1,0,0:0:0:60:kick.wav
128,192,69547,1,0,0:0:0:60:kick.wav
42,192,69595,1,0,0:0:0:60:kick.wav
384,192,69595,1,0,0:0:0:0:
469,192,69595,1,0,0:0:0:0:
128,192,69787,1,0,0:0:0:60:kick.wav
298,192,69787,1,0,0:0:0:0:
384,192,69787,1,0,0:0:0:0:
42,192,69980,128,0,70108:0:0:0:70:snare.wav
213,192,69980,128,0,70108:0:0:0:0:
298,192,70108,128,0,70236:0:0:0:0:
469,192,70108,128,0,70236:0:0:0:0:
42,192,70236,128,0,70364:0:0:0:0:
213,192,70236,128,0,70364:0:0:0:0:
384,192,70364,1,0,0:0:0:0:
128,192,70460,1,0,0:0:0:0:
384,192,70556,128,0,70749:0:0:0:0:
42,192,70749,1,0,0:0:0:100:cymbal.wav
469,192,70749,1,0,0:0:0:60:kick.wav
128,192,70797,1,0,0:0:0:60:kick.wav
213,192,70845,1,0,0:0:0:60:kick.wav
298,192,70893,1,0,0:0:0:60:kick.wav
384,192,70941,1,0,0:0:0:60:kick.wav
469,192,70941,1,0,0:0:0:0:
42,192,71037,1,0,0:0:0:60:kick.wav
128,192,71037,1,0,0:0:0:0:
298,192,71133,1,0,0:0:0:60:kick.wav
469,192,71133,1,0,0:0:0:0:
213,192,71262,1,0,0:0:0:60:kick.wav
384,192,71262,1,0,0:0:0:0:
128,192,71390,1,0,0:0:0:60:kick.wav
298,192,71390,1,0,0:0:0:0:
42,192,71518,1,0,0:0:0:70:snare.wav
213,192,71518,1,0,0:0:0:0:
384,192,71518,1,0,0:0:0:0:
469,192,71518,1,0,0:0:0:0:
42,192,71710,128,0,71903:0:0:0:60:kick.wav
128,192,71710,128,0,71903:0:0:0:0:
298,192,71710,1,0,0:0:0:0:
213,192,71999,1,0,0:0:0:60:kick.wav
298,192,71999,128,0,72095:0:0:0:0:
469,192,71999,128,0,72095:0:0:0:0:
42,192,72191,1,0,0:0:0:60:kick.wav
128,192,72191,128,0,72287:0:0:0:0:
384,192,72191,128,0,72287:0:0:0:0:
213,192,72383,128,0,72480:0:0:0:60:kick.wav
298,192,72383,128,0,72480:0:0:0:0:
469,192,72383,1,0,0:0:0:0:
42,192,72576,128,0,72672:0:0:0:60:kick.wav
128,192,72576,128,0,72672:0:0:0:0:
469,192,72576,1,0,0:0:0:0:
384,192,72624,1,0,0:0:0:60:kick.wav
298,192,72672,1,0,0:0:0:60:kick.wav
213,192,72768,128,0,72864:0:0:0:0:
469,192,72768,128,0,72864:0:0:0:0:
128,192,72864,128,0,72960:0:0:0:60:kick.wav
384,192,72864,128,0,72960:0:0:0:0:
42,192,73056,1,0,0:0:0:70:snare.wav
213,192,73056,1,0,0:0:0:0:
298,192,73056,1,0,0:0:0:0:
469,192,73056,1,0,0:0:0:0:
42,192,73249,1,0,0:0:0:60:kick.wav
128,192,73249,1,0,0:0:0:0:
384,192,73249,1,0,0:0:0:0:
213,192,73441,128,0,73826:0:0:0:0:
298,192,73441,128,0,73826:0:0:0:0:
42,192,73826,128,0,74018:0:0:0:60:kick.wav
128,192,73826,128,0,74018:0:0:0:0:
384,192,73826,1,0,0:0:0:0:
469,192,73826,128,0,74595:0:0:0:0:
213,192,74210,1,0,0:0:0:60:kick.wav
298,192,74210,128,0,74403:0:0:0:0:
384,192,74210,128,0,74403:0:0:0:0:
42,192,74595,1,0,0:0:0:70:snare.wav
128,192,74595,1,0,0:0:0:0:
213,192,74595,1,0,0:0:0:0:
384,192,74595,1,0,0:0:0:0:
42,192,74787,128,0,74980:0:0:0:60:kick.wav
128,192,74787,128,0,74980:0:0:0:0:
298,192,74787,1,0,0:0:0:0:
384,192,75076,128,0,75172:0:0:0:0:
469,192,75076,128,0,75172:0:0:0:0:
42,192,75172,128,0,75364:0:0:0:60:kick.wav
213,192,75268,128,0,75364:0:0:0:60:kick.wav
298,192,75268,128,0,75364:0:0:0:0:
384,192,75364,1,0,0:0:0:60:kick.wav
469,192,75364,1,0,0:0:0:0:
128,192,75460,128,0,75556:0:0:0:60:kick.wav
213,192,75460,128,0,75556:0:0:0:0:
384,192,75556,1,0,0:0:0:60:kick.wav
469,192,75556,1,0,0:0:0:0:
128,192,75653,128,0,75749:0:0:0:60:kick.wav
213,192,75653,128,0,75749:0:0:0:0:
384,192,75845,128,0,75941:0:0:0:60:kick.wav
469,192,75845,128,0,75941:0:0:0:0:
42,192,75941,128,0,76037:0:0:0:60:kick.wav
128,192,75941,128,0,76037:0:0:0:0:
298,192,76037,1,0,0:0:0:60:kick.wav
384,192,76085,1,0,0:0:0:60:kick.wav
42,192,76133,128,0,76518:0:0:0:70:snare.wav
128,192,76133,128,0,76454:0:0:0:0:
213,192,76133,128,0,76390:0:0:0:0:
469,192,76133,1,0,0:0:0:0:
469,192,76326,1,0,0:0:0:0:
384,192,76390,1,0,0:0:0:0:
298,192,76454,1,0,0:0:0:0:
213,192,76518,1,0,0:0:0:0:
128,192,76582,1,0,0:0:0:0:
42,192,76646,1,0,0:0:0:0:
42,192,76903,128,0,77095:0:0:0:100:cymbal.wav
213,192,76903,1,0,0:0:0:60:kick.wav
384,192,76903,128,0,77480:0:0:0:100:BassKickReverbXD.wav
469,192,76903,128,0,77480:0:0:0:0:
42,192,77287,128,0,77480:0:0:0:0:
128,192,77480,1,0,0:0:0:60:kick.wav
298,192,77480,1,0,0:0:0:0:
42,192,77672,128,0,77864:0:0:0:70:snare.wav
213,192,77672,1,0,0:0:0:0:
384,192,77672,1,0,0:0:0:0:
469,192,77672,1,0,0:0:0:0:
298,192,77864,1,0,0:0:0:60:kick.wav
469,192,77864,1,0,0:0:0:0:
213,192,77960,1,0,0:0:0:60:kick.wav
128,192,77960,1,0,0:0:0:0:
42,192,78056,128,0,78249:0:0:0:60:kick.wav
298,192,78056,1,0,0:0:0:0:
384,192,78056,1,0,0:0:0:0:
298,192,78249,1,0,0:0:0:60:kick.wav
384,192,78249,1,0,0:0:0:0:
469,192,78441,128,0,78633:0:0:0:0:
42,192,78633,1,0,0:0:0:60:kick.wav
384,192,78633,1,0,0:0:0:0:
128,192,78681,1,0,0:0:0:60:kick.wav
213,192,78730,1,0,0:0:0:60:kick.wav
298,192,78778,1,0,0:0:0:60:kick.wav
42,192,78826,1,0,0:0:0:60:kick.wav
384,192,78826,1,0,0:0:0:0:
469,192,78826,128,0,79018:0:0:0:0:
213,192,79018,1,0,0:0:0:60:kick.wav
298,192,79018,1,0,0:0:0:0:
42,192,79210,1,0,0:0:0:70:snare.wav
128,192,79210,1,0,0:0:0:0:
384,192,79210,1,0,0:0:0:0:
469,192,79210,128,0,79403:0:0:0:0:
42,192,79403,1,0,0:0:0:60:kick.wav
298,192,79403,128,0,79499:0:0:0:0:
213,192,79499,128,0,79595:0:0:0:0:
298,192,79595,128,0,79691:0:0:0:0:
469,192,79595,128,0,79787:0:0:0:0:
128,192,79691,1,0,0:0:0:60:kick.wav
213,192,79691,128,0,79787:0:0:0:0:
298,192,79787,128,0,79883:0:0:0:60:kick.wav
384,192,79787,1,0,0:0:0:0:
128,192,79883,1,0,0:0:0:60:kick.wav
213,192,79883,128,0,79980:0:0:0:0:
42,192,79980,128,0,80172:0:0:0:60:kick.wav
384,192,79980,1,0,0:0:0:0:
469,192,79980,1,0,0:0:0:0:
384,192,80268,1,0,0:0:0:60:kick.wav
469,192,80268,1,0,0:0:0:0:
42,192,80364,128,0,80556:0:0:0:0:
384,192,80460,1,0,0:0:0:60:kick.wav
469,192,80460,1,0,0:0:0:0:
213,192,80556,1,0,0:0:0:60:kick.wav
298,192,80556,1,0,0:0:0:0:
42,192,80749,128,0,80941:0:0:0:70:snare.wav
128,192,80749,1,0,0:0:0:0:
384,192,80749,1,0,0:0:0:0:
469,192,80749,1,0,0:0:0:0:
298,192,80941,1,0,0:0:0:60:kick.wav
384,192,80941,1,0,0:0:0:0:
128,192,81037,1,0,0:0:0:60:kick.wav
213,192,81037,1,0,0:0:0:0:
42,192,81133,128,0,81326:0:0:0:60:kick.wav
298,192,81133,1,0,0:0:0:0:
384,192,81133,1,0,0:0:0:0:
298,192,81262,1,0,0:0:0:60:kick.wav
384,192,81262,1,0,0:0:0:0:
298,192,81390,1,0,0:0:0:60:kick.wav
384,192,81390,1,0,0:0:0:0:
213,192,81518,128,0,81710:0:0:0:0:
42,192,81710,1,0,0:0:0:60:kick.wav
469,192,81710,1,0,0:0:0:0:
384,192,81758,1,0,0:0:0:60:kick.wav
298,192,81806,1,0,0:0:0:60:kick.wav
128,192,81855,1,0,0:0:0:60:kick.wav
42,192,81903,1,0,0:0:0:60:kick.wav
213,192,81903,128,0,82095:0:0:0:0:
469,192,81903,1,0,0:0:0:0:
298,192,82095,1,0,0:0:0:60:kick.wav
384,192,82095,1,0,0:0:0:0:
42,192,82287,1,0,0:0:0:70:snare.wav
128,192,82287,1,0,0:0:0:0:
213,192,82287,128,0,82480:0:0:0:0:
469,192,82287,128,0,82415:0:0:0:0:
384,192,82415,128,0,82544:0:0:0:0:
298,192,82544,128,0,82672:0:0:0:0:
42,192,82672,128,0,82768:0:0:0:60:kick.wav
128,192,82672,1,0,0:0:0:0:
213,192,82672,128,0,82864:0:0:0:0:
384,192,82768,1,0,0:0:0:60:kick.wav
469,192,82768,128,0,82864:0:0:0:0:
42,192,82864,1,0,0:0:0:60:kick.wav
128,192,82864,128,0,82960:0:0:0:0:
298,192,82960,1,0,0:0:0:60:kick.wav
384,192,82960,128,0,83056:0:0:0:0:
42,192,83056,1,0,0:0:0:100:cymbal.wav
469,192,83056,128,0,83249:0:0:0:60:kick.wav
128,192,83105,1,0,0:0:0:60:kick.wav
213,192,83153,1,0,0:0:0:60:kick.wav
298,192,83201,1,0,0:0:0:60:kick.wav
384,192,83249,1,0,0:0:0:60:kick.wav
42,192,83345,1,0,0:0:0:60:kick.wav
128,192,83345,1,0,0:0:0:0:
298,192,83441,1,0,0:0:0:60:kick.wav
384,192,83441,1,0,0:0:0:0:
469,192,83441,128,0,83633:0:0:0:0:
128,192,83569,1,0,0:0:0:60:kick.wav
213,192,83569,1,0,0:0:0:0:
298,192,83697,1,0,0:0:0:60:kick.wav
384,192,83697,1,0,0:0:0:0:
42,192,83826,1,0,0:0:0:70:snare.wav
128,192,83826,1,0,0:0:0:0:
213,192,83826,1,0,0:0:0:0:
469,192,83826,128,0,84018:0:0:0:0:
42,192,84018,1,0,0:0:0:60:kick.wav
298,192,84018,1,0,0:0:0:0:
469,192,84210,128,0,84403:0:0:0:0:
128,192,84306,1,0,0:0:0:60:kick.wav
213,192,84306,1,0,0:0:0:0:
42,192,84499,1,0,0:0:0:60:kick.wav
128,192,84499,1,0,0:0:0:0:
384,192,84595,128,0,84787:0:0:0:0:
42,192,84691,1,0,0:0:0:60:kick.wav
213,192,84691,1,0,0:0:0:0:
298,192,84883,1,0,0:0:0:60:kick.wav
213,192,84931,1,0,0:0:0:60:kick.wav
42,192,84980,1,0,0:0:0:60:kick.wav
128,192,84980,1,0,0:0:0:0:
384,192,84980,128,0,85172:0:0:0:0:
213,192,85172,1,0,0:0:0:60:kick.wav
298,192,85172,1,0,0:0:0:0:
42,192,85364,1,0,0:0:0:70:snare.wav
128,192,85364,1,0,0:0:0:0:
384,192,85364,128,0,85556:0:0:0:0:
469,192,85364,1,0,0:0:0:0:
213,192,85556,1,0,0:0:0:60:kick.wav
298,192,85556,1,0,0:0:0:0:
42,192,85749,128,0,86133:0:0:0:0:
128,192,85749,128,0,86133:0:0:0:0:
384,192,85749,128,0,85941:0:0:0:0:
213,192,86133,128,0,86326:0:0:0:60:kick.wav
298,192,86133,1,0,0:0:0:0:
384,192,86133,1,0,0:0:0:0:
469,192,86133,128,0,86903:0:0:0:0:
128,192,86518,1,0,0:0:0:60:kick.wav
213,192,86518,128,0,86710:0:0:0:0:
298,192,86518,1,0,0:0:0:0:
42,192,86903,1,0,0:0:0:70:snare.wav
128,192,86903,1,0,0:0:0:0:
213,192,86903,128,0,87095:0:0:0:0:
384,192,86903,1,0,0:0:0:0:
298,192,87095,1,0,0:0:0:60:kick.wav
469,192,87095,1,0,0:0:0:0:
213,192,87287,128,0,87480:0:0:0:0:
42,192,87480,1,0,0:0:0:60:kick.wav
469,192,87480,1,0,0:0:0:0:
384,192,87528,1,0,0:0:0:60:kick.wav
298,192,87576,1,0,0:0:0:60:kick.wav
213,192,87624,1,0,0:0:0:60:kick.wav
42,192,87672,1,0,0:0:0:60:kick.wav
128,192,87672,128,0,87864:0:0:0:0:
469,192,87672,1,0,0:0:0:0:
298,192,87960,1,0,0:0:0:60:kick.wav
469,192,87960,1,0,0:0:0:0:
128,192,88056,128,0,88249:0:0:0:0:
384,192,88153,1,0,0:0:0:60:kick.wav
469,192,88249,1,0,0:0:0:60:kick.wav
298,192,88345,1,0,0:0:0:60:kick.wav
384,192,88393,1,0,0:0:0:60:kick.wav
42,192,88441,1,0,0:0:0:70:snare.wav
128,192,88441,128,0,88633:0:0:0:0:
213,192,88441,1,0,0:0:0:0:
469,192,88441,1,0,0:0:0:0:
298,192,88633,128,0,89210:0:0:0:60:kick.wav
384,192,88633,1,0,0:0:0:0:
128,192,88826,128,0,89018:0:0:0:0:
42,192,89210,128,0,89787:0:0:0:100:cymbal.wav
213,192,89210,1,0,0:0:0:60:kick.wav
384,192,89210,128,0,89403:0:0:0:0:
469,192,89210,128,0,89787:0:0:0:0:
298,192,89403,128,0,89595:0:0:0:0:
128,192,89595,128,0,89787:0:0:0:0:
213,192,89787,128,0,89980:0:0:0:60:kick.wav
384,192,89787,1,0,0:0:0:0:
42,192,89980,1,0,0:0:0:70:snare.wav
298,192,89980,1,0,0:0:0:0:
469,192,89980,1,0,0:0:0:0:
42,192,90172,1,0,0:0:0:60:kick.wav
384,192,90172,128,0,90364:0:0:0:0:
128,192,90268,1,0,0:0:0:60:kick.wav
213,192,90364,1,0,0:0:0:60:kick.wav
298,192,90364,128,0,90556:0:0:0:0:
469,192,90364,1,0,0:0:0:0:
42,192,90556,1,0,0:0:0:60:kick.wav
128,192,90556,128,0,90749:0:0:0:0:
384,192,90749,128,0,90941:0:0:0:0:
42,192,90941,1,0,0:0:0:60:kick.wav
469,192,90941,128,0,91133:0:0:0:0:
128,192,90989,1,0,0:0:0:60:kick.wav
213,192,91037,1,0,0:0:0:60:kick.wav
298,192,91085,1,0,0:0:0:60:kick.wav
42,192,91133,128,0,91326:0:0:0:60:kick.wav
384,192,91133,1,0,0:0:0:0:
128,192,91326,1,0,0:0:0:60:kick.wav
298,192,91326,128,0,91518:0:0:0:0:
213,192,91518,1,0,0:0:0:70:snare.wav
384,192,91518,1,0,0:0:0:0:
469,192,91518,1,0,0:0:0:0:
42,192,91710,1,0,0:0:0:60:kick.wav
298,192,91710,1,0,0:0:0:0:
469,192,91710,128,0,91903:0:0:0:0:
128,192,91806,1,0,0:0:0:0:
42,192,91903,128,0,92287:0:0:0:0:
384,192,91903,128,0,92095:0:0:0:0:
298,192,92095,128,0,92287:0:0:0:0:
128,192,92287,128,0,92480:0:0:0:60:kick.wav
384,192,92287,1,0,0:0:0:0:
469,192,92287,1,0,0:0:0:0:
213,192,92480,128,0,92672:0:0:0:0:
384,192,92576,1,0,0:0:0:60:kick.wav
469,192,92576,1,0,0:0:0:0:
42,192,92672,128,0,92864:0:0:0:0:
384,192,92768,1,0,0:0:0:60:kick.wav
469,192,92768,1,0,0:0:0:0:
128,192,92864,1,0,0:0:0:60:kick.wav
213,192,92864,128,0,93056:0:0:0:0:
42,192,93056,1,0,0:0:0:70:snare.wav
384,192,93056,1,0,0:0:0:0:
469,192,93056,1,0,0:0:0:0:
298,192,93249,1,0,0:0:0:60:kick.wav
469,192,93249,128,0,93441:0:0:0:0:
213,192,93345,1,0,0:0:0:60:kick.wav
42,192,93441,1,0,0:0:0:60:kick.wav
128,192,93441,1,0,0:0:0:0:
384,192,93441,128,0,93633:0:0:0:0:
42,192,93569,1,0,0:0:0:60:kick.wav
128,192,93569,1,0,0:0:0:0:
298,192,93633,128,0,93826:0:0:0:0:
42,192,93697,1,0,0:0:0:60:kick.wav
128,192,93697,1,0,0:0:0:0:
469,192,93826,128,0,94018:0:0:0:0:
42,192,94018,128,0,94210:0:0:0:60:kick.wav
384,192,94018,1,0,0:0:0:0:
298,192,94066,1,0,0:0:0:60:kick.wav
213,192,94114,1,0,0:0:0:60:kick.wav
128,192,94162,1,0,0:0:0:60:kick.wav
384,192,94210,1,0,0:0:0:60:kick.wav
469,192,94210,128,0,94403:0:0:0:0:
213,192,94403,1,0,0:0:0:60:kick.wav
298,192,94403,128,0,94595:0:0:0:0:
42,192,94595,128,0,94723:0:0:0:70:snare.wav
384,192,94595,1,0,0:0:0:0:
469,192,94595,1,0,0:0:0:0:
213,192,94723,128,0,94851:0:0:0:0:
298,192,94787,128,0,94980:0:0:0:60:kick.wav
42,192,94851,128,0,94980:0:0:0:0:
128,192,94980,128,0,95076:0:0:0:0:
384,192,94980,128,0,95172:0:0:0:0:
213,192,95076,128,0,95172:0:0:0:0:
298,192,95172,128,0,95364:0:0:0:0:
469,192,95172,128,0,95364:0:0:0:0:
42,192,95364,128,0,95556:0:0:0:100:cymbal.wav
384,192,95364,1,0,0:0:0:60:kick.wav
128,192,95412,1,0,0:0:0:60:kick.wav
213,192,95460,1,0,0:0:0:60:kick.wav
298,192,95508,1,0,0:0:0:60:kick.wav
384,192,95556,1,0,0:0:0:60:kick.wav
469,192,95556,128,0,95749:0:0:0:0:
213,192,95653,1,0,0:0:0:60:kick.wav
42,192,95749,128,0,95941:0:0:0:60:kick.wav
298,192,95749,1,0,0:0:0:0:
384,192,95877,1,0,0:0:0:60:kick.wav
128,192,95941,128,0,96133:0:0:0:0:
298,192,96005,1,0,0:0:0:60:kick.wav
213,192,96133,1,0,0:0:0:70:snare.wav
384,192,96133,1,0,0:0:0:0:
469,192,96133,1,0,0:0:0:0:
42,192,96326,1,0,0:0:0:60:kick.wav
128,192,96326,1,0,0:0:0:0:
469,192,96326,128,0,96518:0:0:0:0:
384,192,96518,128,0,96710:0:0:0:0:
42,192,96614,1,0,0:0:0:60:kick.wav
128,192,96614,1,0,0:0:0:0:
298,192,96710,128,0,96903:0:0:0:0:
42,192,96806,1,0,0:0:0:60:kick.wav
128,192,96806,1,0,0:0:0:0:
469,192,96903,128,0,97095:0:0:0:0:
42,192,96999,1,0,0:0:0:60:kick.wav
128,192,96999,1,0,0:0:0:0:
384,192,97095,128,0,97287:0:0:0:0:
298,192,97191,1,0,0:0:0:60:kick.wav
213,192,97239,1,0,0:0:0:60:kick.wav
42,192,97287,1,0,0:0:0:60:kick.wav
128,192,97287,128,0,97480:0:0:0:0:
298,192,97480,128,0,97672:0:0:0:60:kick.wav
384,192,97480,1,0,0:0:0:0:
42,192,97672,1,0,0:0:0:70:snare.wav
213,192,97672,1,0,0:0:0:0:
469,192,97672,1,0,0:0:0:0:
128,192,97864,1,0,0:0:0:60:kick.wav
298,192,97864,128,0,98056:0:0:0:0:
42,192,98056,128,0,98441:0:0:0:0:
213,192,98056,128,0,98441:0:0:0:0:
469,192,98056,128,0,98249:0:0:0:0:
384,192,98249,128,0,98441:0:0:0:0:
128,192,98441,1,0,0:0:0:60:kick.wav
298,192,98441,128,0,98633:0:0:0:0:
469,192,98441,128,0,99210:0:0:0:0:
42,192,98633,128,0,98826:0:0:0:0:
213,192,98826,128,0,99018:0:0:0:60:kick.wav
384,192,98826,1,0,0:0:0:0:
42,192,99018,128,0,99210:0:0:0:0:
128,192,99210,1,0,0:0:0:70:snare.wav
213,192,99210,1,0,0:0:0:0:
298,192,99210,1,0,0:0:0:0:
384,192,99403,128,0,99595:0:0:0:60:kick.wav
469,192,99403,1,0,0:0:0:0:
213,192,99595,128,0,99787:0:0:0:0:
42,192,99787,128,0,99980:0:0:0:60:kick.wav
469,192,99787,1,0,0:0:0:0:
384,192,99835,1,0,0:0:0:60:kick.wav
298,192,99883,1,0,0:0:0:60:kick.wav
213,192,99931,1,0,0:0:0:60:kick.wav
128,192,99980,1,0,0:0:0:60:kick.wav
469,192,99980,128,0,100172:0:0:0:0:
384,192,100076,1,0,0:0:0:60:kick.wav
42,192,100172,128,0,100364:0:0:0:60:kick.wav
213,192,100172,1,0,0:0:0:0:
298,192,100268,1,0,0:0:0:60:kick.wav
384,192,100364,128,0,100556:0:0:0:0:
213,192,100460,1,0,0:0:0:60:kick.wav
128,192,100556,128,0,100749:0:0:0:60:kick.wav
298,192,100556,1,0,0:0:0:0:
213,192,100653,1,0,0:0:0:60:kick.wav
298,192,100701,1,0,0:0:0:60:kick.wav
42,192,100749,128,0,101518:0:0:0:70:snare.wav
384,192,100749,1,0,0:0:0:0:
469,192,100749,128,0,101518:0:0:0:0:
213,192,100941,128,0,101133:0:0:0:0:
298,192,101133,1,0,0:0:0:0:
128,192,101518,1,0,0:0:0:100:cymbal.wav
213,192,101518,1,0,0:0:0:60:kick.wav
298,192,101518,1,0,0:0:0:90:A#5.wav
384,192,101518,1,0,0:0:0:100:BassKickReverbXD.wav
384,192,102287,1,0,0:0:0:90:A5.wav
213,192,102672,1,0,0:0:0:90:F5.wav
298,192,103056,1,0,0:0:0:90:G5.wav
384,192,103633,1,0,0:0:0:90:F5.wav
213,192,103730,1,0,0:0:0:90:D#5.wav
42,192,103826,1,0,0:0:0:90:D5.wav
42,192,104403,1,0,0:0:0:90:D5.wav
213,192,104595,1,0,0:0:0:90:D#5.wav
128,192,105172,1,0,0:0:0:90:D#5.wav
213,192,105268,1,0,0:0:0:90:F5.wav
298,192,105364,1,0,0:0:0:90:G5.wav
128,192,105556,1,0,0:0:0:90:D#5.wav
298,192,105749,1,0,0:0:0:90:G5.wav
384,192,105941,1,0,0:0:0:90:A5.wav
469,192,106133,1,0,0:0:0:90:A#5.wav
384,192,106710,1,0,0:0:0:90:A5.wav
298,192,106806,1,0,0:0:0:90:G5.wav
128,192,106903,1,0,0:0:0:90:F#5.wav
213,192,107095,1,0,0:0:0:90:G5.wav
298,192,107287,1,0,0:0:0:90:A5.wav
42,192,107480,1,0,0:0:0:90:D5.wav
384,192,107672,1,0,0:0:0:90:A#5.wav
42,192,108249,1,0,0:0:0:90:A5.wav
128,192,108345,1,0,0:0:0:90:A#5.wav
298,192,108441,1,0,0:0:0:90:C6.wav
128,192,108730,1,0,0:0:0:90:A#5.wav
298,192,109018,1,0,0:0:0:90:C6.wav
469,192,109210,1,0,0:0:0:90:D6.wav
298,192,109787,1,0,0:0:0:90:C6.wav
384,192,109883,1,0,0:0:0:90:D6.wav
469,192,109980,1,0,0:0:0:90:D#6.wav
42,192,110172,1,0,0:0:0:90:A#5.wav
213,192,110364,1,0,0:0:0:90:C6.wav
469,192,110556,1,0,0:0:0:90:D#6.wav
384,192,110749,1,0,0:0:0:90:D6.wav
298,192,111710,1,0,0:0:0:90:A5.wav
213,192,112095,1,0,0:0:0:90:G5.wav
128,192,112287,1,0,0:0:0:90:F#5.wav
42,192,112672,1,0,0:0:0:90:D5.wav
384,192,113056,1,0,0:0:0:90:D6.wav
128,192,113441,1,0,0:0:0:90:A5.wav
213,192,113537,1,0,0:0:0:90:C6.wav
42,192,113633,1,0,0:0:0:60:kick.wav
298,192,113633,1,0,0:0:0:90:D6.wav
384,192,113730,1,0,0:0:0:90:F#6.wav
42,192,113826,1,0,0:0:0:100:cymbal.wav
128,192,113826,1,0,0:0:0:60:kick.wav
213,192,113826,1,0,0:0:0:90:G6.wav
469,192,113826,1,0,0:0:0:100:BassKickReverbXD.wav
469,192,114210,1,0,0:0:0:50:clap.wav
384,192,114403,1,0,0:0:0:90:G6.wav
298,192,114595,1,0,0:0:0:90:F6.wav
42,192,114787,1,0,0:0:0:90:C6.wav
128,192,114980,1,0,0:0:0:90:D6.wav
469,192,114980,1,0,0:0:0:50:clap.wav
213,192,115172,1,0,0:0:0:90:D#6.wav
213,192,115364,1,0,0:0:0:90:D#6.wav
298,192,115653,1,0,0:0:0:90:F6.wav
469,192,115749,1,0,0:0:0:50:clap.wav
213,192,115941,1,0,0:0:0:90:D#6.wav
128,192,116133,1,0,0:0:0:90:D6.wav
469,192,116518,1,0,0:0:0:50:clap.wav
128,192,116710,1,0,0:0:0:90:D6.wav
42,192,116903,1,0,0:0:0:100:cymbal.wav
213,192,116903,1,0,0:0:0:60:kick.wav
384,192,116903,1,0,0:0:0:90:C6.wav
469,192,116903,1,0,0:0:0:0:
213,192,117287,1,0,0:0:0:90:D6.wav
469,192,117287,1,0,0:0:0:50:clap.wav
298,192,117480,1,0,0:0:0:90:D#6.wav
213,192,117672,1,0,0:0:0:90:D6.wav
128,192,118056,1,0,0:0:0:90:A5.wav
469,192,118056,1,0,0:0:0:50:clap.wav
42,192,118441,1,0,0:0:0:60:kick.wav
213,192,118441,1,0,0:0:0:90:C6.wav
384,192,118441,1,0,0:0:0:0:
298,192,118826,1,0,0:0:0:90:A#5.wav
469,192,118826,1,0,0:0:0:50:clap.wav
42,192,119210,1,0,0:0:0:60:kick.wav
128,192,119210,1,0,0:0:0:90:A5.wav
384,192,119210,1,0,0:0:0:0:
298,192,119595,1,0,0:0:0:90:A#5.wav
469,192,119595,1,0,0:0:0:50:clap.wav
42,192,119787,1,0,0:0:0:60:kick.wav
128,192,119787,1,0,0:0:0:0:
213,192,119787,1,0,0:0:0:0:
42,192,119980,1,0,0:0:0:100:cymbal.wav
128,192,119980,1,0,0:0:0:60:kick.wav
213,192,119980,1,0,0:0:0:90:G5.wav
469,192,119980,1,0,0:0:0:0:
469,192,120364,1,0,0:0:0:50:clap.wav
128,192,120556,1,0,0:0:0:90:E5.wav
213,192,120653,1,0,0:0:0:90:E5.wav
42,192,120749,1,0,0:0:0:60:kick.wav
128,192,120749,1,0,0:0:0:90:E5.wav
384,192,120749,1,0,0:0:0:0:
469,192,121133,1,0,0:0:0:50:clap.wav
384,192,121326,1,0,0:0:0:90:C6.wav
298,192,121422,1,0,0:0:0:90:C6.wav
42,192,121518,1,0,0:0:0:100:cymbal.wav
128,192,121518,1,0,0:0:0:60:kick.wav
384,192,121518,1,0,0:0:0:90:C6.wav
469,192,121518,1,0,0:0:0:0:
469,192,121903,1,0,0:0:0:50:clap.wav
42,192,122287,1,0,0:0:0:60:kick.wav
213,192,122287,1,0,0:0:0:90:D6.wav
298,192,122287,1,0,0:0:0:0:
384,192,122672,1,0,0:0:0:90:E6.wav
469,192,122672,1,0,0:0:0:50:clap.wav
42,192,122864,1,0,0:0:0:60:kick.wav
128,192,122864,1,0,0:0:0:0:
298,192,122864,1,0,0:0:0:0:
42,192,123056,1,0,0:0:0:100:cymbal.wav
213,192,123056,1,0,0:0:0:60:kick.wav
384,192,123056,1,0,0:0:0:90:G6.wav
469,192,123056,1,0,0:0:0:0:
128,192,123441,1,0,0:0:0:60:kick.wav
298,192,123441,1,0,0:0:0:50:clap.wav
469,192,123441,1,0,0:0:0:0:
42,192,123826,1,0,0:0:0:100:cymbal.wav
128,192,123826,1,0,0:0:0:60:kick.wav
298,192,123826,1,0,0:0:0:0:
384,192,123826,1,0,0:0:0:0:
42,192,124210,1,0,0:0:0:60:kick.wav
213,192,124210,1,0,0:0:0:50:clap.wav
469,192,124210,1,0,0:0:0:0:
128,192,124403,1,0,0:0:0:60:kick.wav
384,192,124403,1,0,0:0:0:90:A6.wav
298,192,124499,1,0,0:0:0:90:G6.wav
42,192,124595,1,0,0:0:0:100:cymbal.wav
213,192,124595,1,0,0:0:0:60:kick.wav
384,192,124595,1,0,0:0:0:90:F#6.wav
469,192,124595,1,0,0:0:0:0:
128,192,124787,1,0,0:0:0:60:kick.wav
298,192,124787,1,0,0:0:0:0:
384,192,124787,1,0,0:0:0:0:
42,192,124980,1,0,0:0:0:100:cymbal.wav
213,192,124980,1,0,0:0:0:60:kick.wav
298,192,124980,1,0,0:0:0:50:clap.wav
469,192,124980,1,0,0:0:0:0:
128,192,125172,1,0,0:0:0:60:kick.wav
213,192,125172,1,0,0:0:0:0:
384,192,125172,1,0,0:0:0:0:
42,192,125364,1,0,0:0:0:100:cymbal.wav
298,192,125364,1,0,0:0:0:60:kick.wav
469,192,125364,1,0,0:0:0:0:
128,192,125460,1,0,0:0:0:60:kick.wav
213,192,125460,1,0,0:0:0:0:
384,192,125556,1,0,0:0:0:60:kick.wav
469,192,125556,1,0,0:0:0:0:
42,192,125653,1,0,0:0:0:60:kick.wav
128,192,125653,1,0,0:0:0:0:
213,192,125749,1,0,0:0:0:100:cymbal.wav
298,192,125749,1,0,0:0:0:60:kick.wav
469,192,125749,1,0,0:0:0:50:clap.wav
128,192,125845,1,0,0:0:0:60:kick.wav
384,192,125845,1,0,0:0:0:0:
42,192,125941,1,0,0:0:0:60:kick.wav
298,192,125941,1,0,0:0:0:0:
213,192,126037,1,0,0:0:0:60:kick.wav
384,192,126037,1,0,0:0:0:0:
42,192,126133,1,0,0:0:0:100:cymbal.wav
128,192,126133,1,0,0:0:0:60:kick.wav
469,192,126133,1,0,0:0:0:0:
384,192,126326,1,0,0:0:0:0:
298,192,126422,1,0,0:0:0:0:
384,192,126518,1,0,0:0:0:0:
128,192,126614,1,0,0:0:0:0:
213,192,126710,1,0,0:0:0:0:
128,192,126806,1,0,0:0:0:0:
469,192,126903,128,0,127287:0:0:0:0:
42,192,127287,128,0,127672:0:0:0:0:
128,192,127672,1,0,0:0:0:100:cymbal.wav
298,192,127672,1,0,0:0:0:60:kick.wav
384,192,127672,1,0,0:0:0:100:BassKickReverbXD.wav
469,192,127672,1,0,0:0:0:0:
213,192,127768,1,0,0:0:0:0:
42,192,127864,1,0,0:0:0:0:
298,192,127864,1,0,0:0:0:0:
384,192,127960,1,0,0:0:0:0:
42,192,128056,1,0,0:0:0:60:kick.wav
128,192,128056,1,0,0:0:0:50:clap.wav
469,192,128056,1,0,0:0:0:0:
298,192,128153,1,0,0:0:0:0:
213,192,128249,1,0,0:0:0:0:
384,192,128249,1,0,0:0:0:0:
128,192,128345,1,0,0:0:0:0:
42,192,128441,1,0,0:0:0:60:kick.wav
384,192,128441,1,0,0:0:0:0:
469,192,128441,1,0,0:0:0:0:
298,192,128537,1,0,0:0:0:0:
128,192,128633,1,0,0:0:0:0:
213,192,128633,1,0,0:0:0:0:
469,192,128730,1,0,0:0:0:0:
42,192,128826,1,0,0:0:0:60:kick.wav
298,192,128826,1,0,0:0:0:50:clap.wav
384,192,128826,1,0,0:0:0:0:
128,192,128922,1,0,0:0:0:0:
213,192,129018,1,0,0:0:0:0:
469,192,129018,1,0,0:0:0:0:
298,192,129114,1,0,0:0:0:0:
42,192,129210,1,0,0:0:0:60:kick.wav
384,192,129210,1,0,0:0:0:0:
469,192,129210,1,0,0:0:0:0:
128,192,129306,1,0,0:0:0:0:
213,192,129403,1,0,0:0:0:0:
298,192,129403,1,0,0:0:0:0:
469,192,129499,1,0,0:0:0:0:
42,192,129595,1,0,0:0:0:60:kick.wav
128,192,129595,1,0,0:0:0:50:clap.wav
384,192,129595,1,0,0:0:0:0:
298,192,129691,1,0,0:0:0:0:
213,192,129787,1,0,0:0:0:0:
469,192,129787,1,0,0:0:0:0:
128,192,129883,1,0,0:0:0:0:
384,192,129883,1,0,0:0:0:0:
42,192,129980,1,0,0:0:0:60:kick.wav
213,192,129980,1,0,0:0:0:0:
298,192,129980,1,0,0:0:0:0:
469,192,130076,1,0,0:0:0:0:
128,192,130172,1,0,0:0:0:0:
384,192,130172,1,0,0:0:0:0:
298,192,130268,1,0,0:0:0:0:
42,192,130364,1,0,0:0:0:60:kick.wav
213,192,130364,1,0,0:0:0:50:clap.wav
469,192,130364,1,0,0:0:0:0:
384,192,130460,1,0,0:0:0:0:
128,192,130556,1,0,0:0:0:0:
298,192,130556,1,0,0:0:0:0:
384,192,130653,1,0,0:0:0:0:
42,192,130749,1,0,0:0:0:60:kick.wav
213,192,130749,1,0,0:0:0:0:
469,192,130749,1,0,0:0:0:0:
298,192,130845,1,0,0:0:0:0:
128,192,130941,1,0,0:0:0:0:
384,192,130941,1,0,0:0:0:0:
213,192,131037,1,0,0:0:0:0:
42,192,131133,1,0,0:0:0:60:kick.wav
298,192,131133,1,0,0:0:0:50:clap.wav
469,192,131133,1,0,0:0:0:0:
128,192,131230,1,0,0:0:0:0:
384,192,131326,1,0,0:0:0:0:
469,192,131326,1,0,0:0:0:0:
213,192,131422,1,0,0:0:0:0:
298,192,131422,1,0,0:0:0:0:
42,192,131518,1,0,0:0:0:60:kick.wav
128,192,131518,1,0,0:0:0:0:
469,192,131518,1,0,0:0:0:0:
42,192,131710,1,0,0:0:0:0:
213,192,131710,1,0,0:0:0:0:
384,192,131710,1,0,0:0:0:0:
128,192,131903,1,0,0:0:0:60:kick.wav
298,192,131903,1,0,0:0:0:50:clap.wav
469,192,131903,1,0,0:0:0:0:
42,192,132095,1,0,0:0:0:0:
298,192,132095,1,0,0:0:0:0:
469,192,132095,1,0,0:0:0:0:
42,192,132287,1,0,0:0:0:60:kick.wav
128,192,132287,1,0,0:0:0:0:
384,192,132287,1,0,0:0:0:0:
298,192,132383,1,0,0:0:0:0:
213,192,132480,1,0,0:0:0:0:
469,192,132480,1,0,0:0:0:0:
128,192,132576,1,0,0:0:0:0:
42,192,132672,1,0,0:0:0:60:kick.wav
384,192,132672,1,0,0:0:0:50:clap.wav
469,192,132672,1,0,0:0:0:0:
298,192,132768,1,0,0:0:0:0:
128,192,132864,1,0,0:0:0:60:kick.wav
213,192,132864,1,0,0:0:0:0:
384,192,132960,1,0,0:0:0:60:kick.wav
469,192,132960,1,0,0:0:0:0:
42,192,133056,1,0,0:0:0:60:kick.wav
128,192,133056,1,0,0:0:0:0:
298,192,133153,1,0,0:0:0:60:kick.wav
469,192,133153,1,0,0:0:0:0:
42,192,133249,1,0,0:0:0:60:kick.wav
213,192,133249,1,0,0:0:0:0:
298,192,133441,1,0,0:0:0:60:kick.wav
384,192,133441,1,0,0:0:0:50:clap.wav
469,192,133441,1,0,0:0:0:0:
42,192,133633,1,0,0:0:0:60:kick.wav
128,192,133633,1,0,0:0:0:0:
213,192,133730,1,0,0:0:0:60:kick.wav
298,192,133730,1,0,0:0:0:0:
42,192,133826,1,0,0:0:0:100:cymbal.wav
128,192,133826,1,0,0:0:0:60:kick.wav
384,192,133826,1,0,0:0:0:0:
469,192,133826,1,0,0:0:0:0:
213,192,133922,1,0,0:0:0:0:
42,192,134018,1,0,0:0:0:0:
298,192,134018,1,0,0:0:0:0:
128,192,134114,1,0,0:0:0:0:
213,192,134210,1,0,0:0:0:60:kick.wav
384,192,134210,1,0,0:0:0:50:clap.wav
469,192,134210,1,0,0:0:0:0:
42,192,134306,1,0,0:0:0:0:
298,192,134403,1,0,0:0:0:0:
384,192,134403,1,0,0:0:0:0:
128,192,134499,1,0,0:0:0:0:
213,192,134499,1,0,0:0:0:0:
42,192,134595,1,0,0:0:0:60:kick.wav
384,192,134595,1,0,0:0:0:0:
469,192,134595,1,0,0:0:0:0:
298,192,134691,1,0,0:0:0:0:
213,192,134787,1,0,0:0:0:0:
128,192,134883,1,0,0:0:0:0:
384,192,134883,1,0,0:0:0:0:
42,192,134980,1,0,0:0:0:60:kick.wav
298,192,134980,1,0,0:0:0:50:clap.wav
469,192,134980,1,0,0:0:0:0:
213,192,135076,1,0,0:0:0:0:
128,192,135172,1,0,0:0:0:0:
384,192,135172,1,0,0:0:0:0:
298,192,135268,1,0,0:0:0:0:
42,192,135364,1,0,0:0:0:60:kick.wav
213,192,135364,1,0,0:0:0:0:
469,192,135364,1,0,0:0:0:0:
298,192,135460,1,0,0:0:0:0:
128,192,135556,1,0,0:0:0:0:
384,192,135556,1,0,0:0:0:0:
213,192,135653,1,0,0:0:0:0:
42,192,135749,1,0,0:0:0:60:kick.wav
298,192,135749,1,0,0:0:0:50:clap.wav
469,192,135749,1,0,0:0:0:0:
128,192,135941,1,0,0:0:0:0:
213,192,135941,1,0,0:0:0:0:
298,192,136037,1,0,0:0:0:0:
384,192,136037,1,0,0:0:0:0:
42,192,136133,1,0,0:0:0:60:kick.wav
213,192,136133,1,0,0:0:0:0:
469,192,136133,1,0,0:0:0:0:
128,192,136326,1,0,0:0:0:0:
298,192,136326,1,0,0:0:0:0:
384,192,136326,1,0,0:0:0:0:
42,192,136518,1,0,0:0:0:60:kick.wav
213,192,136518,1,0,0:0:0:50:clap.wav
469,192,136518,1,0,0:0:0:0:
128,192,136710,1,0,0:0:0:60:kick.wav
298,192,136710,1,0,0:0:0:0:
469,192,136710,1,0,0:0:0:0:
42,192,136903,1,0,0:0:0:60:kick.wav
213,192,136903,1,0,0:0:0:0:
384,192,136903,1,0,0:0:0:0:
469,192,136999,1,0,0:0:0:0:
128,192,137095,1,0,0:0:0:0:
298,192,137095,1,0,0:0:0:0:
384,192,137191,1,0,0:0:0:0:
42,192,137287,1,0,0:0:0:60:kick.wav
213,192,137287,1,0,0:0:0:50:clap.wav
469,192,137287,1,0,0:0:0:0:
298,192,137383,1,0,0:0:0:0:
128,192,137480,1,0,0:0:0:0:
384,192,137480,1,0,0:0:0:0:
213,192,137576,1,0,0:0:0:0:
42,192,137672,1,0,0:0:0:60:kick.wav
298,192,137672,1,0,0:0:0:0:
469,192,137672,1,0,0:0:0:0:
213,192,137768,1,0,0:0:0:0:
128,192,137864,1,0,0:0:0:0:
384,192,137864,1,0,0:0:0:0:
298,192,137960,1,0,0:0:0:0:
42,192,138056,1,0,0:0:0:60:kick.wav
213,192,138056,1,0,0:0:0:50:clap.wav
469,192,138056,1,0,0:0:0:0:
298,192,138249,1,0,0:0:0:0:
384,192,138249,1,0,0:0:0:0:
128,192,138345,1,0,0:0:0:60:kick.wav
213,192,138345,1,0,0:0:0:0:
42,192,138441,1,0,0:0:0:60:kick.wav
384,192,138441,1,0,0:0:0:0:
469,192,138441,1,0,0:0:0:0:
128,192,138633,1,0,0:0:0:60:kick.wav
298,192,138633,1,0,0:0:0:0:
384,192,138633,1,0,0:0:0:0:
42,192,138826,1,0,0:0:0:60:kick.wav
213,192,138826,1,0,0:0:0:50:clap.wav
469,192,138826,1,0,0:0:0:0:
298,192,138922,1,0,0:0:0:0:
384,192,139018,1,0,0:0:0:0:
42,192,139114,1,0,0:0:0:60:kick.wav
128,192,139114,1,0,0:0:0:0:
213,192,139210,1,0,0:0:0:60:kick.wav
384,192,139210,1,0,0:0:0:0:
469,192,139210,1,0,0:0:0:0:
298,192,139306,1,0,0:0:0:0:
42,192,139403,1,0,0:0:0:60:kick.wav
213,192,139403,1,0,0:0:0:0:
384,192,139499,1,0,0:0:0:60:kick.wav
469,192,139499,1,0,0:0:0:0:
42,192,139595,1,0,0:0:0:60:kick.wav
128,192,139595,1,0,0:0:0:50:clap.wav
298,192,139595,1,0,0:0:0:0:
384,192,139691,1,0,0:0:0:60:kick.wav
469,192,139691,1,0,0:0:0:0:
128,192,139787,1,0,0:0:0:60:kick.wav
213,192,139787,1,0,0:0:0:0:
298,192,139883,1,0,0:0:0:60:kick.wav
384,192,139883,1,0,0:0:0:0:
42,192,139980,1,0,0:0:0:100:cymbal.wav
128,192,139980,1,0,0:0:0:60:kick.wav
213,192,139980,1,0,0:0:0:0:
469,192,139980,1,0,0:0:0:0:
384,192,140076,1,0,0:0:0:0:
128,192,140172,1,0,0:0:0:0:
298,192,140172,1,0,0:0:0:0:
384,192,140268,1,0,0:0:0:0:
42,192,140364,1,0,0:0:0:60:kick.wav
213,192,140364,1,0,0:0:0:50:clap.wav
469,192,140364,1,0,0:0:0:0:
298,192,140460,1,0,0:0:0:0:
128,192,140556,1,0,0:0:0:0:
384,192,140556,1,0,0:0:0:0:
213,192,140653,1,0,0:0:0:0:
42,192,140749,1,0,0:0:0:60:kick.wav
298,192,140749,1,0,0:0:0:0:
469,192,140749,1,0,0:0:0:0:
128,192,140845,1,0,0:0:0:0:
213,192,140941,1,0,0:0:0:0:
384,192,140941,1,0,0:0:0:0:
469,192,141037,1,0,0:0:0:0:
42,192,141133,1,0,0:0:0:60:kick.wav
128,192,141133,1,0,0:0:0:50:clap.wav
298,192,141133,1,0,0:0:0:0:
384,192,141230,1,0,0:0:0:0:
128,192,141326,1,0,0:0:0:60:kick.wav
213,192,141326,1,0,0:0:0:0:
469,192,141326,1,0,0:0:0:0:
298,192,141422,1,0,0:0:0:0:
42,192,141518,1,0,0:0:0:100:cymbal.wav
213,192,141518,1,0,0:0:0:60:kick.wav
384,192,141518,1,0,0:0:0:0:
469,192,141518,1,0,0:0:0:0:
128,192,141614,1,0,0:0:0:0:
213,192,141710,1,0,0:0:0:0:
384,192,141806,1,0,0:0:0:0:
469,192,141806,1,0,0:0:0:0:
42,192,141903,1,0,0:0:0:60:kick.wav
128,192,141903,1,0,0:0:0:50:clap.wav
298,192,141903,1,0,0:0:0:0:
213,192,141999,1,0,0:0:0:0:
128,192,142095,1,0,0:0:0:60:kick.wav
384,192,142095,1,0,0:0:0:0:
469,192,142095,1,0,0:0:0:0:
298,192,142191,1,0,0:0:0:0:
42,192,142287,1,0,0:0:0:100:cymbal.wav
128,192,142287,1,0,0:0:0:60:kick.wav
213,192,142287,1,0,0:0:0:0:
469,192,142287,1,0,0:0:0:0:
384,192,142383,1,0,0:0:0:0:
298,192,142480,1,0,0:0:0:0:
42,192,142576,1,0,0:0:0:60:kick.wav
128,192,142576,1,0,0:0:0:0:
213,192,142672,1,0,0:0:0:60:kick.wav
384,192,142672,1,0,0:0:0:50:clap.wav
469,192,142672,1,0,0:0:0:0:
298,192,142768,1,0,0:0:0:0:
42,192,142864,1,0,0:0:0:60:kick.wav
128,192,142864,1,0,0:0:0:0:
384,192,142864,1,0,0:0:0:0:
213,192,142960,1,0,0:0:0:0:
42,192,143056,1,0,0:0:0:100:cymbal.wav
128,192,143056,1,0,0:0:0:60:kick.wav
298,192,143056,1,0,0:0:0:0:
469,192,143056,1,0,0:0:0:0:
42,192,143249,1,0,0:0:0:60:kick.wav
384,192,143249,1,0,0:0:0:0:
469,192,143249,1,0,0:0:0:0:
298,192,143297,1,0,0:0:0:60:kick.wav
213,192,143345,1,0,0:0:0:60:kick.wav
128,192,143393,1,0,0:0:0:60:kick.wav
42,192,143441,1,0,0:0:0:100:cymbal.wav
384,192,143441,1,0,0:0:0:60:kick.wav
469,192,143441,1,0,0:0:0:0:
42,192,143633,1,0,0:0:0:100:cymbal.wav
213,192,143633,1,0,0:0:0:0:
298,192,143633,1,0,0:0:0:0:
128,192,143826,1,0,0:0:0:100:cymbal.wav
213,192,143826,1,0,0:0:0:60:kick.wav
384,192,143826,1,0,0:0:0:0:
469,192,143826,1,0,0:0:0:0:
42,192,144114,1,0,0:0:0:100:cymbal.wav
128,192,144114,1,0,0:0:0:60:kick.wav
298,192,144114,1,0,0:0:0:0:
384,192,144114,1,0,0:0:0:0:
42,192,144403,1,0,0:0:0:100:cymbal.wav
213,192,144403,1,0,0:0:0:60:kick.wav
384,192,144403,1,0,0:0:0:0:
469,192,144403,1,0,0:0:0:0:
42,192,144595,1,0,0:0:0:100:cymbal.wav
128,192,144595,1,0,0:0:0:60:kick.wav
298,192,144595,1,0,0:0:0:0:
469,192,144595,1,0,0:0:0:0:
128,192,144787,1,0,0:0:0:60:kick.wav
213,192,144787,1,0,0:0:0:0:
384,192,144787,1,0,0:0:0:0:
42,192,144980,1,0,0:0:0:100:cymbal.wav
213,192,144980,1,0,0:0:0:60:kick.wav
298,192,144980,1,0,0:0:0:0:
469,192,144980,1,0,0:0:0:0:
128,192,145172,1,0,0:0:0:60:kick.wav
384,192,145172,1,0,0:0:0:0:
469,192,145172,1,0,0:0:0:0:
42,192,145364,1,0,0:0:0:100:cymbal.wav
128,192,145364,1,0,0:0:0:60:kick.wav
298,192,145364,1,0,0:0:0:0:
213,192,145460,1,0,0:0:0:60:kick.wav
469,192,145460,1,0,0:0:0:0:
128,192,145556,1,0,0:0:0:60:kick.wav
384,192,145556,1,0,0:0:0:0:
42,192,145653,1,0,0:0:0:60:kick.wav
298,192,145653,1,0,0:0:0:0:
213,192,145749,1,0,0:0:0:100:cymbal.wav
384,192,145749,1,0,0:0:0:60:kick.wav
469,192,145749,1,0,0:0:0:0:
128,192,145845,1,0,0:0:0:60:kick.wav
298,192,145845,1,0,0:0:0:0:
42,192,145941,1,0,0:0:0:60:kick.wav
469,192,145941,1,0,0:0:0:0:
213,192,146037,1,0,0:0:0:60:kick.wav
384,192,146037,1,0,0:0:0:0:
42,192,146133,1,0,0:0:0:100:cymbal.wav
128,192,146133,1,0,0:0:0:60:kick.wav
298,192,146133,1,0,0:0:0:0:
469,192,146133,1,0,0:0:0:0:
213,192,146230,1,0,0:0:0:0:
128,192,146326,1,0,0:0:0:0:
384,192,146326,1,0,0:0:0:0:
298,192,146422,1,0,0:0:0:0:
42,192,146518,1,0,0:0:0:60:kick.wav
213,192,146518,1,0,0:0:0:50:clap.wav
469,192,146518,1,0,0:0:0:0:
384,192,146614,1,0,0:0:0:0:
42,192,146710,1,0,0:0:0:0:
128,192,146710,1,0,0:0:0:0:
298,192,146710,1,0,0:0:0:0:
213,192,146806,1,0,0:0:0:0:
384,192,146806,1,0,0:0:0:0:
469,192,146806,1,0,0:0:0:0:
42,192,146903,1,0,0:0:0:60:kick.wav
128,192,146903,1,0,0:0:0:0:
298,192,146903,1,0,0:0:0:0:
469,192,146999,1,0,0:0:0:0:
128,192,147095,1,0,0:0:0:0:
384,192,147095,1,0,0:0:0:0:
213,192,147191,1,0,0:0:0:0:
42,192,147287,1,0,0:0:0:60:kick.wav
298,192,147287,1,0,0:0:0:50:clap.wav
469,192,147287,1,0,0:0:0:0:
128,192,147383,1,0,0:0:0:0:
213,192,147480,1,0,0:0:0:60:kick.wav
384,192,147480,1,0,0:0:0:0:
469,192,147480,1,0,0:0:0:0:
42,192,147576,1,0,0:0:0:0:
128,192,147576,1,0,0:0:0:0:
298,192,147576,1,0,0:0:0:0:
213,192,147672,1,0,0:0:0:100:cymbal.wav
384,192,147672,1,0,0:0:0:60:kick.wav
469,192,147672,1,0,0:0:0:0:
42,192,147768,1,0,0:0:0:0:
298,192,147864,1,0,0:0:0:0:
213,192,147960,1,0,0:0:0:60:kick.wav
469,192,147960,1,0,0:0:0:0:
42,192,148056,1,0,0:0:0:60:kick.wav
128,192,148056,1,0,0:0:0:50:clap.wav
384,192,148056,1,0,0:0:0:0:
298,192,148153,1,0,0:0:0:0:
42,192,148249,1,0,0:0:0:60:kick.wav
213,192,148249,1,0,0:0:0:0:
384,192,148345,1,0,0:0:0:60:kick.wav
469,192,148345,1,0,0:0:0:0:
42,192,148441,1,0,0:0:0:60:kick.wav
128,192,148441,1,0,0:0:0:0:
298,192,148441,1,0,0:0:0:0:
213,192,148633,1,0,0:0:0:60:kick.wav
298,192,148633,1,0,0:0:0:0:
469,192,148633,1,0,0:0:0:0:
42,192,148826,1,0,0:0:0:60:kick.wav
384,192,148826,1,0,0:0:0:50:clap.wav
469,192,148826,1,0,0:0:0:0:
128,192,148874,1,0,0:0:0:60:kick.wav
213,192,148922,1,0,0:0:0:60:kick.wav
298,192,148970,1,0,0:0:0:60:kick.wav
384,192,149018,1,0,0:0:0:60:kick.wav
469,192,149018,1,0,0:0:0:0:
42,192,149114,1,0,0:0:0:60:kick.wav
128,192,149114,1,0,0:0:0:0:
213,192,149210,1,0,0:0:0:100:cymbal.wav
298,192,149210,1,0,0:0:0:60:kick.wav
384,192,149210,1,0,0:0:0:0:
469,192,149210,1,0,0:0:0:0:
42,192,149403,1,0,0:0:0:60:kick.wav
128,192,149403,1,0,0:0:0:0:
298,192,149403,1,0,0:0:0:0:
42,192,149595,1,0,0:0:0:60:kick.wav
213,192,149595,1,0,0:0:0:50:clap.wav
384,192,149595,1,0,0:0:0:0:
128,192,149787,1,0,0:0:0:60:kick.wav
298,192,149787,1,0,0:0:0:0:
469,192,149787,1,0,0:0:0:0:
42,192,149980,1,0,0:0:0:100:cymbal.wav
213,192,149980,1,0,0:0:0:60:kick.wav
384,192,149980,1,0,0:0:0:0:
469,192,149980,1,0,0:0:0:0:
128,192,150076,1,0,0:0:0:60:kick.wav
298,192,150076,1,0,0:0:0:0:
213,192,150172,1,0,0:0:0:60:kick.wav
384,192,150172,1,0,0:0:0:0:
469,192,150172,1,0,0:0:0:0:
42,192,150364,1,0,0:0:0:60:kick.wav
128,192,150364,1,0,0:0:0:50:clap.wav
298,192,150364,1,0,0:0:0:0:
42,192,150556,1,0,0:0:0:60:kick.wav
213,192,150556,1,0,0:0:0:0:
469,192,150556,1,0,0:0:0:0:
128,192,150653,1,0,0:0:0:60:kick.wav
298,192,150653,1,0,0:0:0:0:
384,192,150653,1,0,0:0:0:0:
42,192,150749,1,0,0:0:0:100:cymbal.wav
213,192,150749,1,0,0:0:0:60:kick.wav
469,192,150749,1,0,0:0:0:0:
128,192,150941,1,0,0:0:0:60:kick.wav
298,192,150941,1,0,0:0:0:0:
384,192,150941,1,0,0:0:0:0:
42,192,151133,1,0,0:0:0:100:cymbal.wav
213,192,151133,1,0,0:0:0:60:kick.wav
384,192,151133,1,0,0:0:0:50:clap.wav
469,192,151133,1,0,0:0:0:0:
42,192,151326,1,0,0:0:0:60:kick.wav
213,192,151326,1,0,0:0:0:0:
384,192,151422,1,0,0:0:0:60:kick.wav
469,192,151422,1,0,0:0:0:0:
42,192,151518,1,0,0:0:0:100:cymbal.wav
128,192,151518,1,0,0:0:0:60:kick.wav
298,192,151518,1,0,0:0:0:0:
384,192,151614,1,0,0:0:0:60:kick.wav
469,192,151614,1,0,0:0:0:0:
128,192,151710,1,0,0:0:0:60:kick.wav
213,192,151710,1,0,0:0:0:0:
298,192,151806,1,0,0:0:0:60:kick.wav
384,192,151806,1,0,0:0:0:0:
42,192,151903,1,0,0:0:0:100:cymbal.wav
213,192,151903,1,0,0:0:0:60:kick.wav
469,192,151903,1,0,0:0:0:50:clap.wav
128,192,152095,1,0,0:0:0:60:kick.wav
298,192,152095,1,0,0:0:0:0:
213,192,152191,1,0,0:0:0:60:kick.wav
384,192,152191,1,0,0:0:0:0:
42,192,152287,128,0,153056:0:0:0:100:cymbal.wav
128,192,152287,1,0,0:0:0:60:kick.wav
298,192,152287,1,0,0:0:0:100:BassKickReverbXD.wav
469,192,152287,1,0,0:0:0:0:
384,192,152383,1,0,0:0:0:0:
213,192,152480,1,0,0:0:0:0:
298,192,152576,1,0,0:0:0:0:
128,192,152672,1,0,0:0:0:60:kick.wav
384,192,152672,1,0,0:0:0:50:clap.wav
469,192,152672,1,0,0:0:0:0:
213,192,152768,1,0,0:0:0:0:
298,192,152864,1,0,0:0:0:0:
384,192,152960,1,0,0:0:0:0:
128,192,153056,128,0,153441:0:0:0:60:kick.wav
213,192,153056,1,0,0:0:0:0:
469,192,153056,1,0,0:0:0:0:
384,192,153153,1,0,0:0:0:0:
298,192,153249,1,0,0:0:0:0:
384,192,153345,1,0,0:0:0:0:
42,192,153441,128,0,153826:0:0:0:60:kick.wav
213,192,153441,1,0,0:0:0:50:clap.wav
469,192,153441,1,0,0:0:0:0:
298,192,153537,1,0,0:0:0:0:
213,192,153633,1,0,0:0:0:0:
384,192,153730,1,0,0:0:0:0:
128,192,153826,1,0,0:0:0:60:kick.wav
298,192,153826,1,0,0:0:0:0:
469,192,153826,128,0,154403:0:0:0:0:
213,192,153922,1,0,0:0:0:0:
128,192,154018,1,0,0:0:0:0:
42,192,154114,1,0,0:0:0:0:
213,192,154210,1,0,0:0:0:60:kick.wav
384,192,154210,1,0,0:0:0:50:clap.wav
128,192,154306,1,0,0:0:0:0:
42,192,154403,1,0,0:0:0:0:
298,192,154403,1,0,0:0:0:0:
128,192,154499,1,0,0:0:0:0:
384,192,154499,1,0,0:0:0:0:
213,192,154595,128,0,154980:0:0:0:60:kick.wav
298,192,154595,1,0,0:0:0:0:
469,192,154595,1,0,0:0:0:0:
42,192,154691,1,0,0:0:0:0:
128,192,154787,1,0,0:0:0:0:
384,192,154883,1,0,0:0:0:0:
42,192,154980,1,0,0:0:0:60:kick.wav
298,192,154980,1,0,0:0:0:50:clap.wav
469,192,154980,1,0,0:0:0:0:
128,192,155076,1,0,0:0:0:0:
213,192,155172,1,0,0:0:0:0:
384,192,155172,128,0,155364:0:0:0:0:
128,192,155268,1,0,0:0:0:0:
42,192,155364,1,0,0:0:0:60:kick.wav
298,192,155364,1,0,0:0:0:0:
469,192,155364,128,0,155749:0:0:0:0:
128,192,155460,1,0,0:0:0:0:
213,192,155556,1,0,0:0:0:0:
384,192,155653,1,0,0:0:0:0:
42,192,155749,1,0,0:0:0:60:kick.wav
128,192,155749,1,0,0:0:0:50:clap.wav
298,192,155749,1,0,0:0:0:0:
384,192,155845,1,0,0:0:0:0:
213,192,155941,1,0,0:0:0:0:
469,192,155941,1,0,0:0:0:0:
128,192,156037,1,0,0:0:0:0:
298,192,156037,1,0,0:0:0:0:
42,192,156133,128,0,156326:0:0:0:60:kick.wav
384,192,156133,1,0,0:0:0:0:
469,192,156133,1,0,0:0:0:0:
213,192,156230,1,0,0:0:0:0:
128,192,156326,128,0,156518:0:0:0:0:
298,192,156326,1,0,0:0:0:0:
469,192,156422,1,0,0:0:0:0:
42,192,156518,1,0,0:0:0:60:kick.wav
213,192,156518,1,0,0:0:0:50:clap.wav
384,192,156518,128,0,156710:0:0:0:0:
298,192,156614,1,0,0:0:0:0:
128,192,156710,1,0,0:0:0:0:
469,192,156710,128,0,156903:0:0:0:0:
213,192,156806,1,0,0:0:0:0:
42,192,156903,128,0,157480:0:0:0:60:kick.wav
298,192,156903,1,0,0:0:0:0:
384,192,156903,1,0,0:0:0:0:
128,192,156999,1,0,0:0:0:0:
213,192,157095,1,0,0:0:0:0:
298,192,157191,1,0,0:0:0:0:
128,192,157287,1,0,0:0:0:60:kick.wav
384,192,157287,1,0,0:0:0:50:clap.wav
469,192,157383,1,0,0:0:0:0:
213,192,157480,1,0,0:0:0:60:kick.wav
298,192,157480,1,0,0:0:0:0:
384,192,157576,1,0,0:0:0:60:kick.wav
469,192,157576,1,0,0:0:0:0:
42,192,157672,1,0,0:0:0:60:kick.wav
128,192,157672,1,0,0:0:0:0:
298,192,157768,1,0,0:0:0:60:kick.wav
384,192,157768,1,0,0:0:0:0:
128,192,157864,1,0,0:0:0:60:kick.wav
213,192,157864,1,0,0:0:0:0:
42,192,158056,1,0,0:0:0:60:kick.wav
298,192,158056,1,0,0:0:0:50:clap.wav
469,192,158056,1,0,0:0:0:0:
128,192,158249,1,0,0:0:0:60:kick.wav
213,192,158249,1,0,0:0:0:0:
298,192,158345,1,0,0:0:0:60:kick.wav
384,192,158345,1,0,0:0:0:0:
42,192,158441,128,0,158826:0:0:0:100:cymbal.wav
128,192,158441,1,0,0:0:0:60:kick.wav
213,192,158441,1,0,0:0:0:0:
469,192,158441,1,0,0:0:0:0:
298,192,158537,1,0,0:0:0:0:
384,192,158633,1,0,0:0:0:0:
469,192,158730,1,0,0:0:0:0:
128,192,158826,1,0,0:0:0:60:kick.wav
213,192,158826,1,0,0:0:0:50:clap.wav
298,192,158922,1,0,0:0:0:0:
384,192,159018,1,0,0:0:0:0:
469,192,159018,1,0,0:0:0:0:
213,192,159114,1,0,0:0:0:0:
298,192,159114,1,0,0:0:0:0:
42,192,159210,128,0,159499:0:0:0:60:kick.wav
128,192,159210,1,0,0:0:0:0:
469,192,159210,1,0,0:0:0:0:
384,192,159306,1,0,0:0:0:0:
298,192,159403,1,0,0:0:0:0:
128,192,159499,128,0,159787:0:0:0:0:
384,192,159499,1,0,0:0:0:0:
213,192,159595,1,0,0:0:0:60:kick.wav
469,192,159595,1,0,0:0:0:50:clap.wav
384,192,159691,1,0,0:0:0:0:
42,192,159787,1,0,0:0:0:0:
298,192,159787,128,0,159980:0:0:0:0:
128,192,159883,1,0,0:0:0:0:
213,192,159980,1,0,0:0:0:60:kick.wav
384,192,159980,1,0,0:0:0:0:
469,192,159980,128,0,160364:0:0:0:0:
128,192,160076,1,0,0:0:0:0:
42,192,160172,1,0,0:0:0:0:
384,192,160268,1,0,0:0:0:0:
128,192,160364,1,0,0:0:0:60:kick.wav
298,192,160364,1,0,0:0:0:50:clap.wav
213,192,160460,1,0,0:0:0:0:
42,192,160556,1,0,0:0:0:0:
384,192,160556,1,0,0:0:0:0:
128,192,160653,1,0,0:0:0:0:
298,192,160653,1,0,0:0:0:0:
42,192,160749,128,0,161133:0:0:0:60:kick.wav
384,192,160749,128,0,160845:0:0:0:0:
469,192,160749,128,0,160845:0:0:0:0:
128,192,160941,128,0,161133:0:0:0:0:
298,192,160941,128,0,161037:0:0:0:0:
384,192,160941,128,0,161037:0:0:0:0:
213,192,161133,128,0,161230:0:0:0:60:kick.wav
298,192,161133,128,0,161230:0:0:0:50:clap.wav
469,192,161133,128,0,161518:0:0:0:0:
128,192,161326,128,0,161422:0:0:0:60:kick.wav
213,192,161326,128,0,161422:0:0:0:0:
384,192,161326,128,0,161518:0:0:0:0:
42,192,161518,1,0,0:0:0:60:kick.wav
128,192,161518,1,0,0:0:0:0:
298,192,161518,1,0,0:0:0:0:
213,192,161614,1,0,0:0:0:0:
469,192,161614,1,0,0:0:0:0:
128,192,161710,1,0,0:0:0:0:
384,192,161710,1,0,0:0:0:0:
42,192,161806,1,0,0:0:0:0:
298,192,161806,1,0,0:0:0:0:
213,192,161903,1,0,0:0:0:60:kick.wav
384,192,161903,1,0,0:0:0:50:clap.wav
469,192,161903,1,0,0:0:0:0:
42,192,161999,1,0,0:0:0:0:
298,192,161999,1,0,0:0:0:0:
128,192,162095,1,0,0:0:0:0:
384,192,162095,1,0,0:0:0:0:
213,192,162191,1,0,0:0:0:0:
469,192,162191,1,0,0:0:0:0:
42,192,162287,1,0,0:0:0:60:kick.wav
298,192,162287,1,0,0:0:0:0:
384,192,162287,1,0,0:0:0:0:
128,192,162383,1,0,0:0:0:0:
213,192,162383,1,0,0:0:0:0:
298,192,162480,1,0,0:0:0:0:
469,192,162480,1,0,0:0:0:0:
42,192,162576,1,0,0:0:0:0:
128,192,162576,1,0,0:0:0:0:
213,192,162672,1,0,0:0:0:60:kick.wav
384,192,162672,1,0,0:0:0:50:clap.wav
469,192,162672,1,0,0:0:0:0:
128,192,162864,1,0,0:0:0:0:
298,192,162864,1,0,0:0:0:0:
213,192,162960,1,0,0:0:0:60:kick.wav
384,192,162960,1,0,0:0:0:0:
42,192,163056,1,0,0:0:0:60:kick.wav
298,192,163056,1,0,0:0:0:0:
469,192,163056,1,0,0:0:0:0:
128,192,163249,1,0,0:0:0:60:kick.wav
213,192,163249,1,0,0:0:0:0:
384,192,163249,1,0,0:0:0:0:
42,192,163441,1,0,0:0:0:60:kick.wav
128,192,163441,1,0,0:0:0:50:clap.wav
469,192,163441,1,0,0:0:0:0:
298,192,163537,1,0,0:0:0:0:
384,192,163633,1,0,0:0:0:0:
128,192,163730,1,0,0:0:0:60:kick.wav
213,192,163730,1,0,0:0:0:0:
42,192,163826,1,0,0:0:0:60:kick.wav
298,192,163826,1,0,0:0:0:0:
469,192,163826,1,0,0:0:0:0:
213,192,163922,1,0,0:0:0:0:
298,192,164018,1,0,0:0:0:60:kick.wav
384,192,164018,1,0,0:0:0:0:
42,192,164114,1,0,0:0:0:60:kick.wav
128,192,164114,1,0,0:0:0:0:
213,192,164210,1,0,0:0:0:60:kick.wav
384,192,164210,1,0,0:0:0:50:clap.wav
469,192,164210,1,0,0:0:0:0:
42,192,164306,1,0,0:0:0:60:kick.wav
128,192,164306,1,0,0:0:0:0:
298,192,164403,1,0,0:0:0:60:kick.wav
469,192,164403,1,0,0:0:0:0:
128,192,164499,1,0,0:0:0:60:kick.wav
213,192,164499,1,0,0:0:0:0:
42,192,164595,1,0,0:0:0:100:cymbal.wav
298,192,164595,1,0,0:0:0:60:kick.wav
384,192,164595,1,0,0:0:0:0:
469,192,164595,1,0,0:0:0:0:
128,192,164691,1,0,0:0:0:0:
213,192,164787,1,0,0:0:0:0:
384,192,164787,1,0,0:0:0:0:
298,192,164883,1,0,0:0:0:0:
42,192,164980,1,0,0:0:0:60:kick.wav
384,192,164980,1,0,0:0:0:50:clap.wav
469,192,164980,1,0,0:0:0:0:
128,192,165076,1,0,0:0:0:0:
213,192,165172,1,0,0:0:0:0:
469,192,165172,1,0,0:0:0:0:
384,192,165268,1,0,0:0:0:0:
42,192,165364,1,0,0:0:0:60:kick.wav
128,192,165364,1,0,0:0:0:0:
298,192,165364,1,0,0:0:0:0:
384,192,165460,1,0,0:0:0:0:
213,192,165556,1,0,0:0:0:0:
469,192,165556,1,0,0:0:0:0:
128,192,165653,1,0,0:0:0:0:
42,192,165749,1,0,0:0:0:60:kick.wav
298,192,165749,1,0,0:0:0:50:clap.wav
469,192,165749,1,0,0:0:0:0:
213,192,165845,1,0,0:0:0:0:
42,192,165941,1,0,0:0:0:60:kick.wav
128,192,165941,1,0,0:0:0:0:
384,192,165941,1,0,0:0:0:0:
298,192,166037,1,0,0:0:0:0:
42,192,166133,1,0,0:0:0:100:cymbal.wav
213,192,166133,1,0,0:0:0:60:kick.wav
469,192,166133,1,0,0:0:0:0:
384,192,166230,1,0,0:0:0:0:
298,192,166326,1,0,0:0:0:0:
213,192,166422,1,0,0:0:0:0:
469,192,166422,1,0,0:0:0:0:
42,192,166518,1,0,0:0:0:60:kick.wav
128,192,166518,1,0,0:0:0:50:clap.wav
384,192,166518,1,0,0:0:0:0:
298,192,166614,1,0,0:0:0:0:
128,192,166710,1,0,0:0:0:60:kick.wav
213,192,166710,1,0,0:0:0:0:
469,192,166710,1,0,0:0:0:0:
384,192,166806,1,0,0:0:0:0:
42,192,166903,1,0,0:0:0:100:cymbal.wav
298,192,166903,1,0,0:0:0:60:kick.wav
469,192,166903,1,0,0:0:0:0:
128,192,166999,1,0,0:0:0:0:
213,192,167095,1,0,0:0:0:0:
42,192,167191,1,0,0:0:0:60:kick.wav
298,192,167191,1,0,0:0:0:0:
128,192,167287,1,0,0:0:0:60:kick.wav
384,192,167287,1,0,0:0:0:50:clap.wav
469,192,167287,1,0,0:0:0:0:
298,192,167383,1,0,0:0:0:0:
42,192,167480,1,0,0:0:0:60:kick.wav
213,192,167480,1,0,0:0:0:0:
469,192,167480,1,0,0:0:0:0:
384,192,167576,1,0,0:0:0:0:
42,192,167672,1,0,0:0:0:100:cymbal.wav
128,192,167672,1,0,0:0:0:60:kick.wav
298,192,167672,1,0,0:0:0:0:
42,192,167864,1,0,0:0:0:60:kick.wav
384,192,167864,1,0,0:0:0:0:
469,192,167864,1,0,0:0:0:0:
128,192,167912,1,0,0:0:0:60:kick.wav
213,192,167960,1,0,0:0:0:60:kick.wav
298,192,168008,1,0,0:0:0:60:kick.wav
42,192,168056,1,0,0:0:0:100:cymbal.wav
384,192,168056,1,0,0:0:0:60:kick.wav
469,192,168056,1,0,0:0:0:0:
128,192,168249,1,0,0:0:0:100:cymbal.wav
213,192,168249,1,0,0:0:0:0:
384,192,168249,1,0,0:0:0:0:
42,192,168441,1,0,0:0:0:100:cymbal.wav
213,192,168441,1,0,0:0:0:60:kick.wav
298,192,168441,1,0,0:0:0:0:
469,192,168441,1,0,0:0:0:0:
128,192,168730,1,0,0:0:0:100:cymbal.wav
298,192,168730,1,0,0:0:0:60:kick.wav
384,192,168730,1,0,0:0:0:0:
469,192,168730,1,0,0:0:0:0:
42,192,169018,1,0,0:0:0:100:cymbal.wav
128,192,169018,1,0,0:0:0:60:kick.wav
213,192,169018,1,0,0:0:0:0:
384,192,169018,1,0,0:0:0:0:
42,192,169210,1,0,0:0:0:100:cymbal.wav
213,192,169210,1,0,0:0:0:60:kick.wav
298,192,169210,1,0,0:0:0:0:
469,192,169210,1,0,0:0:0:0:
128,192,169403,1,0,0:0:0:60:kick.wav
298,192,169403,1,0,0:0:0:0:
469,192,169403,1,0,0:0:0:0:
42,192,169595,1,0,0:0:0:100:cymbal.wav
213,192,169595,1,0,0:0:0:60:kick.wav
384,192,169595,1,0,0:0:0:0:
469,192,169595,1,0,0:0:0:0:
128,192,169787,1,0,0:0:0:60:kick.wav
298,192,169787,1,0,0:0:0:0:
384,192,169787,1,0,0:0:0:0:
42,192,169980,1,0,0:0:0:100:cymbal.wav
298,192,169980,1,0,0:0:0:60:kick.wav
469,192,169980,1,0,0:0:0:0:
128,192,170076,1,0,0:0:0:60:kick.wav
213,192,170076,1,0,0:0:0:0:
42,192,170172,1,0,0:0:0:60:kick.wav
469,192,170172,1,0,0:0:0:0:
298,192,170268,1,0,0:0:0:60:kick.wav
384,192,170268,1,0,0:0:0:0:
42,192,170364,1,0,0:0:0:100:cymbal.wav
213,192,170364,1,0,0:0:0:60:kick.wav
469,192,170364,1,0,0:0:0:0:
128,192,170460,1,0,0:0:0:60:kick.wav
298,192,170460,1,0,0:0:0:0:
42,192,170556,1,0,0:0:0:60:kick.wav
469,192,170556,1,0,0:0:0:0:
213,192,170653,1,0,0:0:0:60:kick.wav
384,192,170653,1,0,0:0:0:0:
42,192,170749,1,0,0:0:0:100:cymbal.wav
128,192,170749,1,0,0:0:0:60:kick.wav
469,192,170749,1,0,0:0:0:0:
298,192,170749,1,0,0:0:0:0:
384,192,170845,1,0,0:0:0:0:
213,192,170941,1,0,0:0:0:0:
298,192,170941,1,0,0:0:0:0:
42,192,171037,1,0,0:0:0:0:
128,192,171133,1,0,0:0:0:60:kick.wav
384,192,171133,1,0,0:0:0:50:clap.wav
469,192,171133,1,0,0:0:0:0:
298,192,171230,1,0,0:0:0:0:
42,192,171326,1,0,0:0:0:0:
213,192,171326,1,0,0:0:0:0:
469,192,171326,1,0,0:0:0:0:
128,192,171422,1,0,0:0:0:0:
298,192,171422,1,0,0:0:0:0:
384,192,171422,1,0,0:0:0:0:
42,192,171518,1,0,0:0:0:60:kick.wav
213,192,171518,1,0,0:0:0:0:
469,192,171518,1,0,0:0:0:0:
384,192,171614,1,0,0:0:0:0:
128,192,171710,1,0,0:0:0:0:
298,192,171710,1,0,0:0:0:0:
384,192,171806,1,0,0:0:0:0:
42,192,171903,1,0,0:0:0:60:kick.wav
128,192,171903,1,0,0:0:0:50:clap.wav
469,192,171903,1,0,0:0:0:0:
213,192,171999,1,0,0:0:0:0:
42,192,172095,1,0,0:0:0:60:kick.wav
298,192,172095,1,0,0:0:0:0:
469,192,172095,1,0,0:0:0:0:
128,192,172191,1,0,0:0:0:0:
213,192,172191,1,0,0:0:0:0:
384,192,172191,1,0,0:0:0:0:
42,192,172287,1,0,0:0:0:100:cymbal.wav
298,192,172287,1,0,0:0:0:60:kick.wav
469,192,172287,1,0,0:0:0:0:
128,192,172383,1,0,0:0:0:0:
213,192,172480,1,0,0:0:0:0:
298,192,172576,1,0,0:0:0:60:kick.wav
384,192,172576,1,0,0:0:0:0:
42,192,172672,1,0,0:0:0:60:kick.wav
128,192,172672,1,0,0:0:0:50:clap.wav
469,192,172672,1,0,0:0:0:0:
213,192,172768,1,0,0:0:0:0:
298,192,172864,1,0,0:0:0:60:kick.wav
384,192,172864,1,0,0:0:0:0:
42,192,172960,1,0,0:0:0:60:kick.wav
128,192,172960,1,0,0:0:0:0:
384,192,173056,1,0,0:0:0:60:kick.wav
469,192,173056,1,0,0:0:0:0:
298,192,173121,1,0,0:0:0:0:
213,192,173185,1,0,0:0:0:0:
128,192,173249,1,0,0:0:0:60:kick.wav
469,192,173249,1,0,0:0:0:0:
384,192,173313,1,0,0:0:0:0:
298,192,173377,1,0,0:0:0:0:
42,192,173441,1,0,0:0:0:60:kick.wav
469,192,173441,128,0,173633:0:0:0:50:clap.wav
128,192,173505,1,0,0:0:0:0:
213,192,173569,1,0,0:0:0:0:
42,192,173633,1,0,0:0:0:60:kick.wav
384,192,173633,1,0,0:0:0:0:
298,192,173697,1,0,0:0:0:0:
213,192,173762,1,0,0:0:0:0:
42,192,173826,1,0,0:0:0:100:cymbal.wav
128,192,173826,1,0,0:0:0:60:kick.wav
384,192,173826,1,0,0:0:0:0:
469,192,173826,1,0,0:0:0:0:
213,192,174018,1,0,0:0:0:60:kick.wav
298,192,174018,1,0,0:0:0:0:
469,192,174018,1,0,0:0:0:0:
42,192,174210,1,0,0:0:0:60:kick.wav
128,192,174210,1,0,0:0:0:50:clap.wav
384,192,174210,1,0,0:0:0:0:
128,192,174403,1,0,0:0:0:60:kick.wav
213,192,174403,1,0,0:0:0:0:
469,192,174403,1,0,0:0:0:0:
42,192,174595,1,0,0:0:0:100:cymbal.wav
298,192,174595,1,0,0:0:0:60:kick.wav
384,192,174595,1,0,0:0:0:0:
469,192,174595,1,0,0:0:0:0:
128,192,174691,1,0,0:0:0:60:kick.wav
213,192,174691,1,0,0:0:0:0:
42,192,174787,1,0,0:0:0:60:kick.wav
298,192,174787,1,0,0:0:0:0:
469,192,174787,1,0,0:0:0:0:
42,192,174980,1,0,0:0:0:60:kick.wav
213,192,174980,1,0,0:0:0:50:clap.wav
384,192,174980,1,0,0:0:0:0:
128,192,175172,1,0,0:0:0:60:kick.wav
384,192,175172,1,0,0:0:0:0:
469,192,175172,1,0,0:0:0:0:
42,192,175268,1,0,0:0:0:60:kick.wav
213,192,175268,1,0,0:0:0:0:
298,192,175268,1,0,0:0:0:0:
128,192,175364,1,0,0:0:0:100:cymbal.wav
384,192,175364,1,0,0:0:0:60:kick.wav
469,192,175364,1,0,0:0:0:0:
42,192,175556,1,0,0:0:0:60:kick.wav
213,192,175556,1,0,0:0:0:0:
298,192,175556,1,0,0:0:0:0:
42,192,175749,1,0,0:0:0:100:cymbal.wav
128,192,175749,1,0,0:0:0:60:kick.wav
384,192,175749,1,0,0:0:0:50:clap.wav
469,192,175749,1,0,0:0:0:0:
298,192,175941,1,0,0:0:0:60:kick.wav
384,192,175941,1,0,0:0:0:0:
213,192,176005,1,0,0:0:0:0:
128,192,176069,1,0,0:0:0:0:
42,192,176133,1,0,0:0:0:100:cymbal.wav
384,192,176133,1,0,0:0:0:60:kick.wav
469,192,176133,1,0,0:0:0:0:
298,192,176197,1,0,0:0:0:0:
213,192,176262,1,0,0:0:0:0:
128,192,176326,1,0,0:0:0:60:kick.wav
469,192,176326,1,0,0:0:0:0:
384,192,176390,1,0,0:0:0:0:
298,192,176454,1,0,0:0:0:0:
42,192,176518,1,0,0:0:0:100:cymbal.wav
128,192,176518,1,0,0:0:0:60:kick.wav
213,192,176518,1,0,0:0:0:50:clap.wav
298,192,176582,1,0,0:0:0:0:
384,192,176646,1,0,0:0:0:0:
128,192,176710,1,0,0:0:0:60:kick.wav
469,192,176710,1,0,0:0:0:0:
213,192,176774,1,0,0:0:0:0:
298,192,176838,1,0,0:0:0:0:
42,192,176903,1,0,0:0:0:100:cymbal.wav
128,192,176903,1,0,0:0:0:60:kick.wav
384,192,176903,1,0,0:0:0:100:BassKickReverbXD.wav
469,192,176903,1,0,0:0:0:0:
213,192,176999,1,0,0:0:0:0:
298,192,177095,1,0,0:0:0:0:
469,192,177095,1,0,0:0:0:0:
128,192,177191,1,0,0:0:0:0:
42,192,177287,1,0,0:0:0:60:kick.wav
213,192,177287,1,0,0:0:0:50:clap.wav
384,192,177287,1,0,0:0:0:0:
469,192,177383,1,0,0:0:0:0:
128,192,177480,1,0,0:0:0:0:
298,192,177480,1,0,0:0:0:0:
384,192,177576,1,0,0:0:0:0:
42,192,177672,1,0,0:0:0:60:kick.wav
213,192,177672,1,0,0:0:0:0:
469,192,177672,1,0,0:0:0:0:
298,192,177768,1,0,0:0:0:0:
128,192,177864,1,0,0:0:0:0:
384,192,177864,1,0,0:0:0:0:
213,192,177960,1,0,0:0:0:0:
42,192,178056,1,0,0:0:0:60:kick.wav
298,192,178056,1,0,0:0:0:50:clap.wav
469,192,178056,1,0,0:0:0:0:
128,192,178153,1,0,0:0:0:0:
213,192,178249,1,0,0:0:0:60:kick.wav
384,192,178249,1,0,0:0:0:0:
469,192,178249,1,0,0:0:0:0:
298,192,178345,1,0,0:0:0:0:
42,192,178441,1,0,0:0:0:60:kick.wav
128,192,178441,1,0,0:0:0:0:
469,192,178441,1,0,0:0:0:0:
213,192,178537,1,0,0:0:0:0:
384,192,178537,1,0,0:0:0:0:
42,192,178633,1,0,0:0:0:0:
128,192,178633,1,0,0:0:0:0:
298,192,178730,1,0,0:0:0:0:
469,192,178730,1,0,0:0:0:0:
42,192,178826,1,0,0:0:0:60:kick.wav
128,192,178826,1,0,0:0:0:50:clap.wav
213,192,178826,1,0,0:0:0:0:
384,192,178922,1,0,0:0:0:0:
469,192,178922,1,0,0:0:0:0:
128,192,179018,1,0,0:0:0:60:kick.wav
298,192,179018,1,0,0:0:0:0:
384,192,179114,1,0,0:0:0:60:kick.wav
469,192,179114,1,0,0:0:0:0:
42,192,179210,1,0,0:0:0:100:cymbal.wav
128,192,179210,1,0,0:0:0:60:kick.wav
213,192,179210,1,0,0:0:0:0:
298,192,179306,1,0,0:0:0:60:kick.wav
469,192,179306,1,0,0:0:0:0:
42,192,179403,1,0,0:0:0:60:kick.wav
213,192,179403,1,0,0:0:0:0:
384,192,179499,1,0,0:0:0:60:kick.wav
469,192,179499,1,0,0:0:0:0:
42,192,179595,1,0,0:0:0:60:kick.wav
128,192,179595,1,0,0:0:0:50:clap.wav
298,192,179595,1,0,0:0:0:0:
213,192,179691,1,0,0:0:0:0:
128,192,179787,1,0,0:0:0:60:kick.wav
384,192,179787,1,0,0:0:0:0:
469,192,179787,1,0,0:0:0:0:
298,192,179883,1,0,0:0:0:0:
42,192,179980,1,0,0:0:0:100:cymbal.wav
213,192,179980,1,0,0:0:0:60:kick.wav
384,192,179980,1,0,0:0:0:0:
469,192,179980,1,0,0:0:0:0:
128,192,180076,1,0,0:0:0:0:
298,192,180172,1,0,0:0:0:0:
469,192,180172,1,0,0:0:0:0:
213,192,180268,1,0,0:0:0:0:
42,192,180364,1,0,0:0:0:60:kick.wav
128,192,180364,1,0,0:0:0:50:clap.wav
384,192,180364,1,0,0:0:0:0:
298,192,180460,1,0,0:0:0:0:
213,192,180556,1,0,0:0:0:0:
469,192,180556,1,0,0:0:0:0:
384,192,180653,1,0,0:0:0:0:
42,192,180749,1,0,0:0:0:60:kick.wav
298,192,180749,1,0,0:0:0:0:
469,192,180749,1,0,0:0:0:0:
128,192,180845,1,0,0:0:0:0:
213,192,180941,1,0,0:0:0:0:
384,192,180941,1,0,0:0:0:0:
128,192,181037,1,0,0:0:0:0:
42,192,181133,1,0,0:0:0:60:kick.wav
298,192,181133,1,0,0:0:0:50:clap.wav
469,192,181133,1,0,0:0:0:0:
213,192,181230,1,0,0:0:0:0:
42,192,181326,1,0,0:0:0:60:kick.wav
128,192,181326,1,0,0:0:0:0:
384,192,181326,1,0,0:0:0:0:
298,192,181422,1,0,0:0:0:0:
42,192,181518,1,0,0:0:0:60:kick.wav
213,192,181518,1,0,0:0:0:0:
469,192,181518,1,0,0:0:0:0:
384,192,181614,1,0,0:0:0:0:
128,192,181710,1,0,0:0:0:60:kick.wav
298,192,181710,1,0,0:0:0:0:
469,192,181710,1,0,0:0:0:0:
213,192,181806,1,0,0:0:0:0:
42,192,181903,1,0,0:0:0:60:kick.wav
128,192,181903,1,0,0:0:0:50:clap.wav
469,192,181903,1,0,0:0:0:0:
384,192,181999,1,0,0:0:0:0:
42,192,182095,1,0,0:0:0:60:kick.wav
298,192,182095,1,0,0:0:0:0:
128,192,182191,1,0,0:0:0:60:kick.wav
384,192,182191,1,0,0:0:0:0:
213,192,182287,1,0,0:0:0:100:cymbal.wav
298,192,182287,1,0,0:0:0:60:kick.wav
469,192,182287,1,0,0:0:0:0:
42,192,182383,1,0,0:0:0:60:kick.wav
128,192,182383,1,0,0:0:0:0:
384,192,182480,1,0,0:0:0:60:kick.wav
469,192,182480,1,0,0:0:0:0:
213,192,182576,1,0,0:0:0:60:kick.wav
298,192,182576,1,0,0:0:0:0:
42,192,182672,1,0,0:0:0:60:kick.wav
128,192,182672,1,0,0:0:0:50:clap.wav
384,192,182672,1,0,0:0:0:0:
213,192,182768,1,0,0:0:0:0:
469,192,182768,1,0,0:0:0:0:
42,192,182864,1,0,0:0:0:60:kick.wav
298,192,182864,1,0,0:0:0:0:
128,192,182960,1,0,0:0:0:60:kick.wav
384,192,182960,1,0,0:0:0:0:
42,192,183056,1,0,0:0:0:100:cymbal.wav
213,192,183056,1,0,0:0:0:60:kick.wav
298,192,183056,1,0,0:0:0:0:
469,192,183056,1,0,0:0:0:0:
128,192,183153,1,0,0:0:0:0:
298,192,183249,1,0,0:0:0:0:
384,192,183249,1,0,0:0:0:0:
213,192,183345,1,0,0:0:0:0:
42,192,183441,1,0,0:0:0:60:kick.wav
128,192,183441,1,0,0:0:0:50:clap.wav
469,192,183441,1,0,0:0:0:0:
384,192,183537,1,0,0:0:0:0:
128,192,183633,1,0,0:0:0:0:
298,192,183633,1,0,0:0:0:0:
384,192,183730,1,0,0:0:0:0:
42,192,183826,1,0,0:0:0:60:kick.wav
213,192,183826,1,0,0:0:0:0:
469,192,183826,1,0,0:0:0:0:
298,192,183922,1,0,0:0:0:0:
128,192,184018,1,0,0:0:0:0:
384,192,184018,1,0,0:0:0:0:
213,192,184114,1,0,0:0:0:0:
42,192,184210,1,0,0:0:0:60:kick.wav
298,192,184210,1,0,0:0:0:50:clap.wav
469,192,184210,1,0,0:0:0:0:
128,192,184306,1,0,0:0:0:0:
213,192,184403,1,0,0:0:0:60:kick.wav
469,192,184403,1,0,0:0:0:0:
128,192,184499,1,0,0:0:0:60:kick.wav
384,192,184499,1,0,0:0:0:0:
42,192,184595,1,0,0:0:0:100:cymbal.wav
213,192,184595,1,0,0:0:0:60:kick.wav
298,192,184595,1,0,0:0:0:0:
469,192,184595,1,0,0:0:0:0:
384,192,184691,1,0,0:0:0:0:
42,192,184787,1,0,0:0:0:60:kick.wav
213,192,184787,1,0,0:0:0:0:
298,192,184787,1,0,0:0:0:0:
469,192,184883,1,0,0:0:0:0:
42,192,184980,1,0,0:0:0:60:kick.wav
213,192,184980,1,0,0:0:0:50:clap.wav
298,192,184980,1,0,0:0:0:0:
469,192,185076,1,0,0:0:0:0:
128,192,185172,1,0,0:0:0:0:
384,192,185172,1,0,0:0:0:0:
42,192,185268,1,0,0:0:0:0:
213,192,185364,1,0,0:0:0:60:kick.wav
298,192,185364,1,0,0:0:0:0:
469,192,185364,1,0,0:0:0:0:
384,192,185460,1,0,0:0:0:0:
42,192,185556,1,0,0:0:0:60:kick.wav
128,192,185556,1,0,0:0:0:0:
469,192,185556,1,0,0:0:0:0:
213,192,185605,1,0,0:0:0:60:kick.wav
298,192,185653,1,0,0:0:0:60:kick.wav
384,192,185701,1,0,0:0:0:60:kick.wav
42,192,185749,1,0,0:0:0:60:kick.wav
128,192,185749,1,0,0:0:0:50:clap.wav
469,192,185749,1,0,0:0:0:0:
213,192,185845,1,0,0:0:0:0:
298,192,185941,1,0,0:0:0:60:kick.wav
384,192,185941,1,0,0:0:0:0:
469,192,185941,1,0,0:0:0:0:
213,192,186037,1,0,0:0:0:0:
42,192,186133,1,0,0:0:0:100:cymbal.wav
128,192,186133,1,0,0:0:0:60:kick.wav
384,192,186133,1,0,0:0:0:0:
469,192,186133,1,0,0:0:0:0:
298,192,186230,1,0,0:0:0:0:
42,192,186326,1,0,0:0:0:60:kick.wav
128,192,186326,1,0,0:0:0:0:
213,192,186326,1,0,0:0:0:0:
469,192,186422,1,0,0:0:0:0:
42,192,186518,1,0,0:0:0:60:kick.wav
128,192,186518,1,0,0:0:0:50:clap.wav
384,192,186518,1,0,0:0:0:0:
298,192,186614,1,0,0:0:0:0:
42,192,186710,1,0,0:0:0:60:kick.wav
128,192,186710,1,0,0:0:0:0:
384,192,186710,1,0,0:0:0:0:
469,192,186806,1,0,0:0:0:0:
42,192,186903,1,0,0:0:0:100:cymbal.wav
128,192,186903,1,0,0:0:0:60:kick.wav
298,192,186903,1,0,0:0:0:0:
384,192,186999,1,0,0:0:0:0:
42,192,187095,1,0,0:0:0:60:kick.wav
128,192,187095,1,0,0:0:0:0:
469,192,187095,1,0,0:0:0:0:
384,192,187191,1,0,0:0:0:0:
42,192,187287,1,0,0:0:0:60:kick.wav
128,192,187287,1,0,0:0:0:50:clap.wav
298,192,187287,1,0,0:0:0:0:
469,192,187383,1,0,0:0:0:0:
42,192,187480,1,0,0:0:0:60:kick.wav
128,192,187480,1,0,0:0:0:0:
384,192,187480,1,0,0:0:0:0:
213,192,187576,1,0,0:0:0:60:kick.wav
298,192,187576,1,0,0:0:0:0:
42,192,187672,1,0,0:0:0:100:cymbal.wav
128,192,187672,1,0,0:0:0:60:kick.wav
384,192,187672,1,0,0:0:0:0:
469,192,187672,1,0,0:0:0:0:
213,192,187768,1,0,0:0:0:0:
298,192,187864,1,0,0:0:0:60:kick.wav
384,192,187864,1,0,0:0:0:0:
469,192,187864,1,0,0:0:0:0:
42,192,187960,1,0,0:0:0:0:
128,192,188056,1,0,0:0:0:100:cymbal.wav
384,192,188056,1,0,0:0:0:60:kick.wav
469,192,188056,1,0,0:0:0:50:clap.wav
213,192,188153,1,0,0:0:0:0:
298,192,188249,1,0,0:0:0:60:kick.wav
384,192,188249,1,0,0:0:0:0:
469,192,188249,1,0,0:0:0:0:
213,192,188345,1,0,0:0:0:0:
128,192,188441,1,0,0:0:0:100:cymbal.wav
384,192,188441,1,0,0:0:0:60:kick.wav
469,192,188441,1,0,0:0:0:0:
42,192,188537,1,0,0:0:0:0:
213,192,188633,1,0,0:0:0:60:kick.wav
384,192,188633,1,0,0:0:0:0:
469,192,188633,1,0,0:0:0:0:
128,192,188730,1,0,0:0:0:60:kick.wav
298,192,188730,1,0,0:0:0:0:
42,192,188826,1,0,0:0:0:100:cymbal.wav
384,192,188826,1,0,0:0:0:60:kick.wav
469,192,188826,1,0,0:0:0:50:clap.wav
128,192,188922,1,0,0:0:0:0:
213,192,189018,1,0,0:0:0:60:kick.wav
384,192,189018,1,0,0:0:0:0:
469,192,189018,1,0,0:0:0:0:
298,192,189114,1,0,0:0:0:0:
42,192,189210,1,0,0:0:0:100:cymbal.wav
128,192,189210,1,0,0:0:0:60:kick.wav
384,192,189210,1,0,0:0:0:0:
469,192,189210,1,0,0:0:0:0:
213,192,189306,1,0,0:0:0:60:kick.wav
298,192,189306,1,0,0:0:0:0:
42,192,189403,1,0,0:0:0:60:kick.wav
469,192,189403,1,0,0:0:0:0:
128,192,189499,1,0,0:0:0:60:kick.wav
384,192,189499,1,0,0:0:0:0:
42,192,189595,1,0,0:0:0:100:cymbal.wav
213,192,189595,1,0,0:0:0:60:kick.wav
298,192,189595,1,0,0:0:0:50:clap.wav
128,192,189691,1,0,0:0:0:60:kick.wav
384,192,189691,1,0,0:0:0:0:
213,192,189787,1,0,0:0:0:60:kick.wav
469,192,189787,1,0,0:0:0:0:
42,192,189883,1,0,0:0:0:60:kick.wav
298,192,189883,1,0,0:0:0:0:
128,192,189980,1,0,0:0:0:100:cymbal.wav
384,192,189980,1,0,0:0:0:60:kick.wav
469,192,189980,1,0,0:0:0:0:
213,192,190076,1,0,0:0:0:60:kick.wav
298,192,190076,1,0,0:0:0:0:
42,192,190172,1,0,0:0:0:60:kick.wav
384,192,190172,1,0,0:0:0:0:
128,192,190268,1,0,0:0:0:60:kick.wav
213,192,190268,1,0,0:0:0:0:
298,192,190364,1,0,0:0:0:100:cymbal.wav
384,192,190364,1,0,0:0:0:60:kick.wav
469,192,190364,1,0,0:0:0:50:clap.wav
42,192,190460,1,0,0:0:0:60:kick.wav
128,192,190460,1,0,0:0:0:0:
213,192,190556,1,0,0:0:0:60:kick.wav
469,192,190556,1,0,0:0:0:0:
298,192,190653,1,0,0:0:0:60:kick.wav
384,192,190653,1,0,0:0:0:0:
42,192,190749,1,0,0:0:0:100:cymbal.wav
128,192,190749,1,0,0:0:0:60:kick.wav
213,192,190749,1,0,0:0:0:0:
384,192,190845,1,0,0:0:0:60:kick.wav
469,192,190845,1,0,0:0:0:0:
42,192,190941,1,0,0:0:0:100:cymbal.wav
128,192,190941,1,0,0:0:0:60:kick.wav
298,192,190941,1,0,0:0:0:0:
384,192,191037,1,0,0:0:0:60:kick.wav
469,192,191037,1,0,0:0:0:0:
42,192,191133,1,0,0:0:0:100:cymbal.wav
128,192,191133,1,0,0:0:0:60:kick.wav
213,192,191133,1,0,0:0:0:50:clap.wav
384,192,191230,1,0,0:0:0:60:kick.wav
469,192,191230,1,0,0:0:0:0:
42,192,191326,1,0,0:0:0:100:cymbal.wav
128,192,191326,1,0,0:0:0:60:kick.wav
298,192,191326,1,0,0:0:0:0:
384,192,191422,1,0,0:0:0:60:kick.wav
469,192,191422,1,0,0:0:0:0:
42,192,191518,1,0,0:0:0:100:cymbal.wav
128,192,191518,1,0,0:0:0:60:kick.wav
213,192,191518,1,0,0:0:0:0:
298,192,191566,1,0,0:0:0:60:kick.wav
384,192,191614,1,0,0:0:0:60:kick.wav
469,192,191662,1,0,0:0:0:60:kick.wav
42,192,191710,1,0,0:0:0:100:cymbal.wav
128,192,191710,1,0,0:0:0:60:kick.wav
213,192,191758,1,0,0:0:0:60:kick.wav
298,192,191806,1,0,0:0:0:60:kick.wav
384,192,191855,1,0,0:0:0:60:kick.wav
42,192,191903,1,0,0:0:0:100:cymbal.wav
469,192,191903,1,0,0:0:0:60:kick.wav
128,192,191951,1,0,0:0:0:60:kick.wav
213,192,191999,1,0,0:0:0:60:kick.wav
298,192,192047,1,0,0:0:0:60:kick.wav
384,192,192095,1,0,0:0:0:100:cymbal.wav
469,192,192095,1,0,0:0:0:60:kick.wav
42,192,192143,1,0,0:0:0:60:kick.wav
128,192,192191,1,0,0:0:0:60:kick.wav
213,192,192239,1,0,0:0:0:60:kick.wav
42,192,192287,128,0,195364:0:0:0:100:cymbal.wav
298,192,192287,128,0,194595:0:0:0:60:kick.wav
384,192,192287,128,0,193826:0:0:0:100:BassKickReverbXD.wav
469,192,192287,128,0,193056:0:0:0:0:
298,192,196793,1,0,0:0:0:70:A#6.wav
384,192,196838,1,0,0:0:0:70:D7.wav
469,192,196903,1,0,0:0:0:70:G7.wav
42,192,198441,128,0,202074:0:0:0:70:0_D#3.wav
213,192,198441,128,0,201512:0:0:0:70:0_A#3.wav
298,192,198441,128,0,201133:0:0:0:70:0_G4.wav
469,192,201133,1,0,0:0:0:70:A#7.wav
384,192,201512,1,0,0:0:0:70:A7.wav
298,192,202074,1,0,0:0:0:70:F7.wav
128,192,202670,1,0,0:0:0:70:C7.wav
128,192,203593,1,0,0:0:0:70:C7.wav
213,192,204001,1,0,0:0:0:70:F7.wav
42,192,204593,128,0,207066:0:0:0:70:0_D#3.wav
298,192,204593,128,0,207066:0:0:0:70:0_A#3.wav
469,192,204593,128,0,207066:0:0:0:70:0_G4.wav
384,192,204990,1,0,0:0:0:70:G7.wav
213,192,207066,1,0,0:0:0:70:F7.wav
298,192,207374,1,0,0:0:0:70:G7.wav
128,192,207646,1,0,0:0:0:70:C7.wav
213,192,207673,128,0,208759:0:0:0:70:0_F3.wav
384,192,207673,128,0,209306:0:0:0:70:0_C4.wav
469,192,207673,128,0,209982:0:0:0:70:0_A4.wav
42,192,208212,1,0,0:0:0:70:A6.wav
128,192,208759,1,0,0:0:0:70:A#6.wav
213,192,209306,1,0,0:0:0:70:C7.wav
298,192,209982,1,0,0:0:0:70:F7.wav
42,192,210746,128,0,214451:0:0:0:70:0_G3.wav
128,192,210746,128,0,214451:0:0:0:70:0_D4.wav
384,192,210746,128,0,212260:0:0:0:70:0_A#4.wav
213,192,212260,1,0,0:0:0:70:D7.wav
469,192,214451,1,0,0:0:0:70:D8.wav
