osu file format v14

[General]
AudioFilename: audio.mp3
AudioLeadIn: 0
PreviewTime: 127287
Countdown: 0
SampleSet: Soft
StackLeniency: 0.7
Mode: 3
LetterboxInBreaks: 0
SpecialStyle: 0
WidescreenStoryboard: 0

[Editor]
Bookmarks: 1518,13826,26133,52287,76903,89210,101518,113826,127672,152287,176903,192287
DistanceSpacing: 0.9
BeatDivisor: 4
GridSize: 4
TimelineZoom: 1.9

[Metadata]
Title:Babylon
TitleUnicode:Babylon
Artist:BlackY
ArtistUnicode:BlackY
Creator:Madoka2574
Version:6K Eternity
Source:
Tags:BlackmaniYa BlackY's BEATFLOOR Chenut_BS Chenut BS liaoxingyao electronic instrumental
BeatmapID:2254450
BeatmapSetID:634232

[Difficulty]
HPDrainRate:8.8
CircleSize:6
OverallDifficulty:8
ApproachRate:5
SliderMultiplier:1.4
SliderTickRate:1

[Events]
//Background and Video events
0,0,"BG for 6K.jpg",0,0
//Break Periods
//Storyboard Layer 0 (Background)
//Storyboard Layer 1 (Fail)
//Storyboard Layer 2 (Pass)
//Storyboard Layer 3 (Foreground)
//Storyboard Layer 4 (Overlay)
//Storyboard Sound Samples
Sample,188056,0,"clap.wav",50
Sample,188826,0,"clap.wav",50
Sample,189595,0,"clap.wav",50
Sample,190364,0,"clap.wav",50
Sample,191903,0,"clap.wav",50
Sample,198441,0,"0_D5.wav",70
Sample,198441,0,"0_F5.wav",70
Sample,204593,0,"0_D5.wav",70
Sample,204593,0,"0_F5.wav",70
Sample,207673,0,"0_D#5.wav",70
Sample,207673,0,"0_F5.wav",70
Sample,210746,0,"0_F5.wav",70

[TimingPoints]
-20,384.615384615385,4,2,1,40,1,0
13056,-66.6666666666667,4,2,1,40,0,0
13249,-133.333333333333,4,2,1,40,0,0
13633,-66.6666666666667,4,2,1,40,0,0
13730,-200,4,2,1,40,0,0
13826,-66.6666666666667,4,2,1,40,0,0
13874,-200,4,2,1,40,0,0
13922,-100,4,2,1,40,0,0
100941,-166.666666666667,4,2,1,40,0,0
101133,-125,4,2,1,40,0,0
101230,-99.9999999999999,4,2,1,40,0,0
101326,-83.3333333333333,4,2,1,40,0,0
101422,-71.4285714285714,4,2,1,40,0,0
101518,-111.111111111111,4,2,1,40,0,0
113056,-100,4,2,1,40,0,0
123056,-98.0392156862745,4,2,1,40,0,0
123826,-96.1538461538461,4,2,1,40,0,0
124595,-94.3396226415094,4,2,1,40,0,0
125364,-92.5925925925926,4,2,1,40,0,0
126133,-90.9090909090909,4,2,1,40,0,0
127287,-166.666666666667,4,2,1,40,0,0
127480,-83.3333333333333,4,2,1,40,0,0
127576,-62.5,4,2,1,40,0,0
127672,-100,4,2,1,40,0,1
151903,-100,4,2,1,40,0,0
152287,-100,4,2,1,40,0,1
176518,-100,4,2,1,40,0,0
176903,-100,4,2,1,40,0,1
192287,-105.263157894737,4,2,1,40,0,0
193056,-111.111111111111,4,2,1,40,0,0
193826,-117.647058823529,4,2,1,40,0,0
194595,-125,4,2,1,40,0,0
195364,-133.333333333333,4,2,1,40,0,0
201133,379.746835443038,4,2,1,40,1,0
201133,-135.042735042735,4,2,1,40,0,0
201512,375,4,2,1,40,1,0
201512,-136.752136752137,4,2,1,40,0,0
202074,397.350993377483,4,2,1,40,1,0
202074,-129.059829059829,4,2,1,40,0,0
202670,461.538461538462,4,2,1,40,1,0
202670,-111.111111111111,4,2,1,40,0,0
203593,408.163265306122,4,2,1,40,1,0
203593,-125.641025641026,4,2,1,40,0,0
204001,394.736842105263,4,2,1,40,1,0
204001,-129.91452991453,4,2,1,40,0,0
204593,397.350993377483,4,2,1,40,1,0
204593,-129.059829059829,4,2,1,40,0,0
204990,415.22491349481,4,2,1,40,1,0
204990,-123.504273504273,4,2,1,40,0,0
207066,410.958904109589,4,2,1,40,1,0
207066,-124.786324786325,4,2,1,40,0,0
207374,363.636363636364,4,2,1,40,1,0
207374,-141.023833027782,4,2,1,40,0,0
207646,441.176470588235,4,2,1,40,1,0
207646,-116.238521446007,4,2,1,40,0,0
207673,431.654676258993,4,2,1,40,1,0
207673,-118.803418803419,4,2,1,40,0,0
208212,437.956204379562,4,2,1,40,1,0
208212,-117.094017094017,4,2,1,40,0,0
209306,451.127819548872,4,2,1,40,1,0
209306,-113.675213675214,4,2,1,40,0,0
209982,382.165605095541,4,2,1,40,1,0
209982,-134.188034188034,4,2,1,40,0,0
210746,378.548895899054,4,2,1,40,1,0
210746,-156.311637080868,4,2,1,40,0,0
212260,547.945205479452,4,2,1,40,1,0
212260,-140.384615384615,4,2,1,40,0,0

[HitObjects]
469,192,1518,128,0,5364:0:0:0:100:organ2_005.wav
298,192,3056,128,0,4595:0:0:0:50:organ2_003.wav
384,192,3056,128,0,5364:0:0:0:50:organ2_003.wav
42,192,3826,128,0,5364:0:0:0:50:organ2_001.wav
213,192,3826,128,0,5364:0:0:0:50:organ2_001.wav
128,192,4595,128,0,8633:0:0:0:100:organ2_000.wav
298,192,5364,128,0,7576:0:0:0:100:organ2_008.wav
42,192,6133,128,0,7576:0:0:0:25:organ2_009.wav
213,192,6133,128,0,8345:0:0:0:25:organ2_009.wav
384,192,6133,128,0,8922:0:0:0:25:organ2_009.wav
469,192,6133,128,0,7576:0:0:0:25:organ2_009.wav
42,192,7672,128,0,8345:0:0:0:100:organ2_006.wav
298,192,7672,128,0,8633:0:0:0:33:organ2_006.wav
469,192,7672,128,0,9114:0:0:0:34:organ2_006.wav
42,192,8441,128,0,9883:0:0:0:50:organ2_002.wav
213,192,8441,128,0,8922:0:0:0:50:organ2_002.wav
128,192,8730,128,0,9114:0:0:0:50:organ2_004.wav
298,192,8730,128,0,9114:0:0:0:50:organ2_004.wav
213,192,9018,128,0,9883:0:0:0:50:organ2_007.wav
384,192,9018,128,0,9883:0:0:0:50:organ2_007.wav
128,192,9210,128,0,11518:0:0:0:34:organ2_008.wav
298,192,9210,128,0,9980:0:0:0:33:organ2_008.wav
469,192,9210,128,0,9980:0:0:0:33:organ2_008.wav
42,192,9980,128,0,10749:0:0:0:33:organ2_006.wav
213,192,9980,128,0,10749:0:0:0:33:organ2_006.wav
384,192,9980,128,0,11518:0:0:0:34:organ2_006.wav
298,192,10749,128,0,12287:0:0:0:50:organ2_012.wav
469,192,10749,128,0,11518:0:0:0:50:organ2_012.wav
213,192,11518,128,0,12287:0:0:0:50:organ2_011.wav
42,192,11518,128,0,13056:0:0:0:50:organ2_011.wav
128,192,12287,128,0,13056:0:0:0:33:organ2_003.wav
384,192,12287,128,0,13056:0:0:0:33:organ2_003.wav
469,192,12287,128,0,13056:0:0:0:34:organ2_003.wav
213,192,13056,128,0,13633:0:0:0:50:organ2_010.wav
298,192,13056,128,0,13633:0:0:0:50:organ2_010.wav
42,192,13633,1,0,0:0:0:60:kick.wav
128,192,13633,1,0,0:0:0:0:
384,192,13633,1,0,0:0:0:0:
469,192,13633,1,0,0:0:0:0:
42,192,13826,128,0,14018:0:0:0:100:cymbal.wav
128,192,13826,1,0,0:0:0:60:kick.wav
298,192,13826,1,0,0:0:0:100:BassKickReverbXD.wav
384,192,13826,1,0,0:0:0:0:
469,192,13826,1,0,0:0:0:0:
213,192,13922,1,0,0:0:0:0:
298,192,14018,1,0,0:0:0:0:
469,192,14114,1,0,0:0:0:0:
42,192,14210,128,0,14403:0:0:0:50:clap.wav
128,192,14210,1,0,0:0:0:0:
213,192,14306,1,0,0:0:0:0:
384,192,14403,1,0,0:0:0:0:
469,192,14499,1,0,0:0:0:0:
42,192,14595,128,0,14787:0:0:0:0:
213,192,14595,1,0,0:0:0:0:
384,192,14691,1,0,0:0:0:0:
298,192,14787,1,0,0:0:0:0:
128,192,14883,1,0,0:0:0:0:
42,192,14980,128,0,15172:0:0:0:50:clap.wav
469,192,14980,1,0,0:0:0:0:
384,192,15076,1,0,0:0:0:0:
213,192,15172,1,0,0:0:0:0:
128,192,15268,1,0,0:0:0:0:
298,192,15364,128,0,15556:0:0:0:0:
469,192,15364,1,0,0:0:0:0:
42,192,15460,1,0,0:0:0:0:
213,192,15556,1,0,0:0:0:0:
469,192,15653,1,0,0:0:0:0:
42,192,15749,1,0,0:0:0:50:clap.wav
298,192,15749,128,0,15941:0:0:0:0:
128,192,15845,1,0,0:0:0:0:
384,192,15941,1,0,0:0:0:0:
469,192,16037,1,0,0:0:0:0:
42,192,16133,1,0,0:0:0:0:
298,192,16133,128,0,16326:0:0:0:0:
213,192,16230,1,0,0:0:0:0:
384,192,16326,1,0,0:0:0:0:
128,192,16422,1,0,0:0:0:0:
42,192,16518,1,0,0:0:0:50:clap.wav
298,192,16518,128,0,16710:0:0:0:0:
469,192,16614,1,0,0:0:0:0:
213,192,16710,1,0,0:0:0:0:
384,192,16806,1,0,0:0:0:0:
42,192,16903,1,0,0:0:0:100:cymbal.wav
128,192,16903,128,0,17095:0:0:0:60:kick.wav
298,192,16903,1,0,0:0:0:0:
469,192,16903,1,0,0:0:0:0:
213,192,16999,1,0,0:0:0:0:
384,192,17095,1,0,0:0:0:0:
469,192,17191,1,0,0:0:0:0:
128,192,17287,128,0,17480:0:0:0:50:clap.wav
384,192,17287,1,0,0:0:0:0:
213,192,17383,1,0,0:0:0:0:
298,192,17480,1,0,0:0:0:0:
469,192,17576,1,0,0:0:0:0:
128,192,17672,128,0,17864:0:0:0:0:
384,192,17672,1,0,0:0:0:0:
298,192,17768,1,0,0:0:0:0:
213,192,17864,1,0,0:0:0:0:
384,192,17960,1,0,0:0:0:0:
128,192,18056,128,0,18249:0:0:0:50:clap.wav
469,192,18056,1,0,0:0:0:0:
213,192,18153,1,0,0:0:0:0:
298,192,18249,1,0,0:0:0:0:
384,192,18345,1,0,0:0:0:0:
42,192,18441,1,0,0:0:0:60:kick.wav
213,192,18441,1,0,0:0:0:0:
469,192,18441,128,0,18633:0:0:0:0:
298,192,18537,1,0,0:0:0:0:
128,192,18633,1,0,0:0:0:0:
384,192,18730,1,0,0:0:0:0:
213,192,18826,1,0,0:0:0:50:clap.wav
469,192,18826,128,0,19018:0:0:0:0:
42,192,18922,1,0,0:0:0:0:
298,192,19018,1,0,0:0:0:0:
128,192,19114,1,0,0:0:0:0:
42,192,19210,1,0,0:0:0:60:kick.wav
298,192,19210,1,0,0:0:0:0:
469,192,19210,128,0,19403:0:0:0:0:
213,192,19306,1,0,0:0:0:0:
384,192,19403,1,0,0:0:0:0:
128,192,19499,1,0,0:0:0:0:
298,192,19595,1,0,0:0:0:50:clap.wav
469,192,19595,128,0,19787:0:0:0:0:
42,192,19691,1,0,0:0:0:0:
128,192,19787,1,0,0:0:0:60:kick.wav
213,192,19787,1,0,0:0:0:0:
384,192,19787,1,0,0:0:0:0:
298,192,19883,1,0,0:0:0:0:
42,192,19980,1,0,0:0:0:100:cymbal.wav
213,192,19980,128,0,20172:0:0:0:60:kick.wav
384,192,19980,1,0,0:0:0:0:
469,192,19980,1,0,0:0:0:0:
128,192,20076,1,0,0:0:0:0:
298,192,20172,1,0,0:0:0:0:
384,192,20268,1,0,0:0:0:0:
42,192,20364,1,0,0:0:0:50:clap.wav
213,192,20364,128,0,20556:0:0:0:0:
469,192,20460,1,0,0:0:0:0:
384,192,20556,1,0,0:0:0:0:
128,192,20653,1,0,0:0:0:0:
42,192,20749,1,0,0:0:0:60:kick.wav
213,192,20749,128,0,20941:0:0:0:0:
469,192,20749,1,0,0:0:0:0:
298,192,20845,1,0,0:0:0:0:
469,192,20941,1,0,0:0:0:0:
298,192,21037,1,0,0:0:0:0:
213,192,21133,128,0,21326:0:0:0:50:clap.wav
469,192,21133,1,0,0:0:0:0:
298,192,21326,1,0,0:0:0:0:
42,192,21518,128,0,21710:0:0:0:100:cymbal.wav
128,192,21518,1,0,0:0:0:60:kick.wav
384,192,21518,1,0,0:0:0:0:
469,192,21518,1,0,0:0:0:0:
298,192,21614,1,0,0:0:0:0:
213,192,21710,1,0,0:0:0:0:
128,192,21806,1,0,0:0:0:0:
42,192,21903,128,0,22095:0:0:0:50:clap.wav
469,192,21903,1,0,0:0:0:0:
384,192,21999,1,0,0:0:0:0:
213,192,22095,1,0,0:0:0:0:
298,192,22191,1,0,0:0:0:0:
42,192,22287,128,0,22480:0:0:0:60:kick.wav
128,192,22287,1,0,0:0:0:0:
469,192,22287,1,0,0:0:0:0:
298,192,22383,1,0,0:0:0:0:
384,192,22480,1,0,0:0:0:0:
213,192,22576,1,0,0:0:0:0:
42,192,22672,128,0,22864:0:0:0:50:clap.wav
298,192,22672,1,0,0:0:0:0:
128,192,22768,1,0,0:0:0:0:
213,192,22864,1,0,0:0:0:60:kick.wav
384,192,22864,1,0,0:0:0:0:
469,192,22864,1,0,0:0:0:0:
298,192,22960,1,0,0:0:0:0:
42,192,23056,1,0,0:0:0:100:cymbal.wav
128,192,23056,1,0,0:0:0:60:kick.wav
384,192,23056,128,0,23249:0:0:0:0:
469,192,23056,1,0,0:0:0:0:
213,192,23153,1,0,0:0:0:0:
298,192,23249,1,0,0:0:0:0:
128,192,23345,1,0,0:0:0:0:
213,192,23441,1,0,0:0:0:60:kick.wav
384,192,23441,128,0,23633:0:0:0:50:clap.wav
469,192,23441,1,0,0:0:0:0:
42,192,23537,1,0,0:0:0:0:
213,192,23633,1,0,0:0:0:0:
128,192,23730,1,0,0:0:0:0:
42,192,23826,1,0,0:0:0:100:cymbal.wav
298,192,23826,1,0,0:0:0:60:kick.wav
384,192,23826,128,0,24018:0:0:0:0:
469,192,23826,1,0,0:0:0:0:
128,192,23922,1,0,0:0:0:0:
213,192,24018,1,0,0:0:0:0:
298,192,24114,1,0,0:0:0:0:
42,192,24210,1,0,0:0:0:60:kick.wav
128,192,24210,1,0,0:0:0:50:clap.wav
384,192,24210,128,0,24403:0:0:0:0:
469,192,24210,1,0,0:0:0:0:
213,192,24306,1,0,0:0:0:0:
42,192,24403,1,0,0:0:0:60:kick.wav
128,192,24403,1,0,0:0:0:0:
298,192,24403,1,0,0:0:0:0:
384,192,24499,1,0,0:0:0:0:
42,192,24595,1,0,0:0:0:100:cymbal.wav
128,192,24595,1,0,0:0:0:60:kick.wav
213,192,24595,1,0,0:0:0:0:
469,192,24595,1,0,0:0:0:0:
128,192,24787,1,0,0:0:0:60:kick.wav
298,192,24787,1,0,0:0:0:0:
384,192,24787,1,0,0:0:0:0:
42,192,24980,1,0,0:0:0:100:cymbal.wav
213,192,24980,1,0,0:0:0:60:kick.wav
384,192,24980,1,0,0:0:0:50:clap.wav
469,192,24980,1,0,0:0:0:0:
128,192,25172,1,0,0:0:0:60:kick.wav
298,192,25172,1,0,0:0:0:0:
469,192,25172,1,0,0:0:0:0:
42,192,25364,1,0,0:0:0:100:cymbal.wav
128,192,25364,1,0,0:0:0:60:kick.wav
213,192,25364,1,0,0:0:0:0:
469,192,25364,1,0,0:0:0:0:
298,192,25460,1,0,0:0:0:60:kick.wav
384,192,25460,1,0,0:0:0:0:
42,192,25556,1,0,0:0:0:60:kick.wav
128,192,25556,1,0,0:0:0:0:
469,192,25556,1,0,0:0:0:0:
213,192,25653,1,0,0:0:0:60:kick.wav
298,192,25653,1,0,0:0:0:0:
42,192,25749,1,0,0:0:0:100:cymbal.wav
384,192,25749,1,0,0:0:0:60:kick.wav
469,192,25749,1,0,0:0:0:50:clap.wav
128,192,25845,1,0,0:0:0:60:kick.wav
213,192,25845,1,0,0:0:0:0:
42,192,25941,1,0,0:0:0:60:kick.wav
384,192,25941,1,0,0:0:0:0:
469,192,25941,1,0,0:0:0:0:
213,192,26037,1,0,0:0:0:60:kick.wav
298,192,26037,1,0,0:0:0:0:
42,192,26133,1,0,0:0:0:100:cymbal.wav
128,192,26133,128,0,26230:0:0:0:60:kick.wav
384,192,26133,1,0,0:0:0:100:BassKickReverbXD.wav
469,192,26133,128,0,26326:0:0:0:0:
213,192,26230,128,0,26326:0:0:0:0:
298,192,26326,128,0,26422:0:0:0:0:
384,192,26422,128,0,26518:0:0:0:0:
42,192,26518,1,0,0:0:0:60:kick.wav
213,192,26518,128,0,26614:0:0:0:50:clap.wav
469,192,26518,128,0,26710:0:0:0:0:
298,192,26614,128,0,26710:0:0:0:0:
384,192,26710,128,0,26806:0:0:0:0:
128,192,26806,128,0,26903:0:0:0:0:
42,192,26903,1,0,0:0:0:60:kick.wav
298,192,26903,128,0,27095:0:0:0:0:
469,192,26903,128,0,27095:0:0:0:0:
213,192,26999,128,0,27191:0:0:0:0:
128,192,27095,128,0,27287:0:0:0:0:
42,192,27191,128,0,27383:0:0:0:0:
213,192,27287,1,0,0:0:0:60:kick.wav
384,192,27287,128,0,27480:0:0:0:50:clap.wav
469,192,27287,128,0,27480:0:0:0:0:
298,192,27383,128,0,27576:0:0:0:0:
213,192,27480,128,0,27672:0:0:0:0:
128,192,27576,128,0,27672:0:0:0:0:
42,192,27672,128,0,27768:0:0:0:60:kick.wav
384,192,27672,128,0,27864:0:0:0:0:
469,192,27672,1,0,0:0:0:0:
298,192,27768,128,0,27864:0:0:0:0:
128,192,27864,128,0,27960:0:0:0:0:
213,192,27960,128,0,28056:0:0:0:0:
42,192,28056,128,0,28153:0:0:0:60:kick.wav
384,192,28056,128,0,28249:0:0:0:50:clap.wav
469,192,28056,1,0,0:0:0:0:
128,192,28153,128,0,28249:0:0:0:0:
298,192,28249,128,0,28345:0:0:0:0:
213,192,28345,128,0,28441:0:0:0:0:
42,192,28441,128,0,28633:0:0:0:60:kick.wav
384,192,28441,128,0,28633:0:0:0:0:
469,192,28441,1,0,0:0:0:0:
128,192,28537,128,0,28730:0:0:0:0:
213,192,28633,128,0,28826:0:0:0:0:
298,192,28730,128,0,28922:0:0:0:0:
42,192,28826,128,0,29018:0:0:0:60:kick.wav
384,192,28826,128,0,29018:0:0:0:50:clap.wav
469,192,28826,1,0,0:0:0:0:
128,192,28922,128,0,29114:0:0:0:0:
213,192,29018,128,0,29210:0:0:0:0:
298,192,29114,128,0,29210:0:0:0:0:
42,192,29210,1,0,0:0:0:60:kick.wav
128,192,29210,128,0,29403:0:0:0:0:
469,192,29210,128,0,29306:0:0:0:0:
384,192,29306,128,0,29403:0:0:0:0:
298,192,29403,128,0,29499:0:0:0:0:
384,192,29499,128,0,29595:0:0:0:0:
42,192,29595,1,0,0:0:0:60:kick.wav
128,192,29595,128,0,29787:0:0:0:50:clap.wav
298,192,29595,128,0,29691:0:0:0:0:
213,192,29691,128,0,29787:0:0:0:0:
469,192,29787,128,0,29883:0:0:0:0:
384,192,29883,128,0,29980:0:0:0:0:
42,192,29980,1,0,0:0:0:60:kick.wav
128,192,29980,128,0,30172:0:0:0:0:
298,192,29980,128,0,30076:0:0:0:0:
384,192,30076,128,0,30172:0:0:0:0:
469,192,30172,128,0,30268:0:0:0:0:
298,192,30268,128,0,30364:0:0:0:0:
42,192,30364,1,0,0:0:0:60:kick.wav
128,192,30364,128,0,30556:0:0:0:50:clap.wav
384,192,30364,128,0,30460:0:0:0:0:
469,192,30460,128,0,30556:0:0:0:0:
213,192,30556,128,0,30653:0:0:0:0:
298,192,30653,128,0,30749:0:0:0:0:
42,192,30749,128,0,30941:0:0:0:60:kick.wav
128,192,30749,1,0,0:0:0:0:
384,192,30749,128,0,30941:0:0:0:0:
469,192,30845,128,0,30941:0:0:0:0:
213,192,30941,128,0,31133:0:0:0:0:
298,192,31037,128,0,31133:0:0:0:0:
42,192,31133,128,0,31326:0:0:0:60:kick.wav
128,192,31133,1,0,0:0:0:50:clap.wav
469,192,31133,128,0,31326:0:0:0:0:
384,192,31230,128,0,31326:0:0:0:0:
213,192,31326,128,0,31518:0:0:0:0:
128,192,31422,128,0,31518:0:0:0:0:
42,192,31518,128,0,31710:0:0:0:60:kick.wav
298,192,31518,1,0,0:0:0:0:
384,192,31518,128,0,31710:0:0:0:0:
469,192,31614,128,0,31710:0:0:0:0:
298,192,31710,128,0,31903:0:0:0:0:
384,192,31806,128,0,31903:0:0:0:0:
42,192,31903,128,0,32095:0:0:0:60:kick.wav
213,192,31903,128,0,32095:0:0:0:50:clap.wav
469,192,31903,1,0,0:0:0:0:
298,192,31999,128,0,32095:0:0:0:0:
128,192,32095,128,0,32287:0:0:0:60:kick.wav
469,192,32095,1,0,0:0:0:0:
213,192,32191,128,0,32287:0:0:0:0:
42,192,32287,128,0,32383:0:0:0:60:kick.wav
298,192,32287,128,0,32480:0:0:0:0:
469,192,32287,1,0,0:0:0:0:
128,192,32383,128,0,32480:0:0:0:0:
384,192,32480,128,0,32576:0:0:0:0:
469,192,32576,128,0,32672:0:0:0:0:
42,192,32672,1,0,0:0:0:60:kick.wav
128,192,32672,128,0,32768:0:0:0:50:clap.wav
298,192,32672,128,0,32864:0:0:0:0:
213,192,32768,128,0,32864:0:0:0:0:
384,192,32864,128,0,32960:0:0:0:0:
469,192,32960,128,0,33056:0:0:0:0:
42,192,33056,128,0,33153:0:0:0:60:kick.wav
128,192,33056,128,0,33153:0:0:0:0:
298,192,33056,128,0,33249:0:0:0:0:
384,192,33153,128,0,33249:0:0:0:0:
128,192,33249,128,0,33345:0:0:0:0:
213,192,33249,128,0,33345:0:0:0:0:
469,192,33345,128,0,33441:0:0:0:0:
42,192,33441,128,0,33537:0:0:0:60:kick.wav
128,192,33441,128,0,33537:0:0:0:50:clap.wav
298,192,33441,128,0,33633:0:0:0:0:
384,192,33633,1,0,0:0:0:0:
42,192,33826,1,0,0:0:0:60:kick.wav
213,192,33826,128,0,34018:0:0:0:0:
469,192,33826,128,0,34018:0:0:0:0:
384,192,33922,128,0,34114:0:0:0:0:
298,192,34018,128,0,34210:0:0:0:0:
128,192,34114,128,0,34210:0:0:0:0:
42,192,34210,1,0,0:0:0:60:kick.wav
213,192,34210,128,0,34403:0:0:0:50:clap.wav
469,192,34210,128,0,34403:0:0:0:0:
384,192,34306,128,0,34499:0:0:0:0:
128,192,34403,128,0,34595:0:0:0:0:
42,192,34499,128,0,34595:0:0:0:0:
213,192,34595,128,0,34787:0:0:0:60:kick.wav
298,192,34595,1,0,0:0:0:0:
469,192,34595,128,0,34787:0:0:0:0:
128,192,34691,128,0,34883:0:0:0:0:
384,192,34787,128,0,34980:0:0:0:0:
298,192,34883,128,0,34980:0:0:0:0:
42,192,34980,128,0,35172:0:0:0:60:kick.wav
213,192,34980,128,0,35172:0:0:0:50:clap.wav
469,192,34980,1,0,0:0:0:0:
128,192,35076,128,0,35268:0:0:0:0:
298,192,35172,128,0,35364:0:0:0:0:
384,192,35268,128,0,35364:0:0:0:0:
42,192,35364,1,0,0:0:0:60:kick.wav
128,192,35364,128,0,35556:0:0:0:0:
469,192,35364,128,0,35460:0:0:0:0:
213,192,35460,128,0,35556:0:0:0:0:
298,192,35556,128,0,35653:0:0:0:0:
384,192,35653,128,0,35749:0:0:0:0:
42,192,35749,1,0,0:0:0:60:kick.wav
128,192,35749,128,0,35941:0:0:0:50:clap.wav
469,192,35749,128,0,35845:0:0:0:0:
384,192,35845,128,0,35941:0:0:0:0:
298,192,35941,128,0,36037:0:0:0:0:
213,192,36037,128,0,36133:0:0:0:0:
42,192,36133,1,0,0:0:0:60:kick.wav
128,192,36133,128,0,36326:0:0:0:0:
469,192,36133,128,0,36230:0:0:0:0:
298,192,36230,128,0,36326:0:0:0:0:
469,192,36326,128,0,36422:0:0:0:0:
298,192,36422,128,0,36518:0:0:0:0:
42,192,36518,1,0,0:0:0:60:kick.wav
128,192,36518,128,0,36710:0:0:0:50:clap.wav
384,192,36518,128,0,36614:0:0:0:0:
213,192,36614,128,0,36710:0:0:0:0:
469,192,36710,128,0,36806:0:0:0:0:
298,192,36806,128,0,36903:0:0:0:0:
42,192,36903,128,0,36999:0:0:0:60:kick.wav
213,192,36903,128,0,36999:0:0:0:0:
384,192,36903,128,0,36999:0:0:0:0:
469,192,36903,128,0,36999:0:0:0:0:
128,192,37095,128,0,37191:0:0:0:0:
298,192,37095,128,0,37191:0:0:0:0:
469,192,37095,128,0,37191:0:0:0:0:
42,192,37287,128,0,37383:0:0:0:60:kick.wav
128,192,37287,128,0,37383:0:0:0:50:clap.wav
213,192,37287,128,0,37383:0:0:0:0:
384,192,37287,128,0,37383:0:0:0:0:
42,192,37480,128,0,37576:0:0:0:60:kick.wav
213,192,37480,128,0,37576:0:0:0:0:
298,192,37480,128,0,37576:0:0:0:0:
469,192,37480,128,0,37576:0:0:0:0:
298,192,37672,1,0,0:0:0:60:kick.wav
384,192,37672,1,0,0:0:0:0:
469,192,37672,1,0,0:0:0:0:
42,192,37768,1,0,0:0:0:60:kick.wav
128,192,37768,1,0,0:0:0:0:
213,192,37768,1,0,0:0:0:0:
298,192,37864,1,0,0:0:0:60:kick.wav
384,192,37864,1,0,0:0:0:0:
469,192,37864,1,0,0:0:0:0:
42,192,37960,1,0,0:0:0:60:kick.wav
128,192,37960,1,0,0:0:0:0:
213,192,37960,1,0,0:0:0:0:
298,192,38056,1,0,0:0:0:60:kick.wav
384,192,38056,1,0,0:0:0:50:clap.wav
469,192,38056,1,0,0:0:0:0:
128,192,38249,1,0,0:0:0:60:kick.wav
213,192,38249,1,0,0:0:0:0:
384,192,38249,1,0,0:0:0:0:
42,192,38441,1,0,0:0:0:100:cymbal.wav
128,192,38441,1,0,0:0:0:60:kick.wav
213,192,38441,1,0,0:0:0:100:BassKickReverbXD.wav
298,192,38441,1,0,0:0:0:0:
469,192,38441,1,0,0:0:0:0:
384,192,38537,1,0,0:0:0:0:
42,192,38633,1,0,0:0:0:0:
298,192,38633,1,0,0:0:0:0:
128,192,38730,1,0,0:0:0:0:
213,192,38826,1,0,0:0:0:60:kick.wav
384,192,38826,1,0,0:0:0:50:clap.wav
469,192,38826,1,0,0:0:0:0:
42,192,38922,1,0,0:0:0:0:
128,192,39018,1,0,0:0:0:0:
298,192,39018,1,0,0:0:0:0:
384,192,39114,1,0,0:0:0:0:
42,192,39210,1,0,0:0:0:60:kick.wav
213,192,39210,1,0,0:0:0:0:
469,192,39210,1,0,0:0:0:0:
128,192,39306,1,0,0:0:0:0:
298,192,39306,1,0,0:0:0:0:
213,192,39403,1,0,0:0:0:0:
384,192,39403,1,0,0:0:0:0:
42,192,39499,1,0,0:0:0:0:
298,192,39499,1,0,0:0:0:0:
128,192,39595,1,0,0:0:0:60:kick.wav
384,192,39595,1,0,0:0:0:50:clap.wav
469,192,39595,1,0,0:0:0:0:
42,192,39691,1,0,0:0:0:0:
298,192,39691,1,0,0:0:0:0:
213,192,39787,1,0,0:0:0:0:
469,192,39787,1,0,0:0:0:0:
128,192,39883,1,0,0:0:0:0:
384,192,39883,1,0,0:0:0:0:
42,192,39980,1,0,0:0:0:60:kick.wav
213,192,39980,1,0,0:0:0:0:
298,192,39980,1,0,0:0:0:0:
384,192,40076,1,0,0:0:0:0:
128,192,40172,1,0,0:0:0:0:
469,192,40172,1,0,0:0:0:0:
213,192,40268,1,0,0:0:0:0:
42,192,40364,1,0,0:0:0:60:kick.wav
298,192,40364,1,0,0:0:0:50:clap.wav
384,192,40364,1,0,0:0:0:0:
213,192,40460,1,0,0:0:0:0:
128,192,40556,1,0,0:0:0:0:
469,192,40556,1,0,0:0:0:0:
384,192,40653,1,0,0:0:0:0:
42,192,40749,1,0,0:0:0:60:kick.wav
213,192,40749,1,0,0:0:0:0:
298,192,40749,1,0,0:0:0:0:
384,192,40845,1,0,0:0:0:0:
469,192,40845,1,0,0:0:0:0:
42,192,40941,1,0,0:0:0:0:
128,192,40941,1,0,0:0:0:0:
298,192,41037,1,0,0:0:0:0:
469,192,41037,1,0,0:0:0:0:
128,192,41133,1,0,0:0:0:60:kick.wav
213,192,41133,1,0,0:0:0:50:clap.wav
384,192,41133,1,0,0:0:0:0:
42,192,41230,1,0,0:0:0:0:
298,192,41230,1,0,0:0:0:0:
128,192,41326,1,0,0:0:0:0:
384,192,41326,1,0,0:0:0:0:
213,192,41422,1,0,0:0:0:0:
469,192,41422,1,0,0:0:0:0:
42,192,41518,1,0,0:0:0:60:kick.wav
298,192,41518,1,0,0:0:0:0:
384,192,41518,1,0,0:0:0:0:
128,192,41614,1,0,0:0:0:0:
213,192,41710,1,0,0:0:0:0:
298,192,41710,1,0,0:0:0:0:
384,192,41806,1,0,0:0:0:0:
42,192,41903,1,0,0:0:0:60:kick.wav
128,192,41903,1,0,0:0:0:50:clap.wav
469,192,41903,1,0,0:0:0:0:
213,192,41999,1,0,0:0:0:0:
298,192,42095,1,0,0:0:0:0:
384,192,42095,1,0,0:0:0:0:
42,192,42191,1,0,0:0:0:0:
128,192,42287,1,0,0:0:0:60:kick.wav
213,192,42287,1,0,0:0:0:0:
469,192,42287,1,0,0:0:0:0:
384,192,42383,1,0,0:0:0:0:
42,192,42480,1,0,0:0:0:0:
298,192,42480,1,0,0:0:0:0:
128,192,42576,1,0,0:0:0:0:
213,192,42672,1,0,0:0:0:60:kick.wav
384,192,42672,1,0,0:0:0:50:clap.wav
469,192,42672,1,0,0:0:0:0:
42,192,42768,1,0,0:0:0:0:
213,192,42864,1,0,0:0:0:0:
469,192,42864,1,0,0:0:0:0:
128,192,42960,1,0,0:0:0:0:
42,192,43056,1,0,0:0:0:60:kick.wav
298,192,43056,1,0,0:0:0:0:
384,192,43056,1,0,0:0:0:0:
213,192,43153,1,0,0:0:0:0:
469,192,43153,1,0,0:0:0:0:
42,192,43249,1,0,0:0:0:0:
128,192,43249,1,0,0:0:0:0:
384,192,43345,1,0,0:0:0:0:
469,192,43345,1,0,0:0:0:0:
42,192,43441,1,0,0:0:0:60:kick.wav
213,192,43441,1,0,0:0:0:50:clap.wav
298,192,43441,1,0,0:0:0:0:
128,192,43537,1,0,0:0:0:0:
384,192,43537,1,0,0:0:0:0:
298,192,43633,1,0,0:0:0:0:
469,192,43633,1,0,0:0:0:0:
42,192,43730,1,0,0:0:0:0:
213,192,43730,1,0,0:0:0:0:
128,192,43826,1,0,0:0:0:60:kick.wav
384,192,43826,1,0,0:0:0:0:
469,192,43826,1,0,0:0:0:0:
213,192,43922,1,0,0:0:0:0:
298,192,43922,1,0,0:0:0:0:
42,192,44018,1,0,0:0:0:0:
128,192,44018,1,0,0:0:0:0:
298,192,44114,1,0,0:0:0:60:kick.wav
384,192,44114,1,0,0:0:0:0:
469,192,44114,1,0,0:0:0:0:
42,192,44210,1,0,0:0:0:50:clap.wav
213,192,44210,1,0,0:0:0:0:
298,192,44306,1,0,0:0:0:0:
128,192,44403,1,0,0:0:0:60:kick.wav
384,192,44403,1,0,0:0:0:0:
469,192,44403,1,0,0:0:0:0:
213,192,44499,1,0,0:0:0:0:
42,192,44595,1,0,0:0:0:100:cymbal.wav
128,192,44595,1,0,0:0:0:60:kick.wav
298,192,44595,1,0,0:0:0:100:BassKickReverbXD.wav
384,192,44595,1,0,0:0:0:0:
469,192,44595,1,0,0:0:0:0:
213,192,44691,1,0,0:0:0:0:
298,192,44787,1,0,0:0:0:0:
469,192,44787,1,0,0:0:0:0:
42,192,44883,1,0,0:0:0:0:
213,192,44980,1,0,0:0:0:50:clap.wav
384,192,44980,1,0,0:0:0:0:
469,192,45076,1,0,0:0:0:0:
128,192,45172,1,0,0:0:0:0:
298,192,45172,1,0,0:0:0:0:
384,192,45268,1,0,0:0:0:0:
42,192,45364,1,0,0:0:0:0:
469,192,45364,1,0,0:0:0:0:
213,192,45460,1,0,0:0:0:0:
298,192,45460,1,0,0:0:0:0:
42,192,45556,1,0,0:0:0:0:
469,192,45556,1,0,0:0:0:0:
213,192,45653,1,0,0:0:0:0:
298,192,45653,1,0,0:0:0:0:
42,192,45749,1,0,0:0:0:50:clap.wav
469,192,45749,1,0,0:0:0:0:
384,192,45845,1,0,0:0:0:0:
128,192,45941,1,0,0:0:0:60:kick.wav
213,192,45941,1,0,0:0:0:0:
298,192,45941,1,0,0:0:0:0:
384,192,46037,1,0,0:0:0:0:
42,192,46133,1,0,0:0:0:100:cymbal.wav
128,192,46133,1,0,0:0:0:60:kick.wav
213,192,46133,1,0,0:0:0:0:
469,192,46133,1,0,0:0:0:0:
298,192,46230,1,0,0:0:0:0:
384,192,46230,1,0,0:0:0:0:
128,192,46326,1,0,0:0:0:0:
469,192,46326,1,0,0:0:0:0:
213,192,46422,1,0,0:0:0:0:
298,192,46422,1,0,0:0:0:0:
42,192,46518,1,0,0:0:0:50:clap.wav
384,192,46518,1,0,0:0:0:0:
128,192,46614,1,0,0:0:0:0:
213,192,46614,1,0,0:0:0:0:
298,192,46710,1,0,0:0:0:0:
469,192,46710,1,0,0:0:0:0:
42,192,46806,1,0,0:0:0:0:
128,192,46806,1,0,0:0:0:0:
213,192,46903,1,0,0:0:0:60:kick.wav
384,192,46903,1,0,0:0:0:0:
469,192,46903,1,0,0:0:0:0:
42,192,46999,1,0,0:0:0:0:
298,192,47095,1,0,0:0:0:0:
42,192,47191,1,0,0:0:0:60:kick.wav
128,192,47191,1,0,0:0:0:0:
469,192,47191,1,0,0:0:0:0:
384,192,47287,1,0,0:0:0:50:clap.wav
213,192,47383,1,0,0:0:0:0:
42,192,47480,1,0,0:0:0:60:kick.wav
384,192,47480,1,0,0:0:0:0:
469,192,47480,1,0,0:0:0:0:
298,192,47576,1,0,0:0:0:0:
42,192,47672,1,0,0:0:0:100:cymbal.wav
128,192,47672,1,0,0:0:0:60:kick.wav
384,192,47672,1,0,0:0:0:0:
469,192,47672,1,0,0:0:0:0:
213,192,47768,1,0,0:0:0:0:
42,192,47864,1,0,0:0:0:60:kick.wav
128,192,47864,1,0,0:0:0:0:
298,192,47864,1,0,0:0:0:0:
469,192,47864,1,0,0:0:0:0:
384,192,47960,1,0,0:0:0:0:
42,192,48056,1,0,0:0:0:60:kick.wav
128,192,48056,1,0,0:0:0:50:clap.wav
469,192,48056,1,0,0:0:0:0:
213,192,48153,1,0,0:0:0:0:
298,192,48153,1,0,0:0:0:0:
42,192,48249,1,0,0:0:0:60:kick.wav
384,192,48249,1,0,0:0:0:0:
469,192,48249,1,0,0:0:0:0:
128,192,48345,1,0,0:0:0:0:
213,192,48345,1,0,0:0:0:0:
42,192,48441,1,0,0:0:0:100:cymbal.wav
298,192,48441,1,0,0:0:0:60:kick.wav
384,192,48441,1,0,0:0:0:0:
469,192,48441,1,0,0:0:0:0:
213,192,48537,1,0,0:0:0:0:
42,192,48633,1,0,0:0:0:60:kick.wav
128,192,48633,1,0,0:0:0:0:
384,192,48633,1,0,0:0:0:0:
469,192,48633,1,0,0:0:0:0:
298,192,48730,1,0,0:0:0:0:
213,192,48826,1,0,0:0:0:60:kick.wav
384,192,48826,1,0,0:0:0:50:clap.wav
469,192,48826,1,0,0:0:0:0:
42,192,48922,1,0,0:0:0:0:
128,192,48922,1,0,0:0:0:0:
298,192,49018,1,0,0:0:0:60:kick.wav
384,192,49018,1,0,0:0:0:0:
469,192,49018,1,0,0:0:0:0:
128,192,49114,1,0,0:0:0:0:
213,192,49114,1,0,0:0:0:0:
42,192,49210,1,0,0:0:0:100:cymbal.wav
298,192,49210,1,0,0:0:0:60:kick.wav
384,192,49210,1,0,0:0:0:0:
469,192,49210,1,0,0:0:0:0:
298,192,49306,1,0,0:0:0:60:kick.wav
384,192,49306,1,0,0:0:0:0:
469,192,49306,1,0,0:0:0:0:
42,192,49403,1,0,0:0:0:60:kick.wav
128,192,49403,1,0,0:0:0:0:
213,192,49451,1,0,0:0:0:60:kick.wav
298,192,49499,1,0,0:0:0:60:kick.wav
384,192,49547,1,0,0:0:0:60:kick.wav
42,192,49595,1,0,0:0:0:100:cymbal.wav
128,192,49595,1,0,0:0:0:60:kick.wav
213,192,49595,1,0,0:0:0:50:clap.wav
469,192,49595,1,0,0:0:0:0:
42,192,49691,1,0,0:0:0:60:kick.wav
128,192,49691,1,0,0:0:0:0:
213,192,49691,1,0,0:0:0:0:
384,192,49787,1,0,0:0:0:60:kick.wav
469,192,49787,1,0,0:0:0:0:
298,192,49835,1,0,0:0:0:60:kick.wav
213,192,49883,1,0,0:0:0:60:kick.wav
128,192,49931,1,0,0:0:0:60:kick.wav
42,192,49980,1,0,0:0:0:100:cymbal.wav
298,192,49980,1,0,0:0:0:60:kick.wav
384,192,49980,1,0,0:0:0:0:
469,192,49980,1,0,0:0:0:0:
298,192,50076,1,0,0:0:0:60:kick.wav
384,192,50076,1,0,0:0:0:0:
469,192,50076,1,0,0:0:0:0:
42,192,50172,1,0,0:0:0:60:kick.wav
128,192,50172,1,0,0:0:0:0:
213,192,50172,1,0,0:0:0:0:
42,192,50268,1,0,0:0:0:60:kick.wav
128,192,50268,1,0,0:0:0:0:
213,192,50268,1,0,0:0:0:0:
298,192,50364,1,0,0:0:0:100:cymbal.wav
384,192,50364,1,0,0:0:0:60:kick.wav
469,192,50364,1,0,0:0:0:50:clap.wav
42,192,50412,1,0,0:0:0:60:kick.wav
128,192,50460,1,0,0:0:0:60:kick.wav
213,192,50508,1,0,0:0:0:60:kick.wav
298,192,50556,1,0,0:0:0:60:kick.wav
384,192,50556,1,0,0:0:0:0:
469,192,50556,1,0,0:0:0:0:
42,192,50653,1,0,0:0:0:60:kick.wav
128,192,50653,1,0,0:0:0:0:
213,192,50653,1,0,0:0:0:0:
298,192,50749,128,0,50813:0:0:0:0:
469,192,50813,128,0,50877:0:0:0:0:
384,192,50877,128,0,50941:0:0:0:0:
213,192,50941,128,0,51005:0:0:0:0:
42,192,51005,128,0,51069:0:0:0:0:
469,192,51069,128,0,51133:0:0:0:0:
298,192,51133,128,0,51197:0:0:0:0:
128,192,51197,128,0,51262:0:0:0:0:
42,192,51262,128,0,51326:0:0:0:0:
213,192,51326,128,0,51390:0:0:0:0:
384,192,51390,128,0,51454:0:0:0:0:
298,192,51454,128,0,51518:0:0:0:0:
128,192,51518,128,0,51582:0:0:0:0:
469,192,51518,128,0,52095:0:0:0:0:
42,192,51582,128,0,51646:0:0:0:0:
298,192,51646,128,0,51710:0:0:0:0:
213,192,51710,128,0,51774:0:0:0:0:
384,192,51774,128,0,51838:0:0:0:0:
128,192,51838,128,0,51903:0:0:0:0:
298,192,51903,128,0,51967:0:0:0:0:
42,192,51967,128,0,52031:0:0:0:0:
213,192,52031,128,0,52095:0:0:0:0:
384,192,52095,128,0,52159:0:0:0:0:
128,192,52159,128,0,52223:0:0:0:0:
298,192,52223,128,0,52287:0:0:0:0:
42,192,52287,128,0,52576:0:0:0:100:cymbal.wav
213,192,52287,128,0,52672:0:0:0:60:kick.wav
384,192,52287,128,0,52768:0:0:0:100:BassKickReverbXD.wav
469,192,52287,128,0,52864:0:0:0:0:
42,192,52864,1,0,0:0:0:60:kick.wav
128,192,52864,1,0,0:0:0:0:
298,192,52864,1,0,0:0:0:0:
42,192,53056,1,0,0:0:0:70:snare.wav
128,192,53056,1,0,0:0:0:0:
384,192,53056,1,0,0:0:0:0:
469,192,53056,1,0,0:0:0:0:
213,192,53249,1,0,0:0:0:60:kick.wav
298,192,53249,1,0,0:0:0:0:
469,192,53249,1,0,0:0:0:0:
42,192,53345,1,0,0:0:0:60:kick.wav
128,192,53345,1,0,0:0:0:0:
298,192,53441,1,0,0:0:0:60:kick.wav
384,192,53441,1,0,0:0:0:0:
469,192,53441,1,0,0:0:0:0:
298,192,53633,128,0,53826:0:0:0:60:kick.wav
384,192,53633,128,0,53826:0:0:0:0:
469,192,53633,128,0,53826:0:0:0:0:
42,192,54018,1,0,0:0:0:60:kick.wav
298,192,54018,1,0,0:0:0:0:
469,192,54018,1,0,0:0:0:0:
128,192,54066,1,0,0:0:0:60:kick.wav
384,192,54114,1,0,0:0:0:60:kick.wav
213,192,54162,1,0,0:0:0:60:kick.wav
42,192,54210,1,0,0:0:0:60:kick.wav
298,192,54210,1,0,0:0:0:0:
469,192,54210,1,0,0:0:0:0:
128,192,54403,1,0,0:0:0:60:kick.wav
213,192,54403,1,0,0:0:0:0:
384,192,54403,1,0,0:0:0:0:
213,192,54595,128,0,54787:0:0:0:0:
298,192,54595,1,0,0:0:0:0:
469,192,54595,1,0,0:0:0:70:snare.wav
42,192,54595,128,0,54691:0:0:0:0:
384,192,54787,1,0,0:0:0:0:
298,192,54787,1,0,0:0:0:60:kick.wav
42,192,54787,128,0,54883:0:0:0:0:
213,192,54883,128,0,54980:0:0:0:0:
42,192,54980,128,0,55076:0:0:0:0:
469,192,55076,1,0,0:0:0:0:
384,192,55076,1,0,0:0:0:60:kick.wav
213,192,55076,128,0,55172:0:0:0:0:
469,192,55172,1,0,0:0:0:0:
384,192,55172,1,0,0:0:0:60:kick.wav
42,192,55172,128,0,55268:0:0:0:0:
469,192,55268,1,0,0:0:0:0:
384,192,55268,1,0,0:0:0:60:kick.wav
213,192,55268,128,0,55364:0:0:0:0:
42,192,55364,1,0,0:0:0:60:kick.wav
128,192,55364,1,0,0:0:0:0:
298,192,55364,1,0,0:0:0:0:
42,192,55653,1,0,0:0:0:60:kick.wav
128,192,55653,1,0,0:0:0:0:
298,192,55653,1,0,0:0:0:0:
42,192,55845,1,0,0:0:0:60:kick.wav
128,192,55845,1,0,0:0:0:0:
298,192,55845,1,0,0:0:0:0:
213,192,55941,1,0,0:0:0:60:kick.wav
384,192,55941,1,0,0:0:0:0:
469,192,55941,1,0,0:0:0:0:
42,192,56133,1,0,0:0:0:70:snare.wav
128,192,56133,1,0,0:0:0:0:
384,192,56133,1,0,0:0:0:0:
469,192,56133,1,0,0:0:0:0:
42,192,56326,1,0,0:0:0:60:kick.wav
213,192,56326,1,0,0:0:0:0:
298,192,56326,1,0,0:0:0:0:
384,192,56422,1,0,0:0:0:60:kick.wav
469,192,56422,1,0,0:0:0:0:
42,192,56518,1,0,0:0:0:60:kick.wav
128,192,56518,1,0,0:0:0:0:
298,192,56518,1,0,0:0:0:0:
42,192,56646,1,0,0:0:0:60:kick.wav
128,192,56646,1,0,0:0:0:0:
298,192,56646,1,0,0:0:0:0:
42,192,56774,1,0,0:0:0:60:kick.wav
128,192,56774,1,0,0:0:0:0:
298,192,56774,1,0,0:0:0:0:
42,192,57095,1,0,0:0:0:60:kick.wav
213,192,57095,1,0,0:0:0:0:
469,192,57095,1,0,0:0:0:0:
298,192,57143,1,0,0:0:0:60:kick.wav
128,192,57191,1,0,0:0:0:60:kick.wav
384,192,57239,1,0,0:0:0:60:kick.wav
42,192,57287,1,0,0:0:0:60:kick.wav
213,192,57287,1,0,0:0:0:0:
469,192,57287,1,0,0:0:0:0:
128,192,57480,1,0,0:0:0:60:kick.wav
298,192,57480,1,0,0:0:0:0:
469,192,57480,1,0,0:0:0:0:
298,192,57672,128,0,57736:0:0:0:0:
213,192,57672,1,0,0:0:0:0:
42,192,57672,1,0,0:0:0:70:snare.wav
384,192,57672,128,0,57736:0:0:0:0:
384,192,57800,128,0,57864:0:0:0:0:
298,192,57800,128,0,57864:0:0:0:0:
213,192,57864,1,0,0:0:0:60:kick.wav
128,192,57864,1,0,0:0:0:0:
384,192,57928,128,0,57992:0:0:0:0:
298,192,57928,128,0,57992:0:0:0:0:
42,192,58056,128,0,58153:0:0:0:60:kick.wav
469,192,58056,128,0,58153:0:0:0:0:
213,192,58153,128,0,58249:0:0:0:60:kick.wav
298,192,58153,128,0,58249:0:0:0:0:
42,192,58249,128,0,58345:0:0:0:60:kick.wav
469,192,58249,128,0,58345:0:0:0:0:
213,192,58345,128,0,58441:0:0:0:60:kick.wav
298,192,58345,128,0,58441:0:0:0:0:
42,192,58441,1,0,0:0:0:100:cymbal.wav
469,192,58441,1,0,0:0:0:60:kick.wav
128,192,58441,1,0,0:0:0:0:
384,192,58489,1,0,0:0:0:60:kick.wav
298,192,58537,1,0,0:0:0:60:kick.wav
213,192,58585,1,0,0:0:0:60:kick.wav
128,192,58633,1,0,0:0:0:60:kick.wav
42,192,58633,1,0,0:0:0:0:
469,192,58730,1,0,0:0:0:60:kick.wav
384,192,58730,1,0,0:0:0:0:
42,192,58826,1,0,0:0:0:60:kick.wav
128,192,58826,1,0,0:0:0:0:
298,192,58826,1,0,0:0:0:0:
213,192,58954,1,0,0:0:0:60:kick.wav
384,192,58954,1,0,0:0:0:0:
469,192,58954,1,0,0:0:0:0:
128,192,59082,1,0,0:0:0:60:kick.wav
384,192,59082,1,0,0:0:0:0:
298,192,59082,1,0,0:0:0:0:
42,192,59210,1,0,0:0:0:70:snare.wav
213,192,59210,1,0,0:0:0:0:
298,192,59210,1,0,0:0:0:0:
469,192,59210,1,0,0:0:0:0:
42,192,59403,1,0,0:0:0:60:kick.wav
128,192,59403,1,0,0:0:0:0:
298,192,59403,128,0,59595:0:0:0:0:
469,192,59403,128,0,59595:0:0:0:0:
128,192,59691,1,0,0:0:0:60:kick.wav
213,192,59691,1,0,0:0:0:0:
298,192,59691,128,0,59787:0:0:0:0:
469,192,59691,128,0,59787:0:0:0:0:
42,192,59883,1,0,0:0:0:60:kick.wav
128,192,59883,1,0,0:0:0:0:
298,192,59883,128,0,59980:0:0:0:0:
469,192,59883,128,0,59980:0:0:0:0:
128,192,60076,1,0,0:0:0:60:kick.wav
213,192,60076,1,0,0:0:0:0:
298,192,60076,128,0,60172:0:0:0:0:
469,192,60076,128,0,60172:0:0:0:0:
42,192,60268,1,0,0:0:0:60:kick.wav
298,192,60268,128,0,60364:0:0:0:0:
469,192,60268,128,0,60364:0:0:0:0:
128,192,60316,1,0,0:0:0:60:kick.wav
213,192,60364,1,0,0:0:0:60:kick.wav
384,192,60364,1,0,0:0:0:0:
42,192,60460,128,0,60556:0:0:0:0:
128,192,60460,128,0,60556:0:0:0:0:
298,192,60556,128,0,60653:0:0:0:60:kick.wav
384,192,60556,1,0,0:0:0:0:
469,192,60556,128,0,60653:0:0:0:0:
42,192,60749,1,0,0:0:0:70:snare.wav
213,192,60749,1,0,0:0:0:0:
384,192,60749,1,0,0:0:0:0:
469,192,60749,1,0,0:0:0:0:
42,192,60941,1,0,0:0:0:60:kick.wav
128,192,60941,1,0,0:0:0:0:
298,192,60941,1,0,0:0:0:0:
384,192,61133,128,0,61518:0:0:0:0:
469,192,61133,128,0,61518:0:0:0:0:
42,192,61518,128,0,62191:0:0:0:60:kick.wav
128,192,61518,1,0,0:0:0:0:
213,192,61518,1,0,0:0:0:0:
298,192,61518,128,0,62191:0:0:0:0:
128,192,61903,1,0,0:0:0:60:kick.wav
213,192,61903,128,0,62191:0:0:0:0:
384,192,61903,1,0,0:0:0:0:
469,192,61903,128,0,62191:0:0:0:0:
42,192,62287,1,0,0:0:0:70:snare.wav
213,192,62287,1,0,0:0:0:0:
298,192,62287,1,0,0:0:0:0:
469,192,62287,1,0,0:0:0:0:
42,192,62480,128,0,62672:0:0:0:60:kick.wav
128,192,62480,128,0,62672:0:0:0:0:
384,192,62480,1,0,0:0:0:0:
469,192,62480,1,0,0:0:0:0:
42,192,62768,128,0,62864:0:0:0:0:
128,192,62768,128,0,62864:0:0:0:0:
469,192,62864,1,0,0:0:0:60:kick.wav
384,192,62912,1,0,0:0:0:60:kick.wav
42,192,62960,128,0,63056:0:0:0:60:kick.wav
128,192,62960,128,0,63056:0:0:0:0:
298,192,62960,1,0,0:0:0:0:
213,192,63008,1,0,0:0:0:60:kick.wav
384,192,63056,1,0,0:0:0:60:kick.wav
469,192,63056,1,0,0:0:0:0:
42,192,63153,128,0,63249:0:0:0:0:
128,192,63153,128,0,63249:0:0:0:0:
42,192,63345,128,0,63441:0:0:0:60:kick.wav
128,192,63345,128,0,63441:0:0:0:0:
298,192,63345,1,0,0:0:0:0:
384,192,63345,1,0,0:0:0:0:
213,192,63537,128,0,63633:0:0:0:60:kick.wav
298,192,63537,128,0,63633:0:0:0:0:
469,192,63537,1,0,0:0:0:0:
42,192,63633,128,0,63730:0:0:0:60:kick.wav
128,192,63633,128,0,63730:0:0:0:0:
384,192,63633,1,0,0:0:0:0:
298,192,63730,1,0,0:0:0:60:kick.wav
384,192,63778,1,0,0:0:0:60:kick.wav
42,192,63826,1,0,0:0:0:70:snare.wav
128,192,63826,1,0,0:0:0:0:
213,192,63826,1,0,0:0:0:0:
469,192,63826,1,0,0:0:0:0:
298,192,64018,128,0,64595:0:0:0:60:kick.wav
384,192,64018,1,0,0:0:0:0:
469,192,64018,1,0,0:0:0:0:
213,192,64210,128,0,64595:0:0:0:0:
42,192,64595,128,0,65172:0:0:0:100:cymbal.wav
128,192,64595,128,0,65076:0:0:0:60:kick.wav
384,192,64595,128,0,64980:0:0:0:0:
469,192,64595,128,0,64883:0:0:0:0:
213,192,65172,1,0,0:0:0:60:kick.wav
384,192,65172,1,0,0:0:0:0:
469,192,65172,1,0,0:0:0:0:
42,192,65364,1,0,0:0:0:70:snare.wav
128,192,65364,1,0,0:0:0:0:
298,192,65364,1,0,0:0:0:0:
469,192,65364,1,0,0:0:0:0:
42,192,65556,1,0,0:0:0:60:kick.wav
213,192,65556,1,0,0:0:0:0:
469,192,65556,1,0,0:0:0:0:
298,192,65653,1,0,0:0:0:60:kick.wav
384,192,65653,1,0,0:0:0:0:
42,192,65749,1,0,0:0:0:60:kick.wav
128,192,65749,1,0,0:0:0:0:
213,192,65749,1,0,0:0:0:0:
42,192,65941,128,0,66133:0:0:0:60:kick.wav
128,192,65941,128,0,66133:0:0:0:0:
213,192,65941,128,0,66133:0:0:0:0:
42,192,66326,1,0,0:0:0:60:kick.wav
298,192,66326,1,0,0:0:0:0:
469,192,66326,1,0,0:0:0:0:
213,192,66374,1,0,0:0:0:60:kick.wav
384,192,66422,1,0,0:0:0:60:kick.wav
128,192,66470,1,0,0:0:0:60:kick.wav
42,192,66518,1,0,0:0:0:60:kick.wav
298,192,66518,1,0,0:0:0:0:
469,192,66518,1,0,0:0:0:0:
128,192,66710,1,0,0:0:0:60:kick.wav
213,192,66710,1,0,0:0:0:0:
384,192,66710,1,0,0:0:0:0:
42,192,66903,128,0,66999:0:0:0:70:snare.wav
213,192,66903,128,0,66999:0:0:0:0:
298,192,66903,1,0,0:0:0:0:
469,192,66903,1,0,0:0:0:0:
384,192,67095,1,0,0:0:0:60:kick.wav
213,192,67095,1,0,0:0:0:0:
42,192,67095,1,0,0:0:0:0:
42,192,67191,1,0,0:0:0:0:
213,192,67191,1,0,0:0:0:0:
469,192,67287,128,0,67672:0:0:0:0:
128,192,67672,1,0,0:0:0:60:kick.wav
298,192,67672,1,0,0:0:0:0:
384,192,67672,1,0,0:0:0:0:
128,192,67960,1,0,0:0:0:60:kick.wav
298,192,67960,1,0,0:0:0:0:
384,192,67960,1,0,0:0:0:0:
128,192,68153,1,0,0:0:0:60:kick.wav
298,192,68153,1,0,0:0:0:0:
384,192,68153,1,0,0:0:0:0:
42,192,68249,1,0,0:0:0:60:kick.wav
213,192,68249,1,0,0:0:0:0:
469,192,68249,1,0,0:0:0:0:
42,192,68441,1,0,0:0:0:70:snare.wav
128,192,68441,1,0,0:0:0:0:
298,192,68441,1,0,0:0:0:0:
469,192,68441,1,0,0:0:0:0:
42,192,68633,1,0,0:0:0:60:kick.wav
213,192,68633,1,0,0:0:0:0:
469,192,68633,1,0,0:0:0:0:
298,192,68730,1,0,0:0:0:60:kick.wav
384,192,68730,1,0,0:0:0:0:
128,192,68826,1,0,0:0:0:60:kick.wav
213,192,68826,1,0,0:0:0:0:
469,192,68826,1,0,0:0:0:0:
128,192,68954,1,0,0:0:0:60:kick.wav
213,192,68954,1,0,0:0:0:0:
469,192,68954,1,0,0:0:0:0:
128,192,69082,1,0,0:0:0:60:kick.wav
213,192,69082,1,0,0:0:0:0:
469,192,69082,1,0,0:0:0:0:
42,192,69403,1,0,0:0:0:60:kick.wav
213,192,69403,1,0,0:0:0:0:
469,192,69403,1,0,0:0:0:0:
384,192,69451,1,0,0:0:0:60:kick.wav
128,192,69499,1,0,0:0:0:60:kick.wav
298,192,69547,1,0,0:0:0:60:kick.wav
42,192,69595,1,0,0:0:0:60:kick.wav
213,192,69595,1,0,0:0:0:0:
469,192,69595,1,0,0:0:0:0:
128,192,69787,1,0,0:0:0:60:kick.wav
298,192,69787,1,0,0:0:0:0:
384,192,69787,1,0,0:0:0:0:
42,192,69980,128,0,70044:0:0:0:70:snare.wav
213,192,69980,128,0,70044:0:0:0:0:
384,192,69980,1,0,0:0:0:0:
469,192,69980,1,0,0:0:0:0:
42,192,70108,128,0,70172:0:0:0:0:
213,192,70108,128,0,70172:0:0:0:0:
298,192,70172,1,0,0:0:0:60:kick.wav
469,192,70172,1,0,0:0:0:0:
42,192,70236,128,0,70300:0:0:0:0:
213,192,70236,128,0,70300:0:0:0:0:
384,192,70364,1,0,0:0:0:0:
469,192,70364,1,0,0:0:0:0:
384,192,70460,1,0,0:0:0:0:
469,192,70460,1,0,0:0:0:0:
384,192,70556,128,0,70749:0:0:0:0:
469,192,70556,128,0,70749:0:0:0:0:
42,192,70749,1,0,0:0:0:100:cymbal.wav
213,192,70749,1,0,0:0:0:60:kick.wav
298,192,70749,1,0,0:0:0:0:
128,192,70797,1,0,0:0:0:60:kick.wav
469,192,70845,1,0,0:0:0:60:kick.wav
384,192,70893,1,0,0:0:0:60:kick.wav
213,192,70941,1,0,0:0:0:60:kick.wav
298,192,70941,1,0,0:0:0:0:
42,192,71037,1,0,0:0:0:60:kick.wav
128,192,71037,1,0,0:0:0:0:
213,192,71133,1,0,0:0:0:60:kick.wav
384,192,71133,1,0,0:0:0:0:
469,192,71133,1,0,0:0:0:0:
42,192,71262,1,0,0:0:0:60:kick.wav
128,192,71262,1,0,0:0:0:0:
298,192,71262,1,0,0:0:0:0:
128,192,71390,1,0,0:0:0:60:kick.wav
213,192,71390,1,0,0:0:0:0:
384,192,71390,1,0,0:0:0:0:
42,192,71518,1,0,0:0:0:70:snare.wav
213,192,71518,1,0,0:0:0:0:
298,192,71518,1,0,0:0:0:0:
469,192,71518,1,0,0:0:0:0:
213,192,71710,128,0,71903:0:0:0:0:
384,192,71710,1,0,0:0:0:0:
469,192,71710,1,0,0:0:0:60:kick.wav
42,192,71710,128,0,71903:0:0:0:0:
213,192,71999,128,0,72095:0:0:0:0:
298,192,71999,1,0,0:0:0:0:
384,192,71999,1,0,0:0:0:60:kick.wav
42,192,71999,128,0,72095:0:0:0:0:
213,192,72191,128,0,72287:0:0:0:0:
384,192,72191,1,0,0:0:0:0:
469,192,72191,1,0,0:0:0:60:kick.wav
42,192,72191,128,0,72287:0:0:0:0:
213,192,72383,128,0,72480:0:0:0:0:
298,192,72383,1,0,0:0:0:0:
384,192,72383,1,0,0:0:0:60:kick.wav
42,192,72383,128,0,72480:0:0:0:0:
213,192,72576,128,0,72672:0:0:0:0:
469,192,72576,1,0,0:0:0:60:kick.wav
42,192,72576,128,0,72672:0:0:0:0:
384,192,72624,1,0,0:0:0:60:kick.wav
128,192,72672,1,0,0:0:0:60:kick.wav
298,192,72672,1,0,0:0:0:0:
384,192,72768,128,0,72864:0:0:0:0:
469,192,72768,128,0,72864:0:0:0:0:
42,192,72864,128,0,72960:0:0:0:60:kick.wav
128,192,72864,1,0,0:0:0:0:
213,192,72864,128,0,72960:0:0:0:0:
42,192,73056,1,0,0:0:0:70:snare.wav
298,192,73056,1,0,0:0:0:0:
384,192,73056,1,0,0:0:0:0:
469,192,73056,1,0,0:0:0:0:
213,192,73249,1,0,0:0:0:60:kick.wav
298,192,73249,1,0,0:0:0:0:
469,192,73249,1,0,0:0:0:0:
42,192,73441,128,0,73826:0:0:0:0:
128,192,73441,128,0,73826:0:0:0:0:
213,192,73826,128,0,74499:0:0:0:60:kick.wav
298,192,73826,1,0,0:0:0:0:
384,192,73826,1,0,0:0:0:0:
469,192,73826,128,0,74499:0:0:0:0:
42,192,74210,128,0,74499:0:0:0:60:kick.wav
128,192,74210,1,0,0:0:0:0:
298,192,74210,128,0,74499:0:0:0:0:
384,192,74210,1,0,0:0:0:0:
42,192,74595,1,0,0:0:0:70:snare.wav
213,192,74595,1,0,0:0:0:0:
298,192,74595,1,0,0:0:0:0:
469,192,74595,1,0,0:0:0:0:
42,192,74787,1,0,0:0:0:60:kick.wav
128,192,74787,1,0,0:0:0:0:
384,192,74787,128,0,74980:0:0:0:0:
469,192,74787,128,0,74980:0:0:0:0:
384,192,75076,128,0,75172:0:0:0:0:
469,192,75076,128,0,75172:0:0:0:0:
42,192,75172,1,0,0:0:0:60:kick.wav
128,192,75220,1,0,0:0:0:60:kick.wav
298,192,75268,1,0,0:0:0:60:kick.wav
384,192,75268,128,0,75364:0:0:0:0:
469,192,75268,128,0,75364:0:0:0:0:
213,192,75316,1,0,0:0:0:60:kick.wav
42,192,75364,1,0,0:0:0:60:kick.wav
128,192,75364,1,0,0:0:0:0:
298,192,75460,1,0,0:0:0:60:kick.wav
384,192,75460,128,0,75556:0:0:0:0:
469,192,75460,128,0,75556:0:0:0:0:
42,192,75556,1,0,0:0:0:60:kick.wav
128,192,75556,1,0,0:0:0:0:
298,192,75653,1,0,0:0:0:60:kick.wav
384,192,75653,128,0,75749:0:0:0:0:
469,192,75653,128,0,75749:0:0:0:0:
42,192,75845,1,0,0:0:0:60:kick.wav
213,192,75845,128,0,75941:0:0:0:0:
298,192,75845,128,0,75941:0:0:0:0:
128,192,75941,1,0,0:0:0:60:kick.wav
384,192,75941,128,0,76037:0:0:0:0:
469,192,75941,128,0,76037:0:0:0:0:
213,192,76037,1,0,0:0:0:60:kick.wav
128,192,76085,1,0,0:0:0:60:kick.wav
42,192,76133,1,0,0:0:0:70:snare.wav
298,192,76133,128,0,76390:0:0:0:0:
384,192,76133,128,0,76454:0:0:0:0:
469,192,76133,128,0,76518:0:0:0:0:
42,192,76326,128,0,76806:0:0:0:0:
128,192,76390,128,0,76806:0:0:0:0:
213,192,76454,128,0,76806:0:0:0:0:
298,192,76518,128,0,76806:0:0:0:0:
384,192,76582,128,0,76806:0:0:0:0:
469,192,76646,128,0,76806:0:0:0:0:
42,192,76903,128,0,77095:0:0:0:100:cymbal.wav
128,192,76903,128,0,77095:0:0:0:60:kick.wav
213,192,76903,128,0,77143:0:0:0:100:BassKickReverbXD.wav
298,192,76903,128,0,77191:0:0:0:0:
384,192,76903,128,0,77239:0:0:0:0:
469,192,76903,128,0,77287:0:0:0:0:
42,192,77287,128,0,77480:0:0:0:0:
128,192,77287,128,0,77480:0:0:0:0:
298,192,77480,1,0,0:0:0:60:kick.wav
384,192,77480,1,0,0:0:0:0:
42,192,77672,128,0,77864:0:0:0:70:snare.wav
128,192,77672,128,0,77864:0:0:0:0:
213,192,77672,1,0,0:0:0:0:
384,192,77672,1,0,0:0:0:0:
469,192,77672,1,0,0:0:0:0:
298,192,77864,1,0,0:0:0:60:kick.wav
469,192,77864,1,0,0:0:0:0:
213,192,77960,1,0,0:0:0:60:kick.wav
384,192,77960,1,0,0:0:0:0:
42,192,78056,128,0,78249:0:0:0:60:kick.wav
128,192,78056,128,0,78249:0:0:0:0:
298,192,78056,1,0,0:0:0:0:
469,192,78056,1,0,0:0:0:0:
298,192,78249,1,0,0:0:0:60:kick.wav
469,192,78249,1,0,0:0:0:0:
42,192,78441,128,0,78633:0:0:0:0:
213,192,78441,128,0,78633:0:0:0:0:
384,192,78633,1,0,0:0:0:60:kick.wav
298,192,78681,1,0,0:0:0:60:kick.wav
469,192,78730,1,0,0:0:0:60:kick.wav
384,192,78778,1,0,0:0:0:60:kick.wav
42,192,78826,128,0,79018:0:0:0:60:kick.wav
128,192,78826,1,0,0:0:0:0:
213,192,78826,128,0,79018:0:0:0:0:
298,192,78826,1,0,0:0:0:0:
384,192,79018,1,0,0:0:0:60:kick.wav
469,192,79018,1,0,0:0:0:0:
42,192,79210,1,0,0:0:0:70:snare.wav
128,192,79210,1,0,0:0:0:0:
298,192,79210,128,0,79403:0:0:0:0:
469,192,79210,128,0,79306:0:0:0:0:
42,192,79403,1,0,0:0:0:60:kick.wav
213,192,79403,1,0,0:0:0:0:
469,192,79403,128,0,79499:0:0:0:0:
298,192,79499,128,0,79595:0:0:0:0:
469,192,79595,128,0,79691:0:0:0:0:
42,192,79691,1,0,0:0:0:60:kick.wav
128,192,79691,1,0,0:0:0:0:
298,192,79691,128,0,79787:0:0:0:0:
42,192,79787,1,0,0:0:0:60:kick.wav
128,192,79787,1,0,0:0:0:0:
469,192,79787,128,0,79883:0:0:0:0:
42,192,79883,1,0,0:0:0:60:kick.wav
128,192,79883,1,0,0:0:0:0:
298,192,79883,128,0,79980:0:0:0:0:
213,192,79980,1,0,0:0:0:60:kick.wav
384,192,79980,128,0,80172:0:0:0:0:
469,192,79980,128,0,80172:0:0:0:0:
42,192,80268,1,0,0:0:0:60:kick.wav
213,192,80268,1,0,0:0:0:0:
384,192,80364,128,0,80556:0:0:0:0:
469,192,80364,128,0,80556:0:0:0:0:
42,192,80460,1,0,0:0:0:60:kick.wav
128,192,80460,1,0,0:0:0:0:
213,192,80556,1,0,0:0:0:60:kick.wav
298,192,80556,1,0,0:0:0:0:
42,192,80749,1,0,0:0:0:70:snare.wav
128,192,80749,1,0,0:0:0:0:
298,192,80749,1,0,0:0:0:0:
384,192,80749,128,0,80941:0:0:0:0:
469,192,80749,128,0,80941:0:0:0:0:
42,192,80941,1,0,0:0:0:60:kick.wav
213,192,80941,1,0,0:0:0:0:
128,192,81037,1,0,0:0:0:60:kick.wav
298,192,81037,1,0,0:0:0:0:
42,192,81133,1,0,0:0:0:60:kick.wav
213,192,81133,1,0,0:0:0:0:
384,192,81133,128,0,81326:0:0:0:0:
469,192,81133,128,0,81326:0:0:0:0:
42,192,81262,1,0,0:0:0:60:kick.wav
213,192,81262,1,0,0:0:0:0:
42,192,81390,1,0,0:0:0:60:kick.wav
213,192,81390,1,0,0:0:0:0:
298,192,81518,128,0,81710:0:0:0:0:
469,192,81518,128,0,81710:0:0:0:0:
42,192,81710,1,0,0:0:0:60:kick.wav
128,192,81758,1,0,0:0:0:60:kick.wav
213,192,81806,1,0,0:0:0:60:kick.wav
42,192,81855,1,0,0:0:0:60:kick.wav
128,192,81903,1,0,0:0:0:60:kick.wav
298,192,81903,128,0,82095:0:0:0:0:
384,192,81903,1,0,0:0:0:0:
469,192,81903,128,0,82095:0:0:0:0:
42,192,82095,1,0,0:0:0:60:kick.wav
128,192,82095,1,0,0:0:0:0:
42,192,82287,128,0,82351:0:0:0:70:snare.wav
128,192,82287,128,0,82351:0:0:0:0:
213,192,82287,1,0,0:0:0:0:
298,192,82287,128,0,82480:0:0:0:0:
469,192,82287,128,0,82480:0:0:0:0:
42,192,82415,128,0,82480:0:0:0:0:
128,192,82415,128,0,82480:0:0:0:0:
384,192,82480,1,0,0:0:0:60:kick.wav
42,192,82544,128,0,82608:0:0:0:0:
128,192,82544,128,0,82608:0:0:0:0:
213,192,82672,128,0,82768:0:0:0:60:kick.wav
298,192,82672,128,0,82864:0:0:0:0:
469,192,82672,128,0,82864:0:0:0:0:
42,192,82768,128,0,82864:0:0:0:60:kick.wav
128,192,82864,128,0,82960:0:0:0:60:kick.wav
213,192,82960,128,0,83056:0:0:0:60:kick.wav
42,192,83056,128,0,83249:0:0:0:100:cymbal.wav
128,192,83056,128,0,83249:0:0:0:60:kick.wav
469,192,83056,1,0,0:0:0:0:
384,192,83105,1,0,0:0:0:60:kick.wav
298,192,83153,1,0,0:0:0:60:kick.wav
213,192,83201,1,0,0:0:0:60:kick.wav
384,192,83249,1,0,0:0:0:60:kick.wav
469,192,83249,1,0,0:0:0:0:
213,192,83345,1,0,0:0:0:60:kick.wav
298,192,83345,1,0,0:0:0:0:
42,192,83441,128,0,83633:0:0:0:60:kick.wav
128,192,83441,128,0,83633:0:0:0:0:
384,192,83441,1,0,0:0:0:0:
469,192,83441,1,0,0:0:0:0:
384,192,83569,1,0,0:0:0:60:kick.wav
469,192,83569,1,0,0:0:0:0:
384,192,83697,1,0,0:0:0:60:kick.wav
469,192,83697,1,0,0:0:0:0:
42,192,83826,128,0,84018:0:0:0:70:snare.wav
128,192,83826,128,0,84018:0:0:0:0:
213,192,83826,1,0,0:0:0:0:
298,192,83826,1,0,0:0:0:0:
384,192,84018,1,0,0:0:0:60:kick.wav
469,192,84018,1,0,0:0:0:0:
42,192,84210,128,0,84403:0:0:0:0:
128,192,84210,128,0,84403:0:0:0:0:
298,192,84306,1,0,0:0:0:60:kick.wav
384,192,84306,1,0,0:0:0:0:
384,192,84499,1,0,0:0:0:60:kick.wav
469,192,84499,1,0,0:0:0:0:
42,192,84595,128,0,84787:0:0:0:0:
213,192,84595,128,0,84787:0:0:0:0:
298,192,84691,1,0,0:0:0:60:kick.wav
384,192,84691,1,0,0:0:0:0:
469,192,84883,1,0,0:0:0:60:kick.wav
384,192,84931,1,0,0:0:0:60:kick.wav
42,192,84980,128,0,85172:0:0:0:60:kick.wav
128,192,84980,1,0,0:0:0:0:
213,192,84980,128,0,85172:0:0:0:0:
298,192,84980,1,0,0:0:0:0:
384,192,85172,1,0,0:0:0:60:kick.wav
469,192,85172,1,0,0:0:0:0:
42,192,85364,128,0,85556:0:0:0:70:snare.wav
128,192,85364,1,0,0:0:0:0:
213,192,85364,128,0,85556:0:0:0:0:
384,192,85364,1,0,0:0:0:0:
469,192,85364,1,0,0:0:0:0:
298,192,85556,1,0,0:0:0:60:kick.wav
384,192,85556,1,0,0:0:0:0:
42,192,85749,128,0,85941:0:0:0:0:
213,192,85749,128,0,85941:0:0:0:0:
469,192,85749,128,0,86133:0:0:0:0:
42,192,86133,128,0,86806:0:0:0:60:kick.wav
128,192,86133,1,0,0:0:0:0:
298,192,86133,128,0,86326:0:0:0:0:
384,192,86133,128,0,86326:0:0:0:0:
128,192,86518,128,0,86806:0:0:0:60:kick.wav
213,192,86518,1,0,0:0:0:0:
298,192,86518,128,0,86710:0:0:0:0:
384,192,86518,128,0,86710:0:0:0:0:
42,192,86903,1,0,0:0:0:70:snare.wav
128,192,86903,1,0,0:0:0:0:
298,192,86903,128,0,87095:0:0:0:0:
384,192,86903,128,0,87095:0:0:0:0:
469,192,86903,1,0,0:0:0:0:
128,192,87095,1,0,0:0:0:60:kick.wav
213,192,87095,1,0,0:0:0:0:
298,192,87287,128,0,87480:0:0:0:0:
384,192,87287,128,0,87480:0:0:0:0:
42,192,87480,1,0,0:0:0:60:kick.wav
128,192,87528,1,0,0:0:0:60:kick.wav
213,192,87576,1,0,0:0:0:60:kick.wav
298,192,87624,1,0,0:0:0:60:kick.wav
42,192,87672,1,0,0:0:0:60:kick.wav
128,192,87672,1,0,0:0:0:0:
384,192,87672,128,0,87864:0:0:0:0:
469,192,87672,128,0,87864:0:0:0:0:
128,192,87960,1,0,0:0:0:60:kick.wav
213,192,87960,1,0,0:0:0:0:
384,192,88056,128,0,88249:0:0:0:0:
469,192,88056,128,0,88249:0:0:0:0:
42,192,88153,1,0,0:0:0:60:kick.wav
128,192,88153,1,0,0:0:0:0:
213,192,88249,1,0,0:0:0:60:kick.wav
298,192,88249,1,0,0:0:0:0:
42,192,88345,1,0,0:0:0:60:kick.wav
128,192,88393,1,0,0:0:0:60:kick.wav
213,192,88441,1,0,0:0:0:70:snare.wav
298,192,88441,1,0,0:0:0:0:
384,192,88441,128,0,88633:0:0:0:0:
469,192,88441,128,0,88633:0:0:0:0:
42,192,88633,128,0,89210:0:0:0:60:kick.wav
213,192,88633,1,0,0:0:0:0:
128,192,88826,128,0,89210:0:0:0:0:
384,192,88826,128,0,89018:0:0:0:0:
469,192,88826,128,0,89018:0:0:0:0:
213,192,89210,128,0,89595:0:0:0:100:cymbal.wav
298,192,89210,128,0,89547:0:0:0:60:kick.wav
384,192,89210,128,0,89499:0:0:0:0:
469,192,89210,128,0,89451:0:0:0:0:
42,192,89403,128,0,89595:0:0:0:0:
128,192,89595,128,0,89980:0:0:0:0:
42,192,89787,128,0,89980:0:0:0:60:kick.wav
384,192,89787,1,0,0:0:0:0:
469,192,89787,1,0,0:0:0:0:
469,192,89980,1,0,0:0:0:70:snare.wav
298,192,89980,1,0,0:0:0:0:
213,192,89980,1,0,0:0:0:0:
42,192,90172,128,0,90556:0:0:0:60:kick.wav
384,192,90172,1,0,0:0:0:0:
469,192,90172,1,0,0:0:0:0:
213,192,90268,1,0,0:0:0:60:kick.wav
298,192,90268,1,0,0:0:0:0:
128,192,90364,128,0,90749:0:0:0:60:kick.wav
384,192,90364,1,0,0:0:0:0:
469,192,90364,1,0,0:0:0:0:
213,192,90556,128,0,90749:0:0:0:60:kick.wav
384,192,90556,1,0,0:0:0:0:
469,192,90556,1,0,0:0:0:0:
42,192,90749,128,0,90941:0:0:0:0:
384,192,90941,1,0,0:0:0:60:kick.wav
469,192,90941,128,0,91133:0:0:0:0:
298,192,90989,1,0,0:0:0:60:kick.wav
213,192,91037,1,0,0:0:0:60:kick.wav
128,192,91085,1,0,0:0:0:60:kick.wav
42,192,91133,1,0,0:0:0:60:kick.wav
384,192,91133,128,0,91518:0:0:0:0:
42,192,91326,1,0,0:0:0:60:kick.wav
213,192,91326,1,0,0:0:0:0:
469,192,91326,128,0,91518:0:0:0:0:
42,192,91518,1,0,0:0:0:70:snare.wav
128,192,91518,1,0,0:0:0:0:
298,192,91518,1,0,0:0:0:0:
128,192,91710,1,0,0:0:0:60:kick.wav
213,192,91710,128,0,92095:0:0:0:0:
384,192,91710,1,0,0:0:0:0:
384,192,91806,1,0,0:0:0:0:
42,192,91903,128,0,92287:0:0:0:0:
469,192,91903,128,0,92287:0:0:0:0:
128,192,92095,128,0,92287:0:0:0:0:
213,192,92287,1,0,0:0:0:60:kick.wav
298,192,92287,1,0,0:0:0:0:
384,192,92287,128,0,92672:0:0:0:0:
298,192,92480,128,0,92672:0:0:0:0:
42,192,92576,1,0,0:0:0:60:kick.wav
128,192,92576,1,0,0:0:0:0:
469,192,92672,128,0,93056:0:0:0:0:
42,192,92768,1,0,0:0:0:60:kick.wav
128,192,92768,1,0,0:0:0:0:
213,192,92864,1,0,0:0:0:60:kick.wav
298,192,92864,1,0,0:0:0:0:
384,192,92864,128,0,93056:0:0:0:0:
42,192,93056,1,0,0:0:0:70:snare.wav
128,192,93056,1,0,0:0:0:0:
213,192,93056,1,0,0:0:0:0:
128,192,93249,128,0,93441:0:0:0:60:kick.wav
298,192,93249,1,0,0:0:0:0:
469,192,93249,1,0,0:0:0:0:
213,192,93345,1,0,0:0:0:60:kick.wav
384,192,93345,1,0,0:0:0:0:
42,192,93441,128,0,93826:0:0:0:60:kick.wav
298,192,93441,1,0,0:0:0:0:
469,192,93441,1,0,0:0:0:0:
298,192,93569,1,0,0:0:0:60:kick.wav
469,192,93569,1,0,0:0:0:0:
128,192,93633,128,0,93826:0:0:0:0:
298,192,93697,1,0,0:0:0:60:kick.wav
469,192,93697,1,0,0:0:0:0:
213,192,93826,128,0,94018:0:0:0:0:
42,192,94018,128,0,94210:0:0:0:60:kick.wav
469,192,94018,1,0,0:0:0:0:
384,192,94066,1,0,0:0:0:60:kick.wav
298,192,94114,1,0,0:0:0:60:kick.wav
213,192,94162,1,0,0:0:0:60:kick.wav
128,192,94210,1,0,0:0:0:60:kick.wav
469,192,94210,128,0,94403:0:0:0:0:
42,192,94403,128,0,94595:0:0:0:60:kick.wav
213,192,94403,1,0,0:0:0:0:
298,192,94403,1,0,0:0:0:0:
469,192,94595,1,0,0:0:0:70:snare.wav
298,192,94595,128,0,94659:0:0:0:0:
384,192,94595,128,0,94659:0:0:0:0:
128,192,94595,1,0,0:0:0:0:
298,192,94723,128,0,94787:0:0:0:0:
384,192,94723,128,0,94787:0:0:0:0:
42,192,94787,128,0,95172:0:0:0:60:kick.wav
213,192,94787,1,0,0:0:0:0:
298,192,94851,128,0,94915:0:0:0:0:
384,192,94851,128,0,94915:0:0:0:0:
128,192,94980,128,0,95172:0:0:0:0:
469,192,94980,128,0,95076:0:0:0:0:
384,192,95076,128,0,95172:0:0:0:0:
213,192,95172,128,0,95364:0:0:0:0:
298,192,95172,128,0,95364:0:0:0:0:
42,192,95364,1,0,0:0:0:100:cymbal.wav
469,192,95364,128,0,95556:0:0:0:60:kick.wav
128,192,95412,1,0,0:0:0:60:kick.wav
213,192,95460,1,0,0:0:0:60:kick.wav
298,192,95508,1,0,0:0:0:60:kick.wav
42,192,95556,1,0,0:0:0:60:kick.wav
128,192,95556,1,0,0:0:0:0:
384,192,95556,128,0,95941:0:0:0:0:
213,192,95653,1,0,0:0:0:60:kick.wav
298,192,95653,1,0,0:0:0:0:
42,192,95749,1,0,0:0:0:60:kick.wav
128,192,95749,1,0,0:0:0:0:
469,192,95749,128,0,96133:0:0:0:0:
42,192,95877,1,0,0:0:0:60:kick.wav
128,192,95877,1,0,0:0:0:0:
298,192,95941,128,0,96133:0:0:0:0:
42,192,96005,1,0,0:0:0:60:kick.wav
128,192,96005,1,0,0:0:0:0:
213,192,96133,1,0,0:0:0:70:snare.wav
384,192,96133,1,0,0:0:0:0:
42,192,96326,128,0,96710:0:0:0:60:kick.wav
384,192,96326,1,0,0:0:0:0:
469,192,96326,1,0,0:0:0:0:
128,192,96518,128,0,96903:0:0:0:0:
298,192,96614,1,0,0:0:0:60:kick.wav
384,192,96614,1,0,0:0:0:0:
213,192,96710,128,0,96903:0:0:0:0:
384,192,96806,1,0,0:0:0:60:kick.wav
469,192,96806,1,0,0:0:0:0:
42,192,96903,128,0,97480:0:0:0:0:
298,192,96999,1,0,0:0:0:60:kick.wav
384,192,96999,1,0,0:0:0:0:
128,192,97095,128,0,97287:0:0:0:0:
469,192,97191,1,0,0:0:0:60:kick.wav
384,192,97239,1,0,0:0:0:60:kick.wav
213,192,97287,128,0,97672:0:0:0:60:kick.wav
298,192,97287,1,0,0:0:0:0:
128,192,97480,128,0,97672:0:0:0:60:kick.wav
384,192,97480,1,0,0:0:0:0:
469,192,97480,1,0,0:0:0:0:
42,192,97672,1,0,0:0:0:70:snare.wav
298,192,97672,1,0,0:0:0:0:
469,192,97672,1,0,0:0:0:0:
128,192,97864,1,0,0:0:0:60:kick.wav
213,192,97864,1,0,0:0:0:0:
469,192,97864,128,0,98249:0:0:0:0:
42,192,98056,128,0,98441:0:0:0:0:
128,192,98056,128,0,98441:0:0:0:0:
384,192,98056,128,0,98249:0:0:0:0:
298,192,98249,128,0,98441:0:0:0:0:
213,192,98441,128,0,98826:0:0:0:60:kick.wav
384,192,98441,128,0,98633:0:0:0:0:
469,192,98441,128,0,98826:0:0:0:0:
42,192,98633,128,0,98826:0:0:0:0:
128,192,98826,128,0,99210:0:0:0:60:kick.wav
298,192,98826,128,0,99018:0:0:0:0:
384,192,98826,128,0,99210:0:0:0:0:
213,192,99018,128,0,99210:0:0:0:0:
42,192,99210,1,0,0:0:0:70:snare.wav
298,192,99210,1,0,0:0:0:0:
469,192,99210,1,0,0:0:0:0:
42,192,99403,1,0,0:0:0:60:kick.wav
128,192,99403,1,0,0:0:0:0:
384,192,99403,128,0,99787:0:0:0:0:
298,192,99595,128,0,99787:0:0:0:0:
42,192,99787,1,0,0:0:0:60:kick.wav
469,192,99787,128,0,99980:0:0:0:0:
128,192,99835,1,0,0:0:0:60:kick.wav
213,192,99883,1,0,0:0:0:60:kick.wav
298,192,99931,1,0,0:0:0:60:kick.wav
42,192,99980,1,0,0:0:0:60:kick.wav
128,192,99980,1,0,0:0:0:0:
384,192,99980,128,0,100364:0:0:0:0:
213,192,100076,1,0,0:0:0:60:kick.wav
298,192,100076,1,0,0:0:0:0:
42,192,100172,1,0,0:0:0:60:kick.wav
128,192,100172,1,0,0:0:0:0:
469,192,100172,128,0,100364:0:0:0:0:
213,192,100268,1,0,0:0:0:60:kick.wav
298,192,100268,1,0,0:0:0:0:
42,192,100364,1,0,0:0:0:0:
298,192,100460,1,0,0:0:0:60:kick.wav
384,192,100460,1,0,0:0:0:0:
469,192,100460,1,0,0:0:0:0:
42,192,100556,1,0,0:0:0:60:kick.wav
128,192,100556,1,0,0:0:0:0:
213,192,100556,1,0,0:0:0:0:
384,192,100653,1,0,0:0:0:60:kick.wav
298,192,100701,1,0,0:0:0:60:kick.wav
42,192,100749,128,0,101422:0:0:0:70:snare.wav
128,192,100749,128,0,101422:0:0:0:0:
213,192,100749,1,0,0:0:0:0:
384,192,100749,128,0,101422:0:0:0:0:
469,192,100749,128,0,101422:0:0:0:0:
213,192,100941,128,0,101422:0:0:0:0:
298,192,100941,128,0,101422:0:0:0:0:
42,192,101518,1,0,0:0:0:100:cymbal.wav
128,192,101518,1,0,0:0:0:60:kick.wav
213,192,101518,1,0,0:0:0:90:A#5.wav
298,192,101518,1,0,0:0:0:100:BassKickReverbXD.wav
384,192,101518,1,0,0:0:0:0:
469,192,101518,1,0,0:0:0:0:
384,192,102287,1,0,0:0:0:90:A5.wav
213,192,102672,1,0,0:0:0:90:F5.wav
298,192,103056,1,0,0:0:0:90:G5.wav
384,192,103633,1,0,0:0:0:90:F5.wav
213,192,103730,1,0,0:0:0:90:D#5.wav
42,192,103826,1,0,0:0:0:90:D5.wav
42,192,104403,1,0,0:0:0:90:D5.wav
213,192,104595,1,0,0:0:0:90:D#5.wav
128,192,105172,1,0,0:0:0:90:D#5.wav
213,192,105268,1,0,0:0:0:90:F5.wav
298,192,105364,1,0,0:0:0:90:G5.wav
128,192,105556,1,0,0:0:0:90:D#5.wav
298,192,105749,1,0,0:0:0:90:G5.wav
384,192,105941,1,0,0:0:0:90:A5.wav
469,192,106133,1,0,0:0:0:90:A#5.wav
384,192,106710,1,0,0:0:0:90:A5.wav
298,192,106806,1,0,0:0:0:90:G5.wav
128,192,106903,1,0,0:0:0:90:F#5.wav
213,192,107095,1,0,0:0:0:90:G5.wav
298,192,107287,1,0,0:0:0:90:A5.wav
42,192,107480,1,0,0:0:0:90:D5.wav
384,192,107672,1,0,0:0:0:90:A#5.wav
42,192,108249,1,0,0:0:0:90:A5.wav
128,192,108345,1,0,0:0:0:90:A#5.wav
298,192,108441,1,0,0:0:0:90:C6.wav
128,192,108730,1,0,0:0:0:90:A#5.wav
298,192,109018,1,0,0:0:0:90:C6.wav
469,192,109210,1,0,0:0:0:90:D6.wav
298,192,109787,1,0,0:0:0:90:C6.wav
384,192,109883,1,0,0:0:0:90:D6.wav
469,192,109980,1,0,0:0:0:90:D#6.wav
42,192,110172,1,0,0:0:0:90:A#5.wav
213,192,110364,1,0,0:0:0:90:C6.wav
469,192,110556,1,0,0:0:0:90:D#6.wav
384,192,110749,1,0,0:0:0:90:D6.wav
298,192,111710,1,0,0:0:0:90:A5.wav
213,192,112095,1,0,0:0:0:90:G5.wav
128,192,112287,1,0,0:0:0:90:F#5.wav
42,192,112672,1,0,0:0:0:90:D5.wav
384,192,113056,1,0,0:0:0:90:D6.wav
469,192,113056,128,0,113633:0:0:0:0:
213,192,113441,1,0,0:0:0:90:A5.wav
298,192,113537,1,0,0:0:0:90:C6.wav
42,192,113633,1,0,0:0:0:60:kick.wav
128,192,113633,1,0,0:0:0:90:D6.wav
384,192,113633,1,0,0:0:0:0:
213,192,113730,1,0,0:0:0:90:F#6.wav
42,192,113826,1,0,0:0:0:100:cymbal.wav
128,192,113826,1,0,0:0:0:60:kick.wav
298,192,113826,1,0,0:0:0:90:G6.wav
384,192,113826,1,0,0:0:0:100:BassKickReverbXD.wav
469,192,113826,1,0,0:0:0:0:
469,192,114210,1,0,0:0:0:50:clap.wav
384,192,114403,1,0,0:0:0:90:G6.wav
298,192,114595,1,0,0:0:0:90:F6.wav
42,192,114787,1,0,0:0:0:90:C6.wav
128,192,114980,1,0,0:0:0:90:D6.wav
469,192,114980,1,0,0:0:0:50:clap.wav
213,192,115172,1,0,0:0:0:90:D#6.wav
213,192,115364,1,0,0:0:0:90:D#6.wav
298,192,115653,1,0,0:0:0:90:F6.wav
469,192,115749,1,0,0:0:0:50:clap.wav
213,192,115941,1,0,0:0:0:90:D#6.wav
128,192,116133,1,0,0:0:0:90:D6.wav
469,192,116518,1,0,0:0:0:50:clap.wav
128,192,116710,1,0,0:0:0:90:D6.wav
42,192,116903,1,0,0:0:0:100:cymbal.wav
298,192,116903,1,0,0:0:0:60:kick.wav
384,192,116903,1,0,0:0:0:90:C6.wav
469,192,116903,1,0,0:0:0:0:
213,192,117287,1,0,0:0:0:90:D6.wav
469,192,117287,1,0,0:0:0:50:clap.wav
298,192,117480,1,0,0:0:0:90:D#6.wav
213,192,117672,1,0,0:0:0:90:D6.wav
128,192,118056,1,0,0:0:0:90:A5.wav
469,192,118056,1,0,0:0:0:50:clap.wav
42,192,118441,1,0,0:0:0:60:kick.wav
213,192,118441,1,0,0:0:0:90:C6.wav
384,192,118441,1,0,0:0:0:0:
298,192,118826,1,0,0:0:0:90:A#5.wav
469,192,118826,1,0,0:0:0:50:clap.wav
42,192,119210,1,0,0:0:0:60:kick.wav
128,192,119210,1,0,0:0:0:90:A5.wav
384,192,119210,1,0,0:0:0:0:
298,192,119595,1,0,0:0:0:90:A#5.wav
469,192,119595,1,0,0:0:0:50:clap.wav
42,192,119787,1,0,0:0:0:60:kick.wav
128,192,119787,1,0,0:0:0:0:
213,192,119787,1,0,0:0:0:0:
42,192,119980,1,0,0:0:0:100:cymbal.wav
213,192,119980,1,0,0:0:0:60:kick.wav
384,192,119980,1,0,0:0:0:90:G5.wav
469,192,119980,1,0,0:0:0:0:
469,192,120364,1,0,0:0:0:50:clap.wav
128,192,120556,1,0,0:0:0:90:E5.wav
128,192,120653,1,0,0:0:0:90:E5.wav
42,192,120749,1,0,0:0:0:60:kick.wav
128,192,120749,1,0,0:0:0:90:E5.wav
298,192,120749,1,0,0:0:0:0:
469,192,121133,1,0,0:0:0:50:clap.wav
384,192,121326,1,0,0:0:0:90:C6.wav
384,192,121422,1,0,0:0:0:90:C6.wav
42,192,121518,1,0,0:0:0:100:cymbal.wav
213,192,121518,1,0,0:0:0:60:kick.wav
384,192,121518,1,0,0:0:0:90:C6.wav
469,192,121518,1,0,0:0:0:0:
469,192,121903,1,0,0:0:0:50:clap.wav
42,192,122287,1,0,0:0:0:60:kick.wav
128,192,122287,1,0,0:0:0:90:D6.wav
298,192,122287,1,0,0:0:0:0:
384,192,122672,1,0,0:0:0:90:E6.wav
469,192,122672,1,0,0:0:0:50:clap.wav
42,192,122864,1,0,0:0:0:60:kick.wav
213,192,122864,1,0,0:0:0:0:
298,192,122864,1,0,0:0:0:0:
42,192,123056,1,0,0:0:0:100:cymbal.wav
128,192,123056,1,0,0:0:0:60:kick.wav
384,192,123056,1,0,0:0:0:90:G6.wav
469,192,123056,1,0,0:0:0:0:
42,192,123441,1,0,0:0:0:60:kick.wav
213,192,123441,1,0,0:0:0:50:clap.wav
469,192,123441,1,0,0:0:0:0:
42,192,123826,1,0,0:0:0:100:cymbal.wav
128,192,123826,1,0,0:0:0:60:kick.wav
298,192,123826,1,0,0:0:0:0:
384,192,123826,1,0,0:0:0:0:
42,192,124210,1,0,0:0:0:60:kick.wav
213,192,124210,1,0,0:0:0:50:clap.wav
469,192,124210,1,0,0:0:0:0:
42,192,124403,1,0,0:0:0:60:kick.wav
384,192,124403,1,0,0:0:0:90:A6.wav
298,192,124499,1,0,0:0:0:90:G6.wav
42,192,124595,1,0,0:0:0:100:cymbal.wav
128,192,124595,1,0,0:0:0:60:kick.wav
213,192,124595,1,0,0:0:0:90:F#6.wav
469,192,124595,1,0,0:0:0:0:
128,192,124787,1,0,0:0:0:60:kick.wav
298,192,124787,1,0,0:0:0:0:
469,192,124787,1,0,0:0:0:0:
42,192,124980,1,0,0:0:0:100:cymbal.wav
213,192,124980,1,0,0:0:0:60:kick.wav
384,192,124980,1,0,0:0:0:50:clap.wav
469,192,124980,1,0,0:0:0:0:
128,192,125172,1,0,0:0:0:60:kick.wav
213,192,125172,1,0,0:0:0:0:
384,192,125172,1,0,0:0:0:0:
42,192,125364,1,0,0:0:0:100:cymbal.wav
128,192,125364,1,0,0:0:0:60:kick.wav
298,192,125364,1,0,0:0:0:0:
469,192,125364,1,0,0:0:0:0:
213,192,125460,1,0,0:0:0:60:kick.wav
384,192,125460,1,0,0:0:0:0:
42,192,125556,1,0,0:0:0:60:kick.wav
128,192,125556,1,0,0:0:0:0:
469,192,125556,1,0,0:0:0:0:
213,192,125653,1,0,0:0:0:60:kick.wav
298,192,125653,1,0,0:0:0:0:
42,192,125749,1,0,0:0:0:100:cymbal.wav
128,192,125749,1,0,0:0:0:60:kick.wav
384,192,125749,1,0,0:0:0:50:clap.wav
469,192,125749,1,0,0:0:0:0:
213,192,125845,1,0,0:0:0:60:kick.wav
298,192,125845,1,0,0:0:0:0:
42,192,125941,1,0,0:0:0:60:kick.wav
384,192,125941,1,0,0:0:0:0:
469,192,125941,1,0,0:0:0:0:
128,192,126037,1,0,0:0:0:60:kick.wav
298,192,126037,1,0,0:0:0:0:
42,192,126133,1,0,0:0:0:100:cymbal.wav
213,192,126133,1,0,0:0:0:60:kick.wav
384,192,126133,1,0,0:0:0:0:
469,192,126133,1,0,0:0:0:0:
384,192,126326,1,0,0:0:0:0:
384,192,126422,1,0,0:0:0:0:
128,192,126518,1,0,0:0:0:0:
128,192,126614,1,0,0:0:0:0:
298,192,126710,1,0,0:0:0:0:
298,192,126806,1,0,0:0:0:0:
469,192,126903,128,0,127287:0:0:0:0:
42,192,127287,128,0,127672:0:0:0:0:
128,192,127672,1,0,0:0:0:100:cymbal.wav
213,192,127672,1,0,0:0:0:60:kick.wav
298,192,127672,1,0,0:0:0:100:BassKickReverbXD.wav
384,192,127672,1,0,0:0:0:0:
469,192,127672,1,0,0:0:0:0:
42,192,127768,1,0,0:0:0:0:
213,192,127864,1,0,0:0:0:0:
384,192,127864,1,0,0:0:0:0:
128,192,127960,1,0,0:0:0:0:
42,192,128056,1,0,0:0:0:60:kick.wav
298,192,128056,1,0,0:0:0:50:clap.wav
469,192,128056,1,0,0:0:0:0:
213,192,128153,1,0,0:0:0:0:
128,192,128249,1,0,0:0:0:0:
384,192,128249,1,0,0:0:0:0:
298,192,128345,1,0,0:0:0:0:
42,192,128441,1,0,0:0:0:60:kick.wav
213,192,128441,1,0,0:0:0:0:
384,192,128441,1,0,0:0:0:0:
469,192,128441,1,0,0:0:0:0:
128,192,128537,1,0,0:0:0:0:
298,192,128633,1,0,0:0:0:0:
469,192,128633,1,0,0:0:0:0:
213,192,128730,1,0,0:0:0:0:
42,192,128826,1,0,0:0:0:60:kick.wav
128,192,128826,1,0,0:0:0:50:clap.wav
384,192,128826,1,0,0:0:0:0:
469,192,128826,1,0,0:0:0:0:
298,192,128922,1,0,0:0:0:0:
42,192,129018,1,0,0:0:0:0:
213,192,129018,1,0,0:0:0:0:
298,192,129114,1,0,0:0:0:0:
42,192,129210,1,0,0:0:0:60:kick.wav
128,192,129210,1,0,0:0:0:0:
384,192,129210,1,0,0:0:0:0:
469,192,129210,128,0,129595:0:0:0:0:
213,192,129306,1,0,0:0:0:0:
42,192,129403,1,0,0:0:0:0:
298,192,129403,1,0,0:0:0:0:
128,192,129499,1,0,0:0:0:0:
42,192,129595,1,0,0:0:0:60:kick.wav
213,192,129595,1,0,0:0:0:50:clap.wav
384,192,129595,1,0,0:0:0:0:
298,192,129691,1,0,0:0:0:0:
128,192,129787,1,0,0:0:0:0:
384,192,129787,1,0,0:0:0:0:
469,192,129787,1,0,0:0:0:0:
213,192,129883,1,0,0:0:0:0:
298,192,129883,1,0,0:0:0:0:
42,192,129980,128,0,130364:0:0:0:60:kick.wav
128,192,129980,1,0,0:0:0:0:
384,192,129980,1,0,0:0:0:0:
469,192,129980,1,0,0:0:0:0:
213,192,130076,1,0,0:0:0:0:
298,192,130172,1,0,0:0:0:0:
384,192,130172,1,0,0:0:0:0:
213,192,130268,1,0,0:0:0:0:
128,192,130364,1,0,0:0:0:60:kick.wav
384,192,130364,1,0,0:0:0:50:clap.wav
469,192,130364,1,0,0:0:0:0:
298,192,130460,1,0,0:0:0:0:
42,192,130556,1,0,0:0:0:0:
213,192,130556,1,0,0:0:0:0:
469,192,130556,1,0,0:0:0:0:
384,192,130653,1,0,0:0:0:0:
42,192,130749,1,0,0:0:0:60:kick.wav
128,192,130749,1,0,0:0:0:0:
298,192,130749,128,0,131133:0:0:0:0:
469,192,130749,1,0,0:0:0:0:
213,192,130845,1,0,0:0:0:0:
42,192,130941,1,0,0:0:0:0:
384,192,130941,1,0,0:0:0:0:
128,192,131037,1,0,0:0:0:0:
42,192,131133,1,0,0:0:0:60:kick.wav
213,192,131133,1,0,0:0:0:50:clap.wav
469,192,131133,1,0,0:0:0:0:
384,192,131230,1,0,0:0:0:0:
42,192,131326,1,0,0:0:0:0:
128,192,131326,1,0,0:0:0:0:
298,192,131326,1,0,0:0:0:0:
213,192,131422,1,0,0:0:0:0:
384,192,131422,1,0,0:0:0:0:
42,192,131518,1,0,0:0:0:60:kick.wav
128,192,131518,1,0,0:0:0:0:
298,192,131518,1,0,0:0:0:0:
469,192,131518,1,0,0:0:0:0:
384,192,131614,1,0,0:0:0:0:
128,192,131710,1,0,0:0:0:0:
213,192,131710,1,0,0:0:0:0:
469,192,131710,1,0,0:0:0:0:
298,192,131806,1,0,0:0:0:0:
42,192,131903,1,0,0:0:0:60:kick.wav
128,192,131903,1,0,0:0:0:50:clap.wav
384,192,131903,1,0,0:0:0:0:
469,192,131903,1,0,0:0:0:0:
213,192,131999,1,0,0:0:0:0:
42,192,132095,1,0,0:0:0:0:
298,192,132095,1,0,0:0:0:0:
384,192,132095,1,0,0:0:0:0:
128,192,132191,1,0,0:0:0:0:
42,192,132287,1,0,0:0:0:60:kick.wav
213,192,132287,1,0,0:0:0:0:
298,192,132287,1,0,0:0:0:0:
469,192,132287,128,0,132672:0:0:0:0:
384,192,132383,1,0,0:0:0:0:
128,192,132480,1,0,0:0:0:0:
213,192,132480,1,0,0:0:0:0:
298,192,132576,1,0,0:0:0:0:
42,192,132672,1,0,0:0:0:60:kick.wav
213,192,132672,1,0,0:0:0:50:clap.wav
384,192,132672,1,0,0:0:0:0:
469,192,132768,1,0,0:0:0:0:
42,192,132864,1,0,0:0:0:60:kick.wav
128,192,132864,1,0,0:0:0:0:
298,192,132864,1,0,0:0:0:0:
213,192,132960,1,0,0:0:0:60:kick.wav
384,192,132960,1,0,0:0:0:0:
469,192,132960,1,0,0:0:0:0:
42,192,133056,1,0,0:0:0:60:kick.wav
128,192,133056,1,0,0:0:0:0:
298,192,133056,1,0,0:0:0:0:
213,192,133153,1,0,0:0:0:60:kick.wav
384,192,133153,1,0,0:0:0:0:
469,192,133153,1,0,0:0:0:0:
42,192,133249,1,0,0:0:0:60:kick.wav
128,192,133249,1,0,0:0:0:0:
298,192,133249,1,0,0:0:0:0:
42,192,133441,1,0,0:0:0:60:kick.wav
213,192,133441,1,0,0:0:0:50:clap.wav
298,192,133441,1,0,0:0:0:0:
469,192,133441,1,0,0:0:0:0:
42,192,133633,1,0,0:0:0:60:kick.wav
128,192,133633,1,0,0:0:0:0:
384,192,133633,1,0,0:0:0:0:
469,192,133633,1,0,0:0:0:0:
213,192,133730,1,0,0:0:0:60:kick.wav
298,192,133730,1,0,0:0:0:0:
42,192,133826,128,0,134210:0:0:0:100:cymbal.wav
128,192,133826,1,0,0:0:0:60:kick.wav
384,192,133826,1,0,0:0:0:0:
469,192,133826,1,0,0:0:0:0:
298,192,133922,1,0,0:0:0:0:
213,192,134018,1,0,0:0:0:0:
384,192,134018,1,0,0:0:0:0:
469,192,134114,1,0,0:0:0:0:
128,192,134210,1,0,0:0:0:60:kick.wav
213,192,134210,1,0,0:0:0:50:clap.wav
298,192,134210,1,0,0:0:0:0:
469,192,134306,1,0,0:0:0:0:
42,192,134403,1,0,0:0:0:0:
128,192,134403,1,0,0:0:0:0:
384,192,134403,1,0,0:0:0:0:
213,192,134499,1,0,0:0:0:0:
298,192,134499,1,0,0:0:0:0:
42,192,134595,1,0,0:0:0:60:kick.wav
128,192,134595,1,0,0:0:0:0:
384,192,134595,1,0,0:0:0:0:
469,192,134595,1,0,0:0:0:0:
213,192,134691,1,0,0:0:0:0:
298,192,134787,1,0,0:0:0:0:
469,192,134787,1,0,0:0:0:0:
42,192,134883,1,0,0:0:0:0:
128,192,134883,1,0,0:0:0:0:
384,192,134883,1,0,0:0:0:0:
213,192,134980,1,0,0:0:0:60:kick.wav
298,192,134980,1,0,0:0:0:50:clap.wav
469,192,134980,1,0,0:0:0:0:
128,192,135076,1,0,0:0:0:0:
42,192,135172,1,0,0:0:0:0:
298,192,135172,1,0,0:0:0:0:
384,192,135172,1,0,0:0:0:0:
213,192,135268,1,0,0:0:0:0:
42,192,135364,1,0,0:0:0:60:kick.wav
128,192,135364,1,0,0:0:0:0:
384,192,135364,1,0,0:0:0:0:
469,192,135364,128,0,135749:0:0:0:0:
298,192,135460,1,0,0:0:0:0:
128,192,135556,1,0,0:0:0:0:
213,192,135556,1,0,0:0:0:0:
298,192,135653,1,0,0:0:0:0:
42,192,135749,1,0,0:0:0:60:kick.wav
128,192,135749,1,0,0:0:0:50:clap.wav
384,192,135749,1,0,0:0:0:0:
213,192,135845,1,0,0:0:0:0:
42,192,135941,1,0,0:0:0:0:
298,192,135941,1,0,0:0:0:0:
469,192,135941,1,0,0:0:0:0:
128,192,136037,1,0,0:0:0:0:
384,192,136037,1,0,0:0:0:0:
42,192,136133,1,0,0:0:0:60:kick.wav
213,192,136133,1,0,0:0:0:0:
298,192,136133,1,0,0:0:0:0:
469,192,136133,1,0,0:0:0:0:
128,192,136230,1,0,0:0:0:0:
213,192,136326,1,0,0:0:0:0:
384,192,136326,1,0,0:0:0:0:
469,192,136326,1,0,0:0:0:0:
128,192,136422,1,0,0:0:0:0:
42,192,136518,1,0,0:0:0:60:kick.wav
298,192,136518,1,0,0:0:0:50:clap.wav
384,192,136518,1,0,0:0:0:0:
469,192,136518,1,0,0:0:0:0:
213,192,136614,1,0,0:0:0:0:
42,192,136710,1,0,0:0:0:60:kick.wav
128,192,136710,1,0,0:0:0:0:
384,192,136710,1,0,0:0:0:0:
469,192,136710,1,0,0:0:0:0:
298,192,136806,1,0,0:0:0:0:
42,192,136903,1,0,0:0:0:60:kick.wav
128,192,136903,1,0,0:0:0:0:
213,192,136903,1,0,0:0:0:0:
469,192,136903,1,0,0:0:0:0:
298,192,136999,1,0,0:0:0:0:
384,192,136999,1,0,0:0:0:0:
42,192,137095,1,0,0:0:0:0:
128,192,137095,1,0,0:0:0:0:
469,192,137095,1,0,0:0:0:0:
213,192,137191,1,0,0:0:0:0:
298,192,137191,1,0,0:0:0:0:
42,192,137287,1,0,0:0:0:60:kick.wav
384,192,137287,1,0,0:0:0:50:clap.wav
469,192,137287,1,0,0:0:0:0:
128,192,137383,1,0,0:0:0:0:
213,192,137383,1,0,0:0:0:0:
42,192,137480,1,0,0:0:0:0:
298,192,137480,1,0,0:0:0:0:
469,192,137480,1,0,0:0:0:0:
213,192,137576,1,0,0:0:0:0:
384,192,137576,1,0,0:0:0:0:
128,192,137672,1,0,0:0:0:60:kick.wav
298,192,137672,1,0,0:0:0:0:
469,192,137672,1,0,0:0:0:0:
42,192,137768,1,0,0:0:0:0:
213,192,137768,1,0,0:0:0:0:
128,192,137864,1,0,0:0:0:0:
384,192,137864,1,0,0:0:0:0:
469,192,137864,1,0,0:0:0:0:
213,192,137960,1,0,0:0:0:0:
298,192,137960,1,0,0:0:0:0:
42,192,138056,1,0,0:0:0:60:kick.wav
128,192,138056,1,0,0:0:0:50:clap.wav
384,192,138056,1,0,0:0:0:0:
469,192,138153,1,0,0:0:0:0:
42,192,138249,1,0,0:0:0:0:
213,192,138249,1,0,0:0:0:0:
298,192,138249,1,0,0:0:0:0:
128,192,138345,1,0,0:0:0:60:kick.wav
384,192,138345,1,0,0:0:0:0:
469,192,138345,1,0,0:0:0:0:
42,192,138441,1,0,0:0:0:60:kick.wav
213,192,138441,1,0,0:0:0:0:
298,192,138441,1,0,0:0:0:0:
384,192,138537,1,0,0:0:0:0:
128,192,138633,1,0,0:0:0:60:kick.wav
213,192,138633,1,0,0:0:0:0:
469,192,138633,1,0,0:0:0:0:
298,192,138730,1,0,0:0:0:0:
42,192,138826,1,0,0:0:0:60:kick.wav
128,192,138826,1,0,0:0:0:50:clap.wav
384,192,138826,1,0,0:0:0:0:
469,192,138826,1,0,0:0:0:0:
213,192,138922,1,0,0:0:0:0:
42,192,139018,1,0,0:0:0:0:
469,192,139018,1,0,0:0:0:0:
128,192,139114,1,0,0:0:0:60:kick.wav
298,192,139114,1,0,0:0:0:0:
384,192,139114,1,0,0:0:0:0:
42,192,139210,1,0,0:0:0:60:kick.wav
213,192,139210,1,0,0:0:0:0:
469,192,139210,1,0,0:0:0:0:
298,192,139306,1,0,0:0:0:0:
128,192,139403,1,0,0:0:0:60:kick.wav
384,192,139403,1,0,0:0:0:0:
469,192,139403,1,0,0:0:0:0:
42,192,139499,1,0,0:0:0:60:kick.wav
213,192,139499,1,0,0:0:0:0:
298,192,139595,1,0,0:0:0:60:kick.wav
384,192,139595,1,0,0:0:0:50:clap.wav
469,192,139595,1,0,0:0:0:0:
42,192,139691,1,0,0:0:0:60:kick.wav
128,192,139691,1,0,0:0:0:0:
213,192,139691,1,0,0:0:0:0:
298,192,139787,1,0,0:0:0:60:kick.wav
384,192,139787,1,0,0:0:0:0:
469,192,139787,1,0,0:0:0:0:
42,192,139883,1,0,0:0:0:60:kick.wav
128,192,139883,1,0,0:0:0:0:
213,192,139883,1,0,0:0:0:0:
42,192,139980,1,0,0:0:0:100:cymbal.wav
128,192,139980,1,0,0:0:0:60:kick.wav
298,192,139980,1,0,0:0:0:0:
384,192,139980,1,0,0:0:0:0:
469,192,139980,128,0,140364:0:0:0:0:
213,192,140076,1,0,0:0:0:0:
128,192,140172,1,0,0:0:0:0:
384,192,140172,1,0,0:0:0:0:
298,192,140268,1,0,0:0:0:0:
42,192,140364,1,0,0:0:0:60:kick.wav
128,192,140364,1,0,0:0:0:50:clap.wav
213,192,140364,1,0,0:0:0:0:
384,192,140460,1,0,0:0:0:0:
128,192,140556,1,0,0:0:0:0:
298,192,140556,1,0,0:0:0:0:
469,192,140556,1,0,0:0:0:0:
213,192,140653,1,0,0:0:0:0:
42,192,140749,1,0,0:0:0:60:kick.wav
128,192,140749,1,0,0:0:0:0:
384,192,140749,1,0,0:0:0:0:
469,192,140749,1,0,0:0:0:0:
298,192,140845,1,0,0:0:0:0:
42,192,140941,1,0,0:0:0:0:
213,192,140941,1,0,0:0:0:0:
384,192,140941,1,0,0:0:0:0:
128,192,141037,1,0,0:0:0:0:
42,192,141133,1,0,0:0:0:60:kick.wav
298,192,141133,1,0,0:0:0:50:clap.wav
384,192,141133,1,0,0:0:0:0:
469,192,141133,1,0,0:0:0:0:
213,192,141230,1,0,0:0:0:0:
42,192,141326,1,0,0:0:0:60:kick.wav
128,192,141326,1,0,0:0:0:0:
384,192,141326,1,0,0:0:0:0:
469,192,141326,1,0,0:0:0:0:
298,192,141422,1,0,0:0:0:0:
42,192,141518,1,0,0:0:0:100:cymbal.wav
128,192,141518,128,0,141903:0:0:0:60:kick.wav
213,192,141518,1,0,0:0:0:0:
384,192,141518,1,0,0:0:0:0:
469,192,141518,1,0,0:0:0:0:
298,192,141614,1,0,0:0:0:0:
213,192,141710,1,0,0:0:0:0:
384,192,141806,1,0,0:0:0:0:
469,192,141806,1,0,0:0:0:0:
42,192,141903,1,0,0:0:0:60:kick.wav
213,192,141903,1,0,0:0:0:50:clap.wav
298,192,141903,1,0,0:0:0:0:
384,192,141999,1,0,0:0:0:0:
42,192,142095,1,0,0:0:0:60:kick.wav
128,192,142095,1,0,0:0:0:0:
213,192,142095,1,0,0:0:0:0:
469,192,142095,1,0,0:0:0:0:
298,192,142191,1,0,0:0:0:0:
42,192,142287,128,0,142672:0:0:0:100:cymbal.wav
128,192,142287,1,0,0:0:0:60:kick.wav
213,192,142287,1,0,0:0:0:0:
384,192,142287,1,0,0:0:0:0:
469,192,142287,1,0,0:0:0:0:
298,192,142383,1,0,0:0:0:0:
384,192,142480,1,0,0:0:0:0:
128,192,142576,1,0,0:0:0:60:kick.wav
213,192,142576,1,0,0:0:0:0:
298,192,142672,1,0,0:0:0:60:kick.wav
384,192,142672,1,0,0:0:0:50:clap.wav
469,192,142672,1,0,0:0:0:0:
128,192,142768,1,0,0:0:0:0:
42,192,142864,1,0,0:0:0:60:kick.wav
298,192,142864,1,0,0:0:0:0:
384,192,142864,1,0,0:0:0:0:
469,192,142864,1,0,0:0:0:0:
213,192,142960,1,0,0:0:0:0:
42,192,143056,1,0,0:0:0:100:cymbal.wav
128,192,143056,1,0,0:0:0:60:kick.wav
298,192,143056,1,0,0:0:0:0:
384,192,143056,1,0,0:0:0:0:
469,192,143056,1,0,0:0:0:0:
42,192,143249,1,0,0:0:0:60:kick.wav
128,192,143249,1,0,0:0:0:0:
469,192,143249,1,0,0:0:0:0:
213,192,143297,1,0,0:0:0:60:kick.wav
298,192,143345,1,0,0:0:0:60:kick.wav
384,192,143393,1,0,0:0:0:60:kick.wav
42,192,143441,1,0,0:0:0:100:cymbal.wav
128,192,143441,1,0,0:0:0:60:kick.wav
213,192,143441,1,0,0:0:0:0:
469,192,143441,1,0,0:0:0:0:
42,192,143633,1,0,0:0:0:100:cymbal.wav
213,192,143633,1,0,0:0:0:0:
298,192,143633,1,0,0:0:0:0:
469,192,143633,1,0,0:0:0:0:
128,192,143826,128,0,144018:0:0:0:100:cymbal.wav
298,192,143826,128,0,144018:0:0:0:60:kick.wav
384,192,143826,128,0,144018:0:0:0:0:
469,192,143826,128,0,144018:0:0:0:0:
42,192,144114,128,0,144306:0:0:0:100:cymbal.wav
128,192,144114,128,0,144306:0:0:0:60:kick.wav
213,192,144114,128,0,144306:0:0:0:0:
298,192,144114,128,0,144306:0:0:0:0:
384,192,144210,1,0,0:0:0:0:
469,192,144210,1,0,0:0:0:0:
42,192,144403,128,0,144499:0:0:0:100:cymbal.wav
213,192,144403,128,0,144499:0:0:0:60:kick.wav
384,192,144403,128,0,144499:0:0:0:0:
469,192,144403,128,0,144499:0:0:0:0:
42,192,144595,1,0,0:0:0:100:cymbal.wav
128,192,144595,1,0,0:0:0:60:kick.wav
213,192,144595,1,0,0:0:0:0:
298,192,144595,1,0,0:0:0:0:
469,192,144595,1,0,0:0:0:0:
128,192,144787,1,0,0:0:0:60:kick.wav
298,192,144787,1,0,0:0:0:0:
384,192,144787,1,0,0:0:0:0:
469,192,144787,1,0,0:0:0:0:
42,192,144980,1,0,0:0:0:100:cymbal.wav
128,192,144980,1,0,0:0:0:60:kick.wav
213,192,144980,1,0,0:0:0:0:
384,192,144980,1,0,0:0:0:0:
469,192,144980,1,0,0:0:0:0:
42,192,145172,1,0,0:0:0:60:kick.wav
213,192,145172,1,0,0:0:0:0:
298,192,145172,1,0,0:0:0:0:
469,192,145172,1,0,0:0:0:0:
42,192,145364,1,0,0:0:0:100:cymbal.wav
128,192,145364,1,0,0:0:0:60:kick.wav
213,192,145364,1,0,0:0:0:0:
469,192,145364,1,0,0:0:0:0:
298,192,145460,1,0,0:0:0:60:kick.wav
384,192,145460,1,0,0:0:0:0:
42,192,145556,1,0,0:0:0:60:kick.wav
128,192,145556,1,0,0:0:0:0:
213,192,145556,1,0,0:0:0:0:
384,192,145653,1,0,0:0:0:60:kick.wav
469,192,145653,1,0,0:0:0:0:
42,192,145749,1,0,0:0:0:100:cymbal.wav
128,192,145749,1,0,0:0:0:60:kick.wav
213,192,145749,1,0,0:0:0:0:
298,192,145749,1,0,0:0:0:0:
384,192,145845,1,0,0:0:0:60:kick.wav
469,192,145845,1,0,0:0:0:0:
42,192,145941,1,0,0:0:0:60:kick.wav
128,192,145941,1,0,0:0:0:0:
213,192,145941,1,0,0:0:0:0:
298,192,146037,1,0,0:0:0:60:kick.wav
384,192,146037,1,0,0:0:0:0:
469,192,146037,1,0,0:0:0:0:
42,192,146133,1,0,0:0:0:100:cymbal.wav
128,192,146133,1,0,0:0:0:60:kick.wav
298,192,146133,1,0,0:0:0:0:
384,192,146133,1,0,0:0:0:0:
469,192,146133,1,0,0:0:0:0:
213,192,146230,1,0,0:0:0:0:
128,192,146326,1,0,0:0:0:0:
384,192,146326,1,0,0:0:0:0:
298,192,146422,1,0,0:0:0:0:
42,192,146518,1,0,0:0:0:60:kick.wav
213,192,146518,1,0,0:0:0:50:clap.wav
469,192,146518,1,0,0:0:0:0:
384,192,146614,1,0,0:0:0:0:
42,192,146710,1,0,0:0:0:0:
213,192,146710,1,0,0:0:0:0:
298,192,146710,1,0,0:0:0:0:
42,192,146806,1,0,0:0:0:0:
213,192,146806,1,0,0:0:0:0:
384,192,146806,1,0,0:0:0:0:
42,192,146903,1,0,0:0:0:60:kick.wav
128,192,146903,1,0,0:0:0:0:
213,192,146903,1,0,0:0:0:0:
469,192,146903,1,0,0:0:0:0:
298,192,146999,1,0,0:0:0:0:
128,192,147095,1,0,0:0:0:0:
384,192,147095,1,0,0:0:0:0:
213,192,147191,1,0,0:0:0:0:
42,192,147287,1,0,0:0:0:60:kick.wav
298,192,147287,1,0,0:0:0:50:clap.wav
469,192,147287,1,0,0:0:0:0:
128,192,147383,1,0,0:0:0:0:
213,192,147480,1,0,0:0:0:60:kick.wav
298,192,147480,1,0,0:0:0:0:
469,192,147480,1,0,0:0:0:0:
128,192,147576,1,0,0:0:0:0:
298,192,147576,1,0,0:0:0:0:
469,192,147576,1,0,0:0:0:0:
42,192,147672,1,0,0:0:0:100:cymbal.wav
213,192,147672,1,0,0:0:0:60:kick.wav
298,192,147672,1,0,0:0:0:0:
384,192,147672,1,0,0:0:0:0:
469,192,147672,1,0,0:0:0:0:
128,192,147768,1,0,0:0:0:0:
42,192,147864,1,0,0:0:0:0:
469,192,147864,1,0,0:0:0:0:
213,192,147960,1,0,0:0:0:60:kick.wav
298,192,147960,1,0,0:0:0:0:
384,192,147960,1,0,0:0:0:0:
42,192,148056,1,0,0:0:0:60:kick.wav
128,192,148056,1,0,0:0:0:50:clap.wav
469,192,148056,1,0,0:0:0:0:
298,192,148153,1,0,0:0:0:0:
42,192,148249,1,0,0:0:0:60:kick.wav
213,192,148249,1,0,0:0:0:0:
384,192,148249,1,0,0:0:0:0:
128,192,148345,1,0,0:0:0:60:kick.wav
469,192,148345,1,0,0:0:0:0:
42,192,148441,1,0,0:0:0:60:kick.wav
213,192,148441,1,0,0:0:0:0:
298,192,148441,1,0,0:0:0:0:
384,192,148505,1,0,0:0:0:0:
469,192,148569,1,0,0:0:0:0:
42,192,148633,1,0,0:0:0:60:kick.wav
128,192,148633,1,0,0:0:0:0:
298,192,148633,1,0,0:0:0:0:
384,192,148697,1,0,0:0:0:0:
469,192,148762,1,0,0:0:0:0:
42,192,148826,1,0,0:0:0:60:kick.wav
298,192,148826,1,0,0:0:0:50:clap.wav
213,192,148874,1,0,0:0:0:60:kick.wav
384,192,148890,1,0,0:0:0:0:
128,192,148922,1,0,0:0:0:60:kick.wav
469,192,148954,1,0,0:0:0:0:
42,192,148970,1,0,0:0:0:60:kick.wav
213,192,149018,1,0,0:0:0:60:kick.wav
298,192,149018,1,0,0:0:0:0:
384,192,149082,1,0,0:0:0:0:
128,192,149114,1,0,0:0:0:60:kick.wav
469,192,149146,1,0,0:0:0:0:
42,192,149210,1,0,0:0:0:100:cymbal.wav
213,192,149210,1,0,0:0:0:60:kick.wav
298,192,149210,1,0,0:0:0:0:
384,192,149210,1,0,0:0:0:0:
469,192,149306,1,0,0:0:0:0:
42,192,149403,1,0,0:0:0:60:kick.wav
128,192,149403,1,0,0:0:0:0:
298,192,149403,1,0,0:0:0:0:
384,192,149403,1,0,0:0:0:0:
213,192,149499,1,0,0:0:0:0:
42,192,149595,1,0,0:0:0:60:kick.wav
128,192,149595,1,0,0:0:0:50:clap.wav
298,192,149595,1,0,0:0:0:0:
469,192,149595,1,0,0:0:0:0:
384,192,149691,1,0,0:0:0:0:
42,192,149787,1,0,0:0:0:60:kick.wav
128,192,149787,1,0,0:0:0:0:
298,192,149787,1,0,0:0:0:0:
469,192,149787,1,0,0:0:0:0:
213,192,149883,1,0,0:0:0:0:
42,192,149980,1,0,0:0:0:100:cymbal.wav
298,192,149980,1,0,0:0:0:60:kick.wav
384,192,149980,1,0,0:0:0:0:
469,192,149980,1,0,0:0:0:0:
128,192,150076,1,0,0:0:0:60:kick.wav
213,192,150076,1,0,0:0:0:0:
42,192,150172,1,0,0:0:0:60:kick.wav
384,192,150172,1,0,0:0:0:0:
469,192,150172,1,0,0:0:0:0:
298,192,150268,1,0,0:0:0:0:
42,192,150364,1,0,0:0:0:60:kick.wav
128,192,150364,1,0,0:0:0:50:clap.wav
213,192,150364,1,0,0:0:0:0:
469,192,150364,1,0,0:0:0:0:
384,192,150460,1,0,0:0:0:0:
42,192,150556,1,0,0:0:0:60:kick.wav
128,192,150556,1,0,0:0:0:0:
298,192,150556,1,0,0:0:0:0:
213,192,150653,1,0,0:0:0:60:kick.wav
384,192,150653,1,0,0:0:0:0:
469,192,150653,1,0,0:0:0:0:
42,192,150749,1,0,0:0:0:100:cymbal.wav
298,192,150749,1,0,0:0:0:60:kick.wav
384,192,150749,1,0,0:0:0:0:
469,192,150749,1,0,0:0:0:0:
128,192,150845,1,0,0:0:0:0:
42,192,150941,1,0,0:0:0:60:kick.wav
213,192,150941,1,0,0:0:0:0:
384,192,150941,1,0,0:0:0:0:
469,192,150941,1,0,0:0:0:0:
298,192,151037,1,0,0:0:0:0:
42,192,151133,1,0,0:0:0:100:cymbal.wav
128,192,151133,1,0,0:0:0:60:kick.wav
384,192,151133,1,0,0:0:0:50:clap.wav
469,192,151133,1,0,0:0:0:0:
213,192,151230,1,0,0:0:0:0:
42,192,151326,1,0,0:0:0:60:kick.wav
298,192,151326,1,0,0:0:0:0:
469,192,151326,1,0,0:0:0:0:
128,192,151390,1,0,0:0:0:0:
384,192,151422,1,0,0:0:0:60:kick.wav
213,192,151454,1,0,0:0:0:0:
42,192,151518,1,0,0:0:0:100:cymbal.wav
298,192,151518,1,0,0:0:0:60:kick.wav
469,192,151518,1,0,0:0:0:0:
128,192,151582,1,0,0:0:0:0:
384,192,151614,1,0,0:0:0:60:kick.wav
213,192,151646,1,0,0:0:0:0:
42,192,151710,1,0,0:0:0:60:kick.wav
298,192,151710,1,0,0:0:0:0:
469,192,151710,1,0,0:0:0:0:
128,192,151774,1,0,0:0:0:0:
384,192,151806,1,0,0:0:0:60:kick.wav
213,192,151838,1,0,0:0:0:0:
42,192,151903,1,0,0:0:0:100:cymbal.wav
298,192,151903,1,0,0:0:0:60:kick.wav
469,192,151903,1,0,0:0:0:50:clap.wav
213,192,151967,1,0,0:0:0:0:
128,192,152031,1,0,0:0:0:0:
42,192,152095,1,0,0:0:0:60:kick.wav
298,192,152095,1,0,0:0:0:0:
469,192,152095,1,0,0:0:0:0:
213,192,152159,1,0,0:0:0:0:
384,192,152191,1,0,0:0:0:60:kick.wav
128,192,152223,1,0,0:0:0:0:
42,192,152287,128,0,152480:0:0:0:100:cymbal.wav
213,192,152287,1,0,0:0:0:60:kick.wav
298,192,152287,1,0,0:0:0:100:BassKickReverbXD.wav
469,192,152287,128,0,152960:0:0:0:0:
128,192,152383,128,0,152576:0:0:0:0:
213,192,152480,128,0,152672:0:0:0:0:
298,192,152576,128,0,152672:0:0:0:0:
42,192,152672,128,0,152960:0:0:0:60:kick.wav
128,192,152672,1,0,0:0:0:50:clap.wav
384,192,152672,128,0,152864:0:0:0:0:
298,192,152768,128,0,152960:0:0:0:0:
213,192,152864,128,0,153056:0:0:0:0:
128,192,152960,128,0,153153:0:0:0:0:
42,192,153056,128,0,153345:0:0:0:60:kick.wav
298,192,153056,1,0,0:0:0:0:
384,192,153056,128,0,153153:0:0:0:0:
469,192,153056,128,0,153249:0:0:0:0:
213,192,153153,128,0,153249:0:0:0:0:
298,192,153249,128,0,153345:0:0:0:0:
384,192,153345,128,0,153441:0:0:0:0:
42,192,153441,128,0,153730:0:0:0:60:kick.wav
128,192,153441,128,0,153633:0:0:0:50:clap.wav
213,192,153441,128,0,153537:0:0:0:0:
469,192,153441,128,0,153537:0:0:0:0:
384,192,153537,128,0,153633:0:0:0:0:
298,192,153633,128,0,153730:0:0:0:0:
384,192,153730,128,0,153826:0:0:0:0:
42,192,153826,1,0,0:0:0:60:kick.wav
128,192,153826,128,0,153922:0:0:0:0:
213,192,153826,128,0,154018:0:0:0:0:
469,192,153826,128,0,154114:0:0:0:0:
298,192,153922,128,0,154114:0:0:0:0:
42,192,154018,128,0,154114:0:0:0:0:
384,192,154018,128,0,154210:0:0:0:0:
128,192,154114,128,0,154210:0:0:0:0:
42,192,154210,128,0,154403:0:0:0:60:kick.wav
213,192,154210,128,0,154306:0:0:0:50:clap.wav
469,192,154210,1,0,0:0:0:0:
298,192,154306,128,0,154403:0:0:0:0:
213,192,154403,128,0,154499:0:0:0:0:
469,192,154403,128,0,154595:0:0:0:0:
128,192,154499,128,0,154595:0:0:0:0:
384,192,154499,128,0,154691:0:0:0:0:
42,192,154595,128,0,154883:0:0:0:60:kick.wav
298,192,154595,128,0,154787:0:0:0:0:
213,192,154691,128,0,154883:0:0:0:0:
128,192,154787,128,0,154980:0:0:0:0:
469,192,154787,128,0,154980:0:0:0:0:
384,192,154883,128,0,155076:0:0:0:0:
42,192,154980,1,0,0:0:0:60:kick.wav
298,192,154980,128,0,155172:0:0:0:50:clap.wav
213,192,155076,128,0,155268:0:0:0:0:
42,192,155172,128,0,155268:0:0:0:0:
128,192,155172,128,0,155268:0:0:0:0:
469,192,155172,128,0,155364:0:0:0:0:
384,192,155268,128,0,155364:0:0:0:0:
42,192,155364,128,0,155653:0:0:0:60:kick.wav
213,192,155364,1,0,0:0:0:0:
298,192,155364,128,0,155460:0:0:0:0:
128,192,155460,128,0,155556:0:0:0:0:
384,192,155460,128,0,155556:0:0:0:0:
213,192,155556,128,0,155653:0:0:0:0:
469,192,155556,128,0,155749:0:0:0:0:
298,192,155653,128,0,155749:0:0:0:0:
42,192,155749,1,0,0:0:0:60:kick.wav
128,192,155749,128,0,155845:0:0:0:50:clap.wav
384,192,155749,128,0,155845:0:0:0:0:
213,192,155845,128,0,155941:0:0:0:0:
469,192,155845,128,0,155941:0:0:0:0:
42,192,155941,128,0,156133:0:0:0:0:
298,192,155941,128,0,156037:0:0:0:0:
128,192,156037,128,0,156133:0:0:0:0:
384,192,156037,128,0,156133:0:0:0:0:
213,192,156133,128,0,156326:0:0:0:60:kick.wav
298,192,156133,1,0,0:0:0:0:
469,192,156133,128,0,156326:0:0:0:0:
128,192,156230,128,0,156326:0:0:0:0:
384,192,156230,128,0,156422:0:0:0:0:
42,192,156326,128,0,156518:0:0:0:0:
298,192,156326,128,0,156518:0:0:0:0:
128,192,156422,128,0,156518:0:0:0:0:
213,192,156518,128,0,156710:0:0:0:60:kick.wav
469,192,156518,128,0,156710:0:0:0:50:clap.wav
128,192,156614,128,0,156806:0:0:0:0:
384,192,156614,128,0,156710:0:0:0:0:
42,192,156710,128,0,156903:0:0:0:0:
298,192,156710,128,0,156903:0:0:0:0:
384,192,156806,128,0,156903:0:0:0:0:
128,192,156903,1,0,0:0:0:60:kick.wav
213,192,156903,128,0,157095:0:0:0:0:
469,192,156903,128,0,157095:0:0:0:0:
42,192,156999,128,0,157191:0:0:0:0:
298,192,156999,128,0,157191:0:0:0:0:
128,192,157095,128,0,157287:0:0:0:0:
384,192,157095,128,0,157287:0:0:0:0:
213,192,157191,128,0,157383:0:0:0:0:
469,192,157191,128,0,157480:0:0:0:0:
42,192,157287,128,0,157480:0:0:0:60:kick.wav
298,192,157287,128,0,157383:0:0:0:50:clap.wav
128,192,157383,128,0,157480:0:0:0:0:
384,192,157383,128,0,157480:0:0:0:0:
213,192,157480,1,0,0:0:0:60:kick.wav
298,192,157480,1,0,0:0:0:0:
213,192,157576,1,0,0:0:0:60:kick.wav
298,192,157576,1,0,0:0:0:0:
42,192,157672,1,0,0:0:0:60:kick.wav
128,192,157672,1,0,0:0:0:0:
384,192,157672,1,0,0:0:0:0:
469,192,157672,1,0,0:0:0:0:
213,192,157768,1,0,0:0:0:60:kick.wav
298,192,157768,1,0,0:0:0:0:
42,192,157864,1,0,0:0:0:60:kick.wav
128,192,157864,1,0,0:0:0:0:
384,192,157864,1,0,0:0:0:0:
469,192,157864,1,0,0:0:0:0:
42,192,158056,1,0,0:0:0:60:kick.wav
213,192,158056,1,0,0:0:0:50:clap.wav
298,192,158056,1,0,0:0:0:0:
469,192,158056,1,0,0:0:0:0:
128,192,158249,1,0,0:0:0:60:kick.wav
384,192,158249,1,0,0:0:0:0:
128,192,158345,1,0,0:0:0:60:kick.wav
384,192,158345,1,0,0:0:0:0:
42,192,158441,128,0,158826:0:0:0:100:cymbal.wav
213,192,158441,128,0,158826:0:0:0:60:kick.wav
298,192,158441,128,0,158537:0:0:0:0:
469,192,158441,128,0,158826:0:0:0:0:
128,192,158537,128,0,158633:0:0:0:0:
384,192,158633,128,0,158730:0:0:0:0:
298,192,158730,128,0,158826:0:0:0:0:
128,192,158826,128,0,158922:0:0:0:60:kick.wav
384,192,158826,1,0,0:0:0:50:clap.wav
213,192,158922,128,0,159018:0:0:0:0:
42,192,159018,128,0,159114:0:0:0:0:
298,192,159018,128,0,159114:0:0:0:0:
469,192,159018,128,0,159114:0:0:0:0:
128,192,159114,128,0,159210:0:0:0:0:
384,192,159114,128,0,159210:0:0:0:0:
42,192,159210,128,0,159306:0:0:0:60:kick.wav
213,192,159210,128,0,159306:0:0:0:0:
298,192,159210,128,0,159306:0:0:0:0:
469,192,159210,128,0,159306:0:0:0:0:
384,192,159306,1,0,0:0:0:0:
213,192,159403,1,0,0:0:0:0:
42,192,159499,128,0,159595:0:0:0:0:
128,192,159499,128,0,159595:0:0:0:0:
298,192,159499,128,0,159595:0:0:0:0:
469,192,159499,128,0,159595:0:0:0:0:
213,192,159595,1,0,0:0:0:60:kick.wav
384,192,159595,1,0,0:0:0:50:clap.wav
42,192,159691,1,0,0:0:0:0:
128,192,159787,128,0,159883:0:0:0:0:
213,192,159787,128,0,159883:0:0:0:0:
384,192,159787,128,0,159883:0:0:0:0:
469,192,159787,128,0,159883:0:0:0:0:
298,192,159883,1,0,0:0:0:0:
42,192,159980,128,0,160364:0:0:0:60:kick.wav
213,192,159980,128,0,160076:0:0:0:0:
384,192,159980,128,0,160364:0:0:0:0:
469,192,159980,128,0,160364:0:0:0:0:
298,192,160076,128,0,160172:0:0:0:0:
128,192,160172,128,0,160268:0:0:0:0:
213,192,160268,128,0,160364:0:0:0:0:
128,192,160364,1,0,0:0:0:60:kick.wav
298,192,160364,128,0,160460:0:0:0:50:clap.wav
384,192,160460,128,0,160556:0:0:0:0:
42,192,160556,128,0,160653:0:0:0:0:
128,192,160556,128,0,160653:0:0:0:0:
469,192,160556,128,0,160653:0:0:0:0:
213,192,160653,128,0,160749:0:0:0:0:
298,192,160653,128,0,160749:0:0:0:0:
42,192,160749,128,0,160845:0:0:0:60:kick.wav
128,192,160749,128,0,160845:0:0:0:0:
384,192,160749,128,0,160845:0:0:0:0:
469,192,160749,128,0,160845:0:0:0:0:
298,192,160845,128,0,160941:0:0:0:0:
42,192,160941,128,0,161037:0:0:0:0:
213,192,160941,128,0,161037:0:0:0:0:
384,192,160941,128,0,161037:0:0:0:0:
469,192,160941,128,0,161037:0:0:0:0:
128,192,161037,128,0,161133:0:0:0:0:
42,192,161133,128,0,161230:0:0:0:60:kick.wav
298,192,161133,128,0,161230:0:0:0:50:clap.wav
384,192,161133,128,0,161230:0:0:0:0:
469,192,161133,128,0,161230:0:0:0:0:
213,192,161230,128,0,161326:0:0:0:0:
42,192,161326,128,0,161422:0:0:0:60:kick.wav
128,192,161326,128,0,161422:0:0:0:0:
384,192,161326,128,0,161422:0:0:0:0:
469,192,161326,128,0,161422:0:0:0:0:
298,192,161422,128,0,161518:0:0:0:0:
42,192,161518,128,0,162480:0:0:0:60:kick.wav
128,192,161518,128,0,161614:0:0:0:0:
213,192,161518,128,0,161614:0:0:0:0:
469,192,161518,128,0,161614:0:0:0:0:
298,192,161614,128,0,161710:0:0:0:0:
384,192,161614,128,0,161710:0:0:0:0:
128,192,161710,128,0,161806:0:0:0:0:
213,192,161710,128,0,161806:0:0:0:0:
384,192,161806,128,0,161903:0:0:0:0:
469,192,161806,128,0,161903:0:0:0:0:
213,192,161903,128,0,161999:0:0:0:60:kick.wav
298,192,161903,128,0,161999:0:0:0:50:clap.wav
128,192,161999,128,0,162095:0:0:0:0:
469,192,161999,128,0,162095:0:0:0:0:
298,192,162095,128,0,162191:0:0:0:0:
384,192,162095,128,0,162191:0:0:0:0:
128,192,162191,128,0,162287:0:0:0:0:
213,192,162191,128,0,162287:0:0:0:0:
384,192,162287,128,0,162383:0:0:0:60:kick.wav
469,192,162287,128,0,162383:0:0:0:0:
213,192,162383,128,0,162480:0:0:0:0:
298,192,162383,128,0,162480:0:0:0:0:
128,192,162480,128,0,162576:0:0:0:0:
384,192,162480,128,0,162576:0:0:0:0:
469,192,162480,128,0,162864:0:0:0:0:
42,192,162576,128,0,162672:0:0:0:0:
213,192,162576,128,0,162672:0:0:0:0:
298,192,162672,128,0,162768:0:0:0:60:kick.wav
384,192,162672,128,0,162768:0:0:0:50:clap.wav
42,192,162768,128,0,162864:0:0:0:0:
128,192,162768,128,0,162864:0:0:0:0:
213,192,162864,128,0,162960:0:0:0:0:
298,192,162864,128,0,162960:0:0:0:0:
42,192,162960,1,0,0:0:0:60:kick.wav
128,192,162960,1,0,0:0:0:0:
384,192,162960,128,0,163056:0:0:0:0:
42,192,163056,128,0,163153:0:0:0:60:kick.wav
128,192,163056,128,0,163153:0:0:0:0:
298,192,163056,128,0,163153:0:0:0:0:
469,192,163056,128,0,163153:0:0:0:0:
213,192,163153,128,0,163249:0:0:0:0:
42,192,163249,1,0,0:0:0:60:kick.wav
298,192,163249,128,0,163345:0:0:0:0:
384,192,163249,1,0,0:0:0:0:
469,192,163249,1,0,0:0:0:0:
213,192,163345,128,0,163441:0:0:0:0:
42,192,163441,128,0,163537:0:0:0:60:kick.wav
128,192,163441,128,0,163537:0:0:0:50:clap.wav
384,192,163441,128,0,163537:0:0:0:0:
469,192,163441,128,0,163537:0:0:0:0:
298,192,163537,128,0,163633:0:0:0:0:
213,192,163633,128,0,163730:0:0:0:0:
128,192,163730,128,0,163826:0:0:0:60:kick.wav
384,192,163730,1,0,0:0:0:0:
469,192,163730,1,0,0:0:0:0:
42,192,163826,128,0,163922:0:0:0:60:kick.wav
213,192,163826,128,0,163922:0:0:0:0:
384,192,163826,128,0,163922:0:0:0:0:
469,192,163826,128,0,163922:0:0:0:0:
298,192,163922,128,0,164018:0:0:0:0:
42,192,164018,1,0,0:0:0:60:kick.wav
128,192,164018,1,0,0:0:0:0:
384,192,164018,128,0,164114:0:0:0:0:
213,192,164114,1,0,0:0:0:60:kick.wav
469,192,164114,128,0,164210:0:0:0:0:
42,192,164210,128,0,164306:0:0:0:60:kick.wav
128,192,164210,128,0,164306:0:0:0:50:clap.wav
298,192,164210,128,0,164306:0:0:0:0:
384,192,164306,128,0,164403:0:0:0:60:kick.wav
469,192,164306,128,0,164403:0:0:0:0:
42,192,164403,128,0,164499:0:0:0:60:kick.wav
213,192,164403,128,0,164499:0:0:0:0:
298,192,164403,128,0,164499:0:0:0:0:
128,192,164499,128,0,164595:0:0:0:60:kick.wav
384,192,164499,128,0,164595:0:0:0:0:
42,192,164595,128,0,164980:0:0:0:100:cymbal.wav
213,192,164595,128,0,164691:0:0:0:60:kick.wav
298,192,164595,128,0,164980:0:0:0:0:
469,192,164595,128,0,164980:0:0:0:0:
128,192,164691,128,0,164787:0:0:0:0:
384,192,164787,128,0,164883:0:0:0:0:
213,192,164883,128,0,164980:0:0:0:0:
128,192,164980,128,0,165076:0:0:0:60:kick.wav
384,192,164980,1,0,0:0:0:50:clap.wav
42,192,165076,128,0,165172:0:0:0:0:
213,192,165172,128,0,165268:0:0:0:0:
298,192,165172,128,0,165268:0:0:0:0:
384,192,165172,128,0,165268:0:0:0:0:
469,192,165172,128,0,165268:0:0:0:0:
128,192,165268,128,0,165364:0:0:0:0:
42,192,165364,128,0,165460:0:0:0:60:kick.wav
298,192,165364,128,0,165460:0:0:0:0:
384,192,165364,128,0,165460:0:0:0:0:
469,192,165364,128,0,165460:0:0:0:0:
213,192,165460,128,0,165556:0:0:0:0:
42,192,165556,128,0,165653:0:0:0:0:
128,192,165556,128,0,165653:0:0:0:0:
384,192,165556,128,0,165653:0:0:0:0:
469,192,165556,128,0,165653:0:0:0:0:
298,192,165653,128,0,165749:0:0:0:0:
42,192,165749,128,0,165845:0:0:0:60:kick.wav
128,192,165749,128,0,165845:0:0:0:50:clap.wav
213,192,165749,128,0,165845:0:0:0:0:
469,192,165749,128,0,165845:0:0:0:0:
384,192,165845,128,0,165941:0:0:0:0:
42,192,165941,128,0,166037:0:0:0:60:kick.wav
128,192,165941,128,0,166037:0:0:0:0:
213,192,165941,128,0,166037:0:0:0:0:
298,192,165941,128,0,166037:0:0:0:0:
469,192,166037,128,0,166133:0:0:0:0:
128,192,166133,128,0,166230:0:0:0:100:cymbal.wav
213,192,166133,128,0,166230:0:0:0:60:kick.wav
298,192,166133,128,0,166230:0:0:0:0:
384,192,166133,128,0,166230:0:0:0:0:
42,192,166230,128,0,166326:0:0:0:0:
469,192,166326,128,0,166422:0:0:0:0:
42,192,166422,128,0,166518:0:0:0:0:
128,192,166422,128,0,166518:0:0:0:0:
213,192,166422,128,0,166518:0:0:0:0:
384,192,166422,128,0,166518:0:0:0:0:
298,192,166518,128,0,166614:0:0:0:60:kick.wav
469,192,166518,1,0,0:0:0:50:clap.wav
213,192,166614,128,0,166710:0:0:0:0:
42,192,166710,128,0,166806:0:0:0:60:kick.wav
128,192,166710,128,0,166806:0:0:0:0:
384,192,166710,128,0,166806:0:0:0:0:
469,192,166710,128,0,166806:0:0:0:0:
298,192,166806,128,0,166903:0:0:0:0:
42,192,166903,128,0,166999:0:0:0:100:cymbal.wav
128,192,166903,128,0,166999:0:0:0:60:kick.wav
213,192,166903,128,0,166999:0:0:0:0:
469,192,166903,128,0,166999:0:0:0:0:
384,192,166999,128,0,167095:0:0:0:0:
298,192,167095,128,0,167191:0:0:0:0:
42,192,167191,1,0,0:0:0:60:kick.wav
213,192,167191,1,0,0:0:0:0:
384,192,167191,128,0,167287:0:0:0:0:
42,192,167287,1,0,0:0:0:60:kick.wav
213,192,167287,1,0,0:0:0:50:clap.wav
469,192,167287,128,0,167383:0:0:0:0:
384,192,167383,128,0,167480:0:0:0:0:
42,192,167480,128,0,167576:0:0:0:60:kick.wav
128,192,167480,128,0,167576:0:0:0:0:
213,192,167480,128,0,167576:0:0:0:0:
298,192,167480,128,0,167576:0:0:0:0:
42,192,167672,128,0,167768:0:0:0:100:cymbal.wav
128,192,167672,128,0,167768:0:0:0:60:kick.wav
298,192,167672,1,0,0:0:0:0:
384,192,167672,128,0,167768:0:0:0:0:
469,192,167672,128,0,167768:0:0:0:0:
213,192,167864,1,0,0:0:0:60:kick.wav
298,192,167864,1,0,0:0:0:0:
469,192,167864,1,0,0:0:0:0:
42,192,167912,1,0,0:0:0:60:kick.wav
384,192,167960,1,0,0:0:0:60:kick.wav
128,192,168008,1,0,0:0:0:60:kick.wav
42,192,168056,128,0,168345:0:0:0:100:cymbal.wav
213,192,168056,128,0,168153:0:0:0:60:kick.wav
298,192,168056,128,0,168345:0:0:0:0:
469,192,168056,128,0,168153:0:0:0:0:
128,192,168249,128,0,168345:0:0:0:100:cymbal.wav
213,192,168249,128,0,168345:0:0:0:0:
384,192,168249,128,0,168345:0:0:0:0:
469,192,168249,128,0,168345:0:0:0:0:
42,192,168441,128,0,168633:0:0:0:100:cymbal.wav
213,192,168441,128,0,168633:0:0:0:60:kick.wav
298,192,168441,128,0,168633:0:0:0:0:
469,192,168441,128,0,168633:0:0:0:0:
42,192,168730,128,0,168922:0:0:0:100:cymbal.wav
128,192,168730,128,0,168922:0:0:0:60:kick.wav
384,192,168730,128,0,168922:0:0:0:0:
469,192,168730,128,0,168922:0:0:0:0:
213,192,168826,128,0,168922:0:0:0:0:
298,192,168826,128,0,168922:0:0:0:0:
128,192,169018,128,0,169114:0:0:0:100:cymbal.wav
213,192,169018,128,0,169114:0:0:0:60:kick.wav
298,192,169018,128,0,169114:0:0:0:0:
384,192,169018,128,0,169114:0:0:0:0:
42,192,169210,128,0,169306:0:0:0:100:cymbal.wav
128,192,169210,128,0,169306:0:0:0:60:kick.wav
213,192,169210,128,0,169306:0:0:0:0:
298,192,169210,1,0,0:0:0:0:
469,192,169210,128,0,169306:0:0:0:0:
128,192,169403,1,0,0:0:0:60:kick.wav
298,192,169403,1,0,0:0:0:0:
384,192,169403,1,0,0:0:0:0:
469,192,169403,1,0,0:0:0:0:
42,192,169595,128,0,169691:0:0:0:100:cymbal.wav
213,192,169595,128,0,169691:0:0:0:60:kick.wav
298,192,169595,1,0,0:0:0:0:
384,192,169595,128,0,169691:0:0:0:0:
469,192,169595,128,0,169691:0:0:0:0:
42,192,169787,1,0,0:0:0:60:kick.wav
128,192,169787,1,0,0:0:0:0:
213,192,169787,1,0,0:0:0:0:
384,192,169787,1,0,0:0:0:0:
42,192,169980,128,0,170076:0:0:0:100:cymbal.wav
128,192,169980,128,0,170076:0:0:0:60:kick.wav
298,192,169980,128,0,170076:0:0:0:0:
469,192,169980,128,0,170076:0:0:0:0:
213,192,170076,1,0,0:0:0:60:kick.wav
384,192,170076,1,0,0:0:0:0:
42,192,170172,1,0,0:0:0:60:kick.wav
298,192,170172,1,0,0:0:0:0:
469,192,170172,1,0,0:0:0:0:
128,192,170268,1,0,0:0:0:60:kick.wav
213,192,170268,1,0,0:0:0:0:
42,192,170364,128,0,170460:0:0:0:100:cymbal.wav
298,192,170364,128,0,170460:0:0:0:60:kick.wav
384,192,170364,128,0,170460:0:0:0:0:
469,192,170364,128,0,170460:0:0:0:0:
128,192,170460,1,0,0:0:0:60:kick.wav
213,192,170460,1,0,0:0:0:0:
298,192,170556,1,0,0:0:0:60:kick.wav
384,192,170556,1,0,0:0:0:0:
469,192,170556,1,0,0:0:0:0:
42,192,170653,1,0,0:0:0:60:kick.wav
128,192,170653,1,0,0:0:0:0:
213,192,170653,1,0,0:0:0:0:
42,192,170749,128,0,170845:0:0:0:100:cymbal.wav
128,192,170749,128,0,170845:0:0:0:60:kick.wav
298,192,170749,1,0,0:0:0:0:
384,192,170749,128,0,170845:0:0:0:0:
469,192,170749,128,0,170845:0:0:0:0:
213,192,170845,1,0,0:0:0:0:
128,192,170941,1,0,0:0:0:0:
384,192,170941,1,0,0:0:0:0:
298,192,171037,1,0,0:0:0:0:
42,192,171133,1,0,0:0:0:60:kick.wav
213,192,171133,1,0,0:0:0:50:clap.wav
469,192,171133,1,0,0:0:0:0:
384,192,171230,1,0,0:0:0:0:
42,192,171326,1,0,0:0:0:0:
128,192,171326,1,0,0:0:0:0:
298,192,171326,1,0,0:0:0:0:
42,192,171422,1,0,0:0:0:0:
128,192,171422,1,0,0:0:0:0:
384,192,171422,1,0,0:0:0:0:
42,192,171518,128,0,171903:0:0:0:60:kick.wav
128,192,171518,128,0,171903:0:0:0:0:
213,192,171518,1,0,0:0:0:0:
469,192,171518,1,0,0:0:0:0:
298,192,171614,1,0,0:0:0:0:
384,192,171710,1,0,0:0:0:0:
298,192,171806,1,0,0:0:0:0:
213,192,171903,1,0,0:0:0:60:kick.wav
384,192,171903,1,0,0:0:0:50:clap.wav
469,192,171903,1,0,0:0:0:0:
128,192,171999,1,0,0:0:0:0:
42,192,172095,1,0,0:0:0:60:kick.wav
384,192,172095,1,0,0:0:0:0:
469,192,172095,1,0,0:0:0:0:
213,192,172191,1,0,0:0:0:0:
384,192,172191,1,0,0:0:0:0:
469,192,172191,1,0,0:0:0:0:
42,192,172287,1,0,0:0:0:100:cymbal.wav
128,192,172287,1,0,0:0:0:60:kick.wav
298,192,172287,1,0,0:0:0:0:
384,192,172287,128,0,172672:0:0:0:0:
469,192,172287,128,0,172672:0:0:0:0:
213,192,172383,1,0,0:0:0:0:
298,192,172480,1,0,0:0:0:0:
42,192,172576,1,0,0:0:0:60:kick.wav
128,192,172576,1,0,0:0:0:0:
42,192,172672,1,0,0:0:0:60:kick.wav
128,192,172672,1,0,0:0:0:50:clap.wav
213,192,172672,1,0,0:0:0:0:
298,192,172768,1,0,0:0:0:0:
42,192,172864,1,0,0:0:0:60:kick.wav
128,192,172864,1,0,0:0:0:0:
384,192,172864,1,0,0:0:0:0:
469,192,172864,1,0,0:0:0:0:
213,192,172960,1,0,0:0:0:60:kick.wav
298,192,172960,1,0,0:0:0:0:
42,192,173056,1,0,0:0:0:60:kick.wav
384,192,173056,128,0,173153:0:0:0:0:
469,192,173056,128,0,173153:0:0:0:0:
128,192,173121,1,0,0:0:0:0:
213,192,173185,1,0,0:0:0:0:
42,192,173249,1,0,0:0:0:60:kick.wav
298,192,173249,1,0,0:0:0:0:
469,192,173249,1,0,0:0:0:0:
128,192,173313,1,0,0:0:0:0:
213,192,173377,1,0,0:0:0:0:
42,192,173441,1,0,0:0:0:60:kick.wav
298,192,173441,128,0,173537:0:0:0:50:clap.wav
469,192,173441,128,0,173537:0:0:0:0:
128,192,173505,1,0,0:0:0:0:
213,192,173569,1,0,0:0:0:0:
42,192,173633,1,0,0:0:0:60:kick.wav
298,192,173633,1,0,0:0:0:0:
469,192,173633,1,0,0:0:0:0:
128,192,173697,1,0,0:0:0:0:
384,192,173730,1,0,0:0:0:60:kick.wav
213,192,173762,1,0,0:0:0:0:
42,192,173826,1,0,0:0:0:100:cymbal.wav
128,192,173826,128,0,173922:0:0:0:60:kick.wav
298,192,173826,1,0,0:0:0:0:
469,192,173826,1,0,0:0:0:0:
213,192,173922,128,0,174018:0:0:0:0:
42,192,174018,128,0,174114:0:0:0:60:kick.wav
298,192,174018,1,0,0:0:0:0:
384,192,174018,1,0,0:0:0:0:
469,192,174018,1,0,0:0:0:0:
128,192,174114,128,0,174210:0:0:0:0:
42,192,174210,1,0,0:0:0:60:kick.wav
213,192,174210,1,0,0:0:0:50:clap.wav
298,192,174210,1,0,0:0:0:0:
469,192,174210,128,0,174306:0:0:0:0:
384,192,174306,128,0,174403:0:0:0:0:
42,192,174403,1,0,0:0:0:60:kick.wav
128,192,174403,1,0,0:0:0:0:
298,192,174403,128,0,174499:0:0:0:0:
469,192,174403,1,0,0:0:0:0:
213,192,174499,128,0,174595:0:0:0:0:
42,192,174595,1,0,0:0:0:100:cymbal.wav
128,192,174595,1,0,0:0:0:60:kick.wav
384,192,174595,128,0,174691:0:0:0:0:
469,192,174595,1,0,0:0:0:0:
213,192,174691,1,0,0:0:0:60:kick.wav
298,192,174691,128,0,174787:0:0:0:0:
42,192,174787,1,0,0:0:0:60:kick.wav
128,192,174787,1,0,0:0:0:0:
469,192,174787,128,0,174883:0:0:0:0:
384,192,174883,128,0,174980:0:0:0:0:
128,192,174980,1,0,0:0:0:60:kick.wav
213,192,174980,1,0,0:0:0:50:clap.wav
298,192,174980,128,0,175076:0:0:0:0:
469,192,174980,1,0,0:0:0:0:
42,192,175076,128,0,175172:0:0:0:0:
128,192,175172,128,0,175268:0:0:0:60:kick.wav
384,192,175172,1,0,0:0:0:0:
469,192,175172,1,0,0:0:0:0:
213,192,175268,128,0,175364:0:0:0:60:kick.wav
298,192,175268,1,0,0:0:0:0:
42,192,175364,1,0,0:0:0:100:cymbal.wav
128,192,175364,1,0,0:0:0:60:kick.wav
384,192,175364,1,0,0:0:0:0:
469,192,175364,1,0,0:0:0:0:
213,192,175460,1,0,0:0:0:0:
42,192,175556,1,0,0:0:0:60:kick.wav
298,192,175556,1,0,0:0:0:0:
384,192,175556,1,0,0:0:0:0:
469,192,175556,1,0,0:0:0:0:
213,192,175653,1,0,0:0:0:0:
42,192,175749,128,0,175845:0:0:0:100:cymbal.wav
128,192,175749,1,0,0:0:0:60:kick.wav
384,192,175749,1,0,0:0:0:50:clap.wav
469,192,175749,1,0,0:0:0:0:
298,192,175845,1,0,0:0:0:0:
42,192,175941,1,0,0:0:0:60:kick.wav
213,192,175941,1,0,0:0:0:0:
469,192,175941,1,0,0:0:0:0:
384,192,176005,1,0,0:0:0:0:
128,192,176037,1,0,0:0:0:60:kick.wav
298,192,176069,1,0,0:0:0:0:
42,192,176133,1,0,0:0:0:100:cymbal.wav
213,192,176133,128,0,176230:0:0:0:60:kick.wav
469,192,176133,1,0,0:0:0:0:
384,192,176197,1,0,0:0:0:0:
128,192,176230,1,0,0:0:0:60:kick.wav
298,192,176262,1,0,0:0:0:0:
42,192,176326,1,0,0:0:0:60:kick.wav
213,192,176326,1,0,0:0:0:0:
469,192,176326,1,0,0:0:0:0:
384,192,176390,1,0,0:0:0:0:
128,192,176422,128,0,176518:0:0:0:60:kick.wav
298,192,176454,1,0,0:0:0:0:
42,192,176518,1,0,0:0:0:100:cymbal.wav
213,192,176518,1,0,0:0:0:60:kick.wav
469,192,176518,1,0,0:0:0:50:clap.wav
298,192,176582,1,0,0:0:0:0:
384,192,176646,1,0,0:0:0:0:
42,192,176710,1,0,0:0:0:60:kick.wav
213,192,176710,1,0,0:0:0:0:
469,192,176710,128,0,176806:0:0:0:0:
298,192,176774,1,0,0:0:0:0:
128,192,176806,1,0,0:0:0:60:kick.wav
384,192,176838,1,0,0:0:0:0:
42,192,176903,128,0,177191:0:0:0:100:cymbal.wav
213,192,176903,128,0,177095:0:0:0:60:kick.wav
298,192,176903,1,0,0:0:0:100:BassKickReverbXD.wav
469,192,176903,128,0,177191:0:0:0:0:
128,192,176999,128,0,177287:0:0:0:0:
384,192,177095,128,0,177287:0:0:0:0:
298,192,177191,128,0,177287:0:0:0:0:
42,192,177287,128,0,177576:0:0:0:60:kick.wav
213,192,177287,128,0,177480:0:0:0:50:clap.wav
469,192,177287,128,0,177576:0:0:0:0:
384,192,177383,128,0,177672:0:0:0:0:
298,192,177480,128,0,177672:0:0:0:0:
213,192,177576,128,0,177672:0:0:0:0:
42,192,177672,128,0,177960:0:0:0:60:kick.wav
128,192,177672,128,0,177864:0:0:0:0:
469,192,177672,128,0,177960:0:0:0:0:
298,192,177768,128,0,178056:0:0:0:0:
213,192,177864,128,0,178056:0:0:0:0:
128,192,177960,128,0,178056:0:0:0:0:
42,192,178056,128,0,178153:0:0:0:60:kick.wav
384,192,178056,128,0,178249:0:0:0:50:clap.wav
469,192,178056,128,0,178153:0:0:0:0:
213,192,178153,128,0,178441:0:0:0:0:
42,192,178249,128,0,178345:0:0:0:60:kick.wav
298,192,178249,128,0,178441:0:0:0:0:
469,192,178249,128,0,178345:0:0:0:0:
128,192,178345,128,0,178441:0:0:0:0:
42,192,178441,128,0,178633:0:0:0:60:kick.wav
384,192,178441,128,0,178537:0:0:0:0:
469,192,178441,128,0,178537:0:0:0:0:
298,192,178537,128,0,178730:0:0:0:0:
128,192,178633,128,0,178826:0:0:0:0:
213,192,178633,128,0,178730:0:0:0:0:
469,192,178633,128,0,178730:0:0:0:0:
384,192,178730,128,0,178922:0:0:0:0:
42,192,178826,128,0,178922:0:0:0:60:kick.wav
213,192,178826,128,0,179018:0:0:0:50:clap.wav
298,192,178826,128,0,178922:0:0:0:0:
469,192,178922,128,0,179114:0:0:0:0:
42,192,179018,128,0,179114:0:0:0:60:kick.wav
128,192,179018,128,0,179114:0:0:0:0:
298,192,179018,128,0,179210:0:0:0:0:
384,192,179114,128,0,179210:0:0:0:60:kick.wav
42,192,179210,128,0,179306:0:0:0:100:cymbal.wav
128,192,179210,128,0,179306:0:0:0:60:kick.wav
213,192,179210,128,0,179306:0:0:0:0:
469,192,179210,128,0,179306:0:0:0:0:
298,192,179306,128,0,179403:0:0:0:60:kick.wav
384,192,179306,128,0,179403:0:0:0:0:
42,192,179403,128,0,179499:0:0:0:60:kick.wav
128,192,179403,128,0,179499:0:0:0:0:
469,192,179403,128,0,179499:0:0:0:0:
213,192,179499,128,0,179595:0:0:0:60:kick.wav
298,192,179499,128,0,179595:0:0:0:0:
42,192,179595,128,0,179787:0:0:0:60:kick.wav
128,192,179595,128,0,179691:0:0:0:50:clap.wav
384,192,179595,128,0,179691:0:0:0:0:
469,192,179595,128,0,179691:0:0:0:0:
298,192,179691,128,0,179787:0:0:0:0:
213,192,179787,128,0,179883:0:0:0:60:kick.wav
384,192,179787,128,0,179883:0:0:0:0:
469,192,179787,128,0,179883:0:0:0:0:
128,192,179883,128,0,179980:0:0:0:0:
42,192,179980,128,0,180653:0:0:0:100:cymbal.wav
213,192,179980,1,0,0:0:0:60:kick.wav
298,192,179980,128,0,180076:0:0:0:0:
384,192,179980,128,0,180172:0:0:0:0:
469,192,179980,128,0,180268:0:0:0:0:
128,192,180076,128,0,180556:0:0:0:0:
213,192,180172,128,0,180460:0:0:0:0:
298,192,180268,128,0,180364:0:0:0:0:
384,192,180364,128,0,180460:0:0:0:60:kick.wav
469,192,180364,128,0,180749:0:0:0:50:clap.wav
298,192,180460,128,0,180556:0:0:0:0:
213,192,180556,128,0,180653:0:0:0:0:
384,192,180556,128,0,180749:0:0:0:0:
128,192,180653,128,0,180749:0:0:0:0:
42,192,180749,128,0,180941:0:0:0:60:kick.wav
213,192,180749,128,0,180845:0:0:0:0:
298,192,180749,128,0,180941:0:0:0:0:
128,192,180845,128,0,181037:0:0:0:0:
384,192,180845,128,0,181037:0:0:0:0:
213,192,180941,128,0,181133:0:0:0:0:
469,192,180941,128,0,181037:0:0:0:0:
298,192,181037,128,0,181133:0:0:0:0:
42,192,181133,128,0,181230:0:0:0:60:kick.wav
128,192,181133,128,0,181230:0:0:0:50:clap.wav
384,192,181133,128,0,181230:0:0:0:0:
469,192,181133,128,0,181230:0:0:0:0:
213,192,181230,128,0,181326:0:0:0:0:
42,192,181326,128,0,181518:0:0:0:60:kick.wav
298,192,181326,128,0,181422:0:0:0:0:
384,192,181326,128,0,181422:0:0:0:0:
469,192,181326,128,0,181422:0:0:0:0:
128,192,181422,128,0,181518:0:0:0:0:
213,192,181518,128,0,181806:0:0:0:60:kick.wav
298,192,181518,128,0,181614:0:0:0:0:
384,192,181518,128,0,181614:0:0:0:0:
469,192,181518,128,0,181614:0:0:0:0:
128,192,181614,128,0,181710:0:0:0:0:
42,192,181710,128,0,181999:0:0:0:60:kick.wav
298,192,181710,128,0,181806:0:0:0:0:
384,192,181710,128,0,181806:0:0:0:0:
469,192,181710,128,0,181806:0:0:0:0:
128,192,181806,128,0,181903:0:0:0:0:
213,192,181903,128,0,182095:0:0:0:60:kick.wav
298,192,181903,128,0,181999:0:0:0:50:clap.wav
384,192,181903,128,0,181999:0:0:0:0:
469,192,181903,128,0,181999:0:0:0:0:
128,192,181999,128,0,182191:0:0:0:0:
42,192,182095,128,0,182191:0:0:0:60:kick.wav
298,192,182095,128,0,182191:0:0:0:0:
384,192,182095,128,0,182191:0:0:0:0:
469,192,182095,128,0,182191:0:0:0:0:
213,192,182191,128,0,182287:0:0:0:60:kick.wav
42,192,182287,128,0,182383:0:0:0:100:cymbal.wav
128,192,182287,128,0,182383:0:0:0:60:kick.wav
384,192,182287,128,0,182383:0:0:0:0:
469,192,182287,128,0,182383:0:0:0:0:
213,192,182383,128,0,182480:0:0:0:60:kick.wav
298,192,182383,128,0,182480:0:0:0:0:
42,192,182480,128,0,182576:0:0:0:60:kick.wav
128,192,182480,128,0,182576:0:0:0:0:
469,192,182480,128,0,182576:0:0:0:0:
298,192,182576,128,0,182672:0:0:0:60:kick.wav
384,192,182576,128,0,182672:0:0:0:0:
42,192,182672,128,0,182768:0:0:0:60:kick.wav
128,192,182672,128,0,182768:0:0:0:50:clap.wav
213,192,182672,128,0,182864:0:0:0:0:
469,192,182672,128,0,182960:0:0:0:0:
298,192,182768,128,0,182960:0:0:0:0:
42,192,182864,128,0,182960:0:0:0:60:kick.wav
128,192,182864,128,0,182960:0:0:0:0:
384,192,182864,128,0,183056:0:0:0:0:
213,192,182960,128,0,183056:0:0:0:60:kick.wav
42,192,183056,128,0,183153:0:0:0:100:cymbal.wav
128,192,183056,128,0,183153:0:0:0:60:kick.wav
298,192,183056,128,0,183153:0:0:0:0:
469,192,183056,128,0,184595:0:0:0:0:
384,192,183153,128,0,183249:0:0:0:0:
42,192,183249,128,0,183345:0:0:0:0:
213,192,183249,128,0,183345:0:0:0:0:
298,192,183345,128,0,183441:0:0:0:0:
42,192,183441,128,0,183537:0:0:0:60:kick.wav
128,192,183441,128,0,183537:0:0:0:50:clap.wav
384,192,183441,128,0,183537:0:0:0:0:
213,192,183537,128,0,183633:0:0:0:0:
42,192,183633,128,0,183730:0:0:0:0:
298,192,183633,128,0,183730:0:0:0:0:
128,192,183730,128,0,183826:0:0:0:0:
42,192,183826,128,0,184018:0:0:0:60:kick.wav
213,192,183826,128,0,183922:0:0:0:0:
384,192,183826,128,0,183922:0:0:0:0:
128,192,183922,128,0,184114:0:0:0:0:
298,192,183922,128,0,184018:0:0:0:0:
213,192,184018,128,0,184210:0:0:0:0:
384,192,184018,128,0,184114:0:0:0:0:
42,192,184114,128,0,184210:0:0:0:0:
128,192,184210,128,0,184306:0:0:0:60:kick.wav
298,192,184210,128,0,184306:0:0:0:50:clap.wav
384,192,184210,128,0,184306:0:0:0:0:
213,192,184306,128,0,184403:0:0:0:0:
42,192,184403,128,0,184499:0:0:0:60:kick.wav
128,192,184403,128,0,184499:0:0:0:0:
298,192,184499,128,0,184595:0:0:0:60:kick.wav
384,192,184499,128,0,184595:0:0:0:0:
42,192,184595,128,0,186133:0:0:0:100:cymbal.wav
128,192,184595,128,0,184691:0:0:0:60:kick.wav
213,192,184595,128,0,184691:0:0:0:0:
469,192,184691,128,0,184787:0:0:0:0:
128,192,184787,128,0,184883:0:0:0:60:kick.wav
298,192,184787,128,0,184883:0:0:0:0:
384,192,184787,128,0,184883:0:0:0:0:
213,192,184883,128,0,184980:0:0:0:0:
469,192,184883,128,0,184980:0:0:0:0:
128,192,184980,128,0,185076:0:0:0:60:kick.wav
298,192,184980,128,0,185076:0:0:0:50:clap.wav
384,192,184980,128,0,185076:0:0:0:0:
469,192,185076,128,0,185172:0:0:0:0:
213,192,185172,128,0,185268:0:0:0:0:
298,192,185172,128,0,185268:0:0:0:0:
469,192,185268,128,0,185364:0:0:0:0:
128,192,185364,128,0,185460:0:0:0:60:kick.wav
213,192,185364,128,0,185460:0:0:0:0:
384,192,185364,128,0,185460:0:0:0:0:
298,192,185460,128,0,185556:0:0:0:0:
384,192,185556,128,0,185653:0:0:0:60:kick.wav
469,192,185556,128,0,185653:0:0:0:0:
128,192,185605,1,0,0:0:0:60:kick.wav
213,192,185653,1,0,0:0:0:60:kick.wav
298,192,185701,1,0,0:0:0:60:kick.wav
128,192,185749,128,0,185845:0:0:0:60:kick.wav
384,192,185749,128,0,185845:0:0:0:50:clap.wav
469,192,185749,128,0,185845:0:0:0:0:
213,192,185845,128,0,185941:0:0:0:0:
298,192,185941,128,0,186037:0:0:0:60:kick.wav
384,192,185941,128,0,186037:0:0:0:0:
469,192,185941,128,0,186037:0:0:0:0:
213,192,186037,128,0,186133:0:0:0:0:
128,192,186133,128,0,186230:0:0:0:100:cymbal.wav
298,192,186133,1,0,0:0:0:60:kick.wav
384,192,186133,128,0,186230:0:0:0:0:
469,192,186133,128,0,186422:0:0:0:0:
213,192,186230,128,0,186326:0:0:0:0:
42,192,186326,128,0,186518:0:0:0:60:kick.wav
298,192,186326,128,0,186422:0:0:0:0:
384,192,186326,128,0,186614:0:0:0:0:
128,192,186422,128,0,186614:0:0:0:0:
213,192,186518,128,0,186710:0:0:0:60:kick.wav
469,192,186518,128,0,186806:0:0:0:50:clap.wav
42,192,186614,128,0,187095:0:0:0:0:
298,192,186614,128,0,186806:0:0:0:0:
128,192,186710,128,0,186999:0:0:0:60:kick.wav
384,192,186710,128,0,186999:0:0:0:0:
213,192,186806,128,0,186903:0:0:0:0:
298,192,186903,128,0,187095:0:0:0:100:cymbal.wav
469,192,186903,128,0,187191:0:0:0:60:kick.wav
213,192,186999,128,0,187191:0:0:0:0:
128,192,187095,128,0,187287:0:0:0:60:kick.wav
384,192,187095,128,0,187383:0:0:0:0:
42,192,187191,128,0,187383:0:0:0:0:
298,192,187191,128,0,187383:0:0:0:0:
213,192,187287,128,0,187480:0:0:0:60:kick.wav
469,192,187287,128,0,187576:0:0:0:50:clap.wav
128,192,187383,128,0,187576:0:0:0:0:
42,192,187480,128,0,187576:0:0:0:60:kick.wav
298,192,187480,128,0,187576:0:0:0:0:
384,192,187480,128,0,187576:0:0:0:0:
213,192,187576,128,0,187672:0:0:0:60:kick.wav
42,192,187672,128,0,187960:0:0:0:100:cymbal.wav
128,192,187672,128,0,187768:0:0:0:60:kick.wav
298,192,187672,1,0,0:0:0:0:
469,192,187672,128,0,188345:0:0:0:0:
384,192,187768,128,0,188056:0:0:0:0:
128,192,187864,128,0,188153:0:0:0:60:kick.wav
298,192,187864,128,0,187960:0:0:0:0:
213,192,187960,128,0,188249:0:0:0:0:
42,192,188056,128,0,188345:0:0:0:100:cymbal.wav
298,192,188056,128,0,188153:0:0:0:60:kick.wav
384,192,188153,128,0,188441:0:0:0:0:
128,192,188249,128,0,188537:0:0:0:60:kick.wav
298,192,188249,128,0,188537:0:0:0:0:
213,192,188345,128,0,188633:0:0:0:0:
42,192,188441,128,0,188730:0:0:0:100:cymbal.wav
469,192,188441,128,0,188537:0:0:0:60:kick.wav
384,192,188537,128,0,188633:0:0:0:0:
128,192,188633,128,0,188922:0:0:0:60:kick.wav
298,192,188633,128,0,188730:0:0:0:0:
469,192,188633,128,0,188922:0:0:0:0:
213,192,188730,128,0,188826:0:0:0:60:kick.wav
384,192,188730,128,0,188826:0:0:0:0:
42,192,188826,128,0,189114:0:0:0:100:cymbal.wav
298,192,188826,128,0,188922:0:0:0:60:kick.wav
213,192,188922,128,0,189114:0:0:0:0:
384,192,188922,128,0,189018:0:0:0:0:
128,192,189018,128,0,189114:0:0:0:60:kick.wav
298,192,189018,128,0,189210:0:0:0:0:
469,192,189018,128,0,189114:0:0:0:0:
384,192,189114,128,0,189210:0:0:0:0:
42,192,189210,128,0,189499:0:0:0:100:cymbal.wav
128,192,189210,128,0,189306:0:0:0:60:kick.wav
213,192,189210,128,0,189306:0:0:0:0:
469,192,189210,128,0,189306:0:0:0:0:
298,192,189306,128,0,189499:0:0:0:60:kick.wav
384,192,189306,128,0,189403:0:0:0:0:
213,192,189403,128,0,189499:0:0:0:60:kick.wav
469,192,189403,128,0,189691:0:0:0:0:
128,192,189499,128,0,189595:0:0:0:60:kick.wav
384,192,189499,128,0,189691:0:0:0:0:
42,192,189595,128,0,189883:0:0:0:100:cymbal.wav
298,192,189595,128,0,189691:0:0:0:60:kick.wav
128,192,189691,128,0,189787:0:0:0:60:kick.wav
213,192,189691,128,0,189883:0:0:0:0:
384,192,189787,128,0,189883:0:0:0:60:kick.wav
469,192,189787,128,0,190076:0:0:0:0:
128,192,189883,128,0,190076:0:0:0:60:kick.wav
298,192,189883,128,0,189980:0:0:0:0:
42,192,189980,128,0,190268:0:0:0:100:cymbal.wav
213,192,189980,128,0,190076:0:0:0:60:kick.wav
298,192,190076,128,0,190172:0:0:0:60:kick.wav
384,192,190076,128,0,190268:0:0:0:0:
128,192,190172,128,0,190268:0:0:0:60:kick.wav
469,192,190172,128,0,190460:0:0:0:0:
213,192,190268,128,0,190364:0:0:0:60:kick.wav
298,192,190268,128,0,190460:0:0:0:0:
42,192,190364,128,0,190653:0:0:0:100:cymbal.wav
384,192,190364,128,0,190460:0:0:0:60:kick.wav
128,192,190460,128,0,190556:0:0:0:60:kick.wav
213,192,190460,128,0,190653:0:0:0:0:
298,192,190556,128,0,190653:0:0:0:60:kick.wav
469,192,190556,128,0,190749:0:0:0:0:
128,192,190653,128,0,190845:0:0:0:60:kick.wav
384,192,190653,128,0,190749:0:0:0:0:
42,192,190749,128,0,190845:0:0:0:100:cymbal.wav
213,192,190749,128,0,190845:0:0:0:60:kick.wav
298,192,190749,128,0,191037:0:0:0:0:
384,192,190845,128,0,190941:0:0:0:60:kick.wav
469,192,190845,128,0,190941:0:0:0:0:
42,192,190941,128,0,191037:0:0:0:100:cymbal.wav
128,192,190941,128,0,191037:0:0:0:60:kick.wav
213,192,190941,128,0,191230:0:0:0:0:
384,192,191037,128,0,191133:0:0:0:60:kick.wav
469,192,191037,128,0,191133:0:0:0:0:
42,192,191133,128,0,191230:0:0:0:100:cymbal.wav
128,192,191133,128,0,191230:0:0:0:60:kick.wav
298,192,191133,128,0,191422:0:0:0:50:clap.wav
384,192,191230,128,0,191326:0:0:0:60:kick.wav
469,192,191230,128,0,191326:0:0:0:0:
42,192,191326,128,0,191422:0:0:0:100:cymbal.wav
128,192,191326,128,0,191422:0:0:0:60:kick.wav
213,192,191326,128,0,191614:0:0:0:0:
384,192,191422,128,0,191518:0:0:0:60:kick.wav
469,192,191422,128,0,191518:0:0:0:0:
42,192,191518,1,0,0:0:0:100:cymbal.wav
298,192,191518,128,0,191806:0:0:0:60:kick.wav
128,192,191566,1,0,0:0:0:60:kick.wav
469,192,191614,1,0,0:0:0:60:kick.wav
384,192,191662,1,0,0:0:0:60:kick.wav
42,192,191710,1,0,0:0:0:100:cymbal.wav
213,192,191710,128,0,191999:0:0:0:60:kick.wav
128,192,191758,1,0,0:0:0:60:kick.wav
469,192,191806,1,0,0:0:0:60:kick.wav
384,192,191855,1,0,0:0:0:60:kick.wav
42,192,191903,1,0,0:0:0:100:cymbal.wav
298,192,191903,128,0,192191:0:0:0:60:kick.wav
128,192,191951,1,0,0:0:0:60:kick.wav
469,192,191999,1,0,0:0:0:60:kick.wav
384,192,192047,1,0,0:0:0:60:kick.wav
42,192,192095,1,0,0:0:0:100:cymbal.wav
213,192,192095,128,0,192191:0:0:0:60:kick.wav
128,192,192143,1,0,0:0:0:60:kick.wav
469,192,192191,1,0,0:0:0:60:kick.wav
384,192,192239,1,0,0:0:0:60:kick.wav
42,192,192287,128,0,195364:0:0:0:100:cymbal.wav
128,192,192287,128,0,194595:0:0:0:60:kick.wav
213,192,192287,128,0,193826:0:0:0:100:BassKickReverbXD.wav
298,192,192287,128,0,193056:0:0:0:0:
298,192,196793,1,0,0:0:0:70:A#6.wav
384,192,196838,1,0,0:0:0:70:D7.wav
469,192,196903,1,0,0:0:0:70:G7.wav
42,192,198441,128,0,202074:0:0:0:70:0_D#3.wav
213,192,198441,128,0,201512:0:0:0:70:0_A#3.wav
298,192,198441,128,0,201133:0:0:0:70:0_G4.wav
469,192,201133,1,0,0:0:0:70:A#7.wav
384,192,201512,1,0,0:0:0:70:A7.wav
298,192,202074,1,0,0:0:0:70:F7.wav
128,192,202670,1,0,0:0:0:70:C7.wav
128,192,203593,1,0,0:0:0:70:C7.wav
213,192,204001,1,0,0:0:0:70:F7.wav
42,192,204593,128,0,207066:0:0:0:70:0_D#3.wav
298,192,204593,128,0,207066:0:0:0:70:0_A#3.wav
469,192,204593,128,0,207066:0:0:0:70:0_G4.wav
384,192,204990,1,0,0:0:0:70:G7.wav
213,192,207066,1,0,0:0:0:70:F7.wav
298,192,207374,1,0,0:0:0:70:G7.wav
128,192,207646,1,0,0:0:0:70:C7.wav
213,192,207673,128,0,208759:0:0:0:70:0_F3.wav
384,192,207673,128,0,209306:0:0:0:70:0_C4.wav
469,192,207673,128,0,209982:0:0:0:70:0_A4.wav
42,192,208212,1,0,0:0:0:70:A6.wav
128,192,208759,1,0,0:0:0:70:A#6.wav
213,192,209306,1,0,0:0:0:70:C7.wav
298,192,209982,1,0,0:0:0:70:F7.wav
42,192,210746,128,0,214451:0:0:0:70:0_G3.wav
128,192,210746,128,0,214451:0:0:0:70:0_D4.wav
384,192,210746,128,0,212260:0:0:0:70:0_A#4.wav
213,192,212260,1,0,0:0:0:70:D7.wav
469,192,214451,1,0,0:0:0:70:D8.wav
