osu file format v14

[General]
AudioFilename: audio.ogg
AudioLeadIn: 0
PreviewTime: 125901
Countdown: 0
SampleSet: Soft
StackLeniency: 0.4
Mode: 0
LetterboxInBreaks: 0
WidescreenStoryboard: 1

[Editor]
Bookmarks: 122824
DistanceSpacing: 1.5
BeatDivisor: 8
GridSize: 4
TimelineZoom: 3.200001

[Metadata]
Title:Babylon
TitleUnicode:Babylon
Artist:BlackY
ArtistUnicode:BlackY
Creator:Jem Bey
Version:neonat's Hard
Source:
Tags:BlackmaniYa BlackY's BEATFLOOR electronic instrumental muzie neonat seiioh garvanturr pyth0nix jem bey
BeatmapID:3785226
BeatmapSetID:1737434

[Difficulty]
HPDrainRate:4
CircleSize:3.6
OverallDifficulty:7
ApproachRate:7.5
SliderMultiplier:1.4
SliderTickRate:1

[Events]
//Background and Video events
0,0,"bga.jpg",0,0
//Break Periods
2,100331,110001
//Storyboard Layer 0 (Background)
//Storyboard Layer 1 (Fail)
//Storyboard Layer 2 (Pass)
//Storyboard Layer 3 (Foreground)
//Storyboard Layer 4 (Overlay)
//Storyboard Sound Samples

[TimingPoints]
132,384.615384615385,4,2,1,55,1,0
132,-133.333333333333,4,2,1,55,0,0
12439,-100,4,2,1,60,0,0
50901,-100,4,2,1,70,0,0
52247,-83.3333333333333,4,2,1,70,0,0
100131,-83.3333333333333,4,2,1,60,0,0
113208,-100,4,2,1,60,0,0
126285,-76.9230769230769,4,2,1,75,0,1
189939,-76.9230769230769,4,2,1,70,0,1
190901,-76.9230769230769,4,2,1,40,0,0
197055,-125,4,2,1,40,0,0
213064,-125,4,2,1,30,0,0

[Colours]
Combo1 : 102,158,253
Combo2 : 54,88,248
Combo3 : 0,215,215

[HitObjects]
60,120,132,6,0,B|121:126|197:91|197:91|277:122|277:122|314:97|374:98,1,315.000000000001,0|0,2:0|2:0,2:0:0:0:
474,206,1670,2,0,B|494:259|474:311|474:311|417:277|362:308,1,210.000000000001,0|0,2:0|2:0,2:0:0:0:
112,197,3208,2,0,B|71:232|63:286|63:286|121:308|168:278,1,210.000000000001,0|0,2:0|2:0,2:0:0:0:
257,100,4747,1,0,2:0:0:0:
257,100,6285,5,0,2:0:0:0:
381,271,7055,2,0,P|400:302|405:352,2,78.7500000000002,0|0|0,2:0|2:0|2:0,2:0:0:0:
306,244,7824,2,0,B|243:265|243:265|207:255|207:255|174:267|174:267|101:242,1,210.000000000001,0|0,2:0|2:0,2:0:0:0:
152,40,9362,2,0,P|232:50|370:35,1,210.000000000001,0|0,2:0|2:0,2:0:0:0:
364,343,10901,2,0,P|260:355|155:345,1,210.000000000001,0|0,2:0|2:0,2:0:0:0:
145,191,12247,5,0,2:0:0:0:
223,236,12439,2,0,L|377:225,1,140,4|2,1:0|3:0,2:0:0:0:
466,76,13208,2,0,L|326:85,1,140,2|2,2:0|2:0,2:0:0:0:
177,191,13978,2,0,P|160:237|179:333,1,140,2|2,3:0|3:0,2:0:0:0:
356,326,14747,2,0,P|373:280|354:184,1,140,2|2,2:0|2:0,2:0:0:0:
189,125,15516,6,0,P|125:148|36:130,1,140,4|2,1:0|3:0,2:0:0:0:
196,23,16285,2,0,P|260:0|349:18,1,140,2|2,2:0|2:0,2:0:0:0:
265,179,17055,2,0,P|247:219|274:318,1,140,4|2,1:0|3:0,2:0:0:0:
403,188,17824,2,0,P|421:148|394:49,1,140,0|2,1:0|2:0,2:0:0:0:
310,42,18401,1,2,3:0:0:0:
227,80,18593,6,0,P|168:95|88:80,1,140,4|2,1:0|2:0,2:0:0:0:
118,261,19362,2,0,P|186:247|253:262,1,140,0|2,1:0|3:0,2:0:0:0:
427,205,20132,2,0,P|445:126|406:51,1,140,4|2,1:0|2:0,2:0:0:0:
242,74,20901,2,0,P|224:153|263:228,1,140,0|2,1:0|3:0,2:0:0:0:
278,290,21478,1,0,3:0:0:0:
212,352,21670,6,0,L|119:329,1,70,4|0,1:0|2:0,2:0:0:0:
55,310,22055,1,0,1:0:0:0:
195,195,22439,2,0,L|288:172,1,70,4|2,1:0|3:0,2:0:0:0:
352,153,22824,1,2,3:0:0:0:
286,90,23016,1,0,3:0:0:0:
196,107,23208,2,0,L|128:123,1,70,4|0,1:0|1:0,2:0:0:0:
52,54,23593,2,0,L|119:37,1,70,2|2,1:0|1:0,2:0:0:0:
211,29,23978,2,0,L|231:-1,3,35,4|2|2|2,1:0|3:0|3:0|3:0,2:0:0:0:
287,5,24362,2,0,L|307:35,3,35,2|0|0|0,3:0|3:0|3:0|3:0,2:0:0:0:
334,85,24747,6,0,L|353:153,1,70,4|0,1:0|2:0,2:0:0:0:
263,163,25132,2,0,L|245:230,1,70,0|2,1:0|2:0,2:0:0:0:
168,277,25516,2,0,L|150:210,1,70,0|2,1:0|2:0,2:0:0:0:
60,199,25901,2,0,L|78:131,1,70,0|2,1:0|2:0,2:0:0:0:
229,17,26285,2,0,L|144:14,1,70,4|0,1:0|2:0,2:0:0:0:
205,101,26670,2,0,L|172:174,1,70,0|2,1:0|2:0,2:0:0:0:
268,193,27055,2,0,L|279:293,1,70,0|2,1:0|2:0,2:0:0:0:
367,241,27439,2,0,L|422:311,1,70,0|2,1:0|2:0,2:0:0:0:
233,344,27824,6,0,L|150:352,1,70,4|0,1:0|2:0,2:0:0:0:
120,270,28208,2,0,L|210:261,1,70,0|2,1:0|2:0,2:0:0:0:
204,172,28593,2,0,L|121:180,1,70,0|2,1:0|2:0,2:0:0:0:
91,98,28978,2,0,L|181:89,1,70,0|2,1:0|3:0,2:0:0:0:
336,60,29362,2,0,L|266:53,1,70,4|2,1:0|2:0,2:0:0:0:
361,162,29747,2,0,L|430:151,1,70,0|2,1:0|3:0,2:0:0:0:
261,181,30132,2,0,L|191:191,1,70,0|2,1:0|2:0,2:0:0:0:
294,262,30516,1,0,1:0:0:0:
367,159,30708,1,2,3:0:0:0:
254,77,30901,6,0,L|184:66,1,70,4|2,1:0|2:0,2:0:0:0:
93,66,31285,2,0,L|23:77,1,70,0|2,1:0|2:0,2:0:0:0:
25,168,31670,2,0,L|95:179,1,70,0|2,1:0|3:0,2:0:0:0:
186,179,32055,2,0,L|256:168,1,70,0|0,1:0|2:0,2:0:0:0:
388,59,32439,2,0,L|352:135,1,70,4|2,1:0|2:0,2:0:0:0:
443,155,32824,2,0,L|458:226,1,70,0|2,1:0|2:0,2:0:0:0:
362,215,33208,2,0,L|326:291,1,70,0|2,1:0|3:0,2:0:0:0:
417,311,33593,2,0,L|432:382,1,70,0|0,1:0|3:0,2:0:0:0:
261,361,33978,6,0,L|177:371,1,70,4|0,1:0|2:0,2:0:0:0:
187,276,34362,2,0,L|110:251,1,70,0|2,1:0|2:0,2:0:0:0:
190,179,34747,2,0,L|132:116,1,70,0|2,1:0|3:0,2:0:0:0:
215,69,35132,2,0,L|189:-7,1,70,0|0,1:0|3:0,2:0:0:0:
301,142,35516,5,4,1:0:0:0:
190,179,35708,1,0,1:0:0:0:
240,287,35901,1,0,1:0:0:0:
352,250,36093,1,2,1:0:0:0:
415,123,36285,2,0,L|404:61,3,35,0|2|2|2,1:0|3:0|3:0|3:0,2:0:0:0:
382,46,36670,2,0,L|297:45,1,70,0|0,1:0|3:0,2:0:0:0:
124,73,37055,6,0,L|101:164,1,70,4|0,1:0|2:0,2:0:0:0:
228,121,37439,2,0,L|225:193,1,70,0|2,1:0|2:0,2:0:0:0:
343,162,37824,2,0,L|346:234,1,70,0|2,1:0|2:0,2:0:0:0:
447,114,38208,2,0,L|470:205,1,70,0|2,1:0|2:0,2:0:0:0:
443,320,38593,2,0,L|420:229,1,70,4|2,1:0|2:0,2:0:0:0:
306,289,38978,2,0,L|316:193,1,70,0|2,1:0|2:0,2:0:0:0:
206,289,39362,2,0,L|196:193,1,70,0|2,1:0|2:0,2:0:0:0:
69,320,39747,2,0,L|92:229,1,70,0|2,1:0|2:0,2:0:0:0:
191,131,40132,6,0,P|143:146|95:136,1,70,4|0,1:0|2:0,2:0:0:0:
177,36,40516,2,0,P|225:21|273:31,1,70,0|2,1:0|2:0,2:0:0:0:
327,119,40901,2,0,P|353:136|399:132,1,70,0|2,1:0|2:0,2:0:0:0:
502,69,41285,2,0,P|476:52|430:56,1,70,0|2,1:0|3:0,2:0:0:0:
327,119,41670,2,0,L|267:183,1,70,4|2,1:0|2:0,2:0:0:0:
131,181,42055,2,0,L|191:117,1,70,0|2,1:0|3:0,2:0:0:0:
283,28,42439,2,0,P|350:32|406:18,2,105,0|2|2,1:0|2:0|3:0,2:0:0:0:
141,5,43208,5,4,1:0:0:0:
257,193,44555,1,0,1:0:0:0:
257,193,44747,1,4,1:0:0:0:
451,340,45516,2,0,P|484:307|490:229,2,105,0|2|0,1:0|3:0|3:0,2:0:0:0:
300,274,46285,6,0,L|219:284,1,70,4|2,1:0|2:0,2:0:0:0:
118,173,46670,2,0,L|197:189,1,70,0|2,1:0|2:0,2:0:0:0:
332,135,47055,1,0,1:0:0:0:
393,33,47247,1,2,3:0:0:0:
270,44,47439,1,0,1:0:0:0:
209,146,47632,1,0,3:0:0:0:
252,264,47824,5,4,1:0:0:0:
367,232,48016,1,0,3:0:0:0:
367,232,48112,1,2,3:0:0:0:
367,232,48208,1,2,2:0:0:0:
352,346,48401,2,0,L|395:367,2,35,0|2|0,3:0|3:0|1:0,2:0:0:0:
234,363,48785,1,2,3:0:0:0:
121,323,48978,1,0,3:0:0:0:
121,323,49074,1,2,3:0:0:0:
121,323,49170,2,0,L|133:262,1,35,0|0,3:0|3:0,2:0:0:0:
256,192,50132,12,4,50901,1:0:0:0:
253,317,51478,5,0,1:0:0:0:
147,248,51670,1,8,1:0:0:0:
179,132,51862,1,0,3:0:0:0:
179,132,51958,1,0,3:0:0:0:
179,132,52055,1,8,1:0:0:0:
304,123,52247,6,0,B|386:136|386:136|469:109,1,168,0|0,3:0|3:0,2:0:0:0:
505,99,52728,1,0,1:0:0:0:
505,99,52824,2,0,L|512:195,1,84,0|0,1:0|1:0,2:0:0:0:
453,294,53208,1,8,1:0:0:0:
338,261,53401,1,2,2:0:0:0:
338,261,53497,1,2,2:0:0:0:
338,261,53593,2,0,L|272:255,3,42,2|2|2|2,2:0|2:0|2:0|2:0,2:0:0:0:
260,254,53978,6,0,B|208:240|188:271|126:242,2,126,0|0|0,1:0|1:0|1:0,2:0:0:0:
402,202,54747,2,0,P|419:161|415:118,1,84,8|0,1:0|3:0,2:0:0:0:
403,91,55035,1,0,3:0:0:0:
385,62,55132,2,0,P|376:36|378:-11,2,56,0|0|0,1:0|1:0|1:0,2:0:0:0:
243,151,55708,5,0,3:0:0:0:
243,151,55805,1,0,1:0:0:0:
243,151,55901,2,0,P|189:159|142:147,1,84,0|0,1:0|1:0,2:0:0:0:
66,65,56285,2,0,P|120:57|167:69,1,84,8|0,1:0|1:0,2:0:0:0:
263,68,56670,2,0,L|317:64,3,42,2|2|2|2,3:0|3:0|3:0|3:0,2:0:0:0:
341,58,57055,6,0,B|375:56|375:56|388:43|388:43|404:48|404:48|415:34|415:34|435:44|435:44|454:77|454:77|462:110|462:110|446:129|446:129|427:122|427:122|413:143|413:143|394:135|394:135|384:153|384:153|357:145|357:145|334:164,1,336,4|8,1:0|1:0,2:0:0:0:
257,243,58016,1,0,1:0:0:0:
116,127,58305,6,0,P|103:86|101:45,2,84,0|0|0,1:0|1:0|1:0,2:0:0:0:
217,69,58882,1,0,1:0:0:0:
217,69,58978,2,0,L|320:68,1,84,0|0,1:0|1:0,2:0:0:0:
417,114,59362,1,8,1:0:0:0:
323,198,59555,1,0,1:0:0:0:
185,193,59747,2,0,B|144:158|144:158|130:157|130:157|128:143|128:143|82:100,1,126,0|0,3:0|2:0,2:0:0:0:
58,119,60132,6,0,P|27:156|27:255,1,126,0|0,1:0|2:0,2:0:0:0:
36,263,60516,2,0,B|107:309|107:309|208:286,1,168,0|8,1:0|1:0,2:0:0:0:
305,243,61093,1,0,1:0:0:0:
407,40,61478,1,0,1:0:0:0:
407,40,61574,1,0,1:0:0:0:
407,40,61670,6,0,P|440:75|450:131,1,84,0|0,1:0|2:0,2:0:0:0:
441,145,61958,2,0,P|428:207|446:251,1,84,0|0,1:0|1:0,2:0:0:0:
453,257,62247,2,0,L|463:319,1,42,0|0,1:0|1:0,2:0:0:0:
448,334,62439,1,8,1:0:0:0:
351,292,62632,2,0,P|310:327|320:238,1,210,0|0,1:0|2:0,2:0:0:0:
333,204,63208,6,0,B|217:211|217:211|157:186,1,168,4|0,1:0|2:0,2:0:0:0:
137,68,63785,1,0,1:0:0:0:
257,30,63978,1,8,1:0:0:0:
371,81,64170,1,0,3:0:0:0:
371,81,64266,1,0,3:0:0:0:
371,81,64362,1,8,1:0:0:0:
402,203,64555,6,0,P|402:246|330:355,1,168,0|0,3:0|3:0,2:0:0:0:
301,360,65035,1,0,3:0:0:0:
301,360,65132,2,0,L|201:324,1,84,0|0,1:0|1:0,2:0:0:0:
96,333,65516,1,8,1:0:0:0:
11,239,65708,2,0,L|7:182,1,42,2|2,2:0|2:0,2:0:0:0:
5,161,65901,2,0,P|50:182|164:134,1,168,2|0,2:0|1:0,2:0:0:0:
319,49,66574,6,0,L|415:58,1,84,0|0,1:0|1:0,2:0:0:0:
450,62,66862,1,0,1:0:0:0:
479,185,67055,1,8,1:0:0:0:
354,166,67247,1,0,3:0:0:0:
354,166,67343,1,0,3:0:0:0:
354,166,67439,2,0,L|274:157,2,56,0|0|0,1:0|1:0|1:0,2:0:0:0:
177,51,68016,5,0,3:0:0:0:
56,86,68208,2,0,P|30:124|28:182,1,84,0|0,1:0|1:0,2:0:0:0:
66,280,68593,2,0,L|44:343,2,56,8|2|2,1:0|2:0|2:0,2:0:0:0:
138,235,68978,2,0,L|199:233,1,42,2|2,3:0|3:0,2:0:0:0:
218,233,69170,1,2,3:0:0:0:
337,188,69362,6,0,B|359:188|359:188|373:174|373:174|402:177|402:177|412:143|412:143|417:108|464:85|464:85|398:28|398:28|375:59|321:67,1,336,4|8,1:0|1:0,2:0:0:0:
222,78,70324,1,0,1:0:0:0:
43,138,70612,6,0,P|26:188|40:227,2,84,0|0|0,1:0|1:0|1:0,2:0:0:0:
116,266,71189,1,0,1:0:0:0:
116,266,71285,2,0,L|230:270,1,84,0|0,1:0|1:0,2:0:0:0:
325,198,71670,2,0,L|225:192,1,84,8|0,1:0|1:0,2:0:0:0:
137,95,72055,2,0,B|157:99|157:99|174:93|174:93|190:99|190:99|207:95|207:95|223:101|223:101|242:97|242:97|273:103,1,126,0|0,1:0|2:0,2:0:0:0:
296,97,72439,6,0,B|346:111|372:80|434:101,1,126,0|0,1:0|2:0,2:0:0:0:
455,111,72824,2,0,P|447:163|466:250,1,126,0|0,1:0|2:0,2:0:0:0:
474,273,73208,1,8,1:0:0:0:
381,358,73401,1,0,1:0:0:0:
173,189,73785,1,0,1:0:0:0:
173,189,73882,1,0,1:0:0:0:
173,189,73978,6,0,L|163:259,2,42,0|0|0,1:0|1:0|1:0,2:0:0:0:
186,139,74266,2,0,P|239:141|291:116,1,84,0|0,1:0|1:0,2:0:0:0:
301,119,74555,2,0,L|355:114,1,42,0|0,1:0|1:0,2:0:0:0:
378,110,74747,1,8,1:0:0:0:
256,192,74795,12,6,75516,1:0:0:0:
259,187,76093,5,0,1:0:0:0:
384,187,76285,2,0,P|428:164|441:98,1,84,14|0,1:0|1:0,2:0:0:0:
443,92,76574,1,0,1:0:0:0:
432,51,76670,2,0,P|396:29|355:32,1,84,2|0,1:0|1:0,2:0:0:0:
120,38,77247,6,0,L|87:102,1,42,0|0,3:0|3:0,2:0:0:0:
82,113,77439,2,0,L|75:218,1,84,4|0,1:0|1:0,2:0:0:0:
148,300,77824,1,8,1:0:0:0:
248,208,78016,1,0,3:0:0:0:
324,307,78208,2,0,L|401:315,3,42,2|0|0|0,3:0|1:0|1:0|1:0,2:0:0:0:
399,319,78593,6,0,P|446:290|451:208,2,126,6|0|0,1:0|1:0|3:0,2:0:0:0:
268,241,79362,2,0,L|192:202,1,84,14|0,1:0|1:0,2:0:0:0:
162,189,79651,1,0,1:0:0:0:
130,177,79747,2,0,P|89:197|75:218,2,56,2|0|0,1:0|1:0|1:0,2:0:0:0:
312,94,80324,5,0,3:0:0:0:
312,94,80420,1,0,3:0:0:0:
312,94,80516,2,0,L|403:96,1,84,4|0,1:0|1:0,2:0:0:0:
473,220,80901,2,0,L|382:222,1,84,8|0,1:0|3:0,2:0:0:0:
244,198,81285,2,0,P|217:194|186:198,3,42,2|0|0|0,3:0|1:0|1:0|1:0,2:0:0:0:
165,202,81670,6,0,B|122:224|81:197|81:197|102:142|66:78|66:78|129:115|191:71,1,336,6|14,1:0|1:0,2:0:0:0:
294,18,82632,1,0,1:0:0:0:
387,152,82920,6,0,P|431:145|487:161,2,84,0|0|0,1:0|1:0|1:0,2:0:0:0:
374,256,83497,1,0,1:0:0:0:
374,256,83593,2,0,L|283:245,1,84,4|0,1:0|1:0,2:0:0:0:
168,277,83978,1,8,1:0:0:0:
203,156,84170,1,0,3:0:0:0:
80,186,84362,2,0,B|64:140|64:140|52:137|52:137|56:123|56:123|31:57,1,126,2|0,3:0|1:0,2:0:0:0:
27,44,84747,6,0,P|95:46|163:18,1,126,6|0,1:0|2:0,2:0:0:0:
180,13,85132,2,0,B|259:32|259:32|360:15,1,168,6|14,1:0|1:0,2:0:0:0:
490,55,85708,1,0,1:0:0:0:
397,276,86093,1,0,3:0:0:0:
397,276,86189,1,0,3:0:0:0:
397,276,86285,6,0,P|345:286|298:282,1,84,0|0,1:0|2:0,2:0:0:0:
288,266,86574,2,0,P|250:257|186:268,1,84,0|0,1:0|1:0,2:0:0:0:
174,274,86862,2,0,L|126:274,1,42,0|0,1:0|1:0,2:0:0:0:
93,274,87055,1,8,1:0:0:0:
50,131,87247,2,0,B|97:137|95:53|95:53|137:117|207:65,1,210,0|0,3:0|1:0,2:0:0:0:
227,63,87824,6,0,B|277:69|277:69|333:36|333:36|403:40,1,168,6|2,1:0|3:0,2:0:0:0:
476,127,88401,1,2,3:0:0:0:
406,232,88593,2,0,L|374:326,1,84,8|0,1:0|1:0,2:0:0:0:
364,342,88882,1,0,1:0:0:0:
364,342,88978,2,0,L|284:369,1,84,2|0,1:0|1:0,2:0:0:0:
129,304,89362,6,0,L|247:317,1,84,2|0,2:0|3:0,2:0:0:0:
313,237,89747,1,4,1:0:0:0:
268,119,89939,1,0,1:0:0:0:
151,167,90132,2,0,P|105:152|76:106,1,84,8|0,1:0|3:0,2:0:0:0:
66,96,90420,1,0,3:0:0:0:
75,63,90516,2,0,P|103:32|143:21,1,84,2|0,3:0|2:0,2:0:0:0:
253,81,90901,6,0,L|350:70,1,84,6|2,1:0|3:0,2:0:0:0:
451,162,91285,2,0,L|354:173,1,84,2|2,3:0|3:0,2:0:0:0:
251,188,91670,2,0,P|228:227|234:279,1,84,8|0,1:0|1:0,2:0:0:0:
241,297,91958,1,0,1:0:0:0:
264,322,92055,2,0,P|303:345|355:339,1,84,2|0,1:0|2:0,2:0:0:0:
441,268,92439,5,0,1:0:0:0:
415,136,92632,1,0,3:0:0:0:
415,136,92728,1,0,3:0:0:0:
415,136,92824,2,0,P|367:138|319:117,1,84,4|0,1:0|1:0,2:0:0:0:
240,41,93208,1,8,1:0:0:0:
140,200,93593,2,0,L|140:264,2,42,2|0|0,3:0|2:0|2:0,2:0:0:0:
257,148,93978,6,0,L|359:155,1,84,6|0,1:0|1:0,2:0:0:0:
421,252,94362,2,0,L|319:259,1,84,0|0,1:0|2:0,2:0:0:0:
252,351,94747,1,8,1:0:0:0:
130,318,94939,1,0,1:0:0:0:
213,220,95132,2,0,P|230:177|224:124,1,84,2|0,1:0|2:0,2:0:0:0:
102,87,95516,6,0,P|85:130|91:183,1,84,2|0,2:0|2:0,2:0:0:0:
103,196,95805,1,0,3:0:0:0:
129,218,95901,2,0,L|233:220,1,84,4|0,1:0|1:0,2:0:0:0:
334,187,96285,1,8,1:0:0:0:
312,311,96478,1,0,3:0:0:0:
436,289,96670,2,0,B|468:244|468:244|450:190|450:190|474:126,1,168,2|6,3:0|1:0,2:0:0:0:
403,30,97247,5,0,1:0:0:0:
279,8,97439,2,0,L|177:22,1,84,2|0,3:0|2:0,2:0:0:0:
84,114,97824,2,0,L|186:128,1,84,8|0,1:0|1:0,2:0:0:0:
277,186,98208,1,2,1:0:0:0:
338,79,98401,1,0,1:0:0:0:
338,79,98497,1,0,1:0:0:0:
338,79,98593,6,0,L|406:78,2,42,8|8|0,1:0|1:0|3:0,2:0:0:0:
303,76,98882,2,0,L|206:58,1,84,0|0,3:0|1:0,2:0:0:0:
185,53,99170,2,0,L|110:62,1,42,0|0,1:0|1:0,2:0:0:0:
108,64,99362,2,0,B|50:72|50:72|79:109|79:109|55:155|55:155|94:186|94:186|75:240|75:240|158:225,1,336,8|4,1:0|1:0,2:0:0:0:
256,192,110901,12,0,112439,1:0:0:0:
255,84,113016,5,2,2:0:0:0:
339,146,113208,2,0,P|350:196|344:240,1,70,2|2,3:0|2:0,2:0:0:0:
252,257,113593,2,0,P|241:207|247:163,1,70,2|2,3:0|2:0,2:0:0:0:
255,84,113978,2,0,P|189:78|127:103,2,105,2|2|2,3:0|3:0|2:0,2:0:0:0:
342,142,114747,2,0,P|388:159|485:134,1,140,2|2,3:0|3:0,2:0:0:0:
398,285,115516,6,0,L|253:273,1,140,4|2,1:0|2:0,2:0:0:0:
155,249,116093,1,2,2:0:0:0:
117,151,116285,2,0,L|266:167,1,140,2|2,3:0|3:0,2:0:0:0:
472,38,117055,2,0,L|323:54,1,140,2|2,3:0|3:0,2:0:0:0:
127,110,117824,2,0,L|276:126,1,140,2|2,3:0|3:0,2:0:0:0:
367,198,118401,1,0,3:0:0:0:
291,270,118593,6,0,B|218:246|158:295|75:258,2,210,4|2|2,1:0|2:0|3:0,2:0:0:0:
499,188,120132,1,2,3:0:0:0:
499,188,120901,1,2,3:0:0:0:
296,134,121285,1,2,3:0:0:0:
195,165,121478,1,0,1:0:0:0:
92,141,121670,6,0,P|77:99|86:45,1,70,12|0,1:0|2:0,2:0:0:0:
209,98,122055,2,0,P|207:132|194:164,1,70,0|0,1:0|2:0,2:0:0:0:
93,240,122439,2,0,P|94:274|107:306,1,70,12|0,1:0|2:0,2:0:0:0:
220,352,122824,1,0,1:0:0:0:
261,244,123016,1,0,1:0:0:0:
253,109,123208,6,0,L|228:31,1,70,12|0,1:0|1:0,2:0:0:0:
354,75,123593,2,0,L|329:158,1,70,8|0,1:0|1:0,2:0:0:0:
219,180,123978,2,0,L|178:193,3,35,8|0|0|0,1:0|3:0|3:0|3:0,2:0:0:0:
147,190,124362,2,0,L|99:176,3,35,8|0|0|0,1:0|3:0|3:0|3:0,2:0:0:0:
83,171,124747,5,4,1:0:0:0:
55,105,125901,2,0,B|104:117|104:117|175:99,1,105,2|0,2:0|2:0,2:0:0:0:
189,80,126285,6,0,P|232:68|367:82,1,182,6|8,1:0|1:0,2:0:0:0:
444,194,126862,1,0,3:0:0:0:
423,224,126958,1,0,3:0:0:0:
390,241,127055,2,0,B|283:237|283:237|192:253,1,182,2|10,1:0|1:0,2:0:0:0:
18,55,127824,6,0,B|111:63|111:63|221:46,1,182,6|8,1:0|1:0,2:0:0:0:
333,23,128401,1,2,3:0:0:0:
368,30,128497,1,2,3:0:0:0:
401,48,128593,2,0,P|419:96|407:162,1,91,2|2,1:0|2:0,2:0:0:0:
403,169,128882,1,2,2:0:0:0:
384,202,128978,2,0,P|380:231|409:301,1,91,8|2,1:0|1:0,2:0:0:0:
275,346,129362,6,0,P|235:313|92:309,1,182,6|8,1:0|1:0,2:0:0:0:
8,209,129939,1,0,3:0:0:0:
8,209,130035,1,0,3:0:0:0:
8,209,130132,2,0,P|61:206|103:181,1,91,6|2,1:0|1:0,2:0:0:0:
194,96,130516,2,0,P|234:76|279:75,1,91,10|2,1:0|1:0,2:0:0:0:
372,176,130901,6,0,P|405:212|392:142,1,182,6|8,1:0|1:0,2:0:0:0:
269,176,131478,1,0,3:0:0:0:
235,189,131574,1,0,3:0:0:0:
198,193,131670,2,0,P|148:193|105:171,1,91,2|2,1:0|1:3,2:0:0:0:
64,47,132055,1,10,1:0:0:0:
4,169,132247,1,0,3:0:0:0:
144,90,132439,6,0,B|239:75|239:75|345:80,1,182,6|8,1:0|1:0,2:0:0:0:
425,191,133016,1,2,2:0:0:0:
425,191,133112,1,2,2:0:0:0:
425,191,133208,2,0,B|407:237|374:272|374:272|386:324,2,136.5,2|8|2,1:3|1:0|3:0,2:0:0:0:
288,176,133978,6,0,B|206:191|206:191|99:169,1,182,6|8,1:0|1:0,2:0:0:0:
11,75,134555,1,2,2:0:0:0:
11,75,134651,1,0,3:0:0:0:
11,75,134747,2,0,L|106:57,1,91,2|2,1:0|2:0,2:0:0:0:
209,113,135132,2,0,L|304:95,1,91,4|4,2:0|2:0,2:0:0:0:
431,64,135516,6,0,B|519:133|476:224|476:224|418:212|418:212|348:216|348:216|412:264,1,364,6|2,1:0|1:0,2:0:0:0:
482,348,136478,2,0,P|420:328|298:355,1,182,2|0,2:0|3:0,2:0:0:0:
269,365,136958,1,0,3:0:0:0:
228,365,137055,6,0,L|137:355,1,91,6|0,1:0|3:0,2:0:0:0:
4,323,137439,1,8,1:0:0:0:
161,191,137728,1,0,3:0:0:0:
161,191,137824,2,0,P|176:127|165:96,1,91,2|0,1:0|3:0,2:0:0:0:
151,73,138112,1,0,3:0:0:0:
147,32,138208,2,0,L|209:20,3,45.5,8|0|0|0,1:0|3:0|3:0|3:0,2:0:0:0:
236,22,138593,6,0,P|288:32|422:17,1,182,6|8,1:0|1:0,2:0:0:0:
502,125,139170,1,2,2:0:0:0:
365,131,139362,2,0,P|343:177|348:243,1,91,2|2,1:0|3:0,2:0:0:0:
494,253,139747,2,0,L|422:195,1,91,8|2,1:0|2:0,2:0:0:0:
257,185,140132,6,0,P|228:144|226:57,2,136.5,6|8|8,1:0|1:0|1:0,2:0:0:0:
337,295,140901,2,0,P|311:339|255:360,1,91,2|0,1:0|2:0,2:0:0:0:
240,353,141189,1,0,3:0:0:0:
203,348,141285,2,0,P|166:336|105:346,1,91,8|0,1:0|3:0,2:0:0:0:
15,247,141670,5,6,1:0:0:0:
138,190,141862,2,0,L|149:129,1,45.5,0|0,3:0|3:0,2:0:0:0:
145,109,142055,2,0,B|137:57|137:57|147:11,1,91,8|2,1:0|2:0,2:0:0:0:
275,60,142439,2,0,B|345:69|345:69|428:49,2,136.5,6|8|0,1:0|1:0|1:0,2:0:0:0:
205,179,143208,6,0,L|201:284,1,91,2|0,1:0|1:0,2:0:0:0:
324,209,143593,2,0,L|327:313,1,91,2|0,1:0|1:0,2:0:0:0:
449,336,143978,1,2,1:0:0:0:
472,307,144074,1,0,3:0:0:0:
487,274,144170,1,0,1:0:0:0:
489,237,144266,1,0,3:0:0:0:
483,201,144362,2,0,P|473:181|469:152,3,45.5,2|0|0|0,1:0|3:0|3:0|3:0,2:0:0:0:
472,121,144747,6,0,P|420:100|286:121,1,182,6|8,1:0|1:0,2:0:0:0:
187,195,145324,1,0,3:0:0:0:
187,195,145420,1,0,3:0:0:0:
187,195,145516,2,0,B|101:168|101:168|145:63,1,182,6|8,1:0|1:0,2:0:0:0:
267,30,146093,1,2,3:0:0:0:
267,30,146189,1,2,3:0:0:0:
267,30,146285,6,0,B|353:57|353:57|321:131,1,136.5,6|2,1:0|3:0,2:0:0:0:
317,131,146670,2,0,P|306:191|327:243,1,91,10|0,1:0|3:0,2:0:0:0:
440,269,147055,2,0,P|451:209|430:157,1,91,2|2,3:0|3:0,2:0:0:0:
313,220,147439,2,0,L|248:228,3,45.5,10|2|2|2,1:0|3:0|3:0|2:0,2:0:0:0:
226,224,147824,6,0,L|114:208,1,91,6|0,1:0|3:0,2:0:0:0:
40,114,148208,2,0,L|152:98,1,91,8|2,1:0|3:0,2:0:0:0:
265,81,148593,2,0,L|327:91,2,45.5,6|2|2,1:0|3:0|3:0,2:0:0:0:
335,198,148978,1,8,1:0:0:0:
470,140,149170,1,2,3:0:0:0:
470,140,149266,1,2,2:0:0:0:
470,140,149362,6,0,P|488:86|484:45,1,91,6|0,1:0|3:0,2:0:0:0:
352,76,149747,2,0,P|308:88|250:73,1,91,8|2,1:0|3:0,2:0:0:0:
230,68,150035,1,2,3:0:0:0:
195,57,150132,2,0,P|168:53|139:57,3,45.5,6|2|2|2,1:0|3:0|3:0|3:0,2:0:0:0:
114,62,150516,2,0,P|74:89|62:202,1,136.5,10|0,1:0|1:0,2:0:0:0:
68,208,150901,6,0,B|134:198|134:198|248:213,1,182,6|8,1:0|1:0,2:0:0:0:
373,269,151478,1,0,3:0:0:0:
373,269,151574,1,0,3:0:0:0:
373,269,151670,2,0,P|420:264|478:151,1,182,2|10,1:0|1:0,2:0:0:0:
226,58,152439,6,0,B|176:74|176:74|46:66,1,182,6|8,1:0|1:0,2:0:0:0:
17,199,153016,1,2,3:0:0:0:
17,199,153112,1,2,3:0:0:0:
17,199,153208,2,0,B|91:184|137:225|215:196,1,182,2|8,1:0|1:0,2:0:0:0:
325,151,153785,1,2,1:0:0:0:
460,172,153978,6,0,P|465:285|416:312,1,182,6|8,1:0|1:0,2:0:0:0:
284,273,154555,1,0,3:0:0:0:
284,273,154651,1,0,3:0:0:0:
284,273,154747,2,0,L|168:266,1,91,6|2,1:0|1:0,2:0:0:0:
86,182,155132,2,0,L|202:175,1,91,10|2,1:0|1:0,2:0:0:0:
312,169,155516,6,0,P|361:158|295:121,1,182,6|8,1:0|1:0,2:0:0:0:
243,246,156093,1,0,3:0:0:0:
237,282,156189,1,0,3:0:0:0:
239,318,156285,2,0,P|260:353|312:367,1,91,2|2,1:0|1:3,2:0:0:0:
400,268,156670,1,10,1:0:0:0:
489,370,156862,1,0,3:0:0:0:
316,282,157055,6,0,B|214:268|214:268|125:289,1,182,6|8,1:0|1:0,2:0:0:0:
13,227,157632,1,2,2:0:0:0:
13,227,157728,1,2,2:0:0:0:
13,227,157824,2,0,B|26:135|26:135|1:113|-10:86,2,136.5,2|8|2,1:3|1:0|3:0,2:0:0:0:
140,177,158593,6,0,B|242:191|242:191|331:170,1,182,6|8,1:0|1:0,2:0:0:0:
426,88,159170,1,2,2:0:0:0:
426,88,159266,1,0,3:0:0:0:
426,88,159362,2,0,L|336:61,1,91,2|2,1:0|2:0,2:0:0:0:
401,183,159747,2,0,L|491:156,1,91,4|4,2:0|2:0,2:0:0:0:
318,172,160132,6,0,B|277:238|322:304|322:304|221:290|221:290|174:306|174:306|130:314|99:263,1,364,6|2,1:0|1:0,2:0:0:0:
43,161,161093,2,0,P|30:113|121:20,1,182,2|0,2:0|3:0,2:0:0:0:
148,30,161574,1,0,3:0:0:0:
183,45,161670,6,0,L|274:34,1,91,6|0,1:0|3:0,2:0:0:0:
303,167,162055,2,0,P|288:229|327:300,1,136.5,8|0,1:0|3:0,2:0:0:0:
350,308,162439,2,0,L|468:289,1,91,2|0,1:0|3:0,2:0:0:0:
476,273,162728,1,0,3:0:0:0:
492,237,162824,2,0,L|503:184,3,45.5,8|0|0|0,1:0|3:0|3:0|3:0,2:0:0:0:
492,157,163208,6,0,B|470:122|495:68|495:68|443:91|389:62,1,182,6|8,1:0|1:0,2:0:0:0:
271,62,163785,1,2,2:0:0:0:
186,169,163978,2,0,L|208:280,1,91,2|2,1:0|3:0,2:0:0:0:
339,258,164362,2,0,L|356:168,1,91,8|2,1:0|2:0,2:0:0:0:
271,62,164747,6,0,B|181:74|181:74|117:59,2,136.5,6|8|8,1:0|1:0|1:0,2:0:0:0:
405,85,165516,2,0,P|432:136|430:190,1,91,2|0,1:0|2:0,2:0:0:0:
426,204,165805,1,0,3:0:0:0:
401,233,165901,2,0,P|354:227|300:237,1,91,8|0,1:0|3:0,2:0:0:0:
209,323,166285,6,0,P|164:329|119:323,1,91,6|0,1:0|3:0,2:0:0:0:
85,308,166574,1,0,3:0:0:0:
66,277,166670,2,0,P|75:225|56:177,1,91,8|2,1:0|2:0,2:0:0:0:
25,57,167055,2,0,B|75:66|112:51|112:51|170:58,2,136.5,6|0|2,1:0|1:0|1:0,2:0:0:0:
153,146,167824,6,0,L|250:136,1,91,2|0,1:0|1:0,2:0:0:0:
319,249,168208,2,0,L|409:258,1,91,2|0,1:0|1:0,2:0:0:0:
484,143,168593,1,2,1:0:0:0:
482,107,168689,1,0,3:0:0:0:
468,74,168785,1,0,1:0:0:0:
439,51,168882,1,0,3:0:0:0:
403,45,168978,2,0,L|354:51,3,45.5,2|0|0|0,1:0|3:0|3:0|3:0,2:0:0:0:
321,47,169362,6,0,B|248:14|213:88|135:35,1,182,6|8,1:0|1:0,2:0:0:0:
25,109,169939,1,0,3:0:0:0:
25,109,170035,1,0,3:0:0:0:
25,109,170132,2,0,B|58:189|58:189|172:187,1,182,6|8,1:0|1:0,2:0:0:0:
293,163,170708,1,2,3:0:0:0:
293,163,170805,1,2,3:0:0:0:
293,163,170901,6,0,B|260:83|260:83|192:85,1,136.5,6|2,1:0|3:0,2:0:0:0:
180,53,171285,2,0,L|294:40,1,91,10|0,1:0|3:0,2:0:0:0:
383,173,171670,2,0,L|269:160,1,91,2|2,3:0|3:0,2:0:0:0:
153,187,172055,2,0,L|88:202,3,45.5,10|2|2|2,1:0|3:0|3:0|2:0,2:0:0:0:
74,204,172439,6,0,P|52:247|64:299,1,91,6|0,1:0|3:0,2:0:0:0:
192,264,172824,2,0,L|288:280,1,91,8|2,1:0|3:0,2:0:0:0:
413,244,173208,2,0,L|470:253,2,45.5,6|2|2,1:0|3:0|3:0,2:0:0:0:
312,150,173593,2,0,P|302:102|319:57,1,91,8|2,1:0|3:0,2:0:0:0:
343,34,173882,1,2,2:0:0:0:
381,18,173978,6,0,P|424:22|476:15,1,91,6|0,1:0|3:0,2:0:0:0:
472,170,174362,2,0,L|372:137,1,91,8|2,1:0|3:0,2:0:0:0:
351,142,174651,1,2,3:0:0:0:
312,150,174747,2,0,L|244:135,3,45.5,6|2|2|2,1:0|3:0|3:0|3:0,2:0:0:0:
232,129,175132,2,0,P|205:121|134:129,1,91,10|2,1:0|2:0,2:0:0:0:
108,138,175420,1,0,2:0:0:0:
70,146,175516,6,0,P|39:133|105:57,1,182,6|8,1:0|1:0,2:0:0:0:
235,56,176093,2,0,L|288:40,2,45.5,0|0|2,3:0|3:0|1:0,2:0:0:0:
318,164,176478,1,0,3:0:0:0:
331,198,176574,1,0,3:0:0:0:
337,233,176670,2,0,P|335:278|314:326,1,91,10|0,1:0|3:0,2:0:0:0:
210,234,177055,6,0,P|136:262|181:327,1,182,6|8,1:0|1:0,2:0:0:0:
317,320,177632,1,2,3:0:0:0:
359,319,177728,1,2,3:0:0:0:
398,329,177824,2,0,L|464:333,3,45.5,2|2|2|2,1:0|2:0|2:0|2:0,2:0:0:0:
486,328,178208,2,0,P|509:286|503:229,1,91,8|2,1:0|1:0,2:0:0:0:
437,126,178593,6,0,B|337:146|337:146|285:144|261:73,1,182,6|8,1:0|1:0,2:0:0:0:
150,44,179170,1,0,3:0:0:0:
150,44,179266,1,0,3:0:0:0:
150,44,179362,2,0,P|94:52|54:75,1,91,6|2,1:0|1:0,2:0:0:0:
76,204,179747,2,0,P|132:196|172:173,1,91,10|2,1:0|1:0,2:0:0:0:
274,102,180132,6,0,L|295:13,2,91,6|2|8,1:0|2:0|1:0,2:0:0:0:
230,236,180708,1,0,3:0:0:0:
226,273,180805,1,0,3:0:0:0:
224,309,180901,2,0,L|237:369,3,45.5,2|0|2|0,1:0|3:0|1:3|3:0,2:0:0:0:
263,375,181285,2,0,P|313:369|367:379,1,91,10|0,1:0|3:0,2:0:0:0:
394,377,181574,1,0,3:0:0:0:
433,366,181670,6,0,P|456:323|414:226,1,136.5,6|2,1:0|3:0,2:0:0:0:
404,218,182055,2,0,B|340:228|340:228|284:217|284:217|220:224,1,182,8|6,1:0|1:0,2:0:0:0:
90,192,182632,1,2,3:0:0:0:
47,62,182824,1,10,1:0:0:0:
193,83,183016,1,0,3:0:0:0:
193,83,183112,1,0,3:0:0:0:
193,83,183208,6,0,L|299:77,1,91,6|2,1:0|3:0,2:0:0:0:
420,63,183593,1,0,1:0:0:0:
368,189,183785,1,2,1:0:0:0:
233,165,183978,1,0,1:0:0:0:
99,193,184170,2,0,L|46:218,1,45.5,2|2,3:0|3:0,2:0:0:0:
25,228,184362,2,0,P|17:273|44:329,1,91,10|2,1:0|2:0,2:0:0:0:
160,363,184747,6,0,L|268:358,1,91,14|2,1:0|3:0,2:0:0:0:
265,217,185132,2,0,L|373:212,1,91,14|2,1:0|3:0,2:0:0:0:
369,73,185516,2,0,L|278:77,1,91,14|2,1:0|3:0,2:0:0:0:
265,217,185901,2,0,L|174:221,1,91,14|2,1:0|3:0,2:0:0:0:
135,222,186189,1,2,3:0:0:0:
96,220,186285,6,0,P|67:182|63:124,1,91,14|2,1:0|3:0,2:0:0:0:
155,42,186670,2,0,P|184:80|188:138,1,91,14|2,1:0|3:0,2:0:0:0:
308,191,187055,2,0,P|361:189|408:147,1,91,14|2,1:0|3:0,2:0:0:0:
414,139,187343,1,0,1:0:0:0:
421,100,187439,2,0,L|332:75,1,91,14|2,1:0|3:0,2:0:0:0:
217,194,187824,6,0,L|319:190,1,91,14|2,1:0|3:0,2:0:0:0:
401,290,188208,2,0,L|517:285,1,91,14|2,1:0|3:0,2:0:0:0:
478,141,188593,2,0,L|387:144,1,91,14|2,1:0|3:0,2:0:0:0:
294,45,188978,2,0,L|203:48,1,91,14|2,1:0|3:0,2:0:0:0:
130,194,189362,6,0,L|173:181,3,45.5,14|0|0|0,1:0|1:0|1:0|1:0,2:0:0:0:
212,182,189747,2,0,L|256:195,3,45.5,14|0|0|0,1:0|1:0|1:0|1:0,2:0:0:0:
292,205,190132,2,0,L|311:163,3,45.5,14|0|0|0,1:0|1:0|1:0|1:0,2:0:0:0:
314,126,190516,2,0,L|294:84,3,45.5,14|0|0|0,1:0|1:0|1:0|1:0,2:0:0:0:
269,50,190901,5,0,1:0:0:0:
255,193,195516,5,0,2:0:0:0:
346,195,197055,6,0,B|377:95|319:33|319:33|247:81|247:81|174:69|174:69|129:131|129:131|156:197|156:197|115:263|146:319|146:319|212:333,1,672,0|0,2:0|2:0,2:0:0:0:
372,308,199747,1,0,2:0:0:0:
300,155,200132,2,0,B|282:95|282:95|292:46|292:46|268:-11,2,168,0|0|0,2:0|2:0|2:0,2:0:0:0:
321,300,202199,2,0,L|197:284,1,126,0|0,2:0|2:0,2:0:0:0:
55,85,203208,6,0,B|227:58|227:58|376:87|376:87|434:54|434:54|485:135|485:135|440:216|440:216|357:187|299:217,1,721,0|0,2:0|2:0,2:0:0:0:
172,264,205997,1,0,2:0:0:0:
30,240,206285,6,0,P|8:124|88:218,1,322,0|0,2:0|2:0,2:0:0:0:
317,326,207920,1,0,2:0:0:0:
502,98,208593,1,0,2:0:0:0:
170,150,209362,6,0,B|112:180|112:180|45:149|45:149|45:62|45:62|139:-7|251:58,1,441,0|0,2:0|2:0,2:0:0:0:
343,189,213064,5,0,2:0:0:0:
