osu file format v14

[General]
AudioFilename: audio.ogg
AudioLeadIn: 0
PreviewTime: 125901
Countdown: 0
SampleSet: Soft
StackLeniency: 0.4
Mode: 0
LetterboxInBreaks: 0
WidescreenStoryboard: 1

[Editor]
Bookmarks: 12439,18978,19747,21670,24747,43208,49362,50901,63208,75516,87824,100132,112439,118593,120132,121670,123208,124747,126285,150901,163785,175516,190901
DistanceSpacing: 0.7
BeatDivisor: 4
GridSize: 8
TimelineZoom: 4.299999

[Metadata]
Title:Babylon
TitleUnicode:Babylon
Artist:BlackY
ArtistUnicode:BlackY
Creator:Jem Bey
Version:garvanturr's Extra
Source:
Tags:BlackmaniYa BlackY's BEATFLOOR electronic instrumental muzie neonat seiioh garvanturr pyth0nix jem bey
BeatmapID:3853807
BeatmapSetID:1737434

[Difficulty]
HPDrainRate:6
CircleSize:4
OverallDifficulty:8.7
ApproachRate:9.2
SliderMultiplier:1.96
SliderTickRate:1

[Events]
//Background and Video events
0,0,"bga.jpg",0,0
//Break Periods
2,49370,50331
//Storyboard Layer 0 (Background)
//Storyboard Layer 1 (Fail)
//Storyboard Layer 2 (Pass)
//Storyboard Layer 3 (Foreground)
//Storyboard Layer 4 (Overlay)
//Storyboard Sound Samples

[TimingPoints]
132,384.615384615385,4,2,1,70,1,0
132,-200,4,2,1,70,0,0
15516,-66.6666666666667,4,2,1,70,0,0
15901,-133.333333333333,4,2,1,70,0,0
18593,-66.6666666666667,4,2,1,70,0,0
19747,-100,4,2,1,70,0,0
20901,-200,4,2,1,70,0,0
21670,-66.6666666666667,4,2,1,70,0,0
22055,-200,4,2,1,70,0,0
22439,-57.1428571428571,4,2,1,70,0,0
22824,-200,4,2,1,70,0,0
24747,-50,4,2,1,70,0,0
25324,-80,4,2,1,70,0,0
26285,-66.6666666666667,4,2,1,70,0,0
26862,-80,4,2,1,70,0,0
27824,-66.6666666666667,4,2,1,70,0,0
28593,-80,4,2,1,70,0,0
28978,-200,4,2,1,70,0,0
30132,-80,4,2,1,70,0,0
30901,-66.6666666666667,4,2,1,70,0,0
31285,-133.333333333333,4,2,1,70,0,0
32055,-66.6666666666667,4,2,1,70,0,0
34747,-100,4,2,1,70,0,0
35132,-66.6666666666667,4,2,1,70,0,0
35516,-50,4,2,1,70,0,0
36478,-400,4,2,1,70,0,0
37055,-50,4,2,1,70,0,0
37439,-80,4,2,1,70,0,0
38593,-66.6666666666667,4,2,1,70,0,0
39170,-80,4,2,1,70,0,0
40132,-66.6666666666667,4,2,1,70,0,0
40901,-80,4,2,1,70,0,0
41285,-200,4,2,1,70,0,0
42439,-80,4,2,1,70,0,0
43208,-50,4,2,1,70,0,0
43978,-80,4,2,1,70,0,0
44650,-80,4,2,1,5,0,0
44747,-80,4,2,1,70,0,0
47055,-66.6666666666667,4,2,1,70,0,0
48016,-57.1428571428571,4,2,1,70,0,0
50901,-33.3333333333333,4,2,17,70,0,0
50925,-33.3333333333333,4,2,1,70,0,0
51189,-33.3333333333333,4,2,1,5,0,0
51285,-100,4,2,1,70,0,0
51670,-50,4,2,1,70,0,0
52247,-100,4,2,1,70,0,0
52824,-50,4,2,1,70,0,0
53208,-33.3333333333333,4,2,1,70,0,0
53593,-200,4,2,1,70,0,0
53978,-66.6666666666667,4,2,1,70,0,0
54747,-40,4,2,1,70,0,0
55132,-50,4,2,1,70,0,0
56285,-100,4,2,1,70,0,0
57055,-100,4,2,17,70,0,0
57079,-100,4,2,1,70,0,0
57439,-66.6666666666667,4,2,1,70,0,0
57824,-40,4,2,1,70,0,0
58305,-80,4,2,1,70,0,0
59074,-57.1428571428571,4,2,1,70,0,0
59747,-57.1428571428571,4,3,5,70,0,0
59772,-57.1428571428571,4,2,1,70,0,0
60132,-50,4,2,17,70,0,0
60516,-75.187969924812,4,2,17,70,0,0
60901,-50,4,2,1,70,0,0
61766,-66.6666666666667,4,2,1,70,0,0
62439,-50,4,2,1,70,0,0
62632,-57.1428571428571,4,2,1,70,0,0
63208,-33.3333333333333,4,2,17,70,0,0
63496,-33.3333333333333,4,2,1,5,0,0
63593,-100,4,2,17,70,0,0
63978,-50,4,2,1,70,0,0
64555,-100,4,2,1,70,0,0
65132,-50,4,2,1,70,0,0
65516,-33.3333333333333,4,2,1,70,0,0
66285,-66.6666666666667,4,2,1,70,0,0
67055,-40,4,2,1,70,0,0
67439,-50,4,2,1,70,0,0
68528,-50,4,2,1,5,0,0
68593,-100,4,2,1,70,0,0
69170,-66.6666666666667,4,2,1,70,0,0
69362,-100,4,2,1,70,0,0
69747,-66.6666666666667,4,2,1,70,0,0
70132,-40,4,2,1,70,0,0
70612,-80,4,2,1,70,0,0
71382,-57.1428571428571,4,2,1,70,0,0
72055,-57.1428571428571,4,2,5,70,0,0
72103,-57.1428571428571,4,2,1,70,0,0
72439,-50,4,2,17,70,0,0
72727,-50,4,2,1,5,0,0
72824,-75.187969924812,4,2,17,70,0,0
73112,-75.187969924812,4,2,1,5,0,0
73208,-50,4,2,1,70,0,0
73978,-66.6666666666667,4,2,1,70,0,0
74939,-50,4,2,1,70,0,0
75516,-44.4444444444445,4,2,1,70,0,0
76958,-44.4444444444445,4,2,1,5,0,0
77055,-40,4,2,1,70,0,0
77632,-200,4,2,1,70,0,0
78208,-40,4,2,1,70,0,0
78593,-36.3636363636364,4,2,1,70,0,0
78785,-36.3636363636364,4,2,1,5,0,0
78882,-66.6666666666667,4,2,1,70,0,0
79362,-36.3636363636364,4,2,1,70,0,0
79747,-66.6666666666667,4,2,1,70,0,0
81670,-44.4444444444445,4,2,1,70,0,0
81958,-44.4444444444445,4,2,1,5,0,0
82055,-44.4444444444445,4,2,1,70,0,0
82343,-44.4444444444445,4,2,1,5,0,0
82439,-44.4444444444445,4,2,1,70,0,0
82632,-200,4,2,1,70,0,0
82920,-66.6666666666667,4,2,1,70,0,0
83689,-57.1428571428571,4,2,1,70,0,0
84747,-36.3636363636364,4,2,1,70,0,0
85132,-50,4,2,1,70,0,0
85516,-33.3333333333333,4,2,1,70,0,0
85708,-200,4,2,1,70,0,0
86478,-66.6666666666667,4,2,1,70,0,0
87055,-33.3333333333333,4,2,1,70,0,0
87247,-400,4,2,1,70,0,0
87824,-40,4,2,1,70,0,0
88016,-50,4,2,1,70,0,0
88208,-66.6666666666667,4,2,1,70,0,0
88401,-200,4,2,1,70,0,0
88978,-50,4,2,1,70,0,0
89170,-44.4444444444445,4,2,1,70,0,0
89362,-40,4,2,1,70,0,0
89555,-50,4,2,1,70,0,0
89747,-66.6666666666667,4,2,1,70,0,0
90132,-33.3333333333333,4,2,1,70,0,0
90516,-66.6666666666667,4,2,1,70,0,0
90708,-50,4,2,1,70,0,0
90901,-40,4,2,1,70,0,0
91093,-50,4,2,1,70,0,0
91285,-66.6666666666667,4,2,1,70,0,0
91478,-400,4,2,1,70,0,0
91670,-40,4,2,1,70,0,0
92055,-50,4,2,1,70,0,0
92311,-200,4,2,1,70,0,0
92439,-40,4,2,1,70,0,0
92632,-50,4,2,1,70,0,0
92824,-66.6666666666667,4,2,1,70,0,0
93016,-400,4,2,1,70,0,0
93593,-66.6666666666667,4,2,1,70,0,0
93849,-44.4444444444445,4,2,1,70,0,0
93978,-40,4,2,1,70,0,0
94170,-50,4,2,1,70,0,0
94362,-66.6666666666667,4,2,1,70,0,0
94619,-400,4,2,1,70,0,0
94747,-40,4,2,1,70,0,0
95132,-50,4,2,1,70,0,0
95324,-44.4444444444445,4,2,1,70,0,0
95516,-40,4,2,1,70,0,0
95805,-50,4,2,1,70,0,0
96093,-400,4,2,1,70,0,0
96285,-33.3333333333333,4,2,1,70,0,0
96478,-133.333333333333,4,2,1,70,0,0
96670,-50,4,2,1,70,0,0
96862,-44.4444444444445,4,2,1,70,0,0
97055,-40,4,2,1,70,0,0
97247,-50,4,2,1,70,0,0
97439,-66.6666666666667,4,2,1,70,0,0
97632,-400,4,2,1,70,0,0
97824,-33.3333333333333,4,2,1,70,0,0
98208,-50,4,2,1,70,0,0
98401,-44.4444444444445,4,2,1,70,0,0
99362,-400,4,2,1,70,0,0
100132,-200,4,2,1,70,0,0
100805,-200,4,2,1,5,0,0
100901,-200,4,2,1,70,0,0
101093,-200,4,2,1,5,0,0
101285,-200,4,2,1,70,0,0
101477,-200,4,2,1,5,0,0
101670,-200,4,2,1,70,0,0
105227,-200,4,2,1,5,0,0
105324,-200,4,2,1,70,0,0
106765,-200,4,2,1,5,0,0
106862,-200,4,2,1,70,0,0
112439,-66.6666666666667,4,2,1,70,0,0
112727,-66.6666666666667,4,2,1,5,0,0
112824,-66.6666666666667,4,2,1,70,0,0
113016,-100,4,2,1,70,0,0
113208,-80,4,2,1,70,0,0
114747,-100,4,2,1,70,0,0
115516,-66.6666666666667,4,2,1,70,0,0
115804,-66.6666666666667,4,2,1,5,0,0
115901,-100,4,2,1,70,0,0
116093,-80,4,2,1,70,0,0
116670,-133.333333333333,4,2,1,70,0,0
117055,-100,4,2,1,70,0,0
118496,-100,4,2,1,5,0,0
118593,-66.6666666666667,4,2,1,70,0,0
120132,-57.1428571428571,4,2,1,70,0,0
120901,-100,4,2,1,70,0,0
121285,-66.6666666666667,4,2,1,70,0,0
121670,-100,4,2,1,70,0,0
123208,-66.6666666666667,4,2,1,70,0,0
125901,-133.333333333333,4,2,1,70,0,0
126285,-133.333333333333,4,2,1,70,0,1
127055,-57.1428571428571,4,2,1,70,0,1
129747,-200,4,2,1,70,0,1
130132,-57.1428571428571,4,2,1,70,0,1
132247,-66.6666666666667,4,2,1,70,0,1
133208,-57.1428571428571,4,2,1,70,0,1
135132,-44.4444444444445,4,2,1,70,0,1
136670,-66.6666666666667,4,2,1,70,0,1
138593,-50,4,2,1,70,0,1
138881,-50,4,2,1,5,0,1
138978,-66.6666666666667,4,2,1,70,0,1
139170,-50,4,2,1,70,0,1
140132,-40,4,2,1,70,0,1
140324,-40,4,2,1,5,0,1
140420,-40,4,2,1,70,0,1
140708,-200,4,2,1,70,0,1
140901,-40,4,2,1,70,0,1
141478,-66.6666666666667,4,2,1,70,0,1
142439,-40,4,2,1,70,0,1
142824,-80,4,2,1,70,0,1
143208,-66.6666666666667,4,2,1,70,0,1
146285,-57.1428571428571,4,2,1,70,0,1
147824,-44.4444444444445,4,2,1,70,0,1
149555,-100,4,2,1,70,0,1
150901,-57.1428571428571,4,2,1,70,0,1
154362,-200,4,2,1,70,0,1
154747,-57.1428571428571,4,2,1,70,0,1
156862,-66.6666666666667,4,2,1,70,0,1
157824,-57.1428571428571,4,2,1,70,0,1
159747,-44.4444444444445,4,2,1,70,0,1
161285,-66.6666666666667,4,2,1,70,0,1
163208,-50,4,2,1,70,0,1
164747,-40,4,2,1,70,0,1
164939,-40,4,2,1,5,0,1
165035,-40,4,2,1,70,0,1
165324,-200,4,2,1,70,0,1
165516,-40,4,2,1,70,0,1
166093,-66.6666666666667,4,2,1,70,0,1
167055,-40,4,2,1,70,0,1
167439,-80,4,2,1,70,0,1
167824,-66.6666666666667,4,2,1,70,0,1
170901,-80,4,2,1,70,0,1
172439,-44.4444444444445,4,2,1,70,0,1
174170,-100,4,2,1,70,0,1
176285,-57.1428571428571,4,2,1,70,0,1
177247,-100,4,2,1,70,0,1
177439,-57.1428571428571,4,2,1,70,0,1
180324,-100,4,2,1,70,0,1
180516,-57.1428571428571,4,2,1,70,0,1
180901,-40,4,2,1,70,0,1
183208,-50,4,2,1,70,0,1
183401,-200,4,2,1,70,0,1
183593,-50,4,2,1,70,0,1
183785,-200,4,2,1,70,0,1
183978,-40,4,2,1,70,0,1
184170,-200,4,2,1,70,0,1
184362,-100,4,2,1,70,0,1
184555,-200,4,2,1,70,0,1
184747,-66.6666666666667,4,2,1,70,0,1
190901,-200,4,2,1,40,0,0
195324,-200,4,2,1,5,0,0
195420,-200,4,2,1,40,0,0
199651,-200,4,2,1,5,0,0
199747,-200,4,2,1,40,0,0
200708,-400,4,2,1,40,0,0
203496,-400,4,2,1,5,0,0
203593,-250,4,2,1,40,0,0
206285,-333.333333333333,4,2,1,40,0,0
209362,-1000,4,2,1,40,0,0
213064,-1000,4,2,1,30,0,0

[Colours]
Combo1 : 102,158,253
Combo2 : 54,88,248
Combo3 : 0,215,215

[HitObjects]
16,97,132,6,0,B|97:178|226:73|243:-49|-2:-8|116:146,1,392,0|0,2:0|2:0,2:0:0:0:
28,273,2439,1,0,2:0:0:0:
28,273,3208,6,0,P|112:258|237:242,1,196,0|0,2:0|2:0,2:0:0:0:
406,318,4747,2,0,B|404:343|421:369|421:369|348:335|266:332|266:332|277:236|354:278|363:182,1,392,0|0,2:0|2:0,2:0:0:0:
252,25,7055,6,0,P|256:64|259:104,2,73.5,0|0|0,2:0|2:0|2:0,2:0:0:0:
178,90,7824,1,0,2:0:0:0:
323,301,8593,1,0,2:0:0:0:
253,358,9362,6,0,B|194:343|194:343|181:323|181:323|62:335,3,196,0|0|0|0,2:0|2:0|2:0|2:0,2:0:0:0:
489,137,12247,1,0,1:0:0:0:
512,0,12439,5,4,1:0:0:0:
512,0,12824,5,2,3:0:0:0:
488,6,12920,1,2,2:0:0:0:
459,19,13016,1,2,2:0:0:0:
431,37,13112,1,2,2:0:0:0:
403,64,13208,1,2,2:0:0:0:
380,102,13305,1,2,2:0:0:0:
349,143,13401,1,2,2:0:0:0:
298,170,13497,1,2,2:0:0:0:
242,160,13593,1,2,2:0:0:0:
215,124,13689,1,2,2:0:0:0:
215,86,13785,1,2,2:0:0:0:
231,68,13882,1,2,2:0:0:0:
244,62,13978,6,0,P|267:67|296:78,1,49,2|0,3:0|2:0,2:0:0:0:
433,255,14362,1,2,3:0:0:0:
456,264,14458,1,2,2:0:0:0:
478,285,14555,1,2,2:0:0:0:
490,319,14651,1,2,2:0:0:0:
485,353,14747,1,2,2:0:0:0:
459,383,14843,1,2,2:0:0:0:
413,383,14939,1,2,2:0:0:0:
374,348,15035,1,2,2:0:0:0:
353,295,15132,1,2,2:0:0:0:
331,251,15228,1,2,2:0:0:0:
300,219,15324,1,2,2:0:0:0:
272,203,15420,1,2,2:0:0:0:
253,198,15516,6,0,B|158:196|92:262|197:326|216:231|158:196,1,220.5,4|0,1:0|2:0,2:0:0:0:
84,142,15901,2,0,P|88:167|90:180,3,36.7500000000001,2|0|0|0,3:0|2:0|2:0|2:0,2:0:0:0:
37,38,16285,5,2,2:0:0:0:
61,55,16382,1,2,2:0:0:0:
95,69,16478,1,2,2:0:0:0:
135,76,16574,1,2,2:0:0:0:
172,70,16670,1,2,3:0:0:0:
209,48,16766,1,2,3:0:0:0:
250,32,16862,1,2,3:0:0:0:
297,32,16958,1,2,2:0:0:0:
346,52,17055,5,4,1:0:0:0:
299,47,17151,1,2,2:0:0:0:
257,78,17247,1,2,2:0:0:0:
237,126,17343,1,2,2:0:0:0:
244,178,17439,1,2,3:0:0:0:
278,218,17535,1,2,3:0:0:0:
324,235,17632,1,2,3:0:0:0:
367,230,17728,1,2,3:0:0:0:
400,208,17824,2,0,P|397:186|392:168,1,36.7500000000001,0|2,1:0|2:0,2:0:0:0:
512,164,18016,1,2,2:0:0:0:
502,154,18112,1,2,2:0:0:0:
493,160,18208,2,0,P|486:197|479:256,1,73.5000000000002,2|2,2:0|3:0,2:0:0:0:
397,307,18593,6,0,P|382:198|358:91,1,220.5,4|2,1:0|2:0,2:0:0:0:
227,50,18978,1,2,2:0:0:0:
237,52,19074,1,2,2:0:0:0:
234,43,19170,1,2,2:0:0:0:
229,57,19266,1,2,2:0:0:0:
268,23,19362,1,0,1:0:0:0:
261,65,19458,1,2,3:0:0:0:
255,110,19555,1,2,3:0:0:0:
247,161,19651,1,2,3:0:0:0:
237,217,19747,6,0,P|161:229|92:250,1,147,2|0,3:0|2:0,2:0:0:0:
17,214,20132,5,4,1:0:0:0:
10,273,20228,1,2,2:0:0:0:
31,318,20324,1,2,2:0:0:0:
67,350,20420,1,2,2:0:0:0:
108,360,20516,1,2,2:0:0:0:
145,355,20612,1,2,2:0:0:0:
169,342,20708,1,2,2:0:0:0:
182,324,20805,1,2,2:0:0:0:
182,302,20901,2,0,P|178:284|173:268,3,24.5,0|2|2|2,1:0|3:0|3:0|3:0,2:0:0:0:
288,338,21285,2,0,P|292:349|294:361,3,24.5,2|0|0|0,3:0|2:0|3:0|2:0,2:0:0:0:
422,266,21670,6,0,B|388:241|367:173|367:173|370:244|346:280,1,220.5,4|2,1:0|2:0,2:0:0:0:
394,341,22055,2,0,P|390:352|388:364,3,24.5,0|2|2|2,1:0|2:0|2:0|2:0,2:0:0:0:
422,266,22439,6,0,B|470:191|361:117|278:219|347:280,1,257.25,4|2,1:0|3:0,2:0:0:0:
367,170,22824,2,0,P|361:144|357:132,1,24.5,2|0,3:0|2:0,2:0:0:0:
326,4,23016,2,0,P|332:30|336:42,1,24.5,0|0,3:0|2:0,2:0:0:0:
482,41,23208,5,4,1:0:0:0:
441,43,23305,1,2,2:0:0:0:
416,58,23401,1,0,1:0:0:0:
405,74,23497,1,2,2:0:0:0:
361,146,23593,5,2,1:0:0:0:
350,130,23689,1,2,2:0:0:0:
325,115,23785,1,2,1:0:0:0:
284,113,23882,1,2,2:0:0:0:
224,186,23978,5,4,1:0:0:0:
151,188,24074,1,2,3:0:0:0:
85,157,24170,1,2,3:0:0:0:
40,99,24266,1,2,3:0:0:0:
33,16,24362,5,2,3:0:0:0:
37,4,24458,1,0,3:0:0:0:
44,12,24555,1,0,3:0:0:0:
29,9,24651,1,0,3:0:0:0:
40,99,24747,6,0,B|150:227|281:64|90:43|83:175,1,294,4|0,1:0|2:0,2:0:0:0:
115,364,25132,1,0,1:0:0:0:
115,364,25228,1,2,2:0:0:0:
115,364,25324,2,0,P|110:316|102:281,1,61.25,2|2,2:0|2:0,2:0:0:0:
38,274,25516,5,0,1:0:0:0:
52,249,25612,1,2,2:0:0:0:
92,230,25708,1,2,2:0:0:0:
143,235,25805,1,2,2:0:0:0:
184,302,25901,5,0,1:0:0:0:
227,328,25997,1,2,2:0:0:0:
271,327,26093,1,2,2:0:0:0:
294,312,26189,1,2,2:0:0:0:
302,296,26285,6,0,B|409:304|409:304|402:308|402:308|507:317,1,220.5,4|0,1:0|2:0,2:0:0:0:
397,222,26670,1,0,1:0:0:0:
397,222,26766,1,2,2:0:0:0:
397,222,26862,2,0,P|404:262|407:290,1,61.25,2|2,2:0|2:0,2:0:0:0:
243,243,27055,5,0,1:0:0:0:
253,212,27151,1,2,2:0:0:0:
283,178,27247,1,2,2:0:0:0:
332,156,27343,1,2,2:0:0:0:
421,142,27439,5,0,1:0:0:0:
471,124,27535,1,2,2:0:0:0:
503,88,27632,1,2,2:0:0:0:
511,46,27728,1,2,2:0:0:0:
501,20,27824,6,0,P|392:43|273:76,1,220.5,4|0,1:0|2:0,2:0:0:0:
125,17,28208,1,0,1:0:0:0:
129,32,28305,1,2,2:0:0:0:
135,21,28401,1,2,2:0:0:0:
118,26,28497,1,2,2:0:0:0:
200,75,28593,6,0,P|197:105|198:138,1,61.25,0|2,1:0|2:0,2:0:0:0:
79,102,28785,2,0,P|94:127|104:156,1,61.25,2|2,2:0|2:0,2:0:0:0:
165,211,28978,2,0,L|172:244,3,24.5,0|2|2|2,1:0|3:0|3:0|2:0,2:0:0:0:
301,181,29362,5,4,1:0:0:0:
290,236,29458,1,2,2:0:0:0:
261,278,29555,1,2,2:0:0:0:
225,309,29651,1,2,2:0:0:0:
133,321,29747,5,0,1:0:0:0:
99,289,29843,1,2,3:0:0:0:
70,273,29939,1,2,3:0:0:0:
53,267,30035,1,2,3:0:0:0:
36,264,30132,6,0,P|46:297|56:340,3,61.25,0|2|2|2,1:0|2:0|2:0|2:0,2:0:0:0:
64,190,30516,2,0,P|55:169|48:129,1,61.25,0|2,1:0|2:0,2:0:0:0:
82,5,30708,2,0,P|92:24|96:71,1,61.25,2|0,3:0|2:0,2:0:0:0:
223,153,30901,6,0,B|293:113|258:-8|143:34|178:87,1,220.5,4|2,1:0|2:0,2:0:0:0:
189,163,31285,2,0,P|207:187|243:190,3,36.7500000000001,0|2|2|2,1:0|2:0|2:0|2:0,2:0:0:0:
512,26,31670,1,0,1:0:0:0:
502,64,31766,1,2,3:0:0:0:
491,114,31862,1,2,3:0:0:0:
481,170,31958,1,2,3:0:0:0:
473,227,32055,2,0,P|386:238|245:271,1,220.5,0|0,1:0|2:0,2:0:0:0:
315,341,32439,5,4,1:0:0:0:
259,354,32535,1,2,2:0:0:0:
206,333,32632,1,2,2:0:0:0:
180,286,32728,1,2,2:0:0:0:
193,192,32824,5,0,1:0:0:0:
165,153,32920,1,2,2:0:0:0:
141,136,33016,1,2,2:0:0:0:
116,128,33112,1,2,2:0:0:0:
92,129,33208,6,0,P|50:138|10:151,1,73.5,0|2,1:0|3:0,2:0:0:0:
0,62,33401,2,0,P|35:54|71:43,1,73.5,2|2,3:0|3:0,2:0:0:0:
150,10,33593,2,0,P|136:87|122:241,1,220.5,0|0,1:0|2:0,2:0:0:0:
24,321,33978,5,4,1:0:0:0:
19,305,34074,1,0,2:0:0:0:
32,312,34170,1,0,2:0:0:0:
13,316,34266,1,2,2:0:0:0:
58,265,34362,5,0,1:0:0:0:
68,287,34458,1,2,2:0:0:0:
79,320,34555,1,2,2:0:0:0:
90,369,34651,1,2,2:0:0:0:
121,331,34747,6,0,P|149:336|172:343,1,49,0|0,1:0|2:0,2:0:0:0:
267,248,34939,2,0,P|239:253|216:260,1,49,2|2,3:0|3:0,2:0:0:0:
318,353,35132,2,0,B|297:248|416:269|384:147,1,220.5,0|0,1:0|2:0,2:0:0:0:
407,8,35516,6,0,B|394:0|394:0|413:85,2,98,4|2|0,1:0|2:0|1:0,2:0:0:0:
308,28,35805,2,0,B|316:15|316:15|333:100,2,98,2|0|2,2:0|1:0|2:0,2:0:0:0:
407,8,36093,6,0,B|394:0|394:0|413:85,1,98,2|2,1:0|2:0,2:0:0:0:
386,156,36285,5,0,1:0:0:0:
300,181,36382,1,2,3:0:0:0:
226,143,36478,2,0,L|221:127,1,12.25,2|2,3:0|3:0,2:0:0:0:
145,158,36670,5,0,1:0:0:0:
483,221,36862,1,0,3:0:0:0:
483,221,37055,6,0,B|349:283|350:420|506:359|393:259,1,294,4|0,1:0|2:0,2:0:0:0:
291,300,37439,2,0,P|298:332|301:362,3,61.25,0|2|2|2,1:0|2:0|2:0|2:0,2:0:0:0:
327,221,37824,5,0,1:0:0:0:
296,206,37920,1,2,2:0:0:0:
256,210,38016,1,2,2:0:0:0:
219,246,38112,1,2,2:0:0:0:
177,332,38208,5,0,1:0:0:0:
137,363,38305,1,2,2:0:0:0:
97,365,38401,1,2,2:0:0:0:
68,350,38497,1,2,2:0:0:0:
55,338,38593,6,0,B|74:228|74:228|78:234|78:234|98:117,1,220.5,4|0,1:0|2:0,2:0:0:0:
15,19,38978,1,0,1:0:0:0:
15,19,39074,1,2,2:0:0:0:
15,19,39170,2,0,P|20:52|24:84,1,61.25,2|2,2:0|2:0,2:0:0:0:
102,51,39362,5,0,1:0:0:0:
133,49,39458,1,2,2:0:0:0:
178,58,39555,1,2,2:0:0:0:
224,87,39651,1,2,2:0:0:0:
296,145,39747,5,0,1:0:0:0:
348,150,39843,1,2,2:0:0:0:
395,137,39939,1,2,2:0:0:0:
421,115,40035,1,2,2:0:0:0:
436,97,40132,6,0,B|518:204|475:267|420:208|492:151,1,220.5,4|0,1:0|2:0,2:0:0:0:
347,53,40516,1,0,1:0:0:0:
346,69,40612,1,2,2:0:0:0:
337,61,40708,1,2,2:0:0:0:
358,61,40805,1,2,2:0:0:0:
295,145,40901,6,0,P|265:142|232:143,1,61.25,0|2,1:0|2:0,2:0:0:0:
268,19,41093,2,0,P|243:34|214:43,1,61.25,2|2,2:0|2:0,2:0:0:0:
150,111,41285,2,0,L|116:117,3,24.5,0|2|2|2,1:0|3:0|3:0|2:0,2:0:0:0:
23,22,41670,5,4,1:0:0:0:
59,53,41766,1,2,2:0:0:0:
91,96,41862,1,2,2:0:0:0:
111,153,41958,1,2,2:0:0:0:
108,251,42055,5,0,1:0:0:0:
74,219,42151,1,2,3:0:0:0:
45,203,42247,1,2,3:0:0:0:
28,197,42343,1,2,3:0:0:0:
11,193,42439,6,0,P|4:226|-2:271,3,61.25,0|2|2|2,1:0|2:0|2:0|2:0,2:0:0:0:
10,343,42824,2,0,P|74:354|177:287,1,183.75,0|0,1:0|2:0,2:0:0:0:
264,8,43208,6,0,P|259:119|250:308,1,294,4|2,1:0|2:0,2:0:0:0:
258,384,43593,1,0,1:0:0:0:
270,377,43689,1,2,2:0:0:0:
252,378,43785,1,2,2:0:0:0:
274,384,43882,1,2,2:0:0:0:
261,372,43978,2,0,P|257:348|242:309,1,61.25,0|2,1:0|3:0,2:0:0:0:
378,303,44170,2,0,P|368:347|367:365,1,61.25,2|2,3:0|3:0,2:0:0:0:
308,253,44362,2,0,B|326:150|372:197|386:89,1,183.75,0|0,1:0|2:0,2:0:0:0:
378,303,44747,5,4,1:0:0:0:
434,320,44843,1,2,2:0:0:0:
486,302,44939,1,2,2:0:0:0:
500,257,45035,1,2,2:0:0:0:
491,217,45132,1,0,1:0:0:0:
468,196,45228,1,2,2:0:0:0:
447,192,45324,1,2,2:0:0:0:
436,196,45420,1,2,2:0:0:0:
434,204,45516,1,0,1:0:0:0:
437,210,45612,1,2,3:0:0:0:
444,209,45708,1,2,3:0:0:0:
445,201,45805,1,2,3:0:0:0:
439,197,45901,1,0,1:0:0:0:
432,196,45997,1,0,2:0:0:0:
424,198,46093,1,0,3:0:0:0:
413,205,46189,1,0,2:0:0:0:
401,210,46285,6,0,P|371:204|331:190,1,61.25,4|2,1:0|2:0,2:0:0:0:
118,181,46478,2,0,P|164:189|190:196,1,61.25,2|2,2:0|2:0,2:0:0:0:
259,372,46670,5,0,1:0:0:0:
259,372,46766,1,2,2:0:0:0:
259,372,46862,2,0,P|261:333|275:284,1,61.25,2|2,2:0|2:0,2:0:0:0:
253,12,47055,6,0,P|242:48|236:105,1,73.5,0|2,1:0|3:0,2:0:0:0:
413,279,47247,2,0,P|389:253|341:218,1,73.5,2|2,3:0|3:0,2:0:0:0:
101,284,47439,2,0,P|142:276|190:252,2,73.5,0|0|0,1:0|2:0|3:0,2:0:0:0:
21,125,47728,1,0,2:0:0:0:
20,135,47824,5,4,1:0:0:0:
74,199,47920,1,2,2:0:0:0:
146,155,48016,2,0,P|153:133|156:110,2,42.875,2|0|2,3:0|3:0|3:0,2:0:0:0:
160,185,48208,5,2,2:0:0:0:
233,131,48305,1,2,2:0:0:0:
310,174,48401,2,0,P|317:195|320:219,2,42.875,2|0|2,3:0|3:0|3:0,2:0:0:0:
327,162,48593,5,0,1:0:0:0:
417,200,48689,1,2,3:0:0:0:
488,139,48785,1,2,3:0:0:0:
399,102,48882,1,2,3:0:0:0:
476,46,48978,2,0,P|486:23|488:-6,4,42.875,2|0|2|0|0,3:0|3:0|3:0|2:0|3:0,2:0:0:0:
0,363,50901,6,0,B|79:352|79:352|93:302|93:302|288:355|288:355|302:342|302:342|411:329,1,441,4|0,1:2|2:0,2:0:0:0:
237,236,51285,2,0,B|176:233|176:233|276:259,1,147,0|0,1:0|2:0,2:0:0:0:
365,235,51670,6,0,L|389:331,1,98,8|0,1:0|2:0,2:0:0:0:
472,203,51862,1,0,3:0:0:0:
472,203,51958,1,0,3:0:0:0:
472,203,52055,2,0,B|497:100|497:100|457:67,1,147,8|0,1:0|2:0,2:0:0:0:
374,97,52247,2,0,B|376:114|376:114|410:128,1,49,0|0,3:0|2:0,2:0:0:0:
206,300,52632,5,0,3:0:0:0:
206,300,52696,5,0,3:0:0:0:
206,300,52760,5,0,3:0:0:0:
206,300,52824,6,0,B|174:266|174:266|99:282,3,98,0|0|0|0,1:0|2:0|1:0|2:0,2:0:0:0:
376,257,53208,6,0,B|224:278|224:278|177:221|177:221|103:235|103:235|81:309|81:309|122:374,1,441,8|2,1:0|2:0,2:0:0:0:
275,369,53593,2,0,L|279:351,1,12.25,2|0,2:0|2:0,2:0:0:0:
275,369,53689,2,0,L|257:365,1,12.25,2|0,2:0|2:0,2:0:0:0:
275,369,53785,2,0,L|271:387,1,12.25,2|0,2:0|2:0,2:0:0:0:
275,369,53882,2,0,L|293:373,1,12.25,2|0,2:0|2:0,2:0:0:0:
275,369,53978,6,0,L|444:343,1,147,0|0,1:0|2:0,2:0:0:0:
469,284,54266,2,0,L|449:187,1,73.5,0|0,1:0|2:0,2:0:0:0:
438,122,54458,1,0,1:0:0:0:
436,136,54555,2,0,L|417:56,1,73.5,0|0,1:0|2:0,2:0:0:0:
453,0,54747,6,0,B|494:41|483:109|371:128|344:67|363:13,1,245,8|0,1:0|3:0,2:0:0:0:
258,207,55035,1,0,3:0:0:0:
258,207,55132,2,0,B|337:218|337:218|364:159,1,130.666666666667,0|0,1:0|1:0,2:0:0:0:
337,97,55388,1,0,1:0:0:0:
84,164,55708,5,0,3:0:0:0:
84,164,55773,5,0,2:0:0:0:
84,164,55837,5,0,2:0:0:0:
84,164,55901,6,2,B|164:237|300:89|142:-40|100:125|235:155,1,294,2|0,1:3|2:0,2:3:0:0:
324,305,56285,6,0,P|335:281|359:262,1,32.6666666666667,10|0,1:0|2:0,2:0:0:0:
256,238,56414,6,0,L|261:199,1,32.6666666666667,2|0,2:0|2:0,2:0:0:0:
172,283,56542,6,0,P|167:262|157:247,1,32.6666666666667,2|0,2:0|2:0,2:0:0:0:
233,339,56670,5,2,3:0:0:0:
249,343,56766,1,2,3:0:0:0:
243,330,56862,1,2,3:0:0:0:
238,348,56958,1,2,3:0:0:0:
173,290,57055,6,0,P|154:292|133:305,2,32.6666666666667,2|0|0,1:3|2:0|2:0,2:0:0:0:
82,377,57247,2,0,P|76:336|59:298,1,65.3333333333333,2|0,1:3|2:0,2:0:0:0:
62,184,57439,6,0,P|69:165|90:139,1,49,0|0,1:0|2:0,2:0:0:0:
54,197,57567,6,0,P|34:200|1:195,1,49,0|0,1:0|2:0,2:0:0:0:
72,198,57696,6,0,P|84:213|96:244,1,49,0|0,1:0|2:0,2:0:0:0:
152,176,57824,6,0,B|191:170|191:170|202:154|202:154|311:187|311:187|340:161|340:161|382:155,2,245,8|0|0,1:0|3:0|2:0,2:0:0:0:
290,98,58305,6,0,P|283:55|269:11,1,61.25,0|0,1:0|2:0,2:0:0:0:
419,17,58497,2,0,P|426:60|439:104,1,61.25,0|0,1:0|2:0,2:0:0:0:
291,99,58689,2,0,P|264:75|233:71,1,61.25,0|0,1:0|2:0,2:0:0:0:
431,78,58882,2,0,P|440:60|454:51,2,30.625,0|0|0,1:0|2:0|1:0,2:0:0:0:
372,156,59074,6,0,L|391:255,2,85.7500000000001,0|0|0,2:0|1:0|2:0,2:0:0:0:
369,139,59362,1,8,1:0:0:0:
389,289,59555,2,0,B|400:314|400:314|408:312|408:312|403:256,1,85.7500000000001,0|0,1:0|2:0,2:0:0:0:
353,56,59747,6,0,L|345:11,6,42.875,8|0|0|0|0|0|0,1:3|2:3|2:3|2:3|2:3|2:3|2:3,0:0:0:0:
445,111,60132,6,0,B|434:129|434:129|285:131|199:255,1,294,0|0,1:2|2:0,2:0:0:0:
76,169,60516,2,0,B|74:155|74:155|153:96|152:-3,1,195.51,0|0,1:0|2:0,2:0:0:0:
285,130,60901,6,0,B|258:184|274:244,1,98,8|0,1:0|2:0,2:0:0:0:
116,233,61093,2,0,P|109:167|36:19,1,196,0|0,1:0|2:0,2:0:0:0:
28,365,61478,6,0,P|30:334|40:308,4,49,0|0|0|0|0,1:0|1:0|1:0|2:0|1:0,2:0:0:0:
28,365,61766,6,0,B|43:381|43:381|124:355,1,73.5,0|0,2:0|2:0,2:0:0:0:
285,366,61958,2,0,B|276:354|276:354|210:337,1,73.5,0|0,1:0|2:0,2:0:0:0:
108,380,62151,2,0,P|131:349|138:309,2,73.5,0|0|0,1:0|1:0|1:0,2:0:0:0:
213,314,62439,6,0,B|214:325|214:325|314:349,1,98,10|0,1:0|2:0,2:0:0:0:
406,359,62632,2,2,B|493:373|493:373|502:366|502:366|523:254|523:254|511:231|511:231|410:250|410:250|408:256|408:256|395:336,1,428.75,0|0,1:0|2:1,2:1:0:0:
472,225,63208,6,0,B|453:222|453:222|434:32|434:32|397:68|397:68|447:224|447:224|422:240,1,441,4|0,1:2|2:0,2:0:0:0:
300,303,63593,2,0,B|298:369|298:369|303:372|303:372|317:299,1,147,0|0,1:0|2:0,2:0:0:0:
308,173,63978,6,0,P|267:188|218:222,1,98,8|0,1:0|2:0,2:0:0:0:
143,114,64170,1,0,3:0:0:0:
143,114,64266,1,0,3:0:0:0:
143,114,64362,2,0,B|184:119|184:119|178:112|178:112|111:95,1,98,8|0,1:0|2:0,2:0:0:0:
0,47,64555,2,0,P|36:103|56:195,1,147,0|0,3:0|2:0,2:0:0:0:
100,361,64939,5,0,3:0:0:0:
100,361,65003,5,0,3:0:0:0:
100,361,65067,5,0,3:0:0:0:
100,361,65132,6,0,B|110:354|110:354|132:229,2,130.666666666667,0|0|0,1:0|2:0|2:0,2:0:0:0:
8,292,65516,6,0,B|-13:334|-13:334|4:349|4:349|258:267|258:267,1,294,8|2,1:0|2:0,2:0:0:0:
130,237,65805,1,2,2:3:0:0:
142,272,65901,1,2,2:3:0:0:
475,363,66285,6,0,B|526:344|526:344|437:292,1,147,0|0,1:0|2:0,2:0:0:0:
318,303,66574,2,0,B|287:348|287:348|390:338,1,147,0|0,1:0|1:0,2:0:0:0:
447,222,66862,2,0,B|440:195|440:195|397:250,1,73.5,0|0,1:0|2:0,2:0:0:0:
446,298,67055,6,0,L|407:44,1,245,8|0,1:0|3:0,2:0:0:0:
471,8,67343,1,0,3:0:0:0:
441,136,67439,6,0,P|452:107|482:95,1,65.3333333333333,0|0,1:0|2:0,2:0:0:0:
417,120,67567,6,0,L|409:56,1,65.3333333333333,0|0,1:0|2:0,2:0:0:0:
402,142,67696,6,0,P|383:117|352:112,1,65.3333333333333,0|0,1:0|2:0,2:0:0:0:
30,71,68016,5,0,3:0:0:0:
30,71,68080,5,0,3:0:0:0:
30,71,68144,5,0,3:0:0:0:
30,71,68208,6,2,B|107:90|198:15|198:15|115:99|130:152,1,326.666666666667,0|0,1:0|2:0,2:3:0:0:
127,135,68593,6,0,P|110:113|109:86,1,32.6666666666667,8|0,1:0|2:0,2:0:0:0:
284,151,68721,6,0,P|311:147|335:159,1,32.6666666666667,2|0,2:0|2:0,2:0:0:0:
182,279,68849,6,0,P|171:304|148:319,1,32.6666666666667,2|0,2:0|2:0,2:0:0:0:
195,201,68978,5,2,3:0:0:0:
195,201,69074,1,2,3:0:0:0:
195,201,69170,2,0,L|202:160,2,36.75,2|2|2,3:0|2:3|2:3,2:0:0:0:
334,291,69362,6,0,P|350:292|365:298,2,32.6666666666667,4|0|0,1:0|3:0|1:0,2:0:0:0:
428,373,69555,2,0,P|431:340|449:297,1,65.3333333333333,0|0,1:0|2:0,2:0:0:0:
445,177,69747,6,0,P|435:154|420:135,1,49,0|0,1:0|2:0,2:0:0:0:
453,190,69875,6,0,P|477:193|501:189,1,49,0|0,1:0|2:0,2:0:0:0:
442,195,70003,6,0,P|427:214|418:237,1,49,0|0,1:0|2:0,2:0:0:0:
497,109,70132,6,0,B|458:73|458:73|345:103|345:103|337:112|337:112|240:91,2,245,8|0|0,1:0|1:0|2:0,2:0:0:0:
426,1,70612,6,0,P|434:40|444:74,1,61.25,0|0,1:0|2:0,2:0:0:0:
336,214,70805,2,0,P|326:170|316:144,1,61.25,0|0,1:0|2:0,2:0:0:0:
426,0,70997,2,0,P|454:20|484:25,1,61.25,0|0,1:0|2:0,2:0:0:0:
336,214,71189,2,0,P|312:200|300:200,2,30.625,0|0|0,1:0|2:0|1:0,2:0:0:0:
227,172,71382,6,0,L|138:189,2,85.7500000000001,0|0|0,2:0|1:0|2:0,2:0:0:0:
244,167,71670,1,8,1:0:0:0:
17,210,71862,2,0,B|4:213|4:213|-1:225|-1:225|70:209,1,85.7500000000001,0|0,1:0|2:0,2:0:0:0:
244,167,72055,2,0,P|257:148|261:127,6,42.875,8|0|0|0|0|0|0,2:3|2:0|2:0|2:0|2:0|2:0|2:0,2:0:0:0:
95,85,72439,6,0,B|99:105|99:105|240:153|284:297,1,294,0|0,1:0|2:0,2:0:0:0:
426,211,72824,2,0,B|432:198|432:198|375:117|406:23,1,195.51,0|0,1:0|2:0,2:0:0:0:
248,138,73208,6,0,B|256:197|223:249,1,98,8|0,1:0|2:0,2:0:0:0:
403,281,73401,2,0,P|406:220|495:111,1,196,0|0,1:0|2:0,2:0:0:0:
505,367,73785,6,0,L|515:304,2,49,0|0|0,1:0|1:0|1:0,2:0:0:0:
505,367,73978,2,0,P|464:369|427:344,1,73.5000028038026,0|0,1:0|1:0,2:0:0:0:
340,197,74170,1,0,1:0:0:0:
378,175,74266,2,0,P|394:206|400:292,1,110.25,0|0,1:0|2:0,2:0:0:0:
355,349,74458,2,0,P|332:350|288:316,2,73.5,0|0|0,1:0|1:0|1:0,2:0:0:0:
192,244,74747,5,8,1:0:0:0:
192,244,74939,2,0,P|171:306|165:371,1,130.666666666667,0|2,1:0|2:0,2:0:0:0:
96,339,75132,5,2,2:0:0:0:
94,320,75196,5,2,2:0:0:0:
82,320,75260,5,2,2:0:0:0:
75,305,75324,5,2,2:0:0:0:
64,309,75388,5,2,2:0:0:0:
55,306,75452,5,2,2:0:0:0:
38,315,75516,6,0,L|470:264,1,330.75,6|0,1:0|2:0,2:0:0:0:
468,181,75901,2,0,L|42:232,1,330.75,6|0,1:0|2:0,2:0:0:0:
251,250,76285,1,14,1:0:0:0:
37,235,76478,1,0,1:0:0:0:
37,235,76574,1,0,1:0:0:0:
38,236,76670,2,0,L|464:287,1,330.75,2|0,1:0|2:0,2:0:0:0:
279,68,77055,6,0,L|249:261,1,183.75,2|0,2:0|2:0,2:0:0:0:
254,355,77247,5,0,3:0:0:0:
262,350,77311,5,0,3:0:0:0:
265,341,77375,5,0,3:0:0:0:
264,331,77439,6,0,P|330:343|375:393,1,122.5,4|0,1:0|2:0,2:0:0:0:
436,338,77632,2,0,P|437:331|427:313,1,24.5,0|0,1:0|2:0,2:0:0:0:
251,250,77824,1,10,1:2:0:0:
174,261,78016,1,2,3:0:0:0:
174,261,78112,1,2,3:0:0:0:
174,261,78208,2,0,B|123:293|123:293|130:301|130:301|214:286,3,122.5,2|2|2|2,3:2|1:3|1:3|1:3,2:0:0:0:
288,325,78593,6,0,P|417:292|411:141,1,269.5,6|0,1:0|2:0,2:0:0:0:
432,172,78882,2,0,P|404:201|410:254,1,73.5,0|2,3:1|1:0,2:0:0:0:
345,149,79074,1,0,3:0:0:0:
345,149,79170,2,0,L|330:68,1,73.5,0|0,3:0|2:0,2:0:0:0:
320,245,79362,2,0,P|234:162|88:151,1,269.5,14|0,1:0|1:0,2:0:0:0:
30,217,79651,1,0,1:0:0:0:
30,217,79747,6,0,B|22:235|22:235|68:213,1,49,2|0,1:0|2:0,2:0:0:0:
68,70,79875,6,0,B|56:54|56:54|52:104,1,49,0|0,1:0|2:0,2:0:0:0:
171,184,80003,6,0,B|190:181|190:181|148:153,1,49,0|0,1:0|2:0,2:0:0:0:
89,149,80132,6,0,P|75:235|66:303,1,147,2|0,2:0|3:0,2:0:0:0:
72,305,80388,5,2,3:0:0:0:
76,313,80452,5,2,2:3:0:0:
81,320,80516,6,0,P|126:323|152:287,1,73.5,4|0,1:0|2:0,2:0:0:0:
350,352,80708,2,0,P|316:356|300:326,1,73.5,0|0,1:2|2:0,2:0:0:0:
215,362,80901,5,10,1:2:0:0:
211,348,81029,5,0,1:0:0:0:
229,350,81157,5,0,1:0:0:0:
222,334,81285,5,2,3:2:0:0:
205,252,81382,1,2,1:3:0:0:
277,184,81478,1,2,1:3:0:0:
242,82,81574,1,2,1:3:0:0:
309,19,81670,6,0,P|354:186|373:349,1,330.75,6|0,1:0|2:0,2:0:0:0:
484,325,82055,2,0,P|450:188|432:-9,1,330.75,6|0,1:0|2:0,2:0:0:0:
394,230,82439,6,0,B|417:280|417:280|420:222,1,110.25,14|0,1:0|2:0,2:0:0:0:
411,147,82632,2,0,B|391:132|391:132|380:153,1,49,2|2,1:0|1:0,2:0:0:0:
319,203,82920,6,0,P|306:166|312:119,1,73.5,2|0,2:0|1:0,2:0:0:0:
487,179,83112,2,0,P|488:142|475:108,1,73.5,0|2,2:0|2:0,2:0:0:0:
319,204,83305,2,0,P|283:182|241:188,1,73.5,0|0,2:0|2:0,2:0:0:0:
488,180,83497,2,0,P|508:156|521:149,2,36.75,0|0|4,3:0|3:0|1:0,2:0:0:0:
388,111,83689,6,0,L|375:15,2,85.7500000000001,0|0|0,2:0|1:0|2:0,2:0:0:0:
415,283,83978,1,10,1:2:0:0:
415,283,84170,2,0,L|431:370,1,85.7500000000001,0|0,3:0|3:0,2:0:0:0:
505,341,84362,2,0,P|513:325|512:298,6,42.875,2|2|2|2|2|2|2,3:2|2:3|2:3|2:3|2:3|2:3|2:3,2:0:0:0:
441,312,84747,6,0,L|33:363,1,404.25,6|0,1:0|2:0,2:0:0:0:
107,204,85132,2,0,L|441:243,1,294,6|0,1:0|2:0,2:0:0:0:
323,101,85516,6,0,L|124:125,1,147,14|0,1:0|2:0,2:0:0:0:
215,9,85708,6,0,L|296:21,1,73.5,0|0,1:0|2:0,2:0:0:0:
323,101,86093,2,0,L|318:80,4,12.25,0|0|0|0|2,3:0|3:0|3:0|2:0|1:2,2:0:0:0:
12,101,86478,6,0,P|8:61|-11:2,1,73.5,0|0,2:0|1:0,2:0:0:0:
96,21,86670,2,0,P|98:64|111:102,1,73.5,2|0,2:0|1:0,2:0:0:0:
73,167,86862,1,0,1:0:0:0:
73,167,86958,1,0,1:0:0:0:
73,167,87055,6,0,P|161:172|215:212,1,147,6|0,1:2|2:0,2:0:0:0:
271,338,87247,2,0,P|276:358|268:338,1,61.25,10|0,3:0|1:0,3:0:0:0:
258,263,87824,6,0,P|251:199|235:121,1,122.5,6|0,1:2|2:0,2:0:0:0:
487,130,88016,2,0,P|494:194|508:264,1,98,2|0,3:0|2:0,2:0:0:0:
258,263,88208,2,0,P|227:254|218:205,1,73.5,2|0,3:1|2:0,2:0:0:0:
367,180,88401,2,0,L|372:230,1,49,0|8,1:0|1:0,2:0:0:0:
487,130,88785,5,0,1:0:0:0:
487,130,88882,1,0,1:0:0:0:
487,130,88978,2,0,P|494:194|508:264,1,98,2|0,1:0|2:0,2:0:0:0:
160,158,89170,2,0,P|172:103|226:75,1,110.25,0|0,1:0|2:0,2:0:0:0:
456,348,89362,6,0,P|387:354|321:369,1,122.5,2|0,2:0|2:0,2:0:0:0:
333,103,89555,2,0,P|352:103|385:97,2,49,2|0|0,3:0|3:0|3:0,2:0:0:0:
456,348,89747,2,0,P|414:347|397:310,1,73.5,6|0,1:0|2:0,2:0:0:0:
367,180,89939,2,0,L|378:257,1,73.5,0|0,1:0|2:0,2:0:0:0:
501,234,90132,6,0,P|376:226|336:369,1,294,8|0,1:0|3:0,2:0:0:0:
234,343,90420,1,0,3:0:0:0:
234,343,90516,2,0,P|202:361|166:359,1,73.5,2|0,3:1|2:0,2:0:0:0:
96,318,90708,2,0,P|61:307|28:254,1,98,0|0,2:0|2:0,2:0:0:0:
36,54,90901,6,0,P|53:121|64:186,1,122.5,6|0,1:2|2:0,2:0:0:0:
293,118,91093,2,0,P|280:65|268:-9,1,98,2|0,3:2|2:0,2:0:0:0:
36,54,91285,2,0,P|12:83|5:129,1,73.5,2|0,3:1|2:0,2:0:0:0:
163,103,91478,2,0,P|161:94|159:87,1,12.25,2|0,3:2|2:0,2:0:0:0:
62,173,91670,6,0,B|141:188|94:209|183:224,1,122.5,8|0,1:0|2:0,2:0:0:0:
389,327,91862,1,0,2:0:0:0:
389,327,91958,1,0,1:0:0:0:
389,327,92055,6,0,B|379:320|379:320|369:265,1,65.3333333333333,2|0,1:0|2:0,2:0:0:0:
299,343,92183,6,0,B|305:334|305:334|286:236,1,65.3333333333333,0|0,3:0|2:0,2:0:0:0:
319,207,92311,6,0,L|315:190,1,16.3333333333333,0|0,1:0|2:0,2:0:0:0:
485,268,92439,6,0,P|421:284|379:225,1,122.5,0|0,2:0|2:0,2:0:0:0:
314,191,92632,2,0,P|324:168|344:154,2,49,0|0|0,3:0|3:0|3:0,2:0:0:0:
468,58,92824,2,0,P|498:81|500:133,1,73.5,2|0,1:0|2:0,2:0:0:0:
448,178,93016,2,0,L|432:173,1,12.25,0|0,2:0|2:0,2:0:0:0:
210,81,93208,5,10,1:2:0:0:
238,90,93337,5,2,2:0:0:0:
220,109,93465,5,2,2:0:0:0:
234,49,93593,6,0,P|258:29|271:8,1,49,2|0,3:0|2:0,2:0:0:0:
261,129,93721,6,0,P|265:160|277:181,1,49,0|0,2:0|2:0,2:0:0:0:
180,111,93849,6,0,P|150:94|108:91,1,73.4999999999999,0|0,2:0|2:0,2:0:0:0:
334,86,93978,6,0,P|346:64|382:51,3,61.25,6|0|0|0,1:2|2:0|2:0|2:0,2:0:0:0:
423,132,94170,2,0,P|464:121|524:158,1,98,0|0,1:0|2:0,2:0:0:0:
453,237,94362,6,0,P|481:261|484:310,1,49,2|0,1:0|2:0,2:0:0:0:
312,252,94490,6,0,P|307:280|292:301,1,49,0|0,1:0|2:0,2:0:0:0:
378,205,94619,6,0,L|376:194,1,8.16666666666667,0|0,1:0|2:0,2:0:0:0:
394,337,94747,6,0,B|413:354|410:369|410:369|329:300|216:309,1,245,8|0,1:0|1:0,2:0:0:0:
56,384,95035,1,0,2:0:0:0:
56,384,95132,2,0,B|66:369|66:369|46:254,1,98,2|0,1:0|1:0,2:0:0:0:
158,360,95324,2,0,B|138:350|138:350|121:256,1,110.25,0|0,2:0|1:0,2:0:0:0:
69,86,95516,6,0,B|61:70|61:70|19:82|19:82|55:109|55:109|68:95,1,122.5,2|0,2:0|1:0,2:0:0:0:
171,61,95708,1,0,2:0:0:0:
179,72,95805,2,0,B|190:77|190:77|206:42|206:42|169:52|169:52|172:67,2,98,0|6|0,3:0|1:0|2:0,2:0:0:0:
134,141,96093,2,0,L|137:154,1,12.25,0|0,1:0|2:0,2:0:0:0:
50,180,96285,6,0,P|127:188|217:236,1,147,8|0,1:0|2:0,2:0:0:0:
354,192,96478,2,0,P|367:175|372:160,1,36.7500000000001,0|0,3:0|3:0,2:0:0:0:
275,236,96670,6,0,P|312:272|372:275,1,98,2|0,3:1|2:0,2:0:0:0:
371,160,96862,2,0,P|416:155|460:89,1,110.25,2|0,2:0|2:0,2:0:0:0:
359,0,97055,6,0,P|311:24|295:89,1,122.5,6|0,1:2|2:0,2:0:0:0:
414,358,97247,2,0,P|459:339|474:275,1,98,0|0,2:0|2:0,2:0:0:0:
275,236,97439,2,0,P|285:284|274:309,1,73.5,2|0,3:1|2:0,2:0:0:0:
367,293,97632,2,0,P|366:288|365:281,1,12.25,0|0,2:0|2:0,2:0:0:0:
146,301,97824,6,0,B|114:319|108:337|108:337|235:275|344:385,1,294,8|0,1:0|1:0,2:0:0:0:
430,239,98112,1,0,1:0:0:0:
430,239,98208,2,0,P|417:183|400:125,1,98,2|0,1:0|2:0,2:0:0:0:
412,6,98401,2,0,P|397:45|398:66,2,55.1249999999999,0|0|0,1:0|1:0|1:0,2:0:0:0:
462,92,98593,5,8,1:0:0:0:
385,105,98689,1,8,1:0:0:0:
308,121,98785,1,0,3:0:0:0:
291,200,98882,1,0,3:0:0:0:
302,196,99074,5,0,1:0:0:0:
210,181,99170,1,0,1:0:0:0:
125,167,99266,1,0,1:0:0:0:
76,231,99362,2,0,L|91:315,1,85.75,8|0,1:0|2:0,2:0:0:0:
99,319,100132,6,0,P|178:326|253:386,1,171.5,4|0,1:0|2:0,2:0:0:0:
370,300,100901,2,0,P|370:269|361:250,1,49,2|0,2:0|2:0,2:0:0:0:
283,265,101285,2,0,P|283:296|292:315,1,49,2|0,2:0|2:0,2:0:0:0:
430,360,101670,2,0,P|475:341|498:277,1,98,2|0,2:0|2:0,2:0:0:0:
443,164,102247,1,2,2:0:0:0:
443,164,102343,1,2,2:0:0:0:
443,164,102439,2,0,P|452:134|483:73,1,98,2|0,2:0|2:0,2:0:0:0:
410,16,103016,1,2,2:0:0:0:
336,63,103208,6,0,P|350:99|358:164,1,98,2|0,2:0|2:0,2:0:0:0:
306,240,103785,1,2,2:0:0:0:
300,247,103882,1,2,2:0:0:0:
293,250,103978,1,2,2:0:0:0:
215,204,104170,1,2,2:0:0:0:
140,330,104362,1,2,2:0:0:0:
140,330,104555,1,2,2:0:0:0:
18,280,104747,2,0,P|54:280|108:210,1,122.5,2|0,2:0|2:0,2:0:0:0:
70,83,105324,1,2,2:0:0:0:
70,83,105420,1,2,2:0:0:0:
70,83,105516,2,0,L|56:26,2,49,2|2|2,2:0|2:0|2:0,2:0:0:0:
45,165,106093,1,2,2:0:0:0:
156,92,106285,6,0,P|191:98|274:121,1,122.5,2|0,2:0|2:0,2:0:0:0:
346,90,106862,1,2,2:0:0:0:
352,77,106958,1,2,2:0:0:0:
346,64,107055,1,2,2:0:0:0:
415,265,107343,1,2,2:0:0:0:
346,64,107632,1,2,2:0:0:0:
406,145,107824,2,0,P|456:133|473:77,1,98,2|0,2:0|2:0,2:0:0:0:
329,180,108401,1,2,2:0:0:0:
315,192,108497,1,2,2:0:0:0:
326,207,108593,1,2,2:0:0:0:
492,277,108785,1,2,2:0:0:0:
381,342,108978,1,2,2:0:0:0:
381,342,109170,1,2,2:0:0:0:
381,342,109362,6,0,P|295:353|181:382,1,196,2|0,2:0|2:0,2:0:0:0:
147,306,110324,2,0,P|155:269|189:215,1,98,2|2,2:0|2:0,2:0:0:0:
92,371,110901,1,2,2:0:0:0:
7,248,111285,1,2,2:0:0:0:
66,118,111670,1,2,2:0:0:0:
57,121,112055,5,2,2:0:0:0:
67,128,112151,1,2,2:0:0:0:
70,117,112247,1,0,3:0:0:0:
60,110,112343,1,0,2:0:0:0:
81,113,112439,6,0,B|90:101|90:101|43:19|43:19|33:111|33:111|51:124,1,220.5,4|0,1:0|2:0,2:0:0:0:
68,243,112824,1,2,2:0:0:0:
68,243,113016,2,0,P|76:211|74:173,1,49,2|0,2:0|2:0,2:0:0:0:
236,42,113208,2,0,P|242:78|250:104,1,61.25,2|2,3:2|2:0,2:0:0:0:
155,58,113401,2,0,P|163:85|167:123,1,61.25,2|0,2:0|2:0,2:0:0:0:
222,183,113593,1,2,3:2:0:0:
222,183,113785,1,2,2:0:0:0:
336,235,113978,6,0,P|409:231|439:114,2,183.75,2|0|2,3:2|2:0|2:0,2:0:0:0:
222,183,114747,2,0,P|230:216|234:239,7,49,2|0|0|0|0|0|0|0,3:2|2:0|2:0|2:0|2:0|2:0|2:0|2:0,2:0:0:0:
152,278,115516,6,0,P|232:273|323:368,1,220.5,4|0,1:0|2:0,2:0:0:0:
349,231,115901,2,0,B|358:234|358:234|369:287,1,49,2|0,2:0|2:0,2:0:0:0:
438,201,116093,2,0,B|429:211|429:211|441:273,1,61.25,2|0,2:0|2:0,2:0:0:0:
415,331,116285,2,0,P|379:123|379:123,1,183.75,2|0,3:2|2:0,2:0:0:0:
409,17,116670,2,0,P|359:35|340:85,1,110.25,2|0,3:2|2:0,2:0:0:0:
437,96,117055,6,0,P|363:120|291:154,1,147,2|0,3:0|2:0,2:0:0:0:
233,363,117439,2,0,P|249:286|255:207,1,147,2|0,3:0|2:0,2:0:0:0:
102,56,117824,2,0,P|159:108|225:153,1,147,2|0,3:0|2:0,2:0:0:0:
439,102,118208,2,0,P|440:69|343:39,1,147,2|0,3:0|2:0,2:0:0:0:
255,218,118593,6,0,B|266:239|266:239|400:257,2,147,4|0|0,1:0|2:0|2:0,2:0:0:0:
216,147,119170,1,2,2:0:0:0:
216,147,119266,1,2,2:0:0:0:
216,147,119362,2,0,B|192:146|192:146|109:253,2,147,0|0|2,3:0|2:0|3:2,2:0:0:0:
298,156,119939,1,2,2:0:0:0:
298,156,120035,1,0,2:0:0:0:
298,156,120132,6,0,B|325:136|325:136|302:-16,3,171.5,2|0|0|0,3:2|2:0|2:0|2:0,2:0:0:0:
195,257,120901,2,0,P|267:267|347:300,1,147,2|0,3:2|2:0,2:0:0:0:
398,193,121285,2,0,P|291:190|188:142,1,220.5,2|0,3:2|2:0,2:0:0:0:
56,54,121670,6,0,P|48:39|22:20,1,49,12|0,1:0|2:0,2:0:0:0:
41,56,121862,2,0,P|26:64|7:90,1,49,0|0,2:0|2:0,2:0:0:0:
45,73,122055,2,0,P|53:88|79:107,1,49,0|0,2:0|2:0,2:0:0:0:
60,71,122247,2,0,P|75:63|94:37,1,49,0|0,2:0|2:0,2:0:0:0:
101,188,122439,6,0,P|78:181|35:188,1,49,12|0,1:0|2:0,2:0:0:0:
87,204,122632,2,0,P|80:226|87:269,1,49,0|0,2:0|2:0,2:0:0:0:
107,216,122824,2,0,P|129:222|172:216,1,49,0|0,2:0|2:0,2:0:0:0:
274,130,123016,6,0,P|257:146|241:187,1,49,0|0,2:0|2:0,2:0:0:0:
366,302,123208,6,0,P|360:279|315:228,1,73.5000028038026,12|0,1:0|2:0,2:0:0:0:
156,314,123401,2,0,P|164:351|192:381,1,73.5000028038026,0|0,1:0|2:0,2:0:0:0:
448,274,123593,6,0,L|359:289,1,73.5,8|0,1:0|2:0,2:0:0:0:
68,325,123785,2,0,L|147:335,1,73.5,0|0,2:0|2:0,2:0:0:0:
280,350,123978,5,8,1:0:0:0:
292,324,124074,1,0,3:0:0:0:
266,312,124170,1,0,3:0:0:0:
254,339,124266,1,0,3:0:0:0:
276,334,124362,5,0,3:0:0:0:
265,261,124458,1,0,3:0:0:0:
255,188,124555,1,0,3:0:0:0:
245,115,124651,1,0,3:0:0:0:
235,42,124747,1,4,1:0:0:0:
27,374,125901,6,0,P|-3:354|-13:285,1,110.25,2|0,2:0|2:0,2:0:0:0:
104,347,126285,5,6,1:0:0:0:
160,375,126382,1,0,2:0:0:0:
221,359,126478,1,0,2:0:0:0:
257,308,126574,1,2,2:0:0:0:
232,238,126670,5,8,1:0:0:0:
189,230,126766,1,0,3:0:0:0:
166,248,126862,1,0,3:0:0:0:
164,269,126958,1,0,3:0:0:0:
173,277,127055,6,0,P|165:228|102:16,1,257.25,2|0,1:0|3:0,2:0:0:0:
300,98,127439,2,0,B|295:82|295:82|338:70|365:-3|365:-3|338:70|364:108|364:108|351:119,1,257.25,10|0,1:0|3:0,2:0:0:0:
305,183,127824,5,6,1:0:0:0:
306,196,127920,1,2,2:0:0:0:
312,190,128016,1,2,2:0:0:0:
296,191,128112,1,2,2:0:0:0:
219,214,128208,5,8,1:0:0:0:
279,271,128305,1,0,3:0:0:0:
361,261,128401,1,2,3:1:0:0:
280,286,128497,1,2,3:2:0:0:
255,362,128593,6,0,P|217:338|202:290,3,85.7500000000001,2|2|2|2,1:0|2:0|2:0|2:0,2:0:0:0:
95,305,128978,5,8,1:0:0:0:
105,313,129074,1,0,2:0:0:0:
111,302,129170,1,2,1:0:0:0:
100,294,129266,1,0,2:0:0:0:
104,302,129362,6,0,P|49:281|37:102,1,257.25,6|2,1:0|2:0,2:0:0:0:
31,107,129747,2,0,P|30:125|19:135,1,24.5,8|0,1:0|3:0,2:0:0:0:
63,28,129939,5,2,3:1:0:0:
122,84,130035,1,2,3:2:0:0:
184,28,130132,6,0,P|195:73|202:140,1,85.7500000000001,6|0,1:0|2:0,2:0:0:0:
281,95,130324,2,0,P|270:50|263:-17,1,85.7500000000001,2|0,1:0|2:0,2:0:0:0:
344,308,130516,6,0,P|302:313|260:266,1,85.7500000000001,10|0,1:0|2:0,2:0:0:0:
298,103,130708,2,0,P|323:136|303:196,1,85.7500000000001,2|0,1:0|2:0,2:0:0:0:
203,342,130901,5,6,1:0:0:0:
135,363,130997,1,2,2:0:0:0:
67,339,131093,1,2,2:0:0:0:
27,278,131189,1,2,2:0:0:0:
32,206,131285,1,8,1:0:0:0:
66,172,131382,1,2,2:0:0:0:
114,171,131478,5,2,3:1:0:0:
77,201,131574,1,2,3:2:0:0:
32,206,131670,5,2,1:0:0:0:
45,118,131766,1,2,3:2:0:0:
114,171,131862,1,2,1:0:0:0:
272,131,132055,1,10,1:0:0:0:
159,24,132247,2,0,P|151:-1|166:22,1,73.5,0|0,3:0|3:0,2:0:0:0:
377,31,132439,5,6,1:0:0:0:
438,19,132535,1,0,2:0:0:0:
492,52,132632,1,0,2:0:0:0:
509,112,132728,1,0,2:0:0:0:
452,174,132824,1,8,1:0:0:0:
431,167,132920,1,0,2:0:0:0:
417,151,133016,5,2,2:1:0:0:
481,189,133112,1,0,2:1:0:0:
486,267,133208,2,0,P|453:316|334:284,1,171.5,2|0,1:0|2:0,2:0:0:0:
282,374,133497,2,0,P|258:331|142:308,1,171.5,2|0,1:0|2:0,2:0:0:0:
8,336,133785,2,0,P|43:367|79:360,1,85.7500000000001,2|0,3:1|2:0,2:0:0:0:
291,224,133978,5,6,1:0:0:0:
231,232,134074,1,2,2:0:0:0:
187,190,134170,1,2,2:0:0:0:
192,130,134266,1,2,2:0:0:0:
242,97,134362,1,8,1:0:0:0:
300,115,134458,1,0,3:0:0:0:
321,171,134555,5,2,2:1:0:0:
384,220,134651,1,0,3:1:0:0:
460,183,134747,1,2,1:0:0:0:
309,307,134939,1,2,2:0:0:0:
406,21,135132,6,0,P|393:71|388:156,1,110.25,4|0,2:0|2:0,2:0:0:0:
318,6,135324,2,0,P|313:61|300:114,1,110.25,4|0,2:0|2:0,2:0:0:0:
491,377,135516,5,6,1:0:0:0:
444,388,135612,1,0,2:0:0:0:
397,376,135708,1,0,2:0:0:0:
359,344,135805,1,2,2:0:0:0:
303,275,135901,5,10,1:2:0:0:
312,299,135997,1,2,2:0:0:0:
312,323,136093,1,2,2:0:0:0:
304,346,136189,1,2,2:0:0:0:
262,319,136285,5,2,1:2:0:0:
250,316,136382,1,2,2:0:0:0:
237,316,136478,1,2,2:1:0:0:
225,318,136574,1,2,2:0:0:0:
214,320,136670,2,0,P|180:341|138:391,1,73.5,8|2,1:0|2:0,2:0:0:0:
70,361,136862,2,0,P|69:321|47:260,1,73.5,2|0,3:1|3:0,2:0:0:0:
107,206,137055,6,0,P|142:225|206:236,3,73.5,6|2|0|2,1:0|2:0|3:0|2:0,2:0:0:0:
71,130,137439,2,0,P|36:140|4:158,3,73.5,10|2|0|0,1:0|2:0|3:0|3:0,2:0:0:0:
245,189,137824,1,2,1:0:0:0:
259,200,137920,1,2,2:0:0:0:
271,214,138016,1,0,3:0:0:0:
281,230,138112,1,0,3:0:0:0:
254,291,138208,5,10,1:0:0:0:
309,246,138305,1,2,3:1:0:0:
380,253,138401,1,2,3:1:0:0:
425,309,138497,1,2,3:1:0:0:
409,379,138593,6,0,B|376:309|429:212|483:298|542:211|494:107,1,294,6|0,1:0|2:0,2:0:0:0:
419,114,138978,2,0,B|406:108|388:131|388:131|416:128|421:116,1,73.5,8|2,1:0|2:0,2:0:0:0:
475,53,139170,2,0,B|469:44|469:44|485:8|485:8|486:48|486:48|477:53,1,98,2|0,2:1|2:0,2:0:0:0:
455,313,139362,6,0,B|433:300|433:300|417:214,1,98,2|0,1:0|2:0,2:0:0:0:
341,337,139555,2,0,B|355:318|355:318|340:233,1,98,2|0,3:1|2:0,2:0:0:0:
342,32,139747,1,10,1:0:0:0:
342,32,139939,1,2,2:1:0:0:
40,366,140132,6,0,B|91:372|166:317|86:258|169:204|231:218,1,245,6|0,1:0|2:0,2:0:0:0:
234,316,140420,2,0,B|192:345|100:331|143:242|44:233|-4:275,1,245,8|0,1:0|2:0,2:0:0:0:
132,343,140708,2,0,B|139:354|139:354|137:337,1,24.5,10|0,1:0|2:0,2:0:0:0:
95,179,140901,6,0,B|106:141|154:125|154:125|83:94|49:-1|49:-1|66:97|19:160|19:160|72:150|95:181,1,490,2|8,1:0|1:0,2:0:0:0:
141,90,141382,1,0,2:0:0:0:
141,90,141478,2,0,P|134:51|93:32,1,73.5,0|0,3:0|3:0,2:0:0:0:
24,51,141670,6,0,P|8:95|27:120,1,73.5,6|0,1:0|2:0,2:0:0:0:
95,179,141862,2,0,L|104:219,2,36.75,0|0|0,3:0|3:0|3:0,2:0:0:0:
229,122,142055,2,0,P|225:164|216:198,1,73.5,10|0,1:0|2:0,2:0:0:0:
314,141,142247,2,0,P|301:187|299:218,1,73.5,2|0,2:1|2:0,2:0:0:0:
227,339,142439,6,0,P|268:372|381:187,1,367.5,6|0,1:0|1:0,2:0:0:0:
284,63,142824,2,0,B|283:46|268:34|268:34|291:21|306:-16|306:-16|298:24|313:47|313:47|294:50|287:61,1,183.75,2|0,1:0|2:0,2:0:0:0:
168,282,143208,6,0,P|128:290|86:330,1,73.5,2|0,1:0|2:0,2:0:0:0:
50,153,143401,2,0,P|43:112|27:76,1,73.5,0|0,2:0|2:0,2:0:0:0:
0,346,143593,6,0,P|44:376|79:375,1,73.5,2|0,1:0|2:0,2:0:0:0:
118,212,143785,2,0,P|126:177|144:145,1,73.5,0|0,2:0|2:0,2:0:0:0:
202,359,143978,5,2,1:0:0:0:
198,375,144074,1,0,3:0:0:0:
210,369,144170,1,0,1:0:0:0:
192,364,144266,1,0,3:0:0:0:
201,367,144362,5,2,1:0:0:0:
242,307,144458,1,0,3:0:0:0:
241,235,144555,1,0,3:0:0:0:
276,298,144651,1,0,3:0:0:0:
342,329,144747,6,0,B|401:337|413:382|413:382|400:336|412:290|530:325|469:143|365:187|379:262,1,367.5,6|0,1:0|2:0,2:0:0:0:
352,154,145324,1,2,3:2:0:0:
352,154,145420,1,2,3:2:0:0:
352,154,145516,2,0,B|373:89|260:43|195:215|297:261|297:261|336:235|384:256,1,367.5,6|0,1:0|2:0,2:0:0:0:
441,53,146093,1,2,3:2:0:0:
441,53,146189,1,2,3:2:0:0:
441,53,146285,6,0,P|454:11|498:7,1,85.7500000000001,6|0,1:0|2:0,2:0:0:0:
426,67,146478,2,0,P|384:54|380:10,1,85.7500000000001,0|2,2:0|3:0,2:0:0:0:
439,82,146670,2,0,P|426:124|382:128,1,85.7500000000001,10|0,1:0|3:0,2:0:0:0:
457,67,146862,2,0,P|499:80|503:124,1,85.7500000000001,0|0,3:0|3:0,2:0:0:0:
221,150,147055,5,2,3:1:0:0:
211,228,147151,1,2,2:0:0:0:
288,238,147247,1,2,3:0:0:0:
298,159,147343,1,2,2:0:0:0:
248,195,147439,5,10,1:0:0:0:
261,197,147535,1,2,3:0:0:0:
252,204,147632,1,2,3:0:0:0:
257,188,147728,1,2,2:0:0:0:
143,182,147824,6,0,P|164:254|171:315,1,110.25,6|0,1:0|2:0,2:0:0:0:
368,201,148016,2,0,P|347:129|340:68,1,110.25,0|2,3:0|2:0,2:0:0:0:
246,304,148208,2,0,P|318:283|379:276,1,110.25,8|2,1:0|2:0,2:0:0:0:
265,78,148401,2,0,P|193:99|132:106,1,110.25,2|2,3:0|2:0,2:0:0:0:
143,182,148593,5,6,1:0:0:0:
143,182,148689,1,2,3:0:0:0:
143,182,148785,2,0,P|164:254|171:315,1,110.25,2|2,3:0|2:0,2:0:0:0:
368,201,148978,2,0,P|347:129|340:68,1,110.25,8|2,1:0|3:0,2:0:0:0:
18,28,149170,1,2,3:0:0:0:
13,15,149266,1,2,2:0:0:0:
7,29,149362,5,6,1:0:0:0:
58,91,149458,1,0,2:0:0:0:
121,47,149555,2,0,P|120:22|108:-13,1,49,0|0,3:0|2:0,2:0:0:0:
235,64,149747,5,8,1:0:0:0:
286,2,149843,1,0,2:0:0:0:
349,46,149939,2,0,P|348:71|336:106,1,49,2|2,3:0|3:0,2:0:0:0:
481,27,150132,5,6,1:0:0:0:
461,98,150228,1,2,3:0:0:0:
446,170,150324,1,2,3:0:0:0:
437,243,150420,1,2,3:0:0:0:
433,316,150516,5,10,1:0:0:0:
437,332,150612,1,0,2:0:0:0:
446,323,150708,1,2,2:0:0:0:
427,327,150805,1,0,2:0:0:0:
512,272,150901,6,0,B|448:245|374:310|450:332|347:396|292:354,1,257.25,6|2,1:0|2:0,2:0:0:0:
174,315,151285,1,8,1:0:0:0:
155,265,151382,1,0,3:0:0:0:
174,217,151478,1,0,3:0:0:0:
198,202,151574,1,0,3:0:0:0:
212,202,151670,6,0,P|310:226|436:343,1,257.25,2|0,1:0|3:0,2:0:0:0:
233,117,152055,2,0,B|192:105|170:9|170:9|185:105|152:135,1,257.25,10|0,1:0|3:0,2:0:0:0:
406,246,152439,5,6,1:0:0:0:
407,233,152535,1,0,2:0:0:0:
413,239,152632,1,2,2:0:0:0:
397,238,152728,1,2,2:0:0:0:
320,215,152824,5,8,1:0:0:0:
380,158,152920,1,0,3:0:0:0:
461,168,153016,1,2,3:1:0:0:
381,143,153112,1,2,3:2:0:0:
356,67,153208,6,0,P|404:68|443:95,3,85.7500000000001,2|2|2|2,1:0|2:0|2:0|2:0,2:0:0:0:
190,202,153593,5,8,1:0:0:0:
200,194,153689,1,0,2:0:0:0:
206,205,153785,1,2,1:0:0:0:
195,213,153882,1,0,2:0:0:0:
199,205,153978,6,0,P|124:202|80:369,1,257.25,6|2,1:0|2:0,2:0:0:0:
66,349,154362,2,0,P|86:342|90:336,1,24.5,8|0,1:0|3:0,2:0:0:0:
192,329,154555,1,2,3:1:0:0:
263,375,154651,1,0,3:1:0:0:
321,315,154747,6,0,P|308:267|306:227,1,85.7500000000001,6|0,1:0|2:0,2:0:0:0:
409,298,154939,2,0,P|404:255|391:214,1,85.7500000000001,2|0,1:0|2:0,2:0:0:0:
284,22,155132,6,0,P|233:62|240:98,1,85.7500000000001,10|0,1:0|2:0,2:0:0:0:
405,204,155324,2,8,P|395:139|361:127,1,85.7500000000001,2|0,1:0|2:0,2:0:0:0:
199,275,155516,5,6,1:0:0:0:
132,296,155612,1,2,2:0:0:0:
64,272,155708,1,2,2:0:0:0:
24,211,155805,1,2,2:0:0:0:
29,139,155901,1,8,1:0:0:0:
63,105,155997,1,2,2:0:0:0:
111,104,156093,5,2,3:1:0:0:
74,133,156189,1,0,3:0:0:0:
29,139,156285,5,2,1:0:0:0:
43,51,156382,1,0,3:0:0:0:
111,104,156478,1,2,1:0:0:0:
296,116,156670,1,10,1:0:0:0:
143,207,156862,2,0,P|116:199|137:194,1,73.5,0|0,3:0|3:0,2:0:0:0:
187,33,157055,5,6,1:0:0:0:
204,94,157151,1,0,2:0:0:0:
218,157,157247,1,0,2:0:0:0:
229,220,157343,1,0,2:0:0:0:
214,293,157439,1,8,1:0:0:0:
187,325,157535,1,0,2:0:0:0:
146,337,157632,5,2,2:1:0:0:
199,275,157728,1,2,2:0:0:0:
281,252,157824,2,0,P|367:274|437:342,1,171.5,2|0,1:0|2:0,2:0:0:0:
512,229,158112,2,0,P|459:283|374:249,1,171.5,2|0,1:0|2:0,2:0:0:0:
407,124,158401,2,0,P|437:158|435:198,1,85.7500000000001,2|0,3:1|2:0,2:0:0:0:
149,197,158593,5,6,1:0:0:0:
141,137,158689,1,2,2:0:0:0:
183,93,158785,1,2,2:0:0:0:
243,98,158882,1,2,2:0:0:0:
276,148,158978,1,8,1:0:0:0:
258,206,159074,1,0,3:0:0:0:
202,227,159170,5,2,2:1:0:0:
154,293,159266,1,0,3:0:0:0:
190,366,159362,1,2,1:0:0:0:
348,268,159555,1,2,2:1:0:0:
338,21,159747,6,0,P|343:89|361:131,1,110.25,4|0,2:0|2:0,2:0:0:0:
250,41,159939,2,0,P|270:104|276:163,1,110.25,4|0,2:0|2:0,2:0:0:0:
504,265,160132,5,6,1:0:0:0:
457,254,160228,1,0,2:0:0:0:
410,266,160324,1,0,2:0:0:0:
372,298,160420,1,2,2:0:0:0:
348,268,160516,5,8,1:0:0:0:
339,292,160612,1,2,2:0:0:0:
339,316,160708,1,2,2:0:0:0:
347,339,160805,1,2,2:0:0:0:
312,367,160901,5,0,1:0:0:0:
300,370,160997,1,2,2:0:0:0:
287,370,161093,1,2,2:1:0:0:
275,368,161189,1,0,2:0:0:0:
264,366,161285,2,0,P|246:324|237:276,1,73.5,8|2,1:0|2:0,2:0:0:0:
93,312,161478,2,0,P|91:352|70:413,1,73.5,2|0,3:1|3:0,2:0:0:0:
152,236,161670,6,0,L|142:162,3,73.5,6|0|0|2,1:0|2:0|3:0|2:0,2:0:0:0:
121,12,162055,2,0,L|131:86,3,73.5,10|2|0|0,1:0|2:0|3:0|3:0,2:0:0:0:
68,134,162439,1,2,1:0:0:0:
50,136,162535,1,2,2:0:0:0:
33,143,162632,1,0,3:0:0:0:
19,155,162728,1,0,3:0:0:0:
8,191,162824,5,10,1:0:0:0:
73,221,162920,1,2,3:1:0:0:
145,209,163016,1,2,3:1:0:0:
197,159,163112,1,2,3:1:0:0:
204,87,163208,6,0,B|275:51|387:112|288:150|403:194|464:157,1,294,6|2,1:0|2:0,2:0:0:0:
451,81,163593,2,0,B|456:75|456:75|432:40|432:40|429:80|429:80|441:87,1,98,8|2,1:0|2:0,2:0:0:0:
447,244,163785,2,0,B|452:254|452:254|430:284|430:284|425:248|425:248|437:238,1,98,2|0,2:1|2:0,2:0:0:0:
255,21,163978,6,0,B|267:24|267:24|282:122,1,98,2|0,1:0|2:0,2:0:0:0:
351,5,164170,2,0,B|341:13|341:13|356:105,1,98,2|0,3:1|2:0,2:0:0:0:
353,356,164362,1,10,1:0:0:0:
353,356,164555,1,2,2:1:0:0:
35,358,164747,6,0,B|85:368|164:320|90:254|177:207|238:227,1,245,6|0,1:0|2:0,2:0:0:0:
232,326,165035,2,0,B|187:351|97:329|147:244|49:226|-1:264,1,245,10|0,1:0|2:0,2:0:0:0:
135,358,165324,2,0,B|141:369|141:369|140:352,1,24.5,8|0,1:0|2:0,2:0:0:0:
108,181,165516,6,0,B|114:142|166:126|166:126|96:96|69:1|69:1|83:99|29:151|29:151|85:152|108:183,1,490,2|8,1:0|1:0,2:0:0:0:
36,50,165997,1,0,2:0:0:0:
36,50,166093,2,0,P|30:92|13:120,1,73.5,2|0,3:1|3:0,2:0:0:0:
167,85,166285,6,0,P|135:59|117:22,1,73.5,6|0,1:0|2:0,2:0:0:0:
438,65,166478,2,0,P|467:75|492:94,2,36.75,0|0|0,3:0|3:0|3:0,2:0:0:0:
245,32,166670,2,0,P|253:65|258:104,1,73.5,10|0,1:0|2:0,2:0:0:0:
327,17,166862,2,0,P|330:53|341:88,1,73.5,2|0,2:1|2:0,2:0:0:0:
322,377,167055,6,0,P|430:360|427:145,1,367.5,6|0,1:0|1:0,2:0:0:0:
255,222,167439,2,0,P|247:289|342:353,1,183.75,2|0,2:1|2:0,2:0:0:0:
318,168,167824,6,0,P|333:199|331:255,1,73.5,2|0,1:0|2:0,2:0:0:0:
145,358,168016,2,0,P|132:330|95:292,1,73.5,0|0,2:0|2:0,2:0:0:0:
177,204,168208,6,0,P|177:243|212:291,1,73.5,2|0,1:0|2:0,2:0:0:0:
420,313,168401,2,0,P|421:278|432:242,1,73.5,0|0,2:0|2:0,2:0:0:0:
228,113,168593,5,2,1:0:0:0:
234,137,168689,1,0,3:0:0:0:
242,121,168785,1,0,1:0:0:0:
221,127,168882,1,0,3:0:0:0:
230,127,168978,5,2,1:0:0:0:
282,78,169074,1,0,3:0:0:0:
289,6,169170,1,0,3:0:0:0:
325,68,169266,1,0,3:0:0:0:
392,94,169362,6,0,B|458:174|552:76|500:-13|339:15|349:180,1,367.5,6|0,1:0|2:0,2:0:0:0:
479,286,169939,1,2,3:2:0:0:
479,286,170035,1,2,3:2:0:0:
479,286,170132,2,0,B|376:303|414:433|517:433|573:279|416:196,1,367.5,6|0,1:0|2:0,2:0:0:0:
88,319,170708,1,2,3:2:0:0:
88,319,170805,1,2,3:2:0:0:
88,319,170901,6,0,P|99:361|99:386,1,61.25,6|0,1:0|2:0,2:0:0:0:
92,295,171093,2,0,P|134:284|159:284,1,61.25,0|2,2:0|3:0,2:0:0:0:
73,288,171285,2,0,P|62:246|62:221,1,61.25,10|0,1:0|3:0,2:0:0:0:
67,317,171478,2,0,P|25:328|0:328,1,61.25,0|0,3:0|3:0,2:0:0:0:
291,234,171670,5,2,3:1:0:0:
301,156,171766,1,2,2:0:0:0:
224,146,171862,1,2,3:0:0:0:
214,225,171958,1,2,2:0:0:0:
264,189,172055,5,10,1:0:0:0:
251,187,172151,1,2,3:0:0:0:
260,180,172247,1,2,3:0:0:0:
255,196,172343,1,2,2:0:0:0:
369,202,172439,6,0,P|348:130|341:69,1,110.25,6|0,1:0|2:0,2:0:0:0:
144,183,172632,2,0,P|165:255|172:316,1,110.25,0|2,3:0|2:0,2:0:0:0:
266,80,172824,2,0,P|194:101|133:108,1,110.25,8|2,1:0|2:0,2:0:0:0:
247,305,173016,2,0,P|319:284|380:277,1,110.25,2|2,3:0|2:0,2:0:0:0:
369,202,173208,5,6,1:0:0:0:
369,202,173305,1,2,3:0:0:0:
369,202,173401,2,0,P|348:130|341:69,1,110.25,2|2,3:0|2:0,2:0:0:0:
144,183,173593,2,0,P|165:255|172:316,1,110.25,8|2,1:0|3:0,2:0:0:0:
461,370,173785,1,2,3:0:0:0:
461,370,173882,1,2,2:0:0:0:
506,330,173978,5,6,1:0:0:0:
429,303,174074,1,0,2:0:0:0:
380,369,174170,2,0,P|348:357|328:343,1,49,0|0,3:0|2:0,2:0:0:0:
98,376,174362,5,8,1:0:0:0:
98,376,174458,1,0,2:0:0:0:
98,376,174555,2,0,P|121:368|142:356,1,49,2|2,3:0|3:0,2:0:0:0:
257,227,174747,5,6,1:0:0:0:
260,215,174843,1,2,3:0:0:0:
258,198,174939,1,2,3:0:0:0:
245,174,175035,1,2,3:0:0:0:
212,152,175132,1,10,1:0:0:0:
172,108,175228,1,0,2:0:0:0:
188,39,175324,1,2,2:0:0:0:
261,22,175420,1,0,2:0:0:0:
303,85,175516,5,6,1:0:0:0:
266,150,175612,1,0,2:0:0:0:
212,152,175708,1,0,2:0:0:0:
172,108,175805,1,0,2:0:0:0:
135,89,175901,1,8,1:0:0:0:
102,89,175997,1,0,3:0:0:0:
82,105,176093,1,0,3:0:0:0:
78,121,176189,1,0,3:0:0:0:
80,136,176285,2,0,L|100:225,3,85.7500000000001,2|0|0|0,1:0|3:0|3:0|3:0,2:0:0:0:
14,377,176670,1,10,1:0:0:0:
8,358,176766,1,0,3:0:0:0:
20,365,176862,1,0,3:0:0:0:
0,371,176958,1,0,3:0:0:0:
90,343,177055,6,0,P|151:356|195:375,1,85.7500000000001,6|2,1:0|2:0,2:0:0:0:
420,239,177247,2,0,P|412:205|389:161,1,49,2|2,2:0|2:0,2:0:0:0:
194,218,177439,2,0,P|199:250|231:330,1,85.7500000000001,8|0,1:0|3:0,2:0:0:0:
310,232,177632,1,2,3:0:0:0:
310,232,177728,1,2,3:0:0:0:
310,232,177824,5,2,1:0:0:0:
323,151,177920,1,2,2:0:0:0:
346,73,178016,1,2,2:0:0:0:
377,0,178112,1,2,2:0:0:0:
386,6,178208,1,8,1:0:0:0:
83,146,178401,1,2,1:0:0:0:
464,18,178593,5,6,1:0:0:0:
474,95,178689,1,2,2:0:0:0:
446,136,178785,1,2,2:0:0:0:
401,154,178882,1,2,2:0:0:0:
368,150,178978,1,8,1:0:0:0:
347,131,179074,1,0,3:0:0:0:
337,112,179170,1,0,3:0:0:0:
328,103,179266,1,0,3:0:0:0:
316,100,179362,2,0,P|268:106|215:118,3,85.7500000000001,6|0|2|0,1:0|2:0|1:0|2:0,2:0:0:0:
191,191,179747,1,10,1:0:0:0:
186,175,179843,1,0,2:0:0:0:
197,182,179939,1,2,1:0:0:0:
180,187,180035,1,2,2:0:0:0:
187,185,180132,5,6,1:0:0:0:
268,259,180324,2,0,P|272:229|292:184,1,49,2|2,2:0|2:0,2:0:0:0:
104,238,180516,2,0,P|138:270|166:315,1,85.7500000000001,8|2,1:0|2:0,2:0:0:0:
361,290,180708,1,0,3:0:0:0:
361,290,180805,1,0,3:0:0:0:
361,290,180901,6,0,P|385:265|390:160,1,122.5,2|0,1:0|3:0,2:0:0:0:
24,337,181093,2,0,P|45:367|147:371,1,122.5,2|0,1:3|3:0,2:0:0:0:
304,152,181285,2,0,P|262:232|273:270,1,122.5,10|0,1:0|2:0,2:0:0:0:
59,253,181478,2,0,P|118:257|159:302,1,122.5,0|0,3:0|3:0,2:0:0:0:
253,370,181670,5,6,1:0:0:0:
253,370,181862,1,0,2:0:0:0:
166,163,182055,5,8,1:0:0:0:
166,163,182247,1,2,3:0:0:0:
253,370,182439,5,6,1:0:0:0:
253,370,182632,1,2,3:0:0:0:
166,163,182824,5,10,1:0:0:0:
166,163,183016,1,0,3:0:0:0:
325,242,183208,2,0,P|258:256|208:205,1,98,6|0,1:0|2:0,2:0:0:0:
166,163,183401,2,0,L|172:129,1,24.5,2|0,3:0|2:0,2:0:0:0:
169,343,183593,2,0,P|124:292|143:224,1,98,8|0,1:0|2:0,2:0:0:0:
166,163,183785,2,0,L|172:129,1,24.5,2|0,3:0|2:0,2:0:0:0:
0,66,183978,6,0,P|66:51|126:109,1,122.5,0|0,1:0|2:0,2:0:0:0:
122,266,184170,2,0,P|120:283|110:292,1,24.5,2|2,3:0|3:0,2:0:0:0:
61,197,184362,2,0,P|50:161|33:117,1,49,10|0,1:0|2:0,2:0:0:0:
54,210,184555,2,0,P|48:193|41:175,1,24.5,2|0,2:0|2:0,2:0:0:0:
274,57,184747,6,0,P|266:103|258:161,1,73.5,14|0,1:0|2:0,2:0:0:0:
391,210,184939,2,0,P|345:201|287:194,1,73.5,2|0,3:0|2:0,2:0:0:0:
238,327,185132,2,0,P|246:281|254:223,1,73.5,14|0,1:0|2:0,2:0:0:0:
121,174,185324,2,0,P|167:182|225:190,1,73.5,2|0,3:0|2:0,2:0:0:0:
274,57,185516,6,0,P|320:65|378:73,1,73.5,14|0,1:0|2:0,2:0:0:0:
391,210,185708,2,0,P|383:256|375:314,1,73.5,2|0,3:0|2:0,2:0:0:0:
238,327,185901,2,0,P|192:319|134:311,1,73.5,14|0,1:0|2:0,2:0:0:0:
121,174,186093,1,2,3:0:0:0:
121,174,186189,1,2,3:0:0:0:
121,174,186285,6,0,P|111:136|87:105,1,73.5,14|0,1:0|2:0,2:0:0:0:
391,210,186478,2,0,P|401:248|425:279,1,73.5,2|0,3:0|2:0,2:0:0:0:
274,57,186670,2,0,P|312:47|343:23,1,73.5,14|0,1:0|2:0,2:0:0:0:
238,327,186862,2,0,P|200:337|169:361,1,73.5,2|0,3:0|2:0,2:0:0:0:
173,83,187055,6,0,P|193:49|198:10,1,73.5,14|0,1:0|2:0,2:0:0:0:
338,300,187247,2,0,P|318:334|313:373,1,73.5,2|0,3:0|2:0,2:0:0:0:
364,109,187439,2,0,P|398:129|437:134,1,73.5,14|0,1:0|2:0,2:0:0:0:
147,274,187632,2,0,P|113:254|74:249,1,73.5,2|2,3:0|3:0,2:0:0:0:
496,188,187824,5,14,1:0:0:0:
474,216,187920,1,2,3:0:0:0:
440,231,188016,1,2,3:0:0:0:
404,226,188112,1,2,3:0:0:0:
375,205,188208,5,14,1:0:0:0:
340,164,188305,1,2,3:0:0:0:
286,155,188401,1,2,3:0:0:0:
239,181,188497,1,2,3:0:0:0:
220,231,188593,5,14,1:0:0:0:
200,300,188689,1,2,3:0:0:0:
137,334,188785,1,2,3:0:0:0:
69,313,188882,1,2,3:0:0:0:
37,249,188978,5,14,1:0:0:0:
60,179,189074,1,2,3:0:0:0:
123,144,189170,1,2,3:0:0:0:
181,97,189266,1,2,3:0:0:0:
168,20,189362,5,14,1:0:0:0:
100,0,189458,1,2,3:0:0:0:
43,45,189555,1,2,3:0:0:0:
54,117,189651,1,2,3:0:0:0:
123,144,189747,5,14,1:0:0:0:
181,97,189843,1,2,3:0:0:0:
168,20,189939,1,2,3:0:0:0:
100,0,190035,1,2,3:0:0:0:
43,45,190132,6,0,P|65:46|90:61,2,49,14|0|0,1:0|3:0|3:0,2:0:0:0:
54,117,190324,6,0,P|72:85|86:80,2,49,0|0|0,3:0|3:0|3:0,2:0:0:0:
123,144,190516,5,14,1:0:0:0:
165,150,190580,5,2,2:0:0:0:
180,162,190644,5,2,2:0:0:0:
189,172,190708,5,2,2:0:0:0:
193,184,190773,5,2,2:0:0:0:
193,193,190837,5,2,2:0:0:0:
192,204,190901,6,0,B|143:259|33:278|33:278|207:341|361:129|407:213|271:393|190:195|314:8|314:8|116:215|183:330,1,1127,6|0,2:0|2:0,2:0:0:0:
246,369,195420,2,0,P|249:359|250:355,2,12.25,2|0|0,2:0|2:0|2:0,2:0:0:0:
83,186,197055,6,0,B|55:67|27:133|5:9|5:9|112:139|258:147|258:147|172:112|94:135,1,661.5,0|0,2:0|2:0,2:0:0:0:
71,265,199747,2,0,P|90:264|153:214,1,98,0|0,2:0|2:0,2:0:0:0:
261,345,200708,2,0,P|268:329|272:273,1,73.5,0|0,2:0|2:0,2:0:0:0:
422,306,202199,2,0,P|422:290|405:253,1,55.125,0|0,2:0|2:0,2:0:0:0:
336,84,203208,6,0,P|338:112|342:119,1,36.75,0|0,2:0|2:0,2:0:0:0:
374,147,203593,2,0,P|397:43|337:158,1,426.3,0|0,2:0|2:0,2:0:0:0:
330,232,205997,1,0,2:0:0:0:
330,232,206285,2,0,P|371:239|405:215,1,84.5250000000001,0|0,2:0|2:0,2:0:0:0:
458,312,207391,1,0,2:0:0:0:
387,288,207920,1,0,2:0:0:0:
401,359,208593,1,0,2:0:0:0:
300,43,209362,6,0,P|262:46|225:55,1,77.175,0|0,2:0|2:0,2:0:0:0:
257,128,213064,5,0,2:0:0:0:
