osu file format v14

[General]
AudioFilename: audio.ogg
AudioLeadIn: 0
PreviewTime: 125901
Countdown: 0
SampleSet: Soft
StackLeniency: 0.4
Mode: 0
LetterboxInBreaks: 0
WidescreenStoryboard: 1

[Editor]
DistanceSpacing: 2.2
BeatDivisor: 4
GridSize: 4
TimelineZoom: 2.700001

[Metadata]
Title:Babylon
TitleUnicode:Babylon
Artist:BlackY
ArtistUnicode:BlackY
Creator:Jem Bey
Version:Seiioh's Insane
Source:
Tags:BlackmaniYa BlackY's BEATFLOOR electronic instrumental muzie neonat seiioh garvanturr pyth0nix jem bey
BeatmapID:3716003
BeatmapSetID:1737434

[Difficulty]
HPDrainRate:5
CircleSize:3.8
OverallDifficulty:8
ApproachRate:9
SliderMultiplier:1.7
SliderTickRate:1

[Events]
//Background and Video events
0,0,"bga.jpg",0,0
//Break Periods
//Storyboard Layer 0 (Background)
//Storyboard Layer 1 (Fail)
//Storyboard Layer 2 (Pass)
//Storyboard Layer 3 (Foreground)
//Storyboard Layer 4 (Overlay)
//Storyboard Sound Samples

[TimingPoints]
132,384.615384615385,4,2,1,55,1,0
132,-166.666666666667,4,2,1,55,0,0
1574,-166.666666666667,4,2,1,5,0,0
1670,-166.666666666667,4,2,1,55,0,0
2343,-166.666666666667,4,2,1,5,0,0
2439,-166.666666666667,4,2,1,55,0,0
3112,-166.666666666667,4,2,1,5,0,0
3208,-166.666666666667,4,2,1,55,0,0
3882,-166.666666666667,4,2,1,5,0,0
3978,-166.666666666667,4,2,1,55,0,0
4651,-166.666666666667,4,2,1,5,0,0
4747,-166.666666666667,4,2,1,55,0,0
6189,-166.666666666667,4,2,1,5,0,0
6285,-166.666666666667,4,2,1,55,0,0
6958,-166.666666666667,4,2,1,5,0,0
7055,-166.666666666667,4,2,1,55,0,0
7247,-166.666666666667,4,2,1,5,0,0
7343,-166.666666666667,4,2,1,55,0,0
7535,-166.666666666667,4,2,1,5,0,0
7632,-166.666666666667,4,2,1,55,0,0
8497,-166.666666666667,4,2,1,5,0,0
8593,-166.666666666667,4,2,1,55,0,0
9266,-166.666666666667,4,2,1,5,0,0
9362,-166.666666666667,4,2,1,55,0,0
10035,-166.666666666667,4,2,1,5,0,0
10132,-166.666666666667,4,2,1,55,0,0
10805,-166.666666666667,4,2,1,5,0,0
10901,-166.666666666667,4,2,1,55,0,0
12439,-100,4,2,1,60,0,0
24747,-62.5,4,2,1,60,0,0
50901,-50,4,2,1,70,0,0
52055,-100,4,2,1,70,0,0
52824,-50,4,2,1,70,0,0
55132,-100,4,2,1,70,0,0
55901,-50,4,2,1,70,0,0
56285,-100,4,2,1,70,0,0
57055,-50,4,2,1,70,0,0
57439,-100,4,2,1,70,0,0
59362,-50,4,2,1,70,0,0
59747,-200,4,2,1,70,0,0
60132,-50,4,2,1,70,0,0
60901,-100,4,2,1,70,0,0
61766,-50,4,2,1,70,0,0
64362,-100,4,2,1,70,0,0
65132,-50,4,2,1,70,0,0
66862,-100,4,2,1,70,0,0
67055,-50,4,2,1,70,0,0
67439,-100,4,2,1,70,0,0
68208,-50,4,2,1,70,0,0
68593,-100,4,2,1,70,0,0
69362,-50,4,2,1,70,0,0
69747,-100,4,2,1,70,0,0
72055,-200,4,2,1,70,0,0
72439,-50,4,2,1,70,0,0
73208,-100,4,2,1,70,0,0
73978,-50,4,2,1,70,0,0
77439,-200,4,2,1,70,0,0
77824,-100,4,2,1,70,0,0
78593,-50,4,2,1,70,0,0
79747,-100,4,2,1,70,0,0
81670,-50,4,2,1,70,0,0
82055,-100,4,2,1,70,0,0
83978,-50,4,2,1,70,0,0
84362,-200,4,2,1,70,0,0
84747,-50,4,2,1,70,0,0
85516,-100,4,2,1,70,0,0
86285,-50,4,2,1,70,0,0
89170,-100,4,2,1,70,0,0
89362,-50,4,2,1,70,0,0
90132,-100,4,2,1,70,0,0
90901,-50,4,2,1,70,0,0
91478,-100,4,2,1,70,0,0
91670,-50,4,2,1,70,0,0
92055,-100,4,2,1,70,0,0
92824,-50,4,2,1,70,0,0
94362,-100,4,2,1,70,0,0
95035,-50,4,2,1,70,0,0
96285,-100,4,2,1,70,0,0
96670,-200,4,2,1,70,0,0
97055,-50,4,2,1,70,0,0
97824,-100,4,2,1,70,0,0
99362,-50,4,2,1,70,0,0
100131,-50,4,2,1,60,0,0
112439,-100,4,2,1,60,0,0
126285,-50,4,2,1,75,0,1
184170,-100,4,2,1,75,0,1
184747,-50,4,2,1,75,0,1
187824,-100,4,2,1,75,0,1
189939,-100,4,2,1,70,0,0
190901,-231.481481481481,4,2,1,40,0,0
197055,-200,4,2,1,40,0,0
213064,-237.360550676478,4,2,1,30,0,0
213088,-237.360550676478,4,2,1,10,0,0
216670,-237.360550676478,4,2,1,5,0,0

[Colours]
Combo1 : 102,158,253
Combo2 : 54,88,248
Combo3 : 0,215,215

[HitObjects]
176,212,132,6,1,B|144:237|150:277|150:277|139:214|97:181|97:181|82:98|-6:77|-6:77|0:116,1,382.499999999999,0|0,2:0|2:0,2:0:0:0:
14,191,1670,6,1,B|53:184|53:184|68:108|147:94,1,178.5,0|0,2:0|2:0,2:0:0:0:
192,30,2439,2,1,B|203:93|153:85|167:168|167:168|172:171|172:171|177:199,1,178.5,0|0,2:0|2:0,2:0:0:0:
244,260,3208,6,1,P|282:184|366:187,1,178.5,0|0,2:0|2:0,2:0:0:0:
408,252,3978,2,1,P|369:327|285:324,1,178.5,0|0,2:0|2:0,2:0:0:0:
208,348,4747,6,1,B|199:300|233:262|233:262|160:214|90:279|90:279|107:284|107:284|59:309|68:360|68:360|88:356,1,382.499999999999,0|0,2:0|2:0,2:0:0:0:
160,384,6285,6,1,B|145:301|145:301|140:294|140:294|125:209,1,178.5,0|0,2:0|2:0,2:0:0:0:
60,180,7055,2,1,P|73:158|94:144,1,50.9999999999999,0|0,2:0|2:0,2:0:0:0:
88,72,7343,2,1,P|113:73|136:84,1,50.9999999999999,0|0,2:0|2:0,2:0:0:0:
196,40,7632,1,0,2:0:0:0:
196,40,7824,6,1,P|258:102|344:96,1,178.5,0|0,2:0|2:0,2:0:0:0:
392,40,8593,2,1,B|411:60|411:60|437:208,1,178.5,0|0,2:0|2:0,2:0:0:0:
512,228,9362,6,1,B|421:212|442:297|350:280,1,178.5,0|0,2:0|2:0,2:0:0:0:
340,356,10132,2,1,L|309:180,1,178.5,0|0,2:0|2:0,2:0:0:0:
340,112,10901,6,1,B|310:105|310:105|207:123|207:123|212:126|212:126|149:137,1,204,0|0,2:0|2:0,2:0:0:0:
448,112,12247,5,0,2:0:0:0:
448,112,12439,6,0,P|421:81|381:69,1,85,4|0,1:0|2:0,2:0:0:0:
296,0,12824,2,1,P|280:39|247:64,1,85,2|2,3:0|2:0,2:0:0:0:
144,96,13208,2,1,L|60:81,1,85,2|2,2:0|2:0,2:0:0:0:
0,192,13593,2,1,L|83:177,1,85,2|2,2:0|2:0,2:0:0:0:
192,156,13978,6,0,P|173:193|171:236,1,85,2|0,3:0|2:0,2:0:0:0:
96,316,14362,2,1,P|126:345|143:384,1,85,2|2,3:0|2:0,2:0:0:0:
240,328,14747,6,1,L|324:313,1,85,2|2,2:0|2:0,2:0:0:0:
396,228,15132,2,1,L|480:243,1,85,2|2,2:0|2:0,2:0:0:0:
448,384,15516,5,4,1:0:0:0:
448,384,15901,6,0,P|428:348|428:306,1,85,2|0,3:0|2:0,2:0:0:0:
344,280,16285,2,1,P|311:253|269:246,1,85,2|2,2:0|2:0,2:0:0:0:
228,348,16670,2,1,P|260:374|302:381,1,85,2|2,3:0|3:0,2:0:0:0:
184,272,17055,5,4,1:0:0:0:
176,280,17439,1,2,3:0:0:0:
96,296,17824,5,0,1:0:0:0:
88,304,18208,1,2,2:0:0:0:
164,384,18401,1,2,3:0:0:0:
269,234,18593,6,0,B|320:164|320:164|194:186|194:186|199:189|199:189|132:201|132:201|171:235,1,340,4|0,1:0|1:0,2:0:0:0:
0,68,20132,6,1,B|33:37|33:37|120:52|120:52|115:55|115:55|265:82|265:82|244:38,1,340,4|0,1:0|1:0,2:0:0:0:
448,112,21478,5,0,3:0:0:0:
448,112,21670,6,0,P|418:167|437:226,1,127.5,4|2,1:0|2:0,2:0:0:0:
444,232,22055,2,1,P|466:267|468:309,1,85,0|2,1:0|2:0,2:0:0:0:
364,344,22439,2,0,P|341:308|339:266,1,85,4|2,1:0|3:0,2:0:0:0:
372,184,22824,1,2,3:0:0:0:
372,184,23016,1,0,3:0:0:0:
440,384,23208,5,4,1:0:0:0:
256,336,23401,1,0,1:0:0:0:
336,268,23593,5,2,1:0:0:0:
152,316,23785,1,2,1:0:0:0:
68,372,23978,5,4,1:0:0:0:
51,333,24074,1,2,3:0:0:0:
52,291,24170,1,2,3:0:0:0:
70,253,24266,1,2,3:0:0:0:
103,226,24362,5,2,3:0:0:0:
99,205,24458,1,0,3:0:0:0:
95,184,24555,1,0,3:0:0:0:
91,163,24651,1,0,3:0:0:0:
88,140,24747,6,0,B|79:94|20:68|20:68|81:86|117:57,1,204,4|0,1:0|2:0,2:0:0:0:
168,0,25132,2,1,B|196:23|196:23|213:120,1,136,0|2,1:0|2:0,2:0:0:0:
396,228,25516,6,1,P|316:189|295:275,1,204,0|2,1:0|2:0,2:0:0:0:
360,316,25901,2,0,B|337:344|337:344|240:361,1,136,0|2,1:0|2:0,2:0:0:0:
0,256,26285,6,0,B|31:237|31:237|196:266,1,204,4|0,1:0|2:0,2:0:0:0:
272,276,26670,2,1,L|248:142,1,136,0|2,1:0|2:0,2:0:0:0:
396,0,27055,5,0,1:0:0:0:
390,33,27151,1,2,2:0:0:0:
384,66,27247,1,2,2:0:0:0:
378,100,27343,1,2,2:0:0:0:
372,133,27439,1,0,1:0:0:0:
386,163,27535,1,2,2:0:0:0:
413,183,27632,1,2,2:0:0:0:
447,186,27728,1,2,2:0:0:0:
478,174,27824,6,0,B|447:123|467:71|467:71|447:123|393:123,1,204,4|0,1:0|2:0,2:0:0:0:
384,48,28208,2,0,B|347:48|334:13|334:13|347:48|327:81,1,136,0|2,1:0|2:0,2:0:0:0:
76,52,28593,6,0,P|165:9|261:38,1,204,0|2,1:0|2:0,2:0:0:0:
328,0,28978,2,0,L|351:133,1,136,0|2,1:0|3:0,2:0:0:0:
218,181,29362,5,4,1:0:0:0:
198,225,29458,1,2,2:0:0:0:
210,273,29555,1,2,2:0:0:0:
252,302,29651,1,2,2:0:0:0:
301,299,29747,1,0,1:0:0:0:
336,302,29843,1,2,3:0:0:0:
363,321,29939,1,2,3:0:0:0:
377,351,30035,1,2,3:0:0:0:
372,384,30132,6,1,B|388:364|388:364|369:256,1,136,0|2,1:0|2:0,2:0:0:0:
256,384,30516,1,0,1:0:0:0:
504,288,30708,1,2,3:0:0:0:
368,152,30901,6,0,B|293:165|313:186|293:234|293:234|313:186|348:179,1,204,4|2,1:0|2:0,2:0:0:0:
420,207,31285,2,0,P|443:146|410:89,1,136,0|2,1:0|2:0,2:0:0:0:
276,0,31670,6,1,B|294:35|294:35|207:20|207:20|212:17|212:17|142:4,1,204,0|2,1:0|3:0,2:0:0:0:
68,0,32055,2,0,P|35:57|58:118,1,136,0|0,1:0|2:0,2:0:0:0:
186,273,32439,5,4,1:0:0:0:
197,233,32535,1,2,2:0:0:0:
191,191,32632,1,2,2:0:0:0:
169,156,32728,1,2,2:0:0:0:
134,132,32824,1,0,1:0:0:0:
92,125,32920,1,2,2:0:0:0:
51,136,33016,1,2,2:0:0:0:
19,162,33112,1,2,2:0:0:0:
0,200,33208,6,1,B|90:184|90:184|108:172|108:172|197:156,1,204,0|2,1:0|3:0,2:0:0:0:
268,192,33593,2,0,L|291:58,1,136,0|0,1:0|3:0,2:0:0:0:
428,0,33978,6,0,L|463:200,1,204,4|2,1:0|2:0,2:0:0:0:
511,256,34362,2,1,P|448:274|396:234,1,136,0|2,1:0|2:0,2:0:0:0:
280,128,34747,6,0,P|302:225|256:313,1,204,0|2,1:0|3:0,2:0:0:0:
196,368,35132,2,0,P|159:313|93:310,1,136,0|0,1:0|3:0,2:0:0:0:
0,192,35516,5,4,1:0:0:0:
124,376,35708,1,0,1:0:0:0:
160,184,35901,5,0,1:0:0:0:
167,294,36093,1,2,1:0:0:0:
302,257,36285,5,0,1:0:0:0:
335,265,36382,1,2,3:0:0:0:
368,272,36478,1,2,3:0:0:0:
401,280,36574,1,2,3:0:0:0:
434,287,36670,1,0,1:0:0:0:
512,304,36862,1,0,3:0:0:0:
512,304,37055,6,0,L|311:339,1,204,4|0,1:0|2:0,2:0:0:0:
264,280,37439,2,1,L|130:303,1,136,0|2,1:0|2:0,2:0:0:0:
0,379,37824,6,1,P|43:290|7:198,1,204,0|2,1:0|2:0,2:0:0:0:
48,136,38208,2,0,P|18:76|43:15,1,136,0|2,1:0|2:0,2:0:0:0:
203,102,38593,6,1,B|217:133|217:133|384:162,1,204,4|0,1:0|2:0,2:0:0:0:
448,112,38978,2,1,B|433:80|433:80|333:63,1,136,0|2,1:0|2:0,2:0:0:0:
121,53,39362,5,0,1:0:0:0:
70,48,39458,1,2,2:0:0:0:
26,72,39555,1,2,2:0:0:0:
2,116,39651,1,2,2:0:0:0:
5,166,39747,1,0,1:0:0:0:
24,193,39843,1,2,2:0:0:0:
30,226,39939,1,2,2:0:0:0:
22,259,40035,1,2,2:0:0:0:
0,284,40132,6,0,B|98:301|98:301|105:306|105:306|199:323,1,204,4|0,1:0|2:0,2:0:0:0:
252,384,40516,2,0,B|317:372|317:372|322:368|322:368|384:357,1,136,0|2,1:0|2:0,2:0:0:0:
512,248,40901,6,1,P|417:235|397:142,1,204,0|2,1:0|2:0,2:0:0:0:
348,36,41285,2,0,P|335:99|272:107,1,136,0|2,1:0|3:0,2:0:0:0:
178,298,41670,5,4,1:0:0:0:
172,248,41766,1,2,2:0:0:0:
196,204,41862,1,2,2:0:0:0:
242,182,41958,1,2,2:0:0:0:
291,191,42055,1,0,1:0:0:0:
293,207,42151,1,2,3:0:0:0:
296,224,42247,1,2,3:0:0:0:
299,241,42343,1,2,3:0:0:0:
302,257,42439,6,1,P|363:281|423:254,1,136,0|2,1:0|2:0,2:0:0:0:
500,256,42728,1,2,2:0:0:0:
500,256,42824,2,1,L|484:120,1,136,0|2,1:0|3:0,2:0:0:0:
360,200,43208,5,4,1:0:0:0:
428,384,43593,1,0,1:0:0:0:
500,256,43978,1,0,1:0:0:0:
428,288,44362,1,0,1:0:0:0:
428,288,44555,1,0,1:0:0:0:
255,335,44747,5,4,1:0:0:0:
234,309,44843,1,2,2:0:0:0:
204,295,44939,1,2,2:0:0:0:
170,294,45035,1,2,2:0:0:0:
139,308,45132,1,0,1:0:0:0:
108,321,45228,1,2,2:0:0:0:
74,321,45324,1,2,2:0:0:0:
44,306,45420,1,2,2:0:0:0:
24,280,45516,2,1,L|0:146,1,136,0|2,1:0|3:0,2:0:0:0:
160,0,45901,2,0,L|136:133,1,136,0|0,1:0|3:0,2:0:0:0:
256,192,46285,5,4,1:0:0:0:
448,112,46478,1,2,2:0:0:0:
336,64,46670,1,0,1:0:0:0:
336,64,46766,1,2,2:0:0:0:
336,64,46862,1,0,1:0:0:0:
424,0,47055,5,0,1:0:0:0:
344,192,47247,1,2,3:0:0:0:
428,288,47439,1,0,1:0:0:0:
428,288,47535,1,0,2:0:0:0:
428,288,47632,1,0,1:0:0:0:
394,378,47824,5,4,1:0:0:0:
394,378,47920,1,2,2:0:0:0:
394,378,48016,2,0,L|427:383,2,34,0|0|2,3:0|3:0|3:0,2:0:0:0:
303,362,48208,5,2,2:0:0:0:
303,362,48305,1,2,2:0:0:0:
303,362,48401,2,0,L|269:356,2,34,0|0|2,3:0|3:0|3:0,2:0:0:0:
362,293,48593,5,0,1:0:0:0:
353,242,48689,1,2,3:0:0:0:
344,192,48785,1,2,3:0:0:0:
335,142,48882,1,2,3:0:0:0:
326,92,48978,2,0,L|331:58,6,34,0|0|2|0|0|0|0,3:0|3:0|3:0|2:0|3:0|2:0|3:0,2:0:0:0:
448,112,50132,5,2,2:0:0:0:
436,161,50228,1,0,2:0:0:0:
401,197,50324,1,2,2:0:0:0:
352,209,50420,1,0,2:0:0:0:
304,196,50516,2,0,L|270:190,6,34,0|0|0|0|0|0|0,3:0|3:0|3:0|3:0|3:0|3:0|3:0,2:0:0:0:
220,128,50901,6,0,B|195:147|195:147|177:250|177:250|183:243|183:243|170:314|170:314|141:339,1,255,4|0,1:0|2:0,2:0:0:0:
144,346,51285,2,1,B|122:363|122:363|67:353,1,85,0|0,1:0|2:0,2:0:0:0:
15,270,51478,2,1,B|36:252|36:252|91:262,1,85,0|0,1:0|2:0,2:0:0:0:
172,276,51670,1,8,1:0:0:0:
40,152,51862,1,0,3:0:0:0:
40,152,51958,1,0,3:0:0:0:
40,152,52055,2,0,L|25:68,1,85,8|0,1:0|3:0,2:0:0:0:
200,44,52632,6,1,L|203:23,2,21.25,0|0|0,1:0|1:0|1:0,2:0:0:0:
236,116,52824,2,0,P|268:88|309:80,1,85,0|0,1:0|2:0,2:0:0:0:
340,8,53016,2,0,P|372:35|413:43,1,85,0|0,1:0|2:0,2:0:0:0:
448,112,53208,1,8,1:0:0:0:
428,288,53401,6,0,P|449:324|451:366,2,85,2|2|2,1:2|2:0|2:0,2:0:0:0:
368,240,53689,5,2,3:0:0:0:
368,240,53785,1,2,3:0:0:0:
368,240,53882,1,2,3:0:0:0:
368,240,53978,2,0,B|350:255|350:255|205:280,1,170,0|0,1:0|2:0,2:0:0:0:
192,272,54266,5,0,1:0:0:0:
180,264,54362,2,1,B|190:278|190:278|202:345,2,85,0|0|0,2:0|1:0|1:0,2:0:0:0:
0,192,54747,1,8,1:0:0:0:
116,376,54939,1,0,3:0:0:0:
116,376,55035,1,0,3:0:0:0:
116,376,55132,2,0,B|121:362|121:362|114:321,2,56.6666666666667,0|0|0,1:0|1:0|1:0,2:0:0:0:
228,183,55708,6,1,L|249:186,2,21.25,0|0|0,3:0|3:0|3:0,2:0:0:0:
156,212,55901,2,0,P|140:173|105:150,1,85,0|0,1:0|2:0,2:0:0:0:
80,80,56093,2,0,P|38:84|2:63,1,85,0|0,1:0|2:0,2:0:0:0:
144,0,56285,6,0,L|153:55,2,56.6666666666667,8|2|2,1:0|2:0|2:0,2:0:0:0:
220,128,56670,5,2,3:0:0:0:
261,121,56766,1,2,3:0:0:0:
303,114,56862,1,2,3:0:0:0:
345,106,56958,1,2,3:0:0:0:
386,99,57055,6,1,B|376:106|332:72|312:19|401:-36|446:-16|485:44|424:30|462:92,1,255,4|0,1:0|2:0,2:0:0:0:
436,168,57439,2,1,B|440:195|421:223|421:223|432:196|428:169,1,113.333333333333,0|0,1:0|2:0,2:0:0:0:
504,100,57824,6,0,L|462:92,1,42.5,8|0,1:0|2:0,2:0:0:0:
387,99,58016,2,1,L|303:84,1,85,0|0,1:0|2:0,2:0:0:0:
264,20,58305,1,0,1:0:0:0:
352,188,58497,1,0,1:0:0:0:
180,264,58689,1,0,1:0:0:0:
256,384,58882,1,0,1:0:0:0:
256,384,58978,2,0,L|297:376,1,42.5,0|0,1:0|2:0,2:0:0:0:
352,320,59170,2,1,L|393:312,1,42.5,0|0,1:0|2:0,2:0:0:0:
432,228,59362,6,0,B|460:251|460:251|483:382,1,170,8|0,1:0|1:0,2:0:0:0:
192,272,59747,6,0,L|129:260,1,63.75,0|0,3:0|2:0,2:0:0:0:
52,308,60132,6,0,B|13:228|74:181|72:193|132:151|92:75,1,255,0|0,1:0|2:0,2:0:0:0:
29,38,60516,2,0,B|19:126|93:148|87:138|158:157|147:242,1,255,0|0,1:0|2:0,2:0:0:0:
129,260,60901,2,0,L|45:245,1,85,8|0,1:0|1:0,2:0:0:0:
112,56,61285,1,0,2:0:0:0:
261,121,61478,2,0,L|281:117,2,21.25,0|0|0,1:0|1:0|1:0,2:0:0:0:
184,157,61670,5,0,1:0:0:0:
184,157,61766,2,1,L|351:186,1,170,0|0,2:0|1:0,2:0:0:0:
512,60,62151,1,0,1:0:0:0:
512,60,62247,1,0,1:0:0:0:
512,60,62343,1,0,1:0:0:0:
512,60,62439,2,0,P|470:56|438:82,1,85,8|0,1:0|2:0,2:0:0:0:
360,96,62632,2,0,B|369:147|394:130|403:181|403:181|418:268|418:268|430:335|340:351|328:284|328:284|313:201,1,425,0|0,1:0|2:0,2:0:0:0:
320,204,63208,6,0,B|298:225|298:225|223:238|223:238|226:233|226:233|128:251|128:251|155:284,1,255,4|0,1:0|2:0,2:0:0:0:
164,288,63593,2,1,L|149:204,1,85,0|0,1:0|2:0,2:0:0:0:
208,156,63785,1,0,1:0:0:0:
80,384,63978,2,0,L|65:300,1,85,8|0,1:0|2:0,2:0:0:0:
12,248,64170,1,0,3:0:0:0:
12,248,64266,1,0,3:0:0:0:
12,248,64362,2,0,L|26:164,1,85,8|0,1:0|3:0,2:0:0:0:
200,44,64939,6,1,L|196:24,2,21.25,0|0|0,3:0|3:0|3:0,2:0:0:0:
128,76,65132,2,0,P|152:110|190:128,1,85,0|0,1:0|2:0,2:0:0:0:
256,172,65324,2,0,P|280:137|318:119,1,85,0|0,1:0|2:0,2:0:0:0:
356,52,65516,1,8,1:0:0:0:
512,152,65708,1,2,1:2:0:0:
512,152,65805,1,2,2:0:0:0:
512,152,65901,1,2,2:0:0:0:
408,0,66285,6,0,B|399:21|399:21|425:166,1,170,0|0,1:0|2:0,2:0:0:0:
492,216,66574,1,0,1:0:0:0:
492,216,66670,2,1,L|506:299,1,85,0|0,2:0|1:0,2:0:0:0:
440,340,66862,2,0,L|447:381,1,42.5,0|0,1:0|2:0,2:0:0:0:
376,296,67055,2,0,P|335:283|291:295,1,85,8|0,1:0|2:0,2:0:0:0:
236,344,67247,1,0,3:0:0:0:
236,344,67343,1,0,3:0:0:0:
236,344,67439,2,0,P|220:367|196:381,2,56.6666666666667,0|0|0,1:0|1:0|1:0,2:0:0:0:
20,264,68016,6,1,L|0:267,2,21.25,0|0|0,3:0|3:0|3:0,2:0:0:0:
92,300,68208,2,0,L|106:216,1,85,0|0,1:0|2:0,2:0:0:0:
52,148,68401,2,0,L|37:64,1,85,0|0,1:0|2:0,2:0:0:0:
136,56,68593,6,0,L|145:0,2,56.6666666666667,8|0|0,1:0|2:0|2:0,2:0:0:0:
256,92,68978,5,2,3:0:0:0:
256,92,69074,1,2,3:0:0:0:
256,92,69170,2,1,L|297:84,1,42.5,2|0,3:0|2:0,2:0:0:0:
400,0,69362,6,0,B|409:51|450:11|468:113|468:113|465:118|465:118|478:189|478:189|452:160,1,255,4|0,1:0|1:0,2:0:0:0:
376,172,69747,2,1,P|374:143|385:118,2,56.6666666666667,0|0|0,1:0|1:0|1:0,2:0:0:0:
416,240,70132,6,0,P|432:252|441:271,1,42.5,8|0,1:0|2:0,2:0:0:0:
396,332,70324,2,0,P|362:306|344:268,1,85,0|0,1:0|2:0,2:0:0:0:
356,192,70612,1,0,1:0:0:0:
332,384,70805,1,0,1:0:0:0:
476,348,70997,1,0,1:0:0:0:
256,276,71189,1,0,1:0:0:0:
256,276,71285,2,0,L|172:290,1,85,0|0,1:0|1:0,2:0:0:0:
95,384,71670,6,0,P|100:363|97:342,1,42.5,8|0,1:0|2:0,2:0:0:0:
28,308,71862,2,0,P|17:289|2:274,1,42.5,0|0,1:0|2:0,2:0:0:0:
64,224,72055,2,0,L|75:161,1,63.75,0|0,1:0|2:0,2:0:0:0:
0,108,72439,6,0,B|98:90|33:20|183:-5|183:-5|208:12,1,255,0|0,1:0|2:0,2:0:0:0:
256,135,72824,2,0,B|234:156|234:156|82:156|134:76|34:76,1,255,0|0,1:0|2:0,2:0:0:0:
14,83,73208,2,0,L|0:0,1,85,8|0,1:0|1:0,2:0:0:0:
190,128,73785,6,0,L|186:148,2,21.25,0|0|0,1:0|1:0|1:0,2:0:0:0:
216,52,73978,2,1,P|251:75|268:113,1,85,0|0,1:0|1:0,2:0:0:0:
340,88,74170,2,1,P|377:106|419:102,1,85,0|0,1:0|1:0,2:0:0:0:
464,40,74362,1,2,3:0:0:0:
512,192,74555,1,0,1:0:0:0:
512,192,74651,1,0,1:0:0:0:
512,192,74747,2,0,B|461:158|482:36|482:36|461:158|401:172|401:172|387:251|437:292|437:292|498:270|498:270|462:264|444:237,1,595,8|0,1:0|2:0,2:0:0:0:
324,228,75516,6,0,B|257:239|297:261|206:277|206:277|197:270|197:270|147:169|147:169|159:167|159:167|227:196,1,340,6|6,1:0|1:0,2:0:0:0:
332,384,76093,5,0,1:0:0:0:
332,384,76189,1,0,2:0:0:0:
331,384,76285,2,0,P|362:354|403:345,1,85,14|0,1:0|2:0,2:0:0:0:
511,314,76478,1,0,1:0:0:0:
511,314,76574,1,0,1:0:0:0:
510,313,76670,2,0,P|437:273|404:197,1,170,2|0,1:0|1:0,2:0:0:0:
512,52,77055,6,1,L|344:81,1,170,0|0,2:0|3:0,2:0:0:0:
256,100,77343,1,0,3:0:0:0:
256,100,77439,2,0,L|263:58,1,42.5,4|0,1:0|1:0,2:0:0:0:
136,16,77824,6,1,L|143:57,1,42.5,8|0,1:0|2:0,2:0:0:0:
52,8,78016,1,0,3:0:0:0:
52,8,78112,1,0,3:0:0:0:
52,8,78208,2,0,L|59:49,1,42.5,2|0,3:0|1:0,2:0:0:0:
0,108,78401,5,0,1:0:0:0:
0,108,78497,1,0,1:0:0:0:
0,108,78593,2,0,B|23:124|23:124|47:263,1,170,6|0,1:0|2:0,2:0:0:0:
40,276,78882,5,0,1:0:0:0:
32,288,78978,2,0,L|115:273,2,85,6|0|0,1:0|1:0|3:0,2:0:0:0:
0,384,79362,1,14,1:0:0:0:
92,192,79555,5,0,1:0:0:0:
92,192,79651,1,0,1:0:0:0:
92,192,79747,2,0,L|36:201,2,56.6666666666667,2|0|0,1:0|1:0|1:0,2:0:0:0:
192,192,80132,6,1,P|228:213|248:249,1,85,0|0,2:0|3:0,2:0:0:0:
312,300,80420,1,0,3:0:0:0:
312,300,80516,2,0,L|297:383,1,85,4|0,1:0|1:0,2:0:0:0:
408,233,80901,6,0,L|397:177,2,56.6666666666667,8|2|2,1:0|2:0|2:0,2:0:0:0:
349,49,81285,5,2,3:0:0:0:
308,56,81382,1,0,1:0:0:0:
266,63,81478,1,0,1:0:0:0:
224,71,81574,1,0,1:0:0:0:
182,78,81670,6,1,B|111:65|162:29|91:17|46:37|28:140|81:161|136:151|137:140,1,255,6|0,1:0|2:0,2:0:0:0:
212,156,82055,2,0,B|212:184|188:204|188:204|220:188|220:160,1,113.333333333333,6|0,1:0|2:0,2:0:0:0:
260,92,82439,6,0,L|343:75,1,85,14|0,1:0|1:0,2:0:0:0:
492,52,82824,1,2,1:0:0:0:
491,52,82920,2,0,P|475:66|467:86,1,42.5,0|0,2:0|1:0,2:0:0:0:
428,168,83112,1,0,1:0:0:0:
428,168,83208,2,1,P|451:202|458:244,1,85,0|0,2:0|2:0,2:0:0:0:
504,336,83497,1,0,3:0:0:0:
504,336,83593,2,1,L|462:328,1,42.5,4|0,1:0|2:0,2:0:0:0:
396,368,83785,2,0,L|354:360,1,42.5,0|0,1:0|2:0,2:0:0:0:
268,360,83978,6,0,B|248:332|248:332|114:308,1,170,8|0,1:0|3:0,2:0:0:0:
0,384,84362,2,0,L|11:321,1,63.75,2|0,3:0|1:0,2:0:0:0:
0,236,84747,6,0,B|80:275|127:214|115:216|157:156|233:196,1,255,6|0,1:0|2:0,2:0:0:0:
270,259,85132,2,0,B|182:269|160:195|170:201|151:130|66:141,1,255,6|0,1:0|2:0,2:0:0:0:
48,132,85516,2,0,L|62:215,1,85,14|0,1:0|1:0,2:0:0:0:
164,84,85901,2,0,L|178:0,1,85,2|0,1:0|3:0,2:0:0:0:
92,44,86189,1,0,3:0:0:0:
92,44,86285,6,0,P|148:103|229:93,1,170,0|0,1:0|2:0,2:0:0:0:
308,95,86574,2,0,P|325:58|363:40,1,85,0|0,1:0|2:0,2:0:0:0:
436,0,86766,1,0,1:0:0:0:
436,0,86862,1,0,1:0:0:0:
436,0,86958,1,0,1:0:0:0:
436,0,87055,2,0,L|450:83,1,85,8|0,1:0|2:0,2:0:0:0:
512,132,87247,2,0,B|492:243|423:175|344:304|422:465|549:411|574:268|481:302|493:238,1,425,0|0,3:0|1:0,2:0:0:0:
508,232,87824,6,0,B|491:255|491:255|365:277|365:277|317:257|317:257|271:265,1,255,6|0,1:0|2:0,2:0:0:0:
260,264,88208,2,0,B|258:276|258:276|270:347,1,85,2|0,3:0|2:0,2:0:0:0:
336,384,88401,1,2,3:0:0:0:
148,208,88593,2,0,B|146:220|146:220|158:291,1,85,8|0,1:0|2:0,2:0:0:0:
84,344,88785,5,0,1:0:0:0:
84,344,88882,1,0,1:0:0:0:
84,344,88978,2,0,B|85:331|85:331|73:260,1,85,2|0,1:0|2:0,2:0:0:0:
24,200,89170,2,0,L|31:158,1,42.5,0|0,1:0|2:0,2:0:0:0:
40,84,89362,6,1,L|25:0,1,85,2|0,2:0|2:0,2:0:0:0:
120,40,89555,1,0,3:0:0:0:
120,40,89651,1,0,3:0:0:0:
120,40,89747,2,0,P|192:78|269:47,1,170,4|0,1:0|1:0,2:0:0:0:
320,200,90132,2,0,L|327:158,1,42.5,8|0,1:0|2:0,2:0:0:0:
344,80,90324,2,0,L|351:38,2,42.5,0|0|2,3:0|3:0|3:0,2:0:0:0:
456,0,90708,5,0,2:0:0:0:
456,0,90805,1,0,2:0:0:0:
456,0,90901,2,0,B|470:78|470:78|467:83|467:83|482:166,1,170,6|2,1:0|3:0,2:0:0:0:
512,248,91189,1,0,2:0:0:0:
512,248,91285,2,0,B|472:241|472:241|470:242|470:242|428:235,1,85,2|0,3:0|2:0,2:0:0:0:
360,200,91478,2,0,B|356:219|356:219|357:220|357:220|353:241,1,42.5,2|0,3:0|2:0,2:0:0:0:
336,320,91670,6,0,P|302:345|261:349,1,85,8|0,1:0|2:0,2:0:0:0:
188,376,91862,1,0,2:0:0:0:
188,376,91958,1,0,1:0:0:0:
188,376,92055,2,0,P|161:367|139:350,2,56.6666666666667,2|0|0,1:0|3:0|1:0,2:0:0:0:
136,260,92439,1,0,2:0:0:0:
4,364,92632,6,0,L|0:384,2,21.25,0|0|0,3:0|3:0|3:0,2:0:0:0:
64,316,92824,2,0,L|49:232,1,85,4|0,1:0|2:0,2:0:0:0:
0,176,93016,2,1,L|14:92,1,85,0|0,2:0|2:0,2:0:0:0:
68,36,93208,1,8,1:0:0:0:
148,208,93401,1,0,3:0:0:0:
308,95,93593,1,2,3:0:0:0:
308,95,93689,1,0,2:0:0:0:
308,95,93785,1,0,2:0:0:0:
456,192,93978,6,0,B|443:121|497:152|476:33|476:33|473:38|473:38|389:53,1,255,6|0,1:0|2:0,2:0:0:0:
312,40,94362,2,1,L|321:95,2,56.6666666666667,0|0|0,1:0|1:0|1:0,2:0:0:0:
236,80,94747,6,0,P|219:67|199:60,1,42.5,8|0,1:0|2:0,2:0:0:0:
152,0,94939,1,0,1:0:0:0:
152,0,95035,2,0,P|117:25|77:38,1,85,0|2,2:0|1:0,2:0:0:0:
8,0,95228,1,0,1:0:0:0:
184,128,95420,1,0,1:0:0:0:
184,128,95516,1,2,2:0:0:0:
183,128,95612,2,0,P|173:169|151:205,1,85,0|0,1:0|2:0,2:0:0:0:
96,280,95805,1,0,3:0:0:0:
96,280,95901,1,4,1:0:0:0:
96,280,95997,2,0,L|179:294,1,85,0|0,2:0|1:0,2:0:0:0:
300,384,96285,6,0,P|314:368|332:357,1,42.5,8|0,1:0|2:0,2:0:0:0:
380,300,96478,2,1,P|400:297|421:300,1,42.5,0|0,3:0|3:0,2:0:0:0:
500,320,96670,2,0,L|488:257,1,63.75,2|0,3:0|2:0,2:0:0:0:
412,256,97055,6,0,B|430:158|500:223|525:73|525:73|508:48,1,255,6|0,1:0|2:0,2:0:0:0:
385,0,97439,2,0,B|364:21|364:21|364:174|444:121|444:222,1,255,2|0,3:0|2:0,2:0:0:0:
464,244,97824,2,0,L|381:261,1,85,8|0,1:0|1:0,2:0:0:0:
80,288,98208,6,0,L|121:295,1,42.5,2|0,1:0|2:0,2:0:0:0:
192,364,98401,2,0,L|171:360,2,21.25,0|0|0,1:0|1:0|1:0,2:0:0:0:
280,384,98593,5,8,1:0:0:0:
274,352,98689,1,8,1:0:0:0:
268,321,98785,1,0,3:0:0:0:
263,289,98882,1,0,3:0:0:0:
178,168,99074,5,0,1:0:0:0:
184,136,99170,1,0,1:0:0:0:
190,105,99266,1,0,1:0:0:0:
194,73,99362,2,0,P|332:55|269:178,2,340,8|2|4,1:0|3:0|1:0,2:0:0:0:
170,227,100901,5,2,2:0:0:0:
329,248,101285,5,2,2:0:0:0:
268,100,101670,5,2,2:0:0:0:
148,208,102247,5,2,2:0:0:0:
140,204,102343,1,2,2:0:0:0:
132,200,102439,1,2,2:0:0:0:
80,128,103016,5,2,2:0:0:0:
148,312,103208,1,2,2:0:0:0:
0,272,103785,5,2,2:0:0:0:
8,268,103882,1,2,2:0:0:0:
16,264,103978,1,2,2:0:0:0:
48,196,104170,1,2,2:0:0:0:
116,228,104362,1,2,2:0:0:0:
148,160,104555,1,2,2:0:0:0:
216,192,104747,1,2,2:0:0:0:
432,120,105324,5,2,2:0:0:0:
440,116,105420,1,2,2:0:0:0:
448,112,105516,1,2,2:0:0:0:
403,50,105708,1,2,2:0:0:0:
330,73,105901,1,2,2:0:0:0:
330,150,106093,1,2,2:0:0:0:
403,173,106285,1,2,2:0:0:0:
512,344,106862,5,2,2:0:0:0:
504,340,106958,1,2,2:0:0:0:
496,336,107055,1,2,2:0:0:0:
368,356,107343,1,2,2:0:0:0:
240,376,107632,1,2,2:0:0:0:
248,384,107824,5,2,2:0:0:0:
148,312,108401,5,2,2:0:0:0:
140,308,108497,1,2,2:0:0:0:
132,304,108593,1,2,2:0:0:0:
56,316,108785,1,2,2:0:0:0:
132,304,108978,1,2,2:0:0:0:
56,316,109170,1,2,2:0:0:0:
104,372,109362,5,2,2:0:0:0:
104,372,110324,5,2,2:0:0:0:
216,192,110708,5,2,2:0:0:0:
144,100,110901,5,2,2:0:0:0:
144,100,111285,5,2,2:0:0:0:
144,100,111670,5,2,2:0:0:0:
196,32,112055,5,2,2:0:0:0:
196,32,112151,1,2,2:0:0:0:
196,32,112247,1,0,3:0:0:0:
196,32,112343,1,0,2:0:0:0:
196,32,112439,2,0,P|224:64|232:105,1,85,4|0,1:0|2:0,2:0:0:0:
328,120,112824,2,1,P|300:151|292:192,1,85,2|2,2:0|2:0,2:0:0:0:
256,264,113208,5,2,3:0:0:0:
260,276,113401,1,2,2:0:0:0:
312,336,113593,5,2,3:0:0:0:
316,348,113785,1,2,2:0:0:0:
432,384,113978,6,0,P|404:352|396:311,1,85,2|0,3:0|2:0,2:0:0:0:
468,280,114266,1,0,2:0:0:0:
468,280,114362,2,1,P|495:311|503:352,1,85,0|2,2:0|2:0,2:0:0:0:
316,348,114747,2,0,L|148:318,1,170,2|2,3:0|3:0,2:0:0:0:
0,383,115516,6,0,P|31:306|8:226,1,170,4|2,1:0|2:0,2:0:0:0:
8,88,116285,2,0,P|58:154|139:174,1,170,2|2,3:0|3:0,2:0:0:0:
132,36,117055,5,2,3:0:0:0:
8,226,117439,5,2,3:0:0:0:
132,36,117824,5,2,3:0:0:0:
8,226,118208,5,2,3:0:0:0:
148,318,118401,1,0,3:0:0:0:
148,318,118593,2,0,L|315:288,1,170,4|0,1:0|2:0,2:0:0:0:
512,192,119362,2,0,L|344:162,1,170,0|2,3:0|3:0,2:0:0:0:
192,0,120132,6,0,P|255:53|269:135,1,170,2|0,3:0|2:0,2:0:0:0:
152,208,120901,2,0,P|88:154|74:72,1,170,2|2,3:0|3:0,2:0:0:0:
269,135,121478,1,0,1:0:0:0:
148,318,121670,5,12,1:0:0:0:
148,318,122055,1,0,1:0:0:0:
172,104,122439,5,12,1:0:0:0:
172,104,122824,1,0,1:0:0:0:
384,192,123016,1,0,1:0:0:0:
384,192,123112,1,0,2:0:0:0:
384,192,123208,5,12,1:0:0:0:
276,248,123401,1,0,1:0:0:0:
308,340,123593,5,8,1:0:0:0:
280,240,123785,1,0,2:0:0:0:
200,272,123978,5,8,1:0:0:0:
168,266,124074,1,0,3:0:0:0:
137,260,124170,1,0,3:0:0:0:
105,255,124266,1,0,3:0:0:0:
74,249,124362,5,0,3:0:0:0:
48,294,124458,1,0,3:0:0:0:
60,344,124555,1,0,3:0:0:0:
103,373,124651,1,0,3:0:0:0:
154,365,124747,1,4,1:0:0:0:
12,208,125901,6,0,P|-17:154|9:99,1,127.5,2|0,2:0|2:0,2:0:0:0:
88,93,126285,6,0,B|88:57|52:29|52:29|160:29|176:89|156:129,1,255,6|2,1:0|2:0,2:0:0:0:
220,172,126670,2,1,P|188:200|147:207,1,85,8|0,1:0|3:0,2:0:0:0:
36,221,126862,5,0,3:0:0:0:
36,221,126958,1,0,3:0:0:0:
36,221,127055,2,1,P|69:245|84:285,1,85,2|0,1:0|3:0,2:0:0:0:
52,369,127247,2,1,L|135:354,1,85,0|0,3:0|3:0,2:0:0:0:
180,284,127439,2,1,L|347:313,1,170,10|0,1:0|3:0,2:0:0:0:
512,336,127824,6,0,B|521:387|442:401|412:369|396:279|487:291|474:218,1,255,6|2,1:0|2:0,2:0:0:0:
396,223,128208,2,1,P|385:183|356:152,1,85,8|0,1:0|3:0,2:0:0:0:
492,60,128401,5,2,3:0:0:0:
492,60,128497,1,2,3:0:0:0:
492,60,128593,2,0,P|469:95|469:137,1,85,2|2,1:0|2:0,2:0:0:0:
388,228,128785,2,1,P|377:187|348:156,1,85,2|2,2:0|2:0,2:0:0:0:
384,72,128978,2,0,L|216:42,1,170,8|2,1:0|1:0,2:0:0:0:
16,96,129362,6,0,B|43:66|33:11|33:11|55:137|55:137|51:138|51:138|57:171,1,255,6|2,1:0|2:0,2:0:0:0:
140,144,129747,2,0,L|125:227,1,85,8|0,1:0|3:0,2:0:0:0:
32,352,129939,5,0,3:0:0:0:
32,352,130035,1,0,3:0:0:0:
32,352,130132,2,0,P|64:326|106:319,1,85,6|0,1:0|2:0,2:0:0:0:
152,260,130324,2,0,P|191:275|218:307,1,85,2|0,1:0|2:0,2:0:0:0:
288,384,130516,2,0,L|302:300,1,85,10|0,1:0|2:0,2:0:0:0:
372,224,130708,2,0,L|386:307,1,85,2|0,1:0|2:0,2:0:0:0:
512,336,130901,6,1,L|260:291,1,255,6|2,1:0|2:0,2:0:0:0:
125,227,131285,2,0,L|208:212,1,85,8|2,1:0|2:0,2:0:0:0:
308,192,131478,5,0,3:0:0:0:
315,150,131574,1,0,3:0:0:0:
322,108,131670,1,2,1:0:0:0:
330,66,131766,1,0,3:0:0:0:
337,24,131862,1,2,1:3:0:0:
140,144,132055,1,10,1:0:0:0:
288,384,132247,1,0,3:0:0:0:
288,384,132343,1,0,3:0:0:0:
288,384,132439,6,0,B|304:336|356:328|356:328|252:272|168:344|168:344|196:352|205:365,1,340,6|8,1:0|1:0,2:0:0:0:
32,352,133016,1,2,2:0:0:0:
32,352,133112,1,2,2:0:0:0:
32,352,133208,2,0,P|82:285|82:201,1,170,2|0,1:3|2:0,2:0:0:0:
4,64,133497,1,0,2:0:0:0:
4,64,133593,2,1,P|22:101|60:119,1,85,8|0,1:0|2:0,2:0:0:0:
112,48,133785,2,0,P|152:36|176:2,1,85,2|0,3:0|2:0,2:0:0:0:
241,96,133978,6,1,B|359:75|359:75|376:80|376:80|491:59,1,255,6|2,1:0|2:0,2:0:0:0:
472,48,134362,2,1,L|486:131,1,85,8|0,1:0|3:0,2:0:0:0:
432,208,134555,5,2,2:0:0:0:
432,208,134651,1,0,3:0:0:0:
433,207,134747,2,0,P|399:231|388:271,1,85,2|2,1:0|2:0,2:0:0:0:
460,320,134939,2,1,P|493:295|504:255,1,85,2|2,2:0|2:0,2:0:0:0:
424,200,135132,2,0,P|390:224|379:264,1,85,4|0,1:2|2:0,2:0:0:0:
408,384,135324,2,0,P|383:350|343:339,1,85,4|0,1:2|2:0,2:0:0:0:
260,291,135516,5,6,1:0:0:0:
218,298,135612,1,0,2:0:0:0:
176,305,135708,1,0,2:0:0:0:
134,313,135805,1,2,2:0:0:0:
92,320,135901,2,1,P|58:295|47:255,1,85,8|2,1:0|2:0,2:0:0:0:
0,176,136093,5,2,2:0:0:0:
0,176,136189,1,2,2:0:0:0:
0,176,136285,2,1,P|23:140|20:99,1,85,2|2,1:0|2:0,2:0:0:0:
0,8,136478,2,1,L|83:22,1,85,2|2,2:0|2:0,2:0:0:0:
148,80,136670,2,0,L|315:50,1,170,8|0,1:0|3:0,2:0:0:0:
408,0,136958,5,0,3:0:0:0:
408,0,137055,2,0,L|393:83,1,85,6|2,1:0|2:0,2:0:0:0:
512,180,137247,2,0,L|497:96,1,85,0|2,3:0|2:0,2:0:0:0:
400,0,137439,2,1,L|370:167,1,170,8|0,1:0|3:0,2:0:0:0:
288,208,137728,1,0,3:0:0:0:
288,208,137824,2,1,P|309:244|313:286,1,85,2|2,1:0|2:0,2:0:0:0:
288,384,138016,5,0,3:0:0:0:
288,384,138112,1,0,3:0:0:0:
288,384,138208,1,8,1:0:0:0:
330,376,138305,1,0,3:0:0:0:
372,369,138401,1,0,3:0:0:0:
414,361,138497,1,0,3:0:0:0:
456,354,138593,6,0,P|333:329|253:232,1,255,6|0,1:0|2:0,2:0:0:0:
180,136,138978,2,0,P|188:177|175:217,1,85,8|2,1:0|2:0,2:0:0:0:
96,212,139170,2,0,P|64:240|23:249,1,85,2|0,2:0|2:0,2:0:0:0:
28,164,139362,1,2,1:0:0:0:
135,353,139555,1,2,3:0:0:0:
135,353,139651,1,0,2:0:0:0:
135,353,139747,1,8,1:0:0:0:
256,120,139939,1,2,1:2:0:0:
344,224,140132,6,0,L|511:253,1,170,6|0,1:0|2:0,2:0:0:0:
480,164,140420,5,8,1:0:0:0:
480,164,140516,2,1,L|465:80,1,85,0|0,2:0|2:0,2:0:0:0:
388,0,140708,2,0,L|373:83,1,85,8|0,1:0|2:0,2:0:0:0:
312,152,140901,2,0,P|232:165|183:100,1,170,2|0,1:0|2:0,2:0:0:0:
128,28,141189,1,0,3:0:0:0:
128,28,141285,2,0,L|211:13,1,85,8|0,1:0|2:0,2:0:0:0:
96,112,141478,2,0,L|12:97,1,85,0|2,3:0|3:0,2:0:0:0:
0,0,141670,6,0,B|35:33|35:33|71:236,1,255,6|0,1:0|3:0,2:0:0:0:
84,244,142055,2,0,L|98:327,1,85,8|0,1:0|2:0,2:0:0:0:
24,384,142247,2,0,L|9:300,1,85,2|0,2:0|2:0,2:0:0:0:
0,312,142439,5,6,1:0:0:0:
256,120,142728,1,8,1:0:0:0:
200,384,143016,1,2,2:0:0:0:
118,220,143208,5,2,1:0:0:0:
204,376,143401,1,0,2:0:0:0:
256,295,143593,5,2,1:0:0:0:
208,368,143785,1,0,2:0:0:0:
352,332,143978,5,2,1:0:0:0:
373,329,144074,1,0,3:0:0:0:
394,325,144170,1,0,1:0:0:0:
415,321,144266,1,0,3:0:0:0:
436,318,144362,1,2,1:0:0:0:
467,290,144458,1,0,3:0:0:0:
479,250,144555,1,0,3:0:0:0:
466,210,144651,1,0,3:0:0:0:
433,183,144747,6,0,B|310:161|310:161|303:156|303:156|183:134,1,255,6|0,1:0|2:0,2:0:0:0:
172,140,145132,2,0,B|166:126|166:126|178:57,1,85,8|0,1:0|2:0,2:0:0:0:
104,0,145324,1,0,3:0:0:0:
104,0,145420,1,0,3:0:0:0:
104,0,145516,2,0,B|109:13|109:13|97:82,1,85,6|0,1:0|2:0,2:0:0:0:
0,128,145708,5,2,2:0:0:0:
0,128,145805,1,0,2:0:0:0:
0,128,145901,2,0,P|27:160|41:200,1,85,8|0,1:0|2:0,2:0:0:0:
132,236,146093,2,0,P|95:256|68:289,1,85,2|2,3:0|3:0,2:0:0:0:
0,384,146285,6,0,B|81:369|81:369|85:366|85:366|165:352,1,170,6|0,1:0|2:0,2:0:0:0:
256,284,146574,1,2,3:0:0:0:
256,284,146670,2,1,B|296:291|296:291|298:293|298:293|338:300,1,85,10|0,1:0|3:0,2:0:0:0:
436,384,146862,5,0,3:0:0:0:
436,384,146958,1,0,3:0:0:0:
436,384,147055,2,0,B|428:343|428:343|427:341|427:341|420:301,1,85,2|2,3:0|2:0,2:0:0:0:
466,210,147247,5,2,3:0:0:0:
466,210,147343,1,2,2:0:0:0:
466,210,147439,1,10,1:0:0:0:
473,168,147535,1,2,3:0:0:0:
480,126,147632,1,2,3:0:0:0:
488,84,147728,1,2,2:0:0:0:
495,41,147824,6,1,P|468:74|427:84,1,85,6|0,1:0|2:0,2:0:0:0:
360,40,148016,1,0,3:0:0:0:
360,40,148112,1,2,2:0:0:0:
360,40,148208,2,1,P|318:32|289:2,1,85,8|2,1:0|2:0,2:0:0:0:
216,44,148401,2,1,L|132:58,1,85,2|2,3:0|2:0,2:0:0:0:
56,0,148593,5,6,1:0:0:0:
56,0,148689,1,2,3:0:0:0:
56,0,148785,2,1,L|41:83,1,85,2|2,3:0|2:0,2:0:0:0:
108,132,148978,2,1,L|122:215,1,85,8|2,1:0|3:0,2:0:0:0:
68,288,149170,5,2,3:0:0:0:
68,288,149266,1,2,2:0:0:0:
68,288,149362,2,0,P|108:304|133:337,1,85,6|0,1:0|2:0,2:0:0:0:
214,300,149555,2,0,L|200:384,1,85,0|0,3:0|2:0,2:0:0:0:
279,362,149747,2,0,P|315:340|357:339,1,85,8|0,1:0|2:0,2:0:0:0:
476,384,149939,5,2,3:0:0:0:
476,384,150035,1,2,3:0:0:0:
476,384,150132,1,6,1:0:0:0:
443,357,150228,1,2,3:0:0:0:
430,317,150324,1,2,3:0:0:0:
440,277,150420,1,2,3:0:0:0:
469,248,150516,1,10,1:0:0:0:
491,190,150612,1,0,2:0:0:0:
456,140,150708,1,2,2:0:0:0:
394,141,150805,1,0,2:0:0:0:
360,192,150901,6,0,B|306:150|318:79|318:79|306:150|241:171,1,255,6|2,1:0|2:0,2:0:0:0:
220,252,151285,2,1,P|183:231|162:195,1,85,8|0,1:0|3:0,2:0:0:0:
64,176,151478,5,0,3:0:0:0:
64,176,151574,1,0,3:0:0:0:
64,176,151670,2,1,P|97:152|112:112,1,85,2|0,1:0|3:0,2:0:0:0:
160,40,151862,2,1,L|77:25,1,85,0|0,3:0|3:0,2:0:0:0:
192,116,152055,2,0,P|269:130|299:57,1,170,10|0,1:0|2:0,2:0:0:0:
0,0,152439,6,0,B|-39:80|22:127|20:115|80:157|40:233,1,255,6|2,1:0|2:0,2:0:0:0:
0,336,152824,2,0,P|34:312|76:312,1,85,8|0,1:0|3:0,2:0:0:0:
160,296,153016,5,2,3:0:0:0:
160,296,153112,1,2,3:0:0:0:
160,296,153208,2,1,P|183:331|183:373,1,85,2|2,1:0|2:0,2:0:0:0:
0,344,153401,2,1,P|34:320|76:320,1,85,2|2,2:0|2:0,2:0:0:0:
168,292,153593,2,1,L|336:322,1,170,8|2,1:0|1:0,2:0:0:0:
512,308,153978,6,0,B|467:376|467:376|437:207,1,255,6|2,1:0|2:0,2:0:0:0:
496,144,154362,2,0,L|510:60,1,85,8|0,1:0|3:0,2:0:0:0:
440,8,154555,5,0,3:0:0:0:
440,8,154651,1,0,3:0:0:0:
440,8,154747,2,0,P|412:39|371:48,1,85,6|0,1:0|2:0,2:0:0:0:
320,116,154939,2,0,P|278:107|250:77,1,85,2|0,1:0|2:0,2:0:0:0:
216,0,155132,2,0,L|132:14,1,85,10|0,1:0|2:0,2:0:0:0:
84,84,155324,2,0,L|0:69,1,85,2|0,1:0|2:0,2:0:0:0:
56,0,155516,6,1,B|77:122|77:122|74:130|74:130|96:250,1,255,6|2,1:0|2:0,2:0:0:0:
52,324,155901,2,1,B|92:331|92:331|95:330|95:330|134:337,1,85,8|2,1:0|2:0,2:0:0:0:
246,262,156093,5,0,3:0:0:0:
288,255,156189,1,0,3:0:0:0:
330,248,156285,1,2,1:0:0:0:
372,240,156382,1,0,3:0:0:0:
414,233,156478,1,2,1:3:0:0:
256,384,156670,1,10,1:0:0:0:
128,184,156862,1,0,3:0:0:0:
128,184,156958,1,0,3:0:0:0:
128,184,157055,6,0,B|128:133|81:108|81:108|198:89|254:185|254:185|227:182|212:193,1,340,6|8,1:0|1:0,2:0:0:0:
396,0,157632,1,2,2:0:0:0:
396,0,157728,1,2,2:0:0:0:
396,0,157824,2,0,P|346:67|346:151,1,170,2|0,1:3|2:0,2:0:0:0:
452,192,158112,5,8,1:0:0:0:
452,192,158208,2,1,L|437:275,1,85,0|0,2:0|2:0,2:0:0:0:
368,384,158401,2,0,L|353:300,1,85,2|0,3:0|2:0,2:0:0:0:
512,368,158593,6,1,B|394:347|394:347|377:352|377:352|262:331,1,255,6|2,1:0|2:0,2:0:0:0:
184,384,158978,2,1,L|170:301,1,85,8|0,1:0|3:0,2:0:0:0:
128,212,159170,5,2,2:0:0:0:
128,212,159266,1,0,3:0:0:0:
128,212,159362,2,0,P|104:246|64:257,1,85,2|2,1:0|2:0,2:0:0:0:
56,172,159555,2,1,P|22:148|11:108,1,85,2|2,2:0|2:0,2:0:0:0:
80,56,159747,2,0,P|114:79|125:120,1,85,4|0,1:2|2:0,2:0:0:0:
48,180,159939,2,0,P|14:156|3:116,1,85,4|0,1:2|2:0,2:0:0:0:
88,48,160132,5,6,1:0:0:0:
129,55,160228,1,0,2:0:0:0:
171,63,160324,1,0,2:0:0:0:
213,70,160420,1,2,2:0:0:0:
255,78,160516,2,1,L|338:63,1,85,8|2,1:0|2:0,2:0:0:0:
452,0,160708,5,2,2:0:0:0:
452,0,160805,1,2,2:0:0:0:
452,0,160901,2,1,P|429:36|432:77,1,85,2|2,1:0|2:0,2:0:0:0:
512,176,161093,2,0,L|429:162,1,85,2|0,2:0|2:0,2:0:0:0:
336,144,161285,2,1,L|366:311,1,170,0|0,1:0|3:0,2:0:0:0:
256,384,161574,5,0,3:0:0:0:
256,384,161670,2,0,L|271:301,1,85,6|0,1:0|2:0,2:0:0:0:
152,214,161862,2,1,L|167:298,1,85,0|2,3:0|2:0,2:0:0:0:
0,268,162055,2,0,L|167:298,1,170,8|0,1:0|3:0,2:0:0:0:
256,220,162343,1,0,3:0:0:0:
256,220,162439,2,1,L|241:136,1,85,2|2,1:0|2:0,2:0:0:0:
255,48,162632,5,0,3:0:0:0:
255,48,162728,1,0,3:0:0:0:
255,48,162824,1,8,1:0:0:0:
213,56,162920,1,0,3:0:0:0:
171,63,163016,1,0,3:0:0:0:
129,71,163112,1,0,3:0:0:0:
85,77,163208,6,0,P|187:52|153:151,1,255,6|2,1:0|2:0,2:0:0:0:
112,220,163593,2,0,P|75:199|33:199,1,85,8|2,1:0|2:0,2:0:0:0:
12,284,163785,2,0,P|48:304|90:304,1,85,2|0,2:0|2:0,2:0:0:0:
168,280,163978,1,2,1:0:0:0:
336,144,164170,1,2,3:0:0:0:
336,144,164266,1,0,2:0:0:0:
336,144,164362,1,8,1:0:0:0:
256,384,164555,1,2,2:0:0:0:
167,239,164747,6,0,L|0:268,1,170,6|0,1:0|2:0,2:0:0:0:
28,176,165035,5,8,1:0:0:0:
28,176,165132,2,1,L|43:92,1,85,0|0,2:0|2:0,2:0:0:0:
108,0,165324,2,0,L|123:83,1,85,8|0,1:0|2:0,2:0:0:0:
167,147,165516,2,0,P|247:160|296:95,1,170,2|0,1:0|2:0,2:0:0:0:
301,13,165805,1,0,3:0:0:0:
301,13,165901,2,1,L|384:28,1,85,8|0,1:0|2:0,2:0:0:0:
512,80,166093,2,1,L|428:95,1,85,0|2,3:0|3:0,2:0:0:0:
296,96,166285,6,0,B|331:129|331:129|367:332,1,255,6|0,1:0|3:0,2:0:0:0:
364,344,166670,2,0,L|447:330,1,85,8|0,1:0|2:0,2:0:0:0:
512,252,166862,2,0,L|428:236,1,85,2|0,2:0|2:0,2:0:0:0:
424,228,167055,5,6,1:0:0:0:
256,264,167343,1,0,1:0:0:0:
312,0,167632,1,2,2:0:0:0:
394,164,167824,5,2,1:0:0:0:
308,8,168016,1,0,2:0:0:0:
256,89,168208,5,2,1:0:0:0:
304,16,168401,1,0,2:0:0:0:
160,52,168593,5,2,1:0:0:0:
139,55,168689,1,0,3:0:0:0:
118,59,168785,1,0,1:0:0:0:
97,63,168882,1,0,3:0:0:0:
76,66,168978,1,2,1:0:0:0:
45,94,169074,1,0,3:0:0:0:
33,134,169170,1,0,3:0:0:0:
46,174,169266,1,0,3:0:0:0:
79,201,169362,6,0,B|159:240|206:179|194:181|236:121|312:161,1,255,6|0,1:0|2:0,2:0:0:0:
324,160,169747,2,0,B|318:174|318:174|330:243,1,85,8|0,1:0|2:0,2:0:0:0:
424,268,169939,1,0,3:0:0:0:
424,268,170035,1,0,3:0:0:0:
424,268,170132,2,0,B|429:255|429:255|417:186,1,85,6|0,1:0|2:0,2:0:0:0:
496,132,170324,5,0,2:0:0:0:
496,132,170420,1,0,2:0:0:0:
496,132,170516,2,0,P|465:102|425:91,1,85,8|0,1:0|2:0,2:0:0:0:
345,32,170708,2,0,P|304:43|274:72,1,85,2|2,3:0|3:0,2:0:0:0:
212,168,170901,6,0,B|131:153|131:153|127:150|127:150|47:136,1,170,6|0,1:0|2:0,2:0:0:0:
0,44,171189,1,2,3:0:0:0:
0,44,171285,2,1,B|40:51|40:51|42:53|42:53|82:60,1,85,10|0,1:0|3:0,2:0:0:0:
188,0,171478,1,0,3:0:0:0:
188,0,171574,1,0,3:0:0:0:
188,0,171670,2,0,B|181:40|181:40|179:42|179:42|172:82,1,85,2|2,3:0|2:0,2:0:0:0:
79,201,171862,5,2,3:0:0:0:
79,201,171958,1,2,2:0:0:0:
79,201,172055,1,10,1:0:0:0:
86,242,172151,1,2,3:0:0:0:
93,284,172247,1,2,3:0:0:0:
101,326,172343,1,2,2:0:0:0:
108,368,172439,5,6,1:0:0:0:
256,252,172632,1,0,3:0:0:0:
24,324,172824,1,8,1:0:0:0:
120,360,173016,1,2,3:0:0:0:
86,242,173208,5,6,1:0:0:0:
86,242,173305,1,2,3:0:0:0:
86,242,173401,1,2,3:0:0:0:
196,384,173593,1,8,1:0:0:0:
312,352,173785,1,2,3:0:0:0:
312,352,173882,1,2,2:0:0:0:
312,352,173978,2,0,P|343:324|384:324,1,85,6|0,1:0|2:0,2:0:0:0:
464,272,174170,2,0,P|424:258|403:222,1,85,0|0,3:0|2:0,2:0:0:0:
319,181,174362,2,0,P|327:221|306:257,1,85,8|0,1:0|2:0,2:0:0:0:
212,168,174555,5,2,3:0:0:0:
212,168,174651,1,2,3:0:0:0:
212,168,174747,1,6,1:0:0:0:
205,127,174843,1,2,3:0:0:0:
230,93,174939,1,2,3:0:0:0:
271,87,175035,1,2,3:0:0:0:
303,111,175132,1,10,1:0:0:0:
341,160,175228,1,0,2:0:0:0:
403,162,175324,1,2,2:0:0:0:
443,116,175420,1,0,2:0:0:0:
433,55,175516,6,0,B|409:34|409:34|306:52|306:52|311:56|311:56|198:75,1,255,6|0,1:0|2:0,2:0:0:0:
164,164,175901,2,1,B|145:176|145:176|84:166,1,85,8|0,1:0|3:0,2:0:0:0:
0,192,176093,5,0,3:0:0:0:
0,192,176189,1,0,3:0:0:0:
0,192,176285,2,1,L|14:108,1,85,2|0,1:0|3:0,2:0:0:0:
64,244,176478,2,1,L|78:327,1,85,0|0,3:0|3:0,2:0:0:0:
144,384,176670,2,0,P|167:349|205:332,1,85,10|0,1:0|3:0,2:0:0:0:
284,356,176862,2,0,P|325:358|359:383,1,85,0|0,3:0|3:0,2:0:0:0:
440,384,177055,6,1,B|419:269|419:269|421:253|421:253|399:132,1,255,6|2,1:0|2:0,2:0:0:0:
496,148,177439,2,1,L|510:64,1,85,8|0,1:0|3:0,2:0:0:0:
416,0,177632,5,2,3:0:0:0:
416,0,177728,1,2,3:0:0:0:
416,0,177824,1,2,1:0:0:0:
396,37,177920,1,2,2:0:0:0:
361,60,178016,1,2,2:0:0:0:
319,62,178112,1,2,2:0:0:0:
281,43,178208,2,0,L|197:28,1,85,8|0,1:0|2:0,2:0:0:0:
152,108,178401,2,0,L|68:122,1,85,2|0,1:0|2:0,2:0:0:0:
29,24,178593,6,0,L|0:192,1,170,6|2,1:0|2:0,2:0:0:0:
12,280,178882,1,2,2:0:0:0:
12,280,178978,2,1,P|51:264|78:232,1,85,8|0,1:0|3:0,2:0:0:0:
156,268,179170,2,1,P|162:226|148:186,1,85,0|0,3:0|3:0,2:0:0:0:
256,224,179362,2,1,P|329:264|413:257,1,170,6|2,1:0|1:0,2:0:0:0:
508,200,179651,1,0,2:0:0:0:
508,200,179747,2,0,L|493:283,1,85,10|0,1:0|2:0,2:0:0:0:
428,376,179939,2,0,L|413:292,1,85,2|2,1:0|2:0,2:0:0:0:
340,236,180132,6,0,P|311:267|271:281,1,85,6|0,1:0|2:0,2:0:0:0:
272,368,180324,2,0,P|230:358|198:331,1,85,2|2,2:0|2:0,2:0:0:0:
123,375,180516,2,0,P|110:334|117:293,1,85,8|2,1:0|2:0,2:0:0:0:
60,204,180708,5,0,3:0:0:0:
60,204,180805,1,0,3:0:0:0:
59,204,180901,1,2,1:0:0:0:
97,185,180997,1,0,3:0:0:0:
121,151,181093,1,2,1:3:0:0:
126,109,181189,1,0,3:0:0:0:
110,70,181285,1,10,1:0:0:0:
0,0,181478,5,0,3:0:0:0:
0,0,181574,1,0,3:0:0:0:
0,0,181670,2,1,B|31:29|31:29|239:66,1,255,6|2,1:0|3:0,2:0:0:0:
272,148,182055,2,0,B|303:119|303:119|511:82,1,255,8|2,1:0|3:0,2:0:0:0:
496,72,182439,2,1,L|510:155,1,85,6|0,1:0|2:0,2:0:0:0:
416,260,182632,2,1,L|430:176,1,85,2|0,3:0|2:0,2:0:0:0:
488,76,182824,2,0,L|502:159,1,85,10|0,1:0|2:0,2:0:0:0:
348,200,183016,5,0,3:0:0:0:
348,200,183112,1,0,3:0:0:0:
348,200,183208,2,0,P|279:153|197:169,1,170,6|2,1:0|3:0,2:0:0:0:
124,300,183593,2,1,L|94:132,1,170,0|2,1:0|3:0,2:0:0:0:
260,252,183978,5,0,1:0:0:0:
368,96,184170,2,0,L|388:99,4,21.25,2|2|2|0|10,3:0|3:0|3:0|2:0|1:0,2:0:0:0:
248,0,184555,1,2,2:0:0:0:
199,140,184747,6,0,P|159:152|128:180,1,85,14|0,1:0|2:0,2:0:0:0:
48,140,184939,2,0,P|38:181|47:222,1,85,2|0,3:0|2:0,2:0:0:0:
0,304,185132,6,0,L|166:332,1,170,14|2,1:0|3:0,2:0:0:0:
320,384,185516,6,0,L|334:300,1,85,14|0,1:0|2:0,2:0:0:0:
416,224,185708,2,0,L|430:307,1,85,2|0,3:0|2:0,2:0:0:0:
512,356,185901,5,14,1:0:0:0:
272,260,186093,1,2,3:0:0:0:
272,260,186189,1,2,3:0:0:0:
272,260,186285,1,14,1:0:0:0:
399,132,186478,1,2,3:0:0:0:
501,274,186670,6,0,B|426:287|426:287|409:286|409:286|333:299,1,170,14|2,1:0|3:0,2:0:0:0:
256,384,187055,1,14,1:0:0:0:
198,168,187247,1,2,3:0:0:0:
198,168,187343,1,0,1:0:0:0:
198,168,187439,1,14,1:0:0:0:
0,304,187632,5,2,3:0:0:0:
0,304,187728,1,2,3:0:0:0:
0,304,187824,2,1,L|41:311,3,42.5,14|2|2|2,1:0|3:0|3:0|3:0,2:0:0:0:
103,224,188208,2,1,L|130:256,3,42.5,14|2|2|2,1:0|3:0|3:0|3:0,2:0:0:0:
237,258,188593,2,1,L|237:300,3,42.5,14|2|2|2,1:0|3:0|3:0|3:0,2:0:0:0:
331,351,188978,2,1,L|303:383,3,42.5,14|2|2|2,1:0|3:0|3:0|3:0,2:0:0:0:
429,369,189362,5,14,1:0:0:0:
423,332,189458,1,2,3:0:0:0:
417,294,189555,1,2,3:0:0:0:
412,255,189651,1,2,3:0:0:0:
406,218,189747,1,14,1:0:0:0:
195,188,189939,1,2,3:0:0:0:
400,124,190132,2,0,L|397:145,14,21.25,0|0|0|0|0|0|0|0|0|0|0|0|0|0|0,1:0|2:0|2:0|2:0|2:0|2:0|2:0|2:0|2:0|2:0|2:0|2:0|2:0|2:0|2:0,2:0:0:0:
400,35,190901,6,0,B|373:23|373:23|200:53|200:53|197:58|197:58|39:86|39:86|5:169|5:169|225:130|225:130|259:12,1,807.840000000002,0|0,1:0|2:0,2:0:0:0:
259,12,195516,5,0,2:0:0:0:
259,12,197055,6,0,B|181:-2|163:100|187:145|305:166|322:71|322:71|326:72|326:72|342:-18|429:-3|447:29|436:96|410:91,1,510,0|0,2:0|2:0,2:0:0:0:
410,91,199747,5,0,2:0:0:0:
344,0,200132,5,0,2:0:0:0:
272,256,200708,5,0,2:0:0:0:
324,384,201285,5,0,2:0:0:0:
324,384,202199,5,0,2:0:0:0:
191,261,202632,5,0,2:0:0:0:
198,262,203208,6,0,B|250:271|261:208|328:220|328:220|276:211|285:163|174:144|152:270|152:270|149:265|149:265|140:317|83:339|38:299|44:263,1,547.1875,0|0,2:0|2:0,2:0:0:0:
44,262,205997,5,0,2:0:0:0:
44,262,206285,6,0,B|60:170|97:233|114:139|-53:109|114:139|131:40|68:82|82:2|82:2|60:125|28:71|10:177|46:183|38:227,1,510,0|0,2:0|2:0,2:0:0:0:
44,262,209362,6,0,B|-29:233|16:105|185:167|131:317|131:317|136:314|136:314|130:331,1,334.6875,0|0,2:0|2:0,2:0:0:0:
200,352,213064,6,0,B|205:352|205:356|209:356|213:356|217:356|221:356|225:356|225:352|229:352|229:347|233:347|237:347|237:343|241:343|245:343|245:339|249:339|253:339|253:335|257:335|261:335|261:331|265:331|265:327|269:327|273:327|273:331|277:331|277:335|281:335|285:335|285:339|289:339|293:339|293:343|297:343|301:343|301:347|305:347|309:347|309:352|313:352|313:356|317:356|321:356|325:356|329:356|333:356|333:352|337:352|337:347|341:347|341:343|345:343|345:339|349:339|349:335|349:331|349:327|349:323|349:319|345:319|344:315|345:311|345:307|345:303|341:303|341:299|341:295|341:291|336:291|337:287|337:283|337:279|337:275|341:275|341:271|345:271|345:267|349:267|349:263|353:263|353:259|357:259|357:255|361:255|365:255|365:251|368:251|369:247|373:247|373:242|377:243|377:239|381:239|381:235|381:231|381:227|381:223|381:219|381:215|377:215|377:211|373:211|373:207|369:207|369:203|365:203|361:203|361:199|357:199|353:199|349:199|345:199|341:199|337:199|333:199|329:199|325:199|321:199|317:199|313:199|309:199|309:195|309:191|309:187|305:187|305:183|305:179|301:179|301:175|301:171|297:171|297:167|297:163|297:159|293:159|293:155|293:151|289:151|289:146|285:146|285:142|281:142|281:138|277:138|273:138|273:134|269:134|265:134|261:134|261:138|257:138|257:142|253:142|249:142|249:146|245:146|245:151|245:155|241:155|241:159|241:163|241:167|237:167|237:171|237:175|233:175|233:179|233:183|233:187|229:187|229:191|229:195|229:199|225:199|221:199|217:199|213:199|209:199|205:199|201:199|196:199|192:199|188:199|184:199|180:199|176:199|172:199|172:203|168:203|164:203|164:207|160:207|160:211|156:211|156:215|156:219|156:223|152:223|152:227|152:231|156:231|156:235|156:239|160:239|160:243|164:243|164:246|168:246|168:251|172:251|172:255|176:255|176:259|180:259|180:263|184:263|184:267|188:267|192:267|192:271|196:271|196:275|201:275|201:279|201:283|201:287|196:287|196:291|196:295|196:299|192:299|192:303|192:307|192:311|192:315|188:315|188:319|188:323,1,671.446874999999,0|0,2:0|2:0,2:0:0:0:
