osu file format v14

[General]
AudioFilename: audio.mp3
AudioLeadIn: 0
PreviewTime: -1
Countdown: 0
SampleSet: None
StackLeniency: 0.4
Mode: 3
LetterboxInBreaks: 0
SpecialStyle: 0
WidescreenStoryboard: 1

[Editor]
DistanceSpacing: 1.8
BeatDivisor: 4
GridSize: 4
TimelineZoom: 1.7

[Metadata]
Title:AlphaOmega
TitleUnicode:ΑΩ
Artist:BlackY
ArtistUnicode:BlackY
Creator:Prancer
Version:GRAVITY
Source:
Tags:sdvx sound voltex iii gravity wars
BeatmapID:1376954
BeatmapSetID:649707

[Difficulty]
HPDrainRate:9
CircleSize:4
OverallDifficulty:9
ApproachRate:5
SliderMultiplier:1.4
SliderTickRate:1

[Events]
//Background and Video events
0,0,"alphaomega.png",0,0
//Break Periods
//Storyboard Layer 0 (Background)
//Storyboard Layer 1 (Fail)
//Storyboard Layer 2 (Pass)
//Storyboard Layer 3 (Foreground)
//Storyboard Sound Samples

[TimingPoints]
1134,288.461538461538,4,1,0,13,1,0
106133,-100,4,1,0,13,0,1
119980,-100,4,1,0,13,0,0

[HitObjects]
64,192,1134,5,0,0:0:0:0:
192,192,1134,1,0,0:0:0:0:
448,192,1134,1,0,0:0:0:0:
320,192,1278,1,0,0:0:0:0:
192,192,1422,1,0,0:0:0:0:
448,192,1566,1,0,0:0:0:0:
192,192,1710,1,0,0:0:0:0:
64,192,1783,1,0,0:0:0:0:
192,192,1855,1,0,0:0:0:0:
64,192,1927,1,0,0:0:0:0:
192,192,1999,1,0,0:0:0:0:
320,192,2071,1,0,0:0:0:0:
448,192,2143,1,0,0:0:0:0:
320,192,2215,1,0,0:0:0:0:
192,192,2287,1,0,0:0:0:0:
64,192,2359,1,0,0:0:0:0:
320,192,2432,1,0,0:0:0:0:
192,192,2504,1,0,0:0:0:0:
448,192,2576,1,0,0:0:0:0:
320,192,2648,1,0,0:0:0:0:
192,192,2720,1,0,0:0:0:0:
64,192,2792,1,0,0:0:0:0:
448,192,2864,1,0,0:0:0:0:
192,192,3009,1,0,0:0:0:0:
320,192,3153,1,0,0:0:0:0:
64,192,3297,1,0,0:0:0:0:
320,192,3441,1,0,0:0:0:0:
192,192,3585,1,0,0:0:0:0:
448,192,3730,1,0,0:0:0:0:
64,192,3874,1,0,0:0:0:0:
320,192,4018,1,0,0:0:0:0:
448,192,4018,1,0,0:0:0:0:
192,192,4162,1,0,0:0:0:0:
64,192,4307,1,0,0:0:0:0:
320,192,4451,1,0,0:0:0:0:
448,192,4595,1,0,0:0:0:0:
192,192,4739,1,0,0:0:0:0:
320,192,4884,1,0,0:0:0:0:
64,192,5028,1,0,0:0:0:0:
320,192,5172,1,0,0:0:0:0:
448,192,5172,1,0,0:0:0:0:
192,192,5316,1,0,0:0:0:0:
448,192,5460,1,0,0:0:0:0:
192,192,5605,1,0,0:0:0:0:
320,192,5749,1,0,0:0:0:0:
64,192,5893,1,0,0:0:0:0:
192,192,6037,1,0,0:0:0:0:
320,192,6182,1,0,0:0:0:0:
64,192,6326,1,0,0:0:0:0:
448,192,6326,1,0,0:0:0:0:
192,192,6470,1,0,0:0:0:0:
320,192,6614,1,0,0:0:0:0:
64,192,6759,1,0,0:0:0:0:
448,192,6903,1,0,0:0:0:0:
320,192,7047,1,0,0:0:0:0:
64,192,7191,1,0,0:0:0:0:
192,192,7335,1,0,0:0:0:0:
64,192,7480,1,0,0:0:0:0:
320,192,7480,1,0,0:0:0:0:
448,192,7624,1,0,0:0:0:0:
320,192,7768,1,0,0:0:0:0:
448,192,7912,1,0,0:0:0:0:
192,192,8057,1,0,0:0:0:0:
320,192,8201,1,0,0:0:0:0:
448,192,8345,1,0,0:0:0:0:
64,192,8489,1,0,0:0:0:0:
320,192,8634,1,0,0:0:0:0:
192,192,8634,1,0,0:0:0:0:
64,192,8778,1,0,0:0:0:0:
448,192,8922,1,0,0:0:0:0:
192,192,9066,1,0,0:0:0:0:
320,192,9210,1,0,0:0:0:0:
64,192,9355,1,0,0:0:0:0:
192,192,9499,1,0,0:0:0:0:
64,192,9643,1,0,0:0:0:0:
448,192,9787,1,0,0:0:0:0:
320,192,9859,1,0,0:0:0:0:
192,192,9932,1,0,0:0:0:0:
64,192,10004,1,0,0:0:0:0:
320,192,10076,1,0,0:0:0:0:
448,192,10076,1,0,0:0:0:0:
192,192,10148,1,0,0:0:0:0:
64,192,10148,1,0,0:0:0:0:
320,192,10220,1,0,0:0:0:0:
448,192,10220,1,0,0:0:0:0:
192,192,10292,1,0,0:0:0:0:
64,192,10292,1,0,0:0:0:0:
320,192,10364,1,0,0:0:0:0:
448,192,10364,1,0,0:0:0:0:
192,192,10509,1,0,0:0:0:0:
64,192,10653,1,0,0:0:0:0:
448,192,10653,1,0,0:0:0:0:
320,192,10797,1,0,0:0:0:0:
192,192,10941,1,0,0:0:0:0:
448,192,10941,1,0,0:0:0:0:
64,192,11085,1,0,0:0:0:0:
192,192,11230,1,0,0:0:0:0:
320,192,11230,1,0,0:0:0:0:
448,192,11374,1,0,0:0:0:0:
64,192,11518,1,0,0:0:0:0:
320,192,11518,1,0,0:0:0:0:
192,192,11662,1,0,0:0:0:0:
64,192,11807,1,0,0:0:0:0:
448,192,11807,1,0,0:0:0:0:
320,192,11951,1,0,0:0:0:0:
192,192,12095,1,0,0:0:0:0:
448,192,12095,1,0,0:0:0:0:
64,192,12239,1,0,0:0:0:0:
448,192,12384,1,0,0:0:0:0:
320,192,12384,1,0,0:0:0:0:
192,192,12528,1,0,0:0:0:0:
64,192,12672,1,0,0:0:0:0:
448,192,12672,1,0,0:0:0:0:
320,192,12816,1,0,0:0:0:0:
192,192,12960,1,0,0:0:0:0:
64,192,12960,1,0,0:0:0:0:
448,192,13105,1,0,0:0:0:0:
320,192,13249,1,0,0:0:0:0:
64,192,13249,1,0,0:0:0:0:
192,192,13393,1,0,0:0:0:0:
320,192,13537,1,0,0:0:0:0:
448,192,13537,1,0,0:0:0:0:
64,192,13682,1,0,0:0:0:0:
192,192,13826,1,0,0:0:0:0:
448,192,13826,1,0,0:0:0:0:
320,192,13970,1,0,0:0:0:0:
64,192,14114,1,0,0:0:0:0:
448,192,14114,1,0,0:0:0:0:
192,192,14259,1,0,0:0:0:0:
320,192,14403,1,0,0:0:0:0:
448,192,14403,1,0,0:0:0:0:
448,192,14547,1,0,0:0:0:0:
320,192,14547,1,0,0:0:0:0:
320,192,14835,1,0,0:0:0:0:
192,192,14835,1,0,0:0:0:0:
64,192,14980,1,0,0:0:0:0:
448,192,14980,1,0,0:0:0:0:
192,192,15124,1,0,0:0:0:0:
320,192,15124,1,0,0:0:0:0:
192,192,15268,1,0,0:0:0:0:
64,192,15268,1,0,0:0:0:0:
448,192,15268,1,0,0:0:0:0:
320,192,15412,1,0,0:0:0:0:
448,192,15412,1,0,0:0:0:0:
192,192,15557,1,0,0:0:0:0:
64,192,15557,1,0,0:0:0:0:
320,192,15701,1,0,0:0:0:0:
448,192,15701,1,0,0:0:0:0:
192,192,15773,1,0,0:0:0:0:
64,192,15845,1,0,0:0:0:0:
320,192,15845,1,0,0:0:0:0:
448,192,15845,1,0,0:0:0:0:
192,192,15989,1,0,0:0:0:0:
448,192,15989,1,0,0:0:0:0:
320,192,16133,1,0,0:0:0:0:
64,192,16133,1,0,0:0:0:0:
192,192,16278,1,0,0:0:0:0:
448,192,16278,1,0,0:0:0:0:
320,192,16422,1,0,0:0:0:0:
64,192,16422,1,0,0:0:0:0:
192,192,16422,1,0,0:0:0:0:
320,192,16566,1,0,0:0:0:0:
448,192,16566,1,0,0:0:0:0:
192,192,16710,1,0,0:0:0:0:
64,192,16710,1,0,0:0:0:0:
320,192,16783,1,0,0:0:0:0:
64,192,16855,1,0,0:0:0:0:
448,192,16855,1,0,0:0:0:0:
320,192,16927,1,0,0:0:0:0:
192,192,16999,1,0,0:0:0:0:
64,192,16999,1,0,0:0:0:0:
448,192,16999,1,0,0:0:0:0:
320,192,17143,1,0,0:0:0:0:
192,192,17143,1,0,0:0:0:0:
64,192,17287,1,0,0:0:0:0:
192,192,17287,1,0,0:0:0:0:
320,192,17359,1,0,0:0:0:0:
448,192,17359,1,0,0:0:0:0:
192,192,17432,1,0,0:0:0:0:
64,192,17432,1,0,0:0:0:0:
320,192,17504,1,0,0:0:0:0:
448,192,17576,1,0,0:0:0:0:
64,192,17576,1,0,0:0:0:0:
320,192,17648,1,0,0:0:0:0:
192,192,17648,1,0,0:0:0:0:
64,192,17720,1,0,0:0:0:0:
448,192,17720,1,0,0:0:0:0:
320,192,17792,1,0,0:0:0:0:
192,192,17864,1,0,0:0:0:0:
64,192,17864,1,0,0:0:0:0:
320,192,17936,1,0,0:0:0:0:
448,192,17936,1,0,0:0:0:0:
64,192,18008,1,0,0:0:0:0:
192,192,18009,1,0,0:0:0:0:
320,192,18081,1,0,0:0:0:0:
192,192,18153,1,0,0:0:0:0:
448,192,18153,1,0,0:0:0:0:
320,192,18225,1,0,0:0:0:0:
64,192,18225,1,0,0:0:0:0:
192,192,18297,1,0,0:0:0:0:
448,192,18297,1,0,0:0:0:0:
320,192,18369,1,0,0:0:0:0:
192,192,18441,1,0,0:0:0:0:
448,192,18441,1,0,0:0:0:0:
64,192,18441,1,0,0:0:0:0:
320,192,18585,1,0,0:0:0:0:
192,192,18730,1,0,0:0:0:0:
320,192,18874,1,0,0:0:0:0:
64,192,19018,1,0,0:0:0:0:
448,192,19018,1,0,0:0:0:0:
192,192,19162,1,0,0:0:0:0:
64,192,19234,1,0,0:0:0:0:
320,192,19307,1,0,0:0:0:0:
448,192,19379,1,0,0:0:0:0:
192,192,19451,1,0,0:0:0:0:
64,192,19451,1,0,0:0:0:0:
320,192,19523,1,0,0:0:0:0:
192,192,19595,1,0,0:0:0:0:
64,192,19595,1,0,0:0:0:0:
448,192,19595,1,0,0:0:0:0:
320,192,19667,1,0,0:0:0:0:
192,192,19739,1,0,0:0:0:0:
64,192,19811,1,0,0:0:0:0:
192,192,19883,1,0,0:0:0:0:
320,192,19883,1,0,0:0:0:0:
448,192,19883,1,0,0:0:0:0:
64,192,19956,1,0,0:0:0:0:
320,192,20028,1,0,0:0:0:0:
192,192,20100,1,0,0:0:0:0:
64,192,20172,1,0,0:0:0:0:
320,192,20172,1,0,0:0:0:0:
448,192,20172,1,0,0:0:0:0:
192,192,20244,1,0,0:0:0:0:
320,192,20316,1,0,0:0:0:0:
448,192,20388,1,0,0:0:0:0:
320,192,20460,1,0,0:0:0:0:
192,192,20460,1,0,0:0:0:0:
64,192,20460,1,0,0:0:0:0:
448,192,20533,1,0,0:0:0:0:
192,192,20605,1,0,0:0:0:0:
320,192,20677,1,0,0:0:0:0:
192,192,20749,1,0,0:0:0:0:
64,192,20749,1,0,0:0:0:0:
448,192,20749,1,0,0:0:0:0:
320,192,20821,1,0,0:0:0:0:
192,192,20893,1,0,0:0:0:0:
448,192,20965,1,0,0:0:0:0:
192,192,21037,1,0,0:0:0:0:
64,192,21037,1,0,0:0:0:0:
320,192,21037,1,0,0:0:0:0:
448,192,21109,1,0,0:0:0:0:
320,192,21182,1,0,0:0:0:0:
192,192,21254,1,0,0:0:0:0:
448,192,21326,1,0,0:0:0:0:
320,192,21326,1,0,0:0:0:0:
64,192,21326,1,0,0:0:0:0:
192,192,21398,1,0,0:0:0:0:
64,192,21470,1,0,0:0:0:0:
192,192,21542,1,0,0:0:0:0:
64,192,21614,1,0,0:0:0:0:
320,192,21614,1,0,0:0:0:0:
448,192,21614,1,0,0:0:0:0:
192,192,21686,1,0,0:0:0:0:
448,192,21758,1,0,0:0:0:0:
320,192,21831,1,0,0:0:0:0:
192,192,21903,1,0,0:0:0:0:
64,192,21903,1,0,0:0:0:0:
448,192,21903,1,0,0:0:0:0:
320,192,21975,1,0,0:0:0:0:
448,192,22047,1,0,0:0:0:0:
320,192,22119,1,0,0:0:0:0:
448,192,22191,1,0,0:0:0:0:
192,192,22191,1,0,0:0:0:0:
64,192,22191,1,0,0:0:0:0:
320,192,22263,1,0,0:0:0:0:
192,192,22335,1,0,0:0:0:0:
64,192,22408,1,0,0:0:0:0:
448,192,22480,1,0,0:0:0:0:
192,192,22480,1,0,0:0:0:0:
320,192,22480,1,0,0:0:0:0:
64,192,22552,1,0,0:0:0:0:
192,192,22624,1,0,0:0:0:0:
448,192,22696,1,0,0:0:0:0:
320,192,22768,1,0,0:0:0:0:
192,192,22768,1,0,0:0:0:0:
64,192,22768,1,0,0:0:0:0:
448,192,22840,1,0,0:0:0:0:
320,192,22912,1,0,0:0:0:0:
192,192,22984,1,0,0:0:0:0:
64,192,23057,1,0,0:0:0:0:
320,192,23057,1,0,0:0:0:0:
448,192,23057,1,0,0:0:0:0:
192,192,23129,1,0,0:0:0:0:
64,192,23201,1,0,0:0:0:0:
320,192,23273,1,0,0:0:0:0:
192,192,23345,1,0,0:0:0:0:
64,192,23345,1,0,0:0:0:0:
448,192,23345,1,0,0:0:0:0:
320,192,23417,1,0,0:0:0:0:
192,192,23489,1,0,0:0:0:0:
64,192,23489,1,0,0:0:0:0:
448,192,23561,1,0,0:0:0:0:
320,192,23633,1,0,0:0:0:0:
192,192,23633,1,0,0:0:0:0:
64,192,23633,1,0,0:0:0:0:
448,192,23706,1,0,0:0:0:0:
320,192,23778,1,0,0:0:0:0:
64,192,23778,1,0,0:0:0:0:
192,192,23850,1,0,0:0:0:0:
64,192,23922,1,0,0:0:0:0:
320,192,23922,1,0,0:0:0:0:
448,192,23922,1,0,0:0:0:0:
192,192,23994,1,0,0:0:0:0:
64,192,24066,1,0,0:0:0:0:
320,192,24066,1,0,0:0:0:0:
448,192,24066,1,0,0:0:0:0:
192,192,24138,1,0,0:0:0:0:
64,192,24210,1,0,0:0:0:0:
320,192,24210,1,0,0:0:0:0:
448,192,24210,1,0,0:0:0:0:
192,192,24283,1,0,0:0:0:0:
64,192,24355,1,0,0:0:0:0:
448,192,24427,1,0,0:0:0:0:
320,192,24499,1,0,0:0:0:0:
192,192,24499,1,0,0:0:0:0:
64,192,24499,1,0,0:0:0:0:
448,192,24571,1,0,0:0:0:0:
192,192,24643,1,0,0:0:0:0:
320,192,24715,1,0,0:0:0:0:
192,192,24787,1,0,0:0:0:0:
64,192,24787,1,0,0:0:0:0:
448,192,24787,1,0,0:0:0:0:
320,192,24859,1,0,0:0:0:0:
64,192,24932,1,0,0:0:0:0:
448,192,24932,1,0,0:0:0:0:
192,192,25004,1,0,0:0:0:0:
64,192,25076,1,0,0:0:0:0:
320,192,25076,1,0,0:0:0:0:
448,192,25076,1,0,0:0:0:0:
192,192,25148,1,0,0:0:0:0:
320,192,25220,1,0,0:0:0:0:
448,192,25220,1,0,0:0:0:0:
64,192,25292,1,0,0:0:0:0:
192,192,25364,1,0,0:0:0:0:
320,192,25364,1,0,0:0:0:0:
448,192,25364,1,0,0:0:0:0:
64,192,25436,1,0,0:0:0:0:
448,192,25508,1,0,0:0:0:0:
192,192,25508,1,0,0:0:0:0:
320,192,25581,1,0,0:0:0:0:
192,192,25653,1,0,0:0:0:0:
64,192,25653,1,0,0:0:0:0:
448,192,25653,1,0,0:0:0:0:
320,192,25725,1,0,0:0:0:0:
192,192,25797,1,0,0:0:0:0:
64,192,25797,1,0,0:0:0:0:
448,192,25869,1,0,0:0:0:0:
320,192,25941,1,0,0:0:0:0:
192,192,25941,1,0,0:0:0:0:
64,192,25941,1,0,0:0:0:0:
448,192,26013,1,0,0:0:0:0:
64,192,26085,128,0,26374:0:0:0:0:
192,192,26085,1,0,0:0:0:0:
320,192,26085,1,0,0:0:0:0:
320,192,26518,1,0,0:0:0:0:
448,192,26518,1,0,0:0:0:0:
192,192,26518,1,0,0:0:0:0:
64,192,26590,1,0,0:0:0:0:
448,192,26662,1,0,0:0:0:0:
320,192,26662,1,0,0:0:0:0:
192,192,26734,1,0,0:0:0:0:
64,192,26807,1,0,0:0:0:0:
320,192,26807,1,0,0:0:0:0:
448,192,26807,1,0,0:0:0:0:
192,192,26879,1,0,0:0:0:0:
64,192,26951,1,0,0:0:0:0:
320,192,26951,1,0,0:0:0:0:
448,192,27023,1,0,0:0:0:0:
320,192,27095,1,0,0:0:0:0:
192,192,27095,1,0,0:0:0:0:
64,192,27095,1,0,0:0:0:0:
448,192,27167,1,0,0:0:0:0:
64,192,27239,1,0,0:0:0:0:
192,192,27239,1,0,0:0:0:0:
320,192,27311,1,0,0:0:0:0:
192,192,27383,1,0,0:0:0:0:
64,192,27383,1,0,0:0:0:0:
448,192,27383,1,0,0:0:0:0:
320,192,27456,1,0,0:0:0:0:
448,192,27528,1,0,0:0:0:0:
192,192,27528,1,0,0:0:0:0:
64,192,27600,1,0,0:0:0:0:
320,192,27672,1,0,0:0:0:0:
448,192,27672,1,0,0:0:0:0:
192,192,27672,1,0,0:0:0:0:
64,192,27744,1,0,0:0:0:0:
320,192,27816,1,0,0:0:0:0:
448,192,27816,1,0,0:0:0:0:
448,192,27888,1,0,0:0:0:0:
320,192,27888,1,0,0:0:0:0:
64,192,27960,1,0,0:0:0:0:
192,192,27960,1,0,0:0:0:0:
320,192,28105,1,0,0:0:0:0:
448,192,28105,1,0,0:0:0:0:
448,192,28177,1,0,0:0:0:0:
320,192,28177,1,0,0:0:0:0:
64,192,28249,1,0,0:0:0:0:
192,192,28249,1,0,0:0:0:0:
320,192,28321,1,0,0:0:0:0:
448,192,28321,1,0,0:0:0:0:
320,192,28393,1,0,0:0:0:0:
448,192,28393,1,0,0:0:0:0:
64,192,28537,1,0,0:0:0:0:
320,192,28537,1,0,0:0:0:0:
448,192,28537,1,0,0:0:0:0:
192,192,28682,1,0,0:0:0:0:
64,192,28682,1,0,0:0:0:0:
448,192,28682,1,0,0:0:0:0:
64,192,28826,1,0,0:0:0:0:
320,192,28826,1,0,0:0:0:0:
448,192,28826,1,0,0:0:0:0:
192,192,28898,1,0,0:0:0:0:
64,192,28970,1,0,0:0:0:0:
448,192,28970,1,0,0:0:0:0:
320,192,29042,1,0,0:0:0:0:
192,192,29042,1,0,0:0:0:0:
64,192,29114,1,0,0:0:0:0:
448,192,29114,1,0,0:0:0:0:
192,192,29186,1,0,0:0:0:0:
320,192,29258,1,0,0:0:0:0:
64,192,29331,1,0,0:0:0:0:
192,192,29403,1,0,0:0:0:0:
448,192,29403,1,0,0:0:0:0:
320,192,29403,1,0,0:0:0:0:
64,192,29475,1,0,0:0:0:0:
448,192,29547,1,0,0:0:0:0:
320,192,29619,1,0,0:0:0:0:
192,192,29691,1,0,0:0:0:0:
64,192,29691,1,0,0:0:0:0:
448,192,29691,1,0,0:0:0:0:
320,192,29763,1,0,0:0:0:0:
192,192,29835,1,0,0:0:0:0:
448,192,29908,1,0,0:0:0:0:
64,192,29980,1,0,0:0:0:0:
192,192,29980,1,0,0:0:0:0:
320,192,29980,1,0,0:0:0:0:
448,192,30052,1,0,0:0:0:0:
320,192,30124,1,0,0:0:0:0:
192,192,30196,1,0,0:0:0:0:
64,192,30268,1,0,0:0:0:0:
320,192,30268,1,0,0:0:0:0:
448,192,30268,1,0,0:0:0:0:
192,192,30340,1,0,0:0:0:0:
320,192,30412,1,0,0:0:0:0:
448,192,30484,1,0,0:0:0:0:
64,192,30484,1,0,0:0:0:0:
192,192,30557,1,0,0:0:0:0:
320,192,30557,1,0,0:0:0:0:
64,192,30701,1,0,0:0:0:0:
192,192,30701,1,0,0:0:0:0:
448,192,30701,1,0,0:0:0:0:
64,192,30845,128,0,31061:0:0:0:0:
320,192,30845,128,0,31061:0:0:0:0:
448,192,30845,128,0,31061:0:0:0:0:
64,192,31133,1,0,0:0:0:0:
448,192,31133,1,0,0:0:0:0:
320,192,31133,1,0,0:0:0:0:
192,192,31206,1,0,0:0:0:0:
64,192,31278,1,0,0:0:0:0:
320,192,31350,1,0,0:0:0:0:
64,192,31422,1,0,0:0:0:0:
192,192,31422,1,0,0:0:0:0:
448,192,31422,1,0,0:0:0:0:
320,192,31494,1,0,0:0:0:0:
448,192,31566,1,0,0:0:0:0:
192,192,31638,1,0,0:0:0:0:
64,192,31710,1,0,0:0:0:0:
448,192,31710,1,0,0:0:0:0:
320,192,31783,1,0,0:0:0:0:
192,192,31855,1,0,0:0:0:0:
64,192,31855,1,0,0:0:0:0:
448,192,31927,1,0,0:0:0:0:
320,192,31999,1,0,0:0:0:0:
192,192,31999,1,0,0:0:0:0:
64,192,32071,1,0,0:0:0:0:
448,192,32143,1,0,0:0:0:0:
320,192,32143,1,0,0:0:0:0:
192,192,32215,1,0,0:0:0:0:
64,192,32287,1,0,0:0:0:0:
320,192,32287,1,0,0:0:0:0:
448,192,32287,1,0,0:0:0:0:
192,192,32359,1,0,0:0:0:0:
320,192,32432,1,0,0:0:0:0:
192,192,32504,1,0,0:0:0:0:
64,192,32504,1,0,0:0:0:0:
448,192,32504,1,0,0:0:0:0:
320,192,32576,1,0,0:0:0:0:
192,192,32648,1,0,0:0:0:0:
64,192,32720,1,0,0:0:0:0:
320,192,32720,1,0,0:0:0:0:
448,192,32720,1,0,0:0:0:0:
192,192,32792,1,0,0:0:0:0:
320,192,32864,1,0,0:0:0:0:
192,192,32936,1,0,0:0:0:0:
64,192,32936,1,0,0:0:0:0:
448,192,32936,1,0,0:0:0:0:
320,192,33008,1,0,0:0:0:0:
192,192,33081,1,0,0:0:0:0:
64,192,33153,1,0,0:0:0:0:
448,192,33153,1,0,0:0:0:0:
320,192,33225,1,0,0:0:0:0:
192,192,33297,1,0,0:0:0:0:
448,192,33297,1,0,0:0:0:0:
64,192,33369,1,0,0:0:0:0:
192,192,33441,1,0,0:0:0:0:
448,192,33441,1,0,0:0:0:0:
320,192,33441,128,0,33730:0:0:0:0:
64,192,33585,1,0,0:0:0:0:
448,192,33730,128,0,34018:0:0:0:0:
192,192,33730,1,0,0:0:0:0:
64,192,33874,1,0,0:0:0:0:
320,192,34018,128,0,34307:0:0:0:0:
192,192,34018,1,0,0:0:0:0:
64,192,34162,1,0,0:0:0:0:
448,192,34307,128,0,34595:0:0:0:0:
192,192,34307,1,0,0:0:0:0:
320,192,34451,1,0,0:0:0:0:
64,192,34595,1,0,0:0:0:0:
192,192,34667,1,0,0:0:0:0:
320,192,34739,1,0,0:0:0:0:
448,192,34811,1,0,0:0:0:0:
64,192,34883,1,0,0:0:0:0:
192,192,34956,1,0,0:0:0:0:
320,192,35028,1,0,0:0:0:0:
448,192,35100,1,0,0:0:0:0:
64,192,35172,1,0,0:0:0:0:
192,192,35244,1,0,0:0:0:0:
320,192,35316,1,0,0:0:0:0:
448,192,35388,1,0,0:0:0:0:
64,192,35460,1,0,0:0:0:0:
192,192,35533,1,0,0:0:0:0:
320,192,35605,1,0,0:0:0:0:
448,192,35677,1,0,0:0:0:0:
64,192,35749,1,0,0:0:0:0:
192,192,35749,1,0,0:0:0:0:
320,192,35821,1,0,0:0:0:0:
448,192,35821,1,0,0:0:0:0:
192,192,35893,1,0,0:0:0:0:
64,192,35893,1,0,0:0:0:0:
320,192,35965,1,0,0:0:0:0:
448,192,35965,1,0,0:0:0:0:
64,192,36037,1,0,0:0:0:0:
192,192,36037,1,0,0:0:0:0:
320,192,36109,1,0,0:0:0:0:
448,192,36109,1,0,0:0:0:0:
64,192,36182,1,0,0:0:0:0:
192,192,36182,1,0,0:0:0:0:
320,192,36254,1,0,0:0:0:0:
448,192,36326,1,0,0:0:0:0:
64,192,36326,1,0,0:0:0:0:
320,192,36398,1,0,0:0:0:0:
192,192,36398,1,0,0:0:0:0:
448,192,36470,1,0,0:0:0:0:
64,192,36470,1,0,0:0:0:0:
192,192,36542,1,0,0:0:0:0:
320,192,36542,1,0,0:0:0:0:
448,192,36614,1,0,0:0:0:0:
64,192,36614,1,0,0:0:0:0:
192,192,36686,1,0,0:0:0:0:
320,192,36686,1,0,0:0:0:0:
448,192,36758,1,0,0:0:0:0:
64,192,36758,1,0,0:0:0:0:
320,192,36831,1,0,0:0:0:0:
192,192,36831,1,0,0:0:0:0:
448,192,36903,1,0,0:0:0:0:
64,192,36903,1,0,0:0:0:0:
192,192,37047,1,0,0:0:0:0:
448,192,37191,1,0,0:0:0:0:
64,192,37335,1,0,0:0:0:0:
320,192,37480,1,0,0:0:0:0:
448,192,37552,1,0,0:0:0:0:
192,192,37624,1,0,0:0:0:0:
64,192,37696,1,0,0:0:0:0:
192,192,37768,128,0,37984:0:0:0:0:
320,192,37768,128,0,37984:0:0:0:0:
448,192,37768,128,0,37984:0:0:0:0:
192,192,38057,1,0,0:0:0:0:
320,192,38057,1,0,0:0:0:0:
448,192,38057,1,0,0:0:0:0:
64,192,38201,1,0,0:0:0:0:
320,192,38201,1,0,0:0:0:0:
64,192,38345,1,0,0:0:0:0:
192,192,38345,1,0,0:0:0:0:
448,192,38345,1,0,0:0:0:0:
192,192,38489,1,0,0:0:0:0:
320,192,38489,1,0,0:0:0:0:
64,192,38633,1,0,0:0:0:0:
192,192,38633,1,0,0:0:0:0:
320,192,38633,1,0,0:0:0:0:
192,192,38778,1,0,0:0:0:0:
320,192,38778,1,0,0:0:0:0:
448,192,38778,1,0,0:0:0:0:
64,192,38922,1,0,0:0:0:0:
320,192,38922,1,0,0:0:0:0:
192,192,39066,1,0,0:0:0:0:
320,192,39066,1,0,0:0:0:0:
448,192,39066,1,0,0:0:0:0:
320,192,39210,1,0,0:0:0:0:
448,192,39210,1,0,0:0:0:0:
64,192,39355,1,0,0:0:0:0:
192,192,39355,1,0,0:0:0:0:
448,192,39355,1,0,0:0:0:0:
320,192,39499,1,0,0:0:0:0:
64,192,39499,1,0,0:0:0:0:
192,192,39643,1,0,0:0:0:0:
448,192,39643,1,0,0:0:0:0:
320,192,39787,1,0,0:0:0:0:
192,192,39787,1,0,0:0:0:0:
64,192,39932,1,0,0:0:0:0:
448,192,39932,1,0,0:0:0:0:
192,192,40076,1,0,0:0:0:0:
320,192,40076,1,0,0:0:0:0:
448,192,40076,1,0,0:0:0:0:
64,192,40220,1,0,0:0:0:0:
320,192,40220,1,0,0:0:0:0:
192,192,40364,1,0,0:0:0:0:
64,192,40364,1,0,0:0:0:0:
320,192,40364,1,0,0:0:0:0:
192,192,40508,1,0,0:0:0:0:
448,192,40508,1,0,0:0:0:0:
64,192,40653,1,0,0:0:0:0:
320,192,40653,1,0,0:0:0:0:
448,192,40653,1,0,0:0:0:0:
192,192,40797,1,0,0:0:0:0:
320,192,40797,1,0,0:0:0:0:
64,192,40941,1,0,0:0:0:0:
192,192,40941,1,0,0:0:0:0:
320,192,40941,1,0,0:0:0:0:
192,192,41085,1,0,0:0:0:0:
320,192,41085,1,0,0:0:0:0:
448,192,41085,1,0,0:0:0:0:
64,192,41230,1,0,0:0:0:0:
320,192,41230,1,0,0:0:0:0:
192,192,41374,1,0,0:0:0:0:
64,192,41374,1,0,0:0:0:0:
448,192,41374,1,0,0:0:0:0:
192,192,41518,1,0,0:0:0:0:
448,192,41518,1,0,0:0:0:0:
320,192,41662,1,0,0:0:0:0:
64,192,41662,1,0,0:0:0:0:
448,192,41662,1,0,0:0:0:0:
192,192,41807,1,0,0:0:0:0:
320,192,41807,1,0,0:0:0:0:
64,192,41951,1,0,0:0:0:0:
192,192,41951,1,0,0:0:0:0:
320,192,42023,1,0,0:0:0:0:
64,192,42095,1,0,0:0:0:0:
448,192,42095,1,0,0:0:0:0:
192,192,42167,1,0,0:0:0:0:
448,192,42239,1,0,0:0:0:0:
320,192,42275,1,0,0:0:0:0:
192,192,42311,1,0,0:0:0:0:
64,192,42347,1,0,0:0:0:0:
448,192,42383,1,0,0:0:0:0:
320,192,42383,1,0,0:0:0:0:
192,192,42456,1,0,0:0:0:0:
64,192,42528,1,0,0:0:0:0:
448,192,42528,1,0,0:0:0:0:
320,192,42600,1,0,0:0:0:0:
192,192,42672,1,0,0:0:0:0:
64,192,42672,1,0,0:0:0:0:
448,192,42672,1,0,0:0:0:0:
192,192,42816,1,0,0:0:0:0:
320,192,42816,1,0,0:0:0:0:
64,192,42960,1,0,0:0:0:0:
320,192,42960,1,0,0:0:0:0:
448,192,42960,1,0,0:0:0:0:
192,192,43105,1,0,0:0:0:0:
448,192,43105,1,0,0:0:0:0:
64,192,43249,1,0,0:0:0:0:
192,192,43249,1,0,0:0:0:0:
320,192,43249,1,0,0:0:0:0:
448,192,43393,1,0,0:0:0:0:
320,192,43393,1,0,0:0:0:0:
192,192,43393,1,0,0:0:0:0:
64,192,43537,1,0,0:0:0:0:
192,192,43537,1,0,0:0:0:0:
192,192,43682,1,0,0:0:0:0:
448,192,43682,1,0,0:0:0:0:
64,192,43682,1,0,0:0:0:0:
192,192,43826,1,0,0:0:0:0:
320,192,43826,1,0,0:0:0:0:
64,192,43970,1,0,0:0:0:0:
320,192,43970,1,0,0:0:0:0:
448,192,43970,1,0,0:0:0:0:
192,192,44114,1,0,0:0:0:0:
320,192,44114,1,0,0:0:0:0:
64,192,44258,1,0,0:0:0:0:
448,192,44258,1,0,0:0:0:0:
320,192,44403,1,0,0:0:0:0:
448,192,44403,1,0,0:0:0:0:
192,192,44403,1,0,0:0:0:0:
192,192,44547,1,0,0:0:0:0:
64,192,44547,1,0,0:0:0:0:
320,192,44547,1,0,0:0:0:0:
448,192,44691,1,0,0:0:0:0:
64,192,44691,1,0,0:0:0:0:
320,192,44763,1,0,0:0:0:0:
192,192,44763,1,0,0:0:0:0:
64,192,44835,128,0,45052:0:0:0:0:
448,192,44835,128,0,45052:0:0:0:0:
64,192,45124,1,0,0:0:0:0:
448,192,45124,1,0,0:0:0:0:
192,192,45268,1,0,0:0:0:0:
320,192,45268,1,0,0:0:0:0:
448,192,45412,1,0,0:0:0:0:
320,192,45448,1,0,0:0:0:0:
192,192,45484,1,0,0:0:0:0:
64,192,45521,1,0,0:0:0:0:
320,192,45557,1,0,0:0:0:0:
448,192,45557,1,0,0:0:0:0:
64,192,45701,1,0,0:0:0:0:
192,192,45701,1,0,0:0:0:0:
320,192,45773,1,0,0:0:0:0:
448,192,45773,1,0,0:0:0:0:
320,192,45917,1,0,0:0:0:0:
448,192,45917,1,0,0:0:0:0:
192,192,45989,1,0,0:0:0:0:
64,192,45989,1,0,0:0:0:0:
64,192,46133,1,0,0:0:0:0:
320,192,46133,1,0,0:0:0:0:
448,192,46133,1,0,0:0:0:0:
64,192,46278,1,0,0:0:0:0:
320,192,46278,1,0,0:0:0:0:
448,192,46278,1,0,0:0:0:0:
64,192,46422,1,0,0:0:0:0:
192,192,46458,1,0,0:0:0:0:
320,192,46494,1,0,0:0:0:0:
448,192,46530,1,0,0:0:0:0:
64,192,46566,1,0,0:0:0:0:
192,192,46602,1,0,0:0:0:0:
320,192,46638,1,0,0:0:0:0:
448,192,46674,1,0,0:0:0:0:
64,192,46710,1,0,0:0:0:0:
192,192,46710,1,0,0:0:0:0:
320,192,46783,1,0,0:0:0:0:
192,192,46855,1,0,0:0:0:0:
448,192,46855,1,0,0:0:0:0:
320,192,46927,1,0,0:0:0:0:
64,192,46927,1,0,0:0:0:0:
192,192,46999,1,0,0:0:0:0:
448,192,46999,1,0,0:0:0:0:
320,192,47071,1,0,0:0:0:0:
192,192,47143,1,0,0:0:0:0:
448,192,47143,1,0,0:0:0:0:
64,192,47215,1,0,0:0:0:0:
320,192,47287,1,0,0:0:0:0:
448,192,47287,1,0,0:0:0:0:
192,192,47287,1,0,0:0:0:0:
64,192,47359,1,0,0:0:0:0:
192,192,47432,1,0,0:0:0:0:
448,192,47432,1,0,0:0:0:0:
320,192,47504,1,0,0:0:0:0:
64,192,47576,1,0,0:0:0:0:
448,192,47576,1,0,0:0:0:0:
192,192,47648,1,0,0:0:0:0:
320,192,47720,1,0,0:0:0:0:
448,192,47720,1,0,0:0:0:0:
64,192,47792,1,0,0:0:0:0:
192,192,47864,1,0,0:0:0:0:
448,192,47864,1,0,0:0:0:0:
320,192,47936,1,0,0:0:0:0:
64,192,48008,1,0,0:0:0:0:
192,192,48008,1,0,0:0:0:0:
448,192,48081,1,0,0:0:0:0:
320,192,48153,1,0,0:0:0:0:
64,192,48153,1,0,0:0:0:0:
192,192,48225,1,0,0:0:0:0:
320,192,48297,1,0,0:0:0:0:
448,192,48297,1,0,0:0:0:0:
64,192,48369,1,0,0:0:0:0:
192,192,48441,1,0,0:0:0:0:
448,192,48441,1,0,0:0:0:0:
320,192,48513,1,0,0:0:0:0:
64,192,48585,1,0,0:0:0:0:
448,192,48585,1,0,0:0:0:0:
192,192,48658,1,0,0:0:0:0:
448,192,48730,1,0,0:0:0:0:
64,192,48730,1,0,0:0:0:0:
192,192,48802,1,0,0:0:0:0:
448,192,48874,1,0,0:0:0:0:
320,192,48910,1,0,0:0:0:0:
192,192,48946,1,0,0:0:0:0:
64,192,48982,1,0,0:0:0:0:
448,192,49018,1,0,0:0:0:0:
320,192,49018,1,0,0:0:0:0:
192,192,49090,1,0,0:0:0:0:
448,192,49162,1,0,0:0:0:0:
320,192,49198,1,0,0:0:0:0:
192,192,49234,1,0,0:0:0:0:
64,192,49271,1,0,0:0:0:0:
448,192,49307,1,0,0:0:0:0:
320,192,49307,1,0,0:0:0:0:
192,192,49379,1,0,0:0:0:0:
448,192,49451,1,0,0:0:0:0:
320,192,49487,1,0,0:0:0:0:
192,192,49523,1,0,0:0:0:0:
64,192,49559,1,0,0:0:0:0:
320,192,49595,1,0,0:0:0:0:
448,192,49595,1,0,0:0:0:0:
192,192,49667,1,0,0:0:0:0:
64,192,49667,1,0,0:0:0:0:
448,192,49739,1,0,0:0:0:0:
320,192,49739,1,0,0:0:0:0:
192,192,49811,1,0,0:0:0:0:
448,192,49883,1,0,0:0:0:0:
64,192,49883,1,0,0:0:0:0:
320,192,49956,1,0,0:0:0:0:
192,192,50028,1,0,0:0:0:0:
64,192,50028,1,0,0:0:0:0:
448,192,50100,1,0,0:0:0:0:
320,192,50172,1,0,0:0:0:0:
64,192,50172,1,0,0:0:0:0:
192,192,50244,1,0,0:0:0:0:
320,192,50316,1,0,0:0:0:0:
448,192,50316,1,0,0:0:0:0:
64,192,50388,1,0,0:0:0:0:
192,192,50460,1,0,0:0:0:0:
448,192,50460,1,0,0:0:0:0:
320,192,50533,1,0,0:0:0:0:
192,192,50605,1,0,0:0:0:0:
64,192,50605,1,0,0:0:0:0:
448,192,50677,1,0,0:0:0:0:
320,192,50749,1,0,0:0:0:0:
192,192,50749,1,0,0:0:0:0:
64,192,50821,1,0,0:0:0:0:
448,192,50893,1,0,0:0:0:0:
320,192,50893,1,0,0:0:0:0:
192,192,50965,1,0,0:0:0:0:
64,192,51037,1,0,0:0:0:0:
448,192,51037,1,0,0:0:0:0:
320,192,51109,1,0,0:0:0:0:
64,192,51182,1,0,0:0:0:0:
192,192,51182,1,0,0:0:0:0:
320,192,51254,1,0,0:0:0:0:
448,192,51326,1,0,0:0:0:0:
192,192,51326,1,0,0:0:0:0:
64,192,51398,1,0,0:0:0:0:
448,192,51470,1,0,0:0:0:0:
320,192,51470,1,0,0:0:0:0:
192,192,51542,1,0,0:0:0:0:
64,192,51542,1,0,0:0:0:0:
320,192,51614,1,0,0:0:0:0:
448,192,51614,1,0,0:0:0:0:
192,192,51686,1,0,0:0:0:0:
64,192,51686,1,0,0:0:0:0:
320,192,51758,1,0,0:0:0:0:
448,192,51758,1,0,0:0:0:0:
192,192,51831,1,0,0:0:0:0:
64,192,51831,1,0,0:0:0:0:
320,192,51903,1,0,0:0:0:0:
448,192,51903,1,0,0:0:0:0:
192,192,51975,1,0,0:0:0:0:
64,192,52047,1,0,0:0:0:0:
448,192,52047,1,0,0:0:0:0:
320,192,52119,1,0,0:0:0:0:
192,192,52119,1,0,0:0:0:0:
64,192,52191,1,0,0:0:0:0:
448,192,52191,1,0,0:0:0:0:
320,192,52263,1,0,0:0:0:0:
192,192,52263,1,0,0:0:0:0:
64,192,52335,1,0,0:0:0:0:
448,192,52335,1,0,0:0:0:0:
192,192,52408,1,0,0:0:0:0:
320,192,52408,1,0,0:0:0:0:
64,192,52480,1,0,0:0:0:0:
448,192,52480,1,0,0:0:0:0:
320,192,52552,1,0,0:0:0:0:
192,192,52624,1,0,0:0:0:0:
64,192,52624,1,0,0:0:0:0:
320,192,52696,1,0,0:0:0:0:
448,192,52696,1,0,0:0:0:0:
192,192,52768,1,0,0:0:0:0:
64,192,52768,1,0,0:0:0:0:
320,192,52840,1,0,0:0:0:0:
448,192,52840,1,0,0:0:0:0:
192,192,52912,1,0,0:0:0:0:
64,192,52912,1,0,0:0:0:0:
320,192,52984,1,0,0:0:0:0:
448,192,52984,1,0,0:0:0:0:
192,192,53057,1,0,0:0:0:0:
64,192,53057,1,0,0:0:0:0:
192,192,53201,1,0,0:0:0:0:
320,192,53201,1,0,0:0:0:0:
64,192,53345,1,0,0:0:0:0:
192,192,53345,1,0,0:0:0:0:
448,192,53345,1,0,0:0:0:0:
320,192,53489,1,0,0:0:0:0:
64,192,53489,1,0,0:0:0:0:
192,192,53633,1,0,0:0:0:0:
320,192,53633,1,0,0:0:0:0:
448,192,53633,1,0,0:0:0:0:
448,192,53778,1,0,0:0:0:0:
192,192,53778,1,0,0:0:0:0:
64,192,53922,128,0,54138:0:0:0:0:
320,192,53922,128,0,54138:0:0:0:0:
448,192,53922,128,0,54138:0:0:0:0:
64,192,54210,1,0,0:0:0:0:
320,192,54210,1,0,0:0:0:0:
448,192,54210,1,0,0:0:0:0:
192,192,54283,1,0,0:0:0:0:
64,192,54355,1,0,0:0:0:0:
448,192,54355,1,0,0:0:0:0:
320,192,54427,1,0,0:0:0:0:
192,192,54499,1,0,0:0:0:0:
64,192,54499,1,0,0:0:0:0:
448,192,54571,1,0,0:0:0:0:
320,192,54643,1,0,0:0:0:0:
192,192,54643,1,0,0:0:0:0:
64,192,54715,1,0,0:0:0:0:
448,192,54787,1,0,0:0:0:0:
320,192,54787,1,0,0:0:0:0:
192,192,54859,1,0,0:0:0:0:
64,192,54932,1,0,0:0:0:0:
448,192,54932,1,0,0:0:0:0:
320,192,55004,1,0,0:0:0:0:
192,192,55076,1,0,0:0:0:0:
448,192,55076,1,0,0:0:0:0:
320,192,55148,1,0,0:0:0:0:
448,192,55220,1,0,0:0:0:0:
64,192,55220,1,0,0:0:0:0:
192,192,55292,1,0,0:0:0:0:
320,192,55364,1,0,0:0:0:0:
448,192,55364,1,0,0:0:0:0:
192,192,55436,1,0,0:0:0:0:
64,192,55508,1,0,0:0:0:0:
320,192,55508,1,0,0:0:0:0:
192,192,55581,1,0,0:0:0:0:
448,192,55653,1,0,0:0:0:0:
64,192,55653,1,0,0:0:0:0:
192,192,55725,1,0,0:0:0:0:
448,192,55797,1,0,0:0:0:0:
64,192,55797,1,0,0:0:0:0:
320,192,55869,1,0,0:0:0:0:
192,192,55941,1,0,0:0:0:0:
448,192,55941,1,0,0:0:0:0:
320,192,56013,1,0,0:0:0:0:
64,192,56085,1,0,0:0:0:0:
448,192,56085,1,0,0:0:0:0:
192,192,56158,1,0,0:0:0:0:
64,192,56230,1,0,0:0:0:0:
320,192,56230,1,0,0:0:0:0:
192,192,56302,1,0,0:0:0:0:
64,192,56374,1,0,0:0:0:0:
448,192,56374,1,0,0:0:0:0:
320,192,56446,1,0,0:0:0:0:
192,192,56518,1,0,0:0:0:0:
64,192,56518,1,0,0:0:0:0:
320,192,56590,1,0,0:0:0:0:
448,192,56662,1,0,0:0:0:0:
64,192,56662,1,0,0:0:0:0:
192,192,56734,1,0,0:0:0:0:
320,192,56807,1,0,0:0:0:0:
448,192,56807,1,0,0:0:0:0:
64,192,56879,1,0,0:0:0:0:
192,192,56951,1,0,0:0:0:0:
320,192,56951,1,0,0:0:0:0:
448,192,57023,1,0,0:0:0:0:
64,192,57095,1,0,0:0:0:0:
192,192,57095,1,0,0:0:0:0:
320,192,57167,1,0,0:0:0:0:
448,192,57239,1,0,0:0:0:0:
64,192,57239,1,0,0:0:0:0:
192,192,57311,1,0,0:0:0:0:
320,192,57383,1,0,0:0:0:0:
448,192,57383,1,0,0:0:0:0:
64,192,57456,1,0,0:0:0:0:
192,192,57528,1,0,0:0:0:0:
448,192,57528,1,0,0:0:0:0:
320,192,57600,1,0,0:0:0:0:
192,192,57672,1,0,0:0:0:0:
64,192,57672,1,0,0:0:0:0:
320,192,57744,1,0,0:0:0:0:
448,192,57744,1,0,0:0:0:0:
192,192,57816,1,0,0:0:0:0:
64,192,57816,1,0,0:0:0:0:
320,192,57888,1,0,0:0:0:0:
448,192,57888,1,0,0:0:0:0:
64,192,57960,1,0,0:0:0:0:
192,192,57960,1,0,0:0:0:0:
320,192,58033,1,0,0:0:0:0:
448,192,58105,1,0,0:0:0:0:
64,192,58105,1,0,0:0:0:0:
192,192,58177,1,0,0:0:0:0:
320,192,58177,1,0,0:0:0:0:
448,192,58249,1,0,0:0:0:0:
64,192,58249,1,0,0:0:0:0:
192,192,58321,1,0,0:0:0:0:
320,192,58321,1,0,0:0:0:0:
448,192,58393,1,0,0:0:0:0:
64,192,58393,1,0,0:0:0:0:
192,192,58465,1,0,0:0:0:0:
320,192,58537,1,0,0:0:0:0:
448,192,58537,1,0,0:0:0:0:
192,192,58609,1,0,0:0:0:0:
64,192,58609,1,0,0:0:0:0:
320,192,58682,1,0,0:0:0:0:
448,192,58682,1,0,0:0:0:0:
192,192,58754,1,0,0:0:0:0:
64,192,58754,1,0,0:0:0:0:
448,192,58826,128,0,62287:0:0:0:0:
320,192,58826,128,0,61133:0:0:0:0:
192,192,58970,1,0,0:0:0:0:
64,192,59114,1,0,0:0:0:0:
192,192,59258,1,0,0:0:0:0:
64,192,59403,1,0,0:0:0:0:
192,192,59403,1,0,0:0:0:0:
64,192,59547,1,0,0:0:0:0:
192,192,59691,1,0,0:0:0:0:
64,192,59835,1,0,0:0:0:0:
192,192,59980,1,0,0:0:0:0:
192,192,60124,1,0,0:0:0:0:
64,192,60268,1,0,0:0:0:0:
192,192,60412,1,0,0:0:0:0:
64,192,60557,1,0,0:0:0:0:
192,192,60557,1,0,0:0:0:0:
64,192,60701,1,0,0:0:0:0:
192,192,60845,1,0,0:0:0:0:
64,192,60989,1,0,0:0:0:0:
192,192,61133,1,0,0:0:0:0:
64,192,61278,1,0,0:0:0:0:
320,192,61422,1,0,0:0:0:0:
192,192,61566,1,0,0:0:0:0:
64,192,61710,1,0,0:0:0:0:
320,192,61710,1,0,0:0:0:0:
192,192,61855,1,0,0:0:0:0:
320,192,61999,1,0,0:0:0:0:
64,192,62143,1,0,0:0:0:0:
320,192,62287,1,0,0:0:0:0:
192,192,62432,1,0,0:0:0:0:
448,192,62576,1,0,0:0:0:0:
320,192,62720,1,0,0:0:0:0:
64,192,62864,1,0,0:0:0:0:
448,192,62864,1,0,0:0:0:0:
192,192,63008,1,0,0:0:0:0:
320,192,63153,1,0,0:0:0:0:
448,192,63297,1,0,0:0:0:0:
192,192,63441,1,0,0:0:0:0:
64,192,63585,1,0,0:0:0:0:
448,192,63730,1,0,0:0:0:0:
320,192,63874,1,0,0:0:0:0:
192,192,64018,1,0,0:0:0:0:
448,192,64018,1,0,0:0:0:0:
64,192,64162,1,0,0:0:0:0:
320,192,64307,1,0,0:0:0:0:
192,192,64451,1,0,0:0:0:0:
448,192,64595,1,0,0:0:0:0:
64,192,64739,1,0,0:0:0:0:
192,192,64883,1,0,0:0:0:0:
320,192,65028,1,0,0:0:0:0:
64,192,65172,1,0,0:0:0:0:
192,192,65172,1,0,0:0:0:0:
448,192,65316,1,0,0:0:0:0:
320,192,65460,1,0,0:0:0:0:
192,192,65605,1,0,0:0:0:0:
64,192,65749,1,0,0:0:0:0:
448,192,65749,1,0,0:0:0:0:
320,192,65893,1,0,0:0:0:0:
448,192,66037,1,0,0:0:0:0:
192,192,66182,1,0,0:0:0:0:
320,192,66326,1,0,0:0:0:0:
448,192,66326,1,0,0:0:0:0:
64,192,66470,1,0,0:0:0:0:
192,192,66614,1,0,0:0:0:0:
320,192,66758,1,0,0:0:0:0:
64,192,66903,1,0,0:0:0:0:
448,192,66903,1,0,0:0:0:0:
192,192,67047,1,0,0:0:0:0:
320,192,67191,1,0,0:0:0:0:
64,192,67335,1,0,0:0:0:0:
320,192,67480,1,0,0:0:0:0:
448,192,67480,1,0,0:0:0:0:
192,192,67624,1,0,0:0:0:0:
64,192,67696,1,0,0:0:0:0:
448,192,67768,1,0,0:0:0:0:
320,192,67768,1,0,0:0:0:0:
192,192,67840,1,0,0:0:0:0:
64,192,67840,1,0,0:0:0:0:
320,192,67912,1,0,0:0:0:0:
448,192,67912,1,0,0:0:0:0:
192,192,67984,1,0,0:0:0:0:
64,192,67984,1,0,0:0:0:0:
448,192,68057,1,0,0:0:0:0:
320,192,68057,1,0,0:0:0:0:
64,192,68153,1,0,0:0:0:0:
192,192,68249,1,0,0:0:0:0:
320,192,68345,1,0,0:0:0:0:
448,192,68345,1,0,0:0:0:0:
192,192,68441,1,0,0:0:0:0:
64,192,68537,1,0,0:0:0:0:
448,192,68633,1,0,0:0:0:0:
192,192,68633,1,0,0:0:0:0:
320,192,68730,1,0,0:0:0:0:
192,192,68826,1,0,0:0:0:0:
64,192,68922,1,0,0:0:0:0:
320,192,68922,1,0,0:0:0:0:
192,192,69018,1,0,0:0:0:0:
320,192,69114,1,0,0:0:0:0:
64,192,69210,1,0,0:0:0:0:
448,192,69210,1,0,0:0:0:0:
192,192,69307,1,0,0:0:0:0:
320,192,69403,1,0,0:0:0:0:
64,192,69499,1,0,0:0:0:0:
448,192,69499,1,0,0:0:0:0:
320,192,69595,1,0,0:0:0:0:
192,192,69691,1,0,0:0:0:0:
320,192,69787,1,0,0:0:0:0:
64,192,69787,1,0,0:0:0:0:
448,192,69883,1,0,0:0:0:0:
320,192,69980,1,0,0:0:0:0:
192,192,70076,1,0,0:0:0:0:
448,192,70076,1,0,0:0:0:0:
64,192,70172,1,0,0:0:0:0:
192,192,70268,1,0,0:0:0:0:
320,192,70364,1,0,0:0:0:0:
448,192,70364,1,0,0:0:0:0:
192,192,70460,1,0,0:0:0:0:
64,192,70557,1,0,0:0:0:0:
320,192,70653,1,0,0:0:0:0:
448,192,70653,1,0,0:0:0:0:
64,192,70749,1,0,0:0:0:0:
192,192,70845,1,0,0:0:0:0:
64,192,70941,1,0,0:0:0:0:
320,192,70941,1,0,0:0:0:0:
448,192,71037,1,0,0:0:0:0:
320,192,71133,1,0,0:0:0:0:
448,192,71230,1,0,0:0:0:0:
192,192,71230,1,0,0:0:0:0:
64,192,71326,1,0,0:0:0:0:
192,192,71422,1,0,0:0:0:0:
448,192,71518,1,0,0:0:0:0:
64,192,71518,1,0,0:0:0:0:
320,192,71614,1,0,0:0:0:0:
192,192,71710,1,0,0:0:0:0:
64,192,71807,1,0,0:0:0:0:
448,192,71807,1,0,0:0:0:0:
192,192,71903,1,0,0:0:0:0:
320,192,71999,1,0,0:0:0:0:
64,192,72095,1,0,0:0:0:0:
192,192,72095,1,0,0:0:0:0:
448,192,72191,1,0,0:0:0:0:
320,192,72287,1,0,0:0:0:0:
192,192,72383,1,0,0:0:0:0:
64,192,72383,1,0,0:0:0:0:
320,192,72480,1,0,0:0:0:0:
448,192,72576,1,0,0:0:0:0:
192,192,72576,1,0,0:0:0:0:
192,192,72672,1,0,0:0:0:0:
448,192,72672,1,0,0:0:0:0:
320,192,72768,1,0,0:0:0:0:
192,192,72864,1,0,0:0:0:0:
64,192,72960,1,0,0:0:0:0:
320,192,72960,1,0,0:0:0:0:
192,192,73057,1,0,0:0:0:0:
320,192,73153,1,0,0:0:0:0:
64,192,73249,1,0,0:0:0:0:
448,192,73249,1,0,0:0:0:0:
192,192,73345,1,0,0:0:0:0:
320,192,73441,1,0,0:0:0:0:
448,192,73537,1,0,0:0:0:0:
64,192,73537,1,0,0:0:0:0:
320,192,73633,1,0,0:0:0:0:
192,192,73730,1,0,0:0:0:0:
320,192,73826,1,0,0:0:0:0:
448,192,73826,1,0,0:0:0:0:
192,192,73922,1,0,0:0:0:0:
320,192,74018,1,0,0:0:0:0:
64,192,74114,1,0,0:0:0:0:
192,192,74114,1,0,0:0:0:0:
320,192,74210,1,0,0:0:0:0:
192,192,74307,1,0,0:0:0:0:
64,192,74403,1,0,0:0:0:0:
448,192,74403,1,0,0:0:0:0:
192,192,74499,1,0,0:0:0:0:
320,192,74595,1,0,0:0:0:0:
64,192,74691,1,0,0:0:0:0:
448,192,74691,1,0,0:0:0:0:
320,192,74787,1,0,0:0:0:0:
192,192,74883,1,0,0:0:0:0:
64,192,74883,1,0,0:0:0:0:
64,192,74980,1,0,0:0:0:0:
192,192,74980,1,0,0:0:0:0:
320,192,74980,1,0,0:0:0:0:
448,192,75076,1,0,0:0:0:0:
64,192,75172,1,0,0:0:0:0:
192,192,75172,1,0,0:0:0:0:
64,192,75268,1,0,0:0:0:0:
192,192,75268,1,0,0:0:0:0:
320,192,75268,1,0,0:0:0:0:
448,192,75364,1,0,0:0:0:0:
64,192,75460,1,0,0:0:0:0:
192,192,75460,1,0,0:0:0:0:
64,192,75557,1,0,0:0:0:0:
192,192,75557,1,0,0:0:0:0:
448,192,75557,1,0,0:0:0:0:
320,192,75653,1,0,0:0:0:0:
192,192,75653,1,0,0:0:0:0:
192,192,75749,1,0,0:0:0:0:
448,192,75749,1,0,0:0:0:0:
192,192,75845,1,0,0:0:0:0:
64,192,75845,1,0,0:0:0:0:
448,192,75845,1,0,0:0:0:0:
64,192,75941,1,0,0:0:0:0:
320,192,75941,1,0,0:0:0:0:
192,192,76037,1,0,0:0:0:0:
448,192,76037,1,0,0:0:0:0:
192,192,76133,5,0,0:0:0:0:
320,192,76133,1,0,0:0:0:0:
448,192,76133,1,0,0:0:0:0:
64,192,76230,128,0,76326:0:0:0:0:
192,192,76326,128,0,76422:0:0:0:0:
448,192,76422,128,0,76518:0:0:0:0:
320,192,76518,128,0,76614:0:0:0:0:
448,192,76614,128,0,76710:0:0:0:0:
64,192,76710,128,0,76903:0:0:0:0:
192,192,76807,128,0,76903:0:0:0:0:
320,192,76903,1,0,0:0:0:0:
448,192,76999,1,0,0:0:0:0:
192,192,77095,1,0,0:0:0:0:
64,192,77191,1,0,0:0:0:0:
192,192,77287,5,0,0:0:0:0:
320,192,77287,1,0,0:0:0:0:
448,192,77287,128,0,77383:0:0:0:0:
64,192,77383,1,0,0:0:0:0:
320,192,77480,1,0,0:0:0:0:
192,192,77576,1,0,0:0:0:0:
448,192,77576,1,0,0:0:0:0:
64,192,77576,128,0,77672:0:0:0:0:
320,192,77672,1,0,0:0:0:0:
192,192,77768,1,0,0:0:0:0:
64,192,77864,1,0,0:0:0:0:
320,192,77864,1,0,0:0:0:0:
448,192,77864,128,0,77960:0:0:0:0:
192,192,77960,1,0,0:0:0:0:
64,192,78057,1,0,0:0:0:0:
192,192,78153,1,0,0:0:0:0:
448,192,78153,1,0,0:0:0:0:
320,192,78153,128,0,78249:0:0:0:0:
64,192,78249,1,0,0:0:0:0:
448,192,78345,1,0,0:0:0:0:
320,192,78441,1,0,0:0:0:0:
64,192,78441,1,0,0:0:0:0:
192,192,78441,128,0,78537:0:0:0:0:
448,192,78537,1,0,0:0:0:0:
320,192,78633,1,0,0:0:0:0:
192,192,78730,1,0,0:0:0:0:
448,192,78730,1,0,0:0:0:0:
64,192,78730,128,0,78826:0:0:0:0:
320,192,78826,1,0,0:0:0:0:
448,192,78922,1,0,0:0:0:0:
64,192,79018,1,0,0:0:0:0:
192,192,79018,128,0,79114:0:0:0:0:
320,192,79018,1,0,0:0:0:0:
448,192,79114,1,0,0:0:0:0:
64,192,79210,1,0,0:0:0:0:
192,192,79307,1,0,0:0:0:0:
448,192,79307,1,0,0:0:0:0:
320,192,79307,128,0,79403:0:0:0:0:
64,192,79403,1,0,0:0:0:0:
448,192,79499,1,0,0:0:0:0:
320,192,79595,1,0,0:0:0:0:
192,192,79595,1,0,0:0:0:0:
64,192,79595,128,0,79691:0:0:0:0:
448,192,79691,1,0,0:0:0:0:
192,192,79787,1,0,0:0:0:0:
64,192,79883,1,0,0:0:0:0:
320,192,79883,1,0,0:0:0:0:
448,192,79883,128,0,79980:0:0:0:0:
192,192,79980,1,0,0:0:0:0:
320,192,80076,1,0,0:0:0:0:
192,192,80172,1,0,0:0:0:0:
448,192,80172,1,0,0:0:0:0:
64,192,80172,128,0,80268:0:0:0:0:
320,192,80268,1,0,0:0:0:0:
192,192,80364,1,0,0:0:0:0:
64,192,80460,1,0,0:0:0:0:
320,192,80460,1,0,0:0:0:0:
448,192,80460,128,0,80557:0:0:0:0:
192,192,80557,1,0,0:0:0:0:
64,192,80653,1,0,0:0:0:0:
192,192,80749,1,0,0:0:0:0:
448,192,80749,1,0,0:0:0:0:
320,192,80749,128,0,80845:0:0:0:0:
64,192,80845,1,0,0:0:0:0:
192,192,80941,1,0,0:0:0:0:
64,192,81037,1,0,0:0:0:0:
320,192,81037,1,0,0:0:0:0:
448,192,81037,128,0,81133:0:0:0:0:
192,192,81133,1,0,0:0:0:0:
64,192,81230,1,0,0:0:0:0:
192,192,81326,1,0,0:0:0:0:
448,192,81326,1,0,0:0:0:0:
320,192,81326,128,0,81422:0:0:0:0:
64,192,81422,1,0,0:0:0:0:
192,192,81518,1,0,0:0:0:0:
320,192,81518,1,0,0:0:0:0:
448,192,81518,1,0,0:0:0:0:
320,192,81614,1,0,0:0:0:0:
448,192,81614,1,0,0:0:0:0:
192,192,81614,1,0,0:0:0:0:
192,192,81710,1,0,0:0:0:0:
320,192,81710,1,0,0:0:0:0:
448,192,81710,1,0,0:0:0:0:
320,192,81807,1,0,0:0:0:0:
448,192,81807,1,0,0:0:0:0:
192,192,81807,1,0,0:0:0:0:
192,192,81903,1,0,0:0:0:0:
448,192,81903,1,0,0:0:0:0:
320,192,81903,128,0,81999:0:0:0:0:
64,192,81999,1,0,0:0:0:0:
192,192,82095,1,0,0:0:0:0:
64,192,82191,1,0,0:0:0:0:
320,192,82191,1,0,0:0:0:0:
448,192,82191,128,0,82287:0:0:0:0:
192,192,82287,1,0,0:0:0:0:
64,192,82383,1,0,0:0:0:0:
192,192,82480,1,0,0:0:0:0:
448,192,82480,1,0,0:0:0:0:
320,192,82480,128,0,82576:0:0:0:0:
64,192,82576,1,0,0:0:0:0:
448,192,82672,1,0,0:0:0:0:
320,192,82768,1,0,0:0:0:0:
64,192,82768,1,0,0:0:0:0:
192,192,82768,128,0,82864:0:0:0:0:
448,192,82864,1,0,0:0:0:0:
320,192,82960,1,0,0:0:0:0:
192,192,83057,1,0,0:0:0:0:
448,192,83057,1,0,0:0:0:0:
64,192,83057,128,0,83153:0:0:0:0:
320,192,83153,1,0,0:0:0:0:
448,192,83249,1,0,0:0:0:0:
64,192,83345,1,0,0:0:0:0:
320,192,83345,1,0,0:0:0:0:
192,192,83345,128,0,83441:0:0:0:0:
448,192,83441,1,0,0:0:0:0:
64,192,83537,1,0,0:0:0:0:
192,192,83633,1,0,0:0:0:0:
448,192,83633,1,0,0:0:0:0:
320,192,83633,128,0,83730:0:0:0:0:
64,192,83730,1,0,0:0:0:0:
192,192,83826,1,0,0:0:0:0:
64,192,83922,1,0,0:0:0:0:
320,192,83922,1,0,0:0:0:0:
448,192,83922,128,0,84018:0:0:0:0:
192,192,84018,1,0,0:0:0:0:
320,192,84114,1,0,0:0:0:0:
64,192,84114,1,0,0:0:0:0:
64,192,84210,1,0,0:0:0:0:
320,192,84210,1,0,0:0:0:0:
448,192,84210,128,0,84307:0:0:0:0:
192,192,84307,1,0,0:0:0:0:
64,192,84403,1,0,0:0:0:0:
192,192,84499,1,0,0:0:0:0:
448,192,84499,1,0,0:0:0:0:
320,192,84499,128,0,84595:0:0:0:0:
64,192,84595,1,0,0:0:0:0:
448,192,84691,1,0,0:0:0:0:
320,192,84787,1,0,0:0:0:0:
64,192,84787,1,0,0:0:0:0:
192,192,84787,128,0,84883:0:0:0:0:
448,192,84883,1,0,0:0:0:0:
320,192,84980,1,0,0:0:0:0:
192,192,85076,1,0,0:0:0:0:
448,192,85076,1,0,0:0:0:0:
64,192,85076,128,0,85172:0:0:0:0:
320,192,85172,1,0,0:0:0:0:
192,192,85268,1,0,0:0:0:0:
64,192,85364,1,0,0:0:0:0:
320,192,85364,1,0,0:0:0:0:
448,192,85364,128,0,85460:0:0:0:0:
192,192,85460,1,0,0:0:0:0:
448,192,85557,1,0,0:0:0:0:
64,192,85653,1,0,0:0:0:0:
320,192,85653,1,0,0:0:0:0:
192,192,85653,128,0,85749:0:0:0:0:
448,192,85749,1,0,0:0:0:0:
64,192,85845,1,0,0:0:0:0:
192,192,85941,1,0,0:0:0:0:
448,192,85941,1,0,0:0:0:0:
320,192,85941,128,0,86037:0:0:0:0:
64,192,86037,1,0,0:0:0:0:
448,192,86133,1,0,0:0:0:0:
320,192,86230,1,0,0:0:0:0:
192,192,86230,1,0,0:0:0:0:
64,192,86230,128,0,86326:0:0:0:0:
448,192,86326,1,0,0:0:0:0:
192,192,86422,1,0,0:0:0:0:
320,192,86518,1,0,0:0:0:0:
448,192,86518,1,0,0:0:0:0:
64,192,86518,1,0,0:0:0:0:
192,192,86590,1,0,0:0:0:0:
64,192,86662,1,0,0:0:0:0:
448,192,86662,1,0,0:0:0:0:
320,192,86734,1,0,0:0:0:0:
64,192,86807,1,0,0:0:0:0:
192,192,86807,1,0,0:0:0:0:
448,192,86879,1,0,0:0:0:0:
320,192,86951,1,0,0:0:0:0:
192,192,86951,1,0,0:0:0:0:
64,192,87023,1,0,0:0:0:0:
448,192,87095,1,0,0:0:0:0:
320,192,87095,1,0,0:0:0:0:
192,192,87167,1,0,0:0:0:0:
64,192,87239,1,0,0:0:0:0:
448,192,87239,1,0,0:0:0:0:
320,192,87311,1,0,0:0:0:0:
192,192,87383,1,0,0:0:0:0:
64,192,87383,1,0,0:0:0:0:
448,192,87456,1,0,0:0:0:0:
320,192,87528,1,0,0:0:0:0:
64,192,87528,1,0,0:0:0:0:
192,192,87600,1,0,0:0:0:0:
320,192,87672,1,0,0:0:0:0:
448,192,87672,1,0,0:0:0:0:
64,192,87672,1,0,0:0:0:0:
192,192,87744,1,0,0:0:0:0:
320,192,87816,1,0,0:0:0:0:
448,192,87816,1,0,0:0:0:0:
64,192,87888,1,0,0:0:0:0:
192,192,87960,1,0,0:0:0:0:
320,192,87960,1,0,0:0:0:0:
448,192,88033,1,0,0:0:0:0:
64,192,88105,1,0,0:0:0:0:
192,192,88105,1,0,0:0:0:0:
320,192,88177,1,0,0:0:0:0:
448,192,88249,1,0,0:0:0:0:
64,192,88249,1,0,0:0:0:0:
192,192,88321,1,0,0:0:0:0:
320,192,88393,1,0,0:0:0:0:
448,192,88393,1,0,0:0:0:0:
64,192,88465,1,0,0:0:0:0:
192,192,88537,1,0,0:0:0:0:
320,192,88537,1,0,0:0:0:0:
448,192,88609,1,0,0:0:0:0:
192,192,88682,1,0,0:0:0:0:
64,192,88682,1,0,0:0:0:0:
320,192,88754,1,0,0:0:0:0:
448,192,88754,1,0,0:0:0:0:
192,192,88826,1,0,0:0:0:0:
64,192,88826,1,0,0:0:0:0:
320,192,88898,1,0,0:0:0:0:
448,192,88970,1,0,0:0:0:0:
64,192,88970,1,0,0:0:0:0:
192,192,89042,1,0,0:0:0:0:
320,192,89114,1,0,0:0:0:0:
448,192,89114,1,0,0:0:0:0:
192,192,89186,1,0,0:0:0:0:
64,192,89186,1,0,0:0:0:0:
320,192,89258,1,0,0:0:0:0:
448,192,89258,1,0,0:0:0:0:
192,192,89331,1,0,0:0:0:0:
64,192,89403,1,0,0:0:0:0:
448,192,89403,1,0,0:0:0:0:
320,192,89475,1,0,0:0:0:0:
192,192,89475,1,0,0:0:0:0:
64,192,89547,1,0,0:0:0:0:
448,192,89547,1,0,0:0:0:0:
192,192,89619,1,0,0:0:0:0:
320,192,89691,1,0,0:0:0:0:
448,192,89691,1,0,0:0:0:0:
192,192,89763,1,0,0:0:0:0:
64,192,89763,1,0,0:0:0:0:
320,192,89835,1,0,0:0:0:0:
448,192,89835,1,0,0:0:0:0:
64,192,89908,1,0,0:0:0:0:
192,192,89980,1,0,0:0:0:0:
320,192,89980,1,0,0:0:0:0:
448,192,89980,1,0,0:0:0:0:
64,192,90052,1,0,0:0:0:0:
448,192,90124,1,0,0:0:0:0:
192,192,90124,1,0,0:0:0:0:
320,192,90196,1,0,0:0:0:0:
192,192,90268,1,0,0:0:0:0:
64,192,90268,1,0,0:0:0:0:
448,192,90340,1,0,0:0:0:0:
320,192,90412,1,0,0:0:0:0:
64,192,90412,1,0,0:0:0:0:
192,192,90484,1,0,0:0:0:0:
448,192,90557,1,0,0:0:0:0:
320,192,90557,1,0,0:0:0:0:
192,192,90629,1,0,0:0:0:0:
64,192,90701,1,0,0:0:0:0:
448,192,90701,1,0,0:0:0:0:
320,192,90773,1,0,0:0:0:0:
192,192,90773,1,0,0:0:0:0:
64,192,90845,1,0,0:0:0:0:
448,192,90845,1,0,0:0:0:0:
192,192,90917,1,0,0:0:0:0:
64,192,90989,1,0,0:0:0:0:
320,192,90989,1,0,0:0:0:0:
448,192,91061,1,0,0:0:0:0:
320,192,91133,1,0,0:0:0:0:
192,192,91133,1,0,0:0:0:0:
64,192,91133,1,0,0:0:0:0:
448,192,91206,1,0,0:0:0:0:
64,192,91278,1,0,0:0:0:0:
192,192,91278,1,0,0:0:0:0:
320,192,91350,1,0,0:0:0:0:
448,192,91350,1,0,0:0:0:0:
192,192,91422,1,0,0:0:0:0:
64,192,91494,1,0,0:0:0:0:
320,192,91566,1,0,0:0:0:0:
448,192,91566,1,0,0:0:0:0:
192,192,91638,1,0,0:0:0:0:
320,192,91710,1,0,0:0:0:0:
448,192,91710,1,0,0:0:0:0:
192,192,91783,1,0,0:0:0:0:
64,192,91855,1,0,0:0:0:0:
448,192,91855,1,0,0:0:0:0:
320,192,91927,1,0,0:0:0:0:
192,192,91927,1,0,0:0:0:0:
448,192,91999,1,0,0:0:0:0:
64,192,92071,1,0,0:0:0:0:
192,192,92143,1,0,0:0:0:0:
320,192,92143,1,0,0:0:0:0:
448,192,92215,1,0,0:0:0:0:
192,192,92287,1,0,0:0:0:0:
320,192,92287,1,0,0:0:0:0:
64,192,92359,1,0,0:0:0:0:
448,192,92432,1,0,0:0:0:0:
320,192,92432,1,0,0:0:0:0:
192,192,92504,1,0,0:0:0:0:
64,192,92504,1,0,0:0:0:0:
320,192,92576,1,0,0:0:0:0:
448,192,92648,1,0,0:0:0:0:
64,192,92720,1,0,0:0:0:0:
320,192,92720,1,0,0:0:0:0:
192,192,92792,1,0,0:0:0:0:
64,192,92864,1,0,0:0:0:0:
448,192,92864,1,0,0:0:0:0:
320,192,92936,1,0,0:0:0:0:
192,192,93008,1,0,0:0:0:0:
448,192,93008,1,0,0:0:0:0:
320,192,93081,1,0,0:0:0:0:
64,192,93081,1,0,0:0:0:0:
192,192,93153,1,0,0:0:0:0:
64,192,93225,1,0,0:0:0:0:
320,192,93297,1,0,0:0:0:0:
448,192,93297,1,0,0:0:0:0:
64,192,93369,1,0,0:0:0:0:
320,192,93441,1,0,0:0:0:0:
448,192,93441,1,0,0:0:0:0:
192,192,93513,1,0,0:0:0:0:
64,192,93513,1,0,0:0:0:0:
320,192,93585,1,0,0:0:0:0:
448,192,93658,1,0,0:0:0:0:
320,192,93730,1,0,0:0:0:0:
64,192,93730,1,0,0:0:0:0:
192,192,93802,1,0,0:0:0:0:
320,192,93874,1,0,0:0:0:0:
448,192,93874,1,0,0:0:0:0:
64,192,93946,1,0,0:0:0:0:
192,192,93946,1,0,0:0:0:0:
320,192,94018,1,0,0:0:0:0:
64,192,94090,1,0,0:0:0:0:
192,192,94162,1,0,0:0:0:0:
448,192,94162,1,0,0:0:0:0:
320,192,94234,1,0,0:0:0:0:
192,192,94307,1,0,0:0:0:0:
64,192,94307,1,0,0:0:0:0:
320,192,94379,1,0,0:0:0:0:
448,192,94379,1,0,0:0:0:0:
192,192,94451,1,0,0:0:0:0:
320,192,94523,1,0,0:0:0:0:
64,192,94595,1,0,0:0:0:0:
448,192,94595,1,0,0:0:0:0:
320,192,94691,1,0,0:0:0:0:
192,192,94787,1,0,0:0:0:0:
64,192,94883,1,0,0:0:0:0:
448,192,94883,1,0,0:0:0:0:
320,192,94980,1,0,0:0:0:0:
192,192,95076,1,0,0:0:0:0:
64,192,95172,1,0,0:0:0:0:
320,192,95172,1,0,0:0:0:0:
448,192,95172,1,0,0:0:0:0:
192,192,95268,1,0,0:0:0:0:
320,192,95364,1,0,0:0:0:0:
192,192,95460,1,0,0:0:0:0:
64,192,95460,1,0,0:0:0:0:
448,192,95460,1,0,0:0:0:0:
320,192,95557,1,0,0:0:0:0:
448,192,95653,1,0,0:0:0:0:
64,192,95749,1,0,0:0:0:0:
192,192,95893,1,0,0:0:0:0:
64,192,95965,1,0,0:0:0:0:
320,192,96037,1,0,0:0:0:0:
448,192,96037,1,0,0:0:0:0:
192,192,96182,1,0,0:0:0:0:
64,192,96254,1,0,0:0:0:0:
320,192,96326,1,0,0:0:0:0:
448,192,96398,1,0,0:0:0:0:
192,192,96470,1,0,0:0:0:0:
320,192,96542,1,0,0:0:0:0:
192,192,96614,128,0,96831:0:0:0:0:
64,192,96614,128,0,96831:0:0:0:0:
448,192,96614,128,0,96831:0:0:0:0:
64,192,96903,1,0,0:0:0:0:
192,192,96903,1,0,0:0:0:0:
448,192,96903,1,0,0:0:0:0:
320,192,97191,1,0,0:0:0:0:
192,192,97335,1,0,0:0:0:0:
64,192,97335,1,0,0:0:0:0:
320,192,97444,1,0,0:0:0:0:
448,192,97480,1,0,0:0:0:0:
192,192,97624,1,0,0:0:0:0:
64,192,97768,1,0,0:0:0:0:
448,192,97912,1,0,0:0:0:0:
320,192,97912,1,0,0:0:0:0:
64,192,98057,1,0,0:0:0:0:
448,192,98201,1,0,0:0:0:0:
320,192,98345,1,0,0:0:0:0:
192,192,98345,1,0,0:0:0:0:
64,192,98489,1,0,0:0:0:0:
192,192,98633,1,0,0:0:0:0:
448,192,98778,1,0,0:0:0:0:
320,192,98778,1,0,0:0:0:0:
192,192,98922,1,0,0:0:0:0:
448,192,99066,1,0,0:0:0:0:
64,192,99210,1,0,0:0:0:0:
320,192,99210,1,0,0:0:0:0:
448,192,99355,1,0,0:0:0:0:
64,192,99499,1,0,0:0:0:0:
192,192,99643,1,0,0:0:0:0:
448,192,99643,1,0,0:0:0:0:
320,192,99787,1,0,0:0:0:0:
64,192,99787,1,0,0:0:0:0:
192,192,99932,1,0,0:0:0:0:
448,192,100076,1,0,0:0:0:0:
64,192,100076,1,0,0:0:0:0:
192,192,100220,1,0,0:0:0:0:
320,192,100220,1,0,0:0:0:0:
192,192,100508,1,0,0:0:0:0:
320,192,100508,1,0,0:0:0:0:
64,192,100797,1,0,0:0:0:0:
192,192,100869,1,0,0:0:0:0:
448,192,100941,1,0,0:0:0:0:
320,192,101013,1,0,0:0:0:0:
192,192,101085,1,0,0:0:0:0:
64,192,101158,1,0,0:0:0:0:
320,192,101230,1,0,0:0:0:0:
64,192,101302,1,0,0:0:0:0:
192,192,101374,1,0,0:0:0:0:
448,192,101446,1,0,0:0:0:0:
320,192,101518,1,0,0:0:0:0:
64,192,101662,1,0,0:0:0:0:
192,192,101807,1,0,0:0:0:0:
448,192,101951,1,0,0:0:0:0:
192,192,102059,1,0,0:0:0:0:
64,192,102095,1,0,0:0:0:0:
320,192,102239,1,0,0:0:0:0:
448,192,102383,1,0,0:0:0:0:
192,192,102528,1,0,0:0:0:0:
448,192,102672,1,0,0:0:0:0:
64,192,102672,1,0,0:0:0:0:
320,192,102816,1,0,0:0:0:0:
192,192,102816,1,0,0:0:0:0:
448,192,102960,1,0,0:0:0:0:
320,192,102960,1,0,0:0:0:0:
192,192,103105,1,0,0:0:0:0:
64,192,103105,1,0,0:0:0:0:
64,192,103249,1,0,0:0:0:0:
448,192,103249,128,0,103682:0:0:0:0:
320,192,103393,1,0,0:0:0:0:
64,192,103537,1,0,0:0:0:0:
192,192,103682,1,0,0:0:0:0:
64,192,103970,1,0,0:0:0:0:
192,192,103970,1,0,0:0:0:0:
448,192,103970,1,0,0:0:0:0:
320,192,104114,1,0,0:0:0:0:
192,192,104258,1,0,0:0:0:0:
64,192,104403,1,0,0:0:0:0:
320,192,104403,1,0,0:0:0:0:
448,192,104403,1,0,0:0:0:0:
192,192,104547,1,0,0:0:0:0:
320,192,104619,1,0,0:0:0:0:
448,192,104619,1,0,0:0:0:0:
192,192,104763,1,0,0:0:0:0:
64,192,104835,1,0,0:0:0:0:
448,192,104835,1,0,0:0:0:0:
64,192,104980,1,0,0:0:0:0:
320,192,104980,1,0,0:0:0:0:
448,192,104980,1,0,0:0:0:0:
320,192,105124,1,0,0:0:0:0:
448,192,105124,1,0,0:0:0:0:
64,192,105124,1,0,0:0:0:0:
320,192,105268,1,0,0:0:0:0:
448,192,105304,1,0,0:0:0:0:
192,192,105340,1,0,0:0:0:0:
64,192,105376,1,0,0:0:0:0:
320,192,105412,1,0,0:0:0:0:
448,192,105448,1,0,0:0:0:0:
192,192,105484,1,0,0:0:0:0:
64,192,105521,1,0,0:0:0:0:
320,192,105557,1,0,0:0:0:0:
448,192,105557,1,0,0:0:0:0:
192,192,105629,1,0,0:0:0:0:
320,192,105701,1,0,0:0:0:0:
448,192,105701,1,0,0:0:0:0:
192,192,105773,1,0,0:0:0:0:
64,192,105773,1,0,0:0:0:0:
448,192,105845,1,0,0:0:0:0:
320,192,105917,1,0,0:0:0:0:
192,192,105989,1,0,0:0:0:0:
64,192,106061,1,0,0:0:0:0:
192,192,106133,1,0,0:0:0:0:
320,192,106133,1,0,0:0:0:0:
448,192,106133,1,0,0:0:0:0:
64,192,106206,1,0,0:0:0:0:
192,192,106278,1,0,0:0:0:0:
320,192,106350,1,0,0:0:0:0:
192,192,106422,1,0,0:0:0:0:
64,192,106422,1,0,0:0:0:0:
320,192,106494,1,0,0:0:0:0:
448,192,106566,1,0,0:0:0:0:
192,192,106566,1,0,0:0:0:0:
64,192,106566,1,0,0:0:0:0:
320,192,106638,1,0,0:0:0:0:
192,192,106710,1,0,0:0:0:0:
448,192,106710,1,0,0:0:0:0:
320,192,106783,1,0,0:0:0:0:
448,192,106855,1,0,0:0:0:0:
64,192,106855,1,0,0:0:0:0:
192,192,106927,1,0,0:0:0:0:
320,192,106999,1,0,0:0:0:0:
448,192,106999,1,0,0:0:0:0:
64,192,106999,1,0,0:0:0:0:
192,192,107071,1,0,0:0:0:0:
320,192,107143,1,0,0:0:0:0:
448,192,107143,1,0,0:0:0:0:
64,192,107215,1,0,0:0:0:0:
192,192,107287,1,0,0:0:0:0:
320,192,107287,1,0,0:0:0:0:
448,192,107359,1,0,0:0:0:0:
64,192,107432,1,0,0:0:0:0:
192,192,107432,1,0,0:0:0:0:
320,192,107432,1,0,0:0:0:0:
448,192,107504,1,0,0:0:0:0:
64,192,107576,1,0,0:0:0:0:
320,192,107576,1,0,0:0:0:0:
192,192,107648,1,0,0:0:0:0:
448,192,107720,1,0,0:0:0:0:
320,192,107756,1,0,0:0:0:0:
192,192,107792,1,0,0:0:0:0:
64,192,107828,1,0,0:0:0:0:
448,192,107864,1,0,0:0:0:0:
320,192,107864,1,0,0:0:0:0:
192,192,107936,1,0,0:0:0:0:
448,192,108008,1,0,0:0:0:0:
320,192,108045,1,0,0:0:0:0:
192,192,108081,1,0,0:0:0:0:
64,192,108117,1,0,0:0:0:0:
448,192,108153,1,0,0:0:0:0:
320,192,108153,1,0,0:0:0:0:
192,192,108225,1,0,0:0:0:0:
448,192,108297,1,0,0:0:0:0:
320,192,108333,1,0,0:0:0:0:
192,192,108369,1,0,0:0:0:0:
64,192,108405,1,0,0:0:0:0:
320,192,108441,1,0,0:0:0:0:
448,192,108441,1,0,0:0:0:0:
64,192,108513,1,0,0:0:0:0:
192,192,108513,1,0,0:0:0:0:
320,192,108585,1,0,0:0:0:0:
448,192,108585,1,0,0:0:0:0:
192,192,108658,1,0,0:0:0:0:
64,192,108730,1,0,0:0:0:0:
448,192,108730,1,0,0:0:0:0:
320,192,108802,1,0,0:0:0:0:
192,192,108874,1,0,0:0:0:0:
64,192,108874,1,0,0:0:0:0:
448,192,108874,1,0,0:0:0:0:
320,192,108946,1,0,0:0:0:0:
192,192,109018,1,0,0:0:0:0:
64,192,109018,1,0,0:0:0:0:
320,192,109090,1,0,0:0:0:0:
64,192,109162,1,0,0:0:0:0:
448,192,109162,1,0,0:0:0:0:
192,192,109234,1,0,0:0:0:0:
320,192,109307,1,0,0:0:0:0:
448,192,109307,1,0,0:0:0:0:
64,192,109307,1,0,0:0:0:0:
192,192,109379,1,0,0:0:0:0:
64,192,109451,1,0,0:0:0:0:
320,192,109451,1,0,0:0:0:0:
448,192,109451,1,0,0:0:0:0:
192,192,109523,1,0,0:0:0:0:
320,192,109595,1,0,0:0:0:0:
448,192,109595,1,0,0:0:0:0:
64,192,109667,1,0,0:0:0:0:
192,192,109739,1,0,0:0:0:0:
320,192,109739,1,0,0:0:0:0:
448,192,109739,1,0,0:0:0:0:
64,192,109811,1,0,0:0:0:0:
448,192,109883,1,0,0:0:0:0:
192,192,109883,1,0,0:0:0:0:
320,192,109956,1,0,0:0:0:0:
192,192,110028,1,0,0:0:0:0:
64,192,110028,1,0,0:0:0:0:
448,192,110028,1,0,0:0:0:0:
320,192,110100,1,0,0:0:0:0:
448,192,110172,1,0,0:0:0:0:
64,192,110172,1,0,0:0:0:0:
192,192,110244,1,0,0:0:0:0:
320,192,110316,1,0,0:0:0:0:
448,192,110316,1,0,0:0:0:0:
64,192,110316,1,0,0:0:0:0:
192,192,110388,1,0,0:0:0:0:
320,192,110460,1,0,0:0:0:0:
448,192,110460,1,0,0:0:0:0:
192,192,110533,1,0,0:0:0:0:
64,192,110533,1,0,0:0:0:0:
320,192,110605,1,0,0:0:0:0:
448,192,110605,1,0,0:0:0:0:
192,192,110677,1,0,0:0:0:0:
64,192,110677,1,0,0:0:0:0:
320,192,110749,1,0,0:0:0:0:
448,192,110749,1,0,0:0:0:0:
192,192,110821,1,0,0:0:0:0:
64,192,110893,1,0,0:0:0:0:
448,192,110893,1,0,0:0:0:0:
320,192,110965,1,0,0:0:0:0:
192,192,110965,1,0,0:0:0:0:
64,192,111037,1,0,0:0:0:0:
448,192,111037,1,0,0:0:0:0:
320,192,111109,1,0,0:0:0:0:
192,192,111109,1,0,0:0:0:0:
64,192,111182,1,0,0:0:0:0:
448,192,111182,1,0,0:0:0:0:
320,192,111254,1,0,0:0:0:0:
192,192,111254,1,0,0:0:0:0:
64,192,111326,1,0,0:0:0:0:
448,192,111326,1,0,0:0:0:0:
320,192,111398,1,0,0:0:0:0:
192,192,111470,1,0,0:0:0:0:
64,192,111470,1,0,0:0:0:0:
320,192,111542,1,0,0:0:0:0:
448,192,111542,1,0,0:0:0:0:
192,192,111614,1,0,0:0:0:0:
64,192,111614,1,0,0:0:0:0:
320,192,111686,1,0,0:0:0:0:
448,192,111686,1,0,0:0:0:0:
192,192,111758,1,0,0:0:0:0:
64,192,111758,1,0,0:0:0:0:
320,192,111831,1,0,0:0:0:0:
448,192,111831,1,0,0:0:0:0:
192,192,111903,1,0,0:0:0:0:
64,192,111903,1,0,0:0:0:0:
192,192,112047,1,0,0:0:0:0:
320,192,112047,1,0,0:0:0:0:
64,192,112191,1,0,0:0:0:0:
320,192,112191,1,0,0:0:0:0:
448,192,112191,1,0,0:0:0:0:
192,192,112335,1,0,0:0:0:0:
320,192,112335,1,0,0:0:0:0:
64,192,112480,1,0,0:0:0:0:
192,192,112480,1,0,0:0:0:0:
320,192,112480,1,0,0:0:0:0:
64,192,112624,1,0,0:0:0:0:
192,192,112624,1,0,0:0:0:0:
192,192,112768,1,0,0:0:0:0:
320,192,112768,1,0,0:0:0:0:
448,192,112768,1,0,0:0:0:0:
320,192,112912,1,0,0:0:0:0:
448,192,112912,1,0,0:0:0:0:
64,192,113057,1,0,0:0:0:0:
192,192,113057,1,0,0:0:0:0:
448,192,113057,1,0,0:0:0:0:
320,192,113129,1,0,0:0:0:0:
192,192,113201,1,0,0:0:0:0:
64,192,113201,1,0,0:0:0:0:
448,192,113273,1,0,0:0:0:0:
320,192,113273,1,0,0:0:0:0:
64,192,113345,1,0,0:0:0:0:
192,192,113345,1,0,0:0:0:0:
320,192,113417,1,0,0:0:0:0:
448,192,113489,1,0,0:0:0:0:
64,192,113489,1,0,0:0:0:0:
192,192,113561,1,0,0:0:0:0:
320,192,113561,1,0,0:0:0:0:
448,192,113633,1,0,0:0:0:0:
64,192,113633,1,0,0:0:0:0:
320,192,113706,1,0,0:0:0:0:
192,192,113778,1,0,0:0:0:0:
64,192,113778,1,0,0:0:0:0:
448,192,113850,1,0,0:0:0:0:
320,192,113850,1,0,0:0:0:0:
192,192,113922,1,0,0:0:0:0:
64,192,113922,1,0,0:0:0:0:
320,192,113994,1,0,0:0:0:0:
192,192,114066,1,0,0:0:0:0:
448,192,114066,1,0,0:0:0:0:
320,192,114138,1,0,0:0:0:0:
64,192,114138,1,0,0:0:0:0:
192,192,114210,1,0,0:0:0:0:
448,192,114210,1,0,0:0:0:0:
320,192,114283,1,0,0:0:0:0:
64,192,114355,1,0,0:0:0:0:
192,192,114355,1,0,0:0:0:0:
448,192,114427,1,0,0:0:0:0:
320,192,114499,1,0,0:0:0:0:
192,192,114499,1,0,0:0:0:0:
64,192,114571,1,0,0:0:0:0:
320,192,114643,1,0,0:0:0:0:
448,192,114643,1,0,0:0:0:0:
192,192,114715,1,0,0:0:0:0:
64,192,114787,1,0,0:0:0:0:
448,192,114787,1,0,0:0:0:0:
192,192,114859,1,0,0:0:0:0:
320,192,114859,1,0,0:0:0:0:
448,192,114932,1,0,0:0:0:0:
64,192,114932,1,0,0:0:0:0:
192,192,115004,1,0,0:0:0:0:
320,192,115004,1,0,0:0:0:0:
448,192,115076,1,0,0:0:0:0:
64,192,115076,1,0,0:0:0:0:
192,192,115148,1,0,0:0:0:0:
320,192,115220,1,0,0:0:0:0:
448,192,115220,1,0,0:0:0:0:
192,192,115292,1,0,0:0:0:0:
64,192,115292,1,0,0:0:0:0:
320,192,115364,1,0,0:0:0:0:
448,192,115364,1,0,0:0:0:0:
192,192,115436,1,0,0:0:0:0:
64,192,115508,1,0,0:0:0:0:
448,192,115508,1,0,0:0:0:0:
320,192,115508,1,0,0:0:0:0:
192,192,115581,1,0,0:0:0:0:
320,192,115653,1,0,0:0:0:0:
448,192,115653,1,0,0:0:0:0:
64,192,115725,1,0,0:0:0:0:
192,192,115725,1,0,0:0:0:0:
320,192,115797,1,0,0:0:0:0:
448,192,115869,1,0,0:0:0:0:
320,192,115941,1,0,0:0:0:0:
192,192,115941,1,0,0:0:0:0:
64,192,116013,1,0,0:0:0:0:
192,192,116085,1,0,0:0:0:0:
448,192,116085,1,0,0:0:0:0:
320,192,116158,1,0,0:0:0:0:
64,192,116158,1,0,0:0:0:0:
192,192,116230,1,0,0:0:0:0:
320,192,116302,1,0,0:0:0:0:
64,192,116374,1,0,0:0:0:0:
448,192,116374,1,0,0:0:0:0:
192,192,116446,1,0,0:0:0:0:
320,192,116446,1,0,0:0:0:0:
64,192,116518,1,0,0:0:0:0:
448,192,116518,1,0,0:0:0:0:
192,192,116590,1,0,0:0:0:0:
320,192,116662,1,0,0:0:0:0:
448,192,116662,1,0,0:0:0:0:
64,192,116662,1,0,0:0:0:0:
192,192,116734,1,0,0:0:0:0:
64,192,116807,1,0,0:0:0:0:
320,192,116807,1,0,0:0:0:0:
192,192,116879,1,0,0:0:0:0:
448,192,116879,1,0,0:0:0:0:
64,192,116951,1,0,0:0:0:0:
192,192,117023,1,0,0:0:0:0:
320,192,117095,1,0,0:0:0:0:
448,192,117095,1,0,0:0:0:0:
64,192,117167,1,0,0:0:0:0:
448,192,117239,1,0,0:0:0:0:
320,192,117275,1,0,0:0:0:0:
64,192,117311,1,0,0:0:0:0:
192,192,117347,1,0,0:0:0:0:
320,192,117383,1,0,0:0:0:0:
448,192,117383,1,0,0:0:0:0:
192,192,117456,1,0,0:0:0:0:
64,192,117456,1,0,0:0:0:0:
320,192,117528,1,0,0:0:0:0:
448,192,117528,1,0,0:0:0:0:
192,192,117600,1,0,0:0:0:0:
64,192,117600,1,0,0:0:0:0:
320,192,117672,1,0,0:0:0:0:
448,192,117672,128,0,118826:0:0:0:0:
64,192,118826,1,0,0:0:0:0:
192,192,118970,1,0,0:0:0:0:
64,192,119042,1,0,0:0:0:0:
320,192,119114,1,0,0:0:0:0:
448,192,119114,1,0,0:0:0:0:
64,192,119258,1,0,0:0:0:0:
192,192,119331,1,0,0:0:0:0:
448,192,119403,1,0,0:0:0:0:
320,192,119439,1,0,0:0:0:0:
192,192,119475,1,0,0:0:0:0:
64,192,119511,1,0,0:0:0:0:
448,192,119547,1,0,0:0:0:0:
320,192,119583,1,0,0:0:0:0:
192,192,119619,1,0,0:0:0:0:
64,192,119655,1,0,0:0:0:0:
448,192,119691,1,0,0:0:0:0:
320,192,119727,1,0,0:0:0:0:
64,192,119763,1,0,0:0:0:0:
192,192,119799,1,0,0:0:0:0:
448,192,119835,1,0,0:0:0:0:
320,192,119871,1,0,0:0:0:0:
64,192,119908,1,0,0:0:0:0:
192,192,119944,1,0,0:0:0:0:
320,192,119980,1,0,0:0:0:0:
448,192,119980,1,0,0:0:0:0:
