osu file format v14

[General]
AudioFilename: audio.mp3
AudioLeadIn: 0
PreviewTime: 273007
Countdown: 0
SampleSet: Normal
StackLeniency: 0.7
Mode: 3
LetterboxInBreaks: 0
SpecialStyle: 0
WidescreenStoryboard: 0

[Editor]
DistanceSpacing: 0.7
BeatDivisor: 4
GridSize: 8
TimelineZoom: 3.199999

[Metadata]
Title:AlphaOmega (Evolutionary Extended ver.)
TitleUnicode:ΑΩ (Evolutionary Extended ver.)
Artist:BlackY
ArtistUnicode:BlackY
Creator:Shima Rin
Version:4K Resurrection
Source:SOUND VOLTEX III GRAVITY WARS
Tags:Tofu1222 _Stan AO SDVX 3 KONAMI BEMANI KAC楽曲コンテスト王者 KAC Song Contest Champion 京終 始果 EXIT TUNES Video Game Electronic Instrumental
BeatmapID:2755520
BeatmapSetID:1329899

[Difficulty]
HPDrainRate:8.5
CircleSize:4
OverallDifficulty:8
ApproachRate:5
SliderMultiplier:1.4
SliderTickRate:1

[Events]
//Background and Video events
0,0,"BG.jpg",0,0
//Break Periods
//Storyboard Layer 0 (Background)
//Storyboard Layer 1 (Fail)
//Storyboard Layer 2 (Pass)
//Storyboard Layer 3 (Foreground)
//Storyboard Layer 4 (Overlay)
//Storyboard Sound Samples

[TimingPoints]
580,387.096774193548,4,1,1,75,1,0
580,-74.6268656716418,4,1,1,75,0,0
79161,288.461538461538,4,1,1,75,1,0
176084,-100,4,1,1,75,0,1
196853,-100,4,1,1,75,0,0
274160,-100,4,1,1,75,0,1
294930,-100,4,1,1,75,0,0

[HitObjects]
64,192,580,5,0,0:0:0:0:
448,192,580,1,0,0:0:0:0:
320,192,773,1,0,0:0:0:0:
192,192,967,1,0,0:0:0:0:
64,192,1160,1,0,0:0:0:0:
320,192,1354,1,0,0:0:0:0:
192,192,1547,1,0,0:0:0:0:
448,192,1741,1,0,0:0:0:0:
192,192,1934,1,0,0:0:0:0:
448,192,2128,1,0,0:0:0:0:
320,192,2321,1,0,0:0:0:0:
192,192,2515,1,0,0:0:0:0:
64,192,2709,1,0,0:0:0:0:
320,192,2902,1,0,0:0:0:0:
192,192,3096,1,0,0:0:0:0:
448,192,3289,1,0,0:0:0:0:
192,192,3483,1,0,0:0:0:0:
64,192,3676,1,0,0:0:0:0:
320,192,3676,1,0,0:0:0:0:
448,192,3870,1,0,0:0:0:0:
192,192,4063,1,0,0:0:0:0:
64,192,4257,1,0,0:0:0:0:
448,192,4450,1,0,0:0:0:0:
320,192,4644,1,0,0:0:0:0:
64,192,4838,1,0,0:0:0:0:
192,192,5031,1,0,0:0:0:0:
448,192,5225,1,0,0:0:0:0:
320,192,5225,1,0,0:0:0:0:
192,192,5418,1,0,0:0:0:0:
64,192,5612,1,0,0:0:0:0:
448,192,5805,1,0,0:0:0:0:
192,192,5999,1,0,0:0:0:0:
64,192,6192,1,0,0:0:0:0:
192,192,6386,1,0,0:0:0:0:
320,192,6579,1,0,0:0:0:0:
64,192,6773,1,0,0:0:0:0:
448,192,6773,1,0,0:0:0:0:
320,192,6967,1,0,0:0:0:0:
192,192,7160,1,0,0:0:0:0:
64,192,7354,1,0,0:0:0:0:
320,192,7547,1,0,0:0:0:0:
192,192,7741,1,0,0:0:0:0:
448,192,7934,1,0,0:0:0:0:
192,192,8128,1,0,0:0:0:0:
448,192,8321,1,0,0:0:0:0:
320,192,8515,1,0,0:0:0:0:
192,192,8709,1,0,0:0:0:0:
64,192,8902,1,0,0:0:0:0:
320,192,9096,1,0,0:0:0:0:
192,192,9289,1,0,0:0:0:0:
448,192,9483,1,0,0:0:0:0:
192,192,9676,1,0,0:0:0:0:
64,192,9870,1,0,0:0:0:0:
320,192,9870,1,0,0:0:0:0:
448,192,10063,1,0,0:0:0:0:
192,192,10257,1,0,0:0:0:0:
64,192,10450,1,0,0:0:0:0:
448,192,10644,1,0,0:0:0:0:
320,192,10838,1,0,0:0:0:0:
64,192,11031,1,0,0:0:0:0:
192,192,11225,1,0,0:0:0:0:
448,192,11418,1,0,0:0:0:0:
64,192,11612,1,0,0:0:0:0:
320,192,11805,1,0,0:0:0:0:
64,192,11999,1,0,0:0:0:0:
448,192,12192,1,0,0:0:0:0:
320,192,12386,1,0,0:0:0:0:
192,192,12579,1,0,0:0:0:0:
64,192,12773,1,0,0:0:0:0:
320,192,12967,1,0,0:0:0:0:
448,192,12967,1,0,0:0:0:0:
192,192,13160,1,0,0:0:0:0:
64,192,13354,1,0,0:0:0:0:
448,192,13547,1,0,0:0:0:0:
320,192,13741,1,0,0:0:0:0:
64,192,13934,1,0,0:0:0:0:
448,192,14128,1,0,0:0:0:0:
64,192,14321,1,0,0:0:0:0:
320,192,14515,1,0,0:0:0:0:
192,192,14709,1,0,0:0:0:0:
64,192,14902,1,0,0:0:0:0:
448,192,15096,1,0,0:0:0:0:
320,192,15289,1,0,0:0:0:0:
64,192,15483,1,0,0:0:0:0:
448,192,15676,1,0,0:0:0:0:
64,192,15870,1,0,0:0:0:0:
320,192,16063,1,0,0:0:0:0:
192,192,16063,1,0,0:0:0:0:
64,192,16257,1,0,0:0:0:0:
448,192,16450,1,0,0:0:0:0:
320,192,16644,1,0,0:0:0:0:
192,192,16838,1,0,0:0:0:0:
448,192,17031,1,0,0:0:0:0:
64,192,17225,1,0,0:0:0:0:
320,192,17418,1,0,0:0:0:0:
448,192,17612,1,0,0:0:0:0:
192,192,17612,1,0,0:0:0:0:
64,192,17805,1,0,0:0:0:0:
320,192,17999,1,0,0:0:0:0:
192,192,18192,1,0,0:0:0:0:
64,192,18386,1,0,0:0:0:0:
448,192,18579,1,0,0:0:0:0:
64,192,18773,1,0,0:0:0:0:
192,192,18967,1,0,0:0:0:0:
448,192,19160,1,0,0:0:0:0:
320,192,19160,1,0,0:0:0:0:
192,192,19354,1,0,0:0:0:0:
64,192,19547,1,0,0:0:0:0:
448,192,19741,1,0,0:0:0:0:
320,192,19934,1,0,0:0:0:0:
64,192,20128,1,0,0:0:0:0:
448,192,20321,1,0,0:0:0:0:
64,192,20515,1,0,0:0:0:0:
320,192,20709,1,0,0:0:0:0:
192,192,20902,1,0,0:0:0:0:
64,192,21096,1,0,0:0:0:0:
448,192,21289,1,0,0:0:0:0:
320,192,21483,1,0,0:0:0:0:
64,192,21676,1,0,0:0:0:0:
448,192,21870,1,0,0:0:0:0:
64,192,22063,1,0,0:0:0:0:
320,192,22257,1,0,0:0:0:0:
192,192,22257,1,0,0:0:0:0:
64,192,22450,1,0,0:0:0:0:
448,192,22644,1,0,0:0:0:0:
320,192,22838,1,0,0:0:0:0:
192,192,23031,1,0,0:0:0:0:
64,192,23225,1,0,0:0:0:0:
192,192,23418,1,0,0:0:0:0:
320,192,23612,1,0,0:0:0:0:
448,192,23805,1,0,0:0:0:0:
192,192,23999,1,0,0:0:0:0:
320,192,24192,1,0,0:0:0:0:
192,192,24386,1,0,0:0:0:0:
64,192,24579,1,0,0:0:0:0:
448,192,24773,1,0,0:0:0:0:
320,192,24967,1,0,0:0:0:0:
192,192,25160,1,0,0:0:0:0:
320,192,25354,1,0,0:0:0:0:
64,192,25354,1,0,0:0:0:0:
448,192,25354,1,0,0:0:0:0:
192,192,25547,1,0,0:0:0:0:
448,192,25741,1,0,0:0:0:0:
320,192,25934,1,0,0:0:0:0:
64,192,26128,1,0,0:0:0:0:
448,192,26321,1,0,0:0:0:0:
192,192,26515,1,0,0:0:0:0:
448,192,26709,1,0,0:0:0:0:
320,192,26902,1,0,0:0:0:0:
192,192,27096,1,0,0:0:0:0:
448,192,27289,1,0,0:0:0:0:
320,192,27483,1,0,0:0:0:0:
64,192,27676,1,0,0:0:0:0:
448,192,27870,1,0,0:0:0:0:
192,192,28063,1,0,0:0:0:0:
448,192,28257,1,0,0:0:0:0:
192,192,28450,1,0,0:0:0:0:
64,192,28450,1,0,0:0:0:0:
320,192,28450,1,0,0:0:0:0:
448,192,28644,1,0,0:0:0:0:
320,192,28838,1,0,0:0:0:0:
192,192,29031,1,0,0:0:0:0:
64,192,29225,1,0,0:0:0:0:
448,192,29418,1,0,0:0:0:0:
192,192,29612,1,0,0:0:0:0:
320,192,29805,1,0,0:0:0:0:
64,192,29999,1,0,0:0:0:0:
192,192,29999,1,0,0:0:0:0:
448,192,29999,1,0,0:0:0:0:
320,192,30192,1,0,0:0:0:0:
192,192,30386,1,0,0:0:0:0:
64,192,30579,1,0,0:0:0:0:
320,192,30773,1,0,0:0:0:0:
64,192,30967,1,0,0:0:0:0:
320,192,31160,1,0,0:0:0:0:
192,192,31354,1,0,0:0:0:0:
320,192,31547,1,0,0:0:0:0:
64,192,31547,1,0,0:0:0:0:
448,192,31547,1,0,0:0:0:0:
192,192,31741,1,0,0:0:0:0:
448,192,31934,1,0,0:0:0:0:
320,192,32128,1,0,0:0:0:0:
64,192,32321,1,0,0:0:0:0:
448,192,32515,1,0,0:0:0:0:
192,192,32709,1,0,0:0:0:0:
448,192,32902,1,0,0:0:0:0:
320,192,33096,1,0,0:0:0:0:
192,192,33289,1,0,0:0:0:0:
448,192,33483,1,0,0:0:0:0:
320,192,33676,1,0,0:0:0:0:
64,192,33870,1,0,0:0:0:0:
448,192,34063,1,0,0:0:0:0:
192,192,34257,1,0,0:0:0:0:
448,192,34450,1,0,0:0:0:0:
192,192,34644,1,0,0:0:0:0:
64,192,34644,1,0,0:0:0:0:
320,192,34644,1,0,0:0:0:0:
448,192,34838,1,0,0:0:0:0:
192,192,35031,1,0,0:0:0:0:
64,192,35225,1,0,0:0:0:0:
448,192,35418,1,0,0:0:0:0:
320,192,35612,1,0,0:0:0:0:
64,192,35805,1,0,0:0:0:0:
192,192,35999,1,0,0:0:0:0:
448,192,36192,1,0,0:0:0:0:
64,192,36386,1,0,0:0:0:0:
320,192,36579,1,0,0:0:0:0:
64,192,36773,1,0,0:0:0:0:
448,192,36967,1,0,0:0:0:0:
320,192,37160,1,0,0:0:0:0:
192,192,37354,1,0,0:0:0:0:
64,192,37547,1,0,0:0:0:0:
448,192,37741,1,0,0:0:0:0:
320,192,37741,1,0,0:0:0:0:
192,192,37741,1,0,0:0:0:0:
64,192,37934,1,0,0:0:0:0:
448,192,38128,1,0,0:0:0:0:
192,192,38321,1,0,0:0:0:0:
320,192,38515,1,0,0:0:0:0:
448,192,38709,1,0,0:0:0:0:
64,192,38902,1,0,0:0:0:0:
448,192,39096,1,0,0:0:0:0:
320,192,39289,1,0,0:0:0:0:
64,192,39483,1,0,0:0:0:0:
448,192,39676,1,0,0:0:0:0:
192,192,39870,1,0,0:0:0:0:
320,192,40063,1,0,0:0:0:0:
448,192,40257,1,0,0:0:0:0:
64,192,40450,1,0,0:0:0:0:
448,192,40644,1,0,0:0:0:0:
192,192,40838,1,0,0:0:0:0:
64,192,40838,1,0,0:0:0:0:
320,192,40838,1,0,0:0:0:0:
448,192,41031,1,0,0:0:0:0:
192,192,41225,1,0,0:0:0:0:
64,192,41418,1,0,0:0:0:0:
448,192,41612,1,0,0:0:0:0:
320,192,41805,1,0,0:0:0:0:
64,192,41999,1,0,0:0:0:0:
192,192,42192,1,0,0:0:0:0:
64,192,42386,1,0,0:0:0:0:
320,192,42386,1,0,0:0:0:0:
448,192,42386,1,0,0:0:0:0:
192,192,42579,1,0,0:0:0:0:
448,192,42773,1,0,0:0:0:0:
64,192,42967,1,0,0:0:0:0:
320,192,43160,1,0,0:0:0:0:
192,192,43354,1,0,0:0:0:0:
320,192,43547,1,0,0:0:0:0:
64,192,43741,1,0,0:0:0:0:
448,192,43934,1,0,0:0:0:0:
192,192,43934,1,0,0:0:0:0:
320,192,43934,1,0,0:0:0:0:
64,192,44128,1,0,0:0:0:0:
448,192,44321,1,0,0:0:0:0:
192,192,44515,1,0,0:0:0:0:
320,192,44709,1,0,0:0:0:0:
448,192,44902,1,0,0:0:0:0:
64,192,45096,1,0,0:0:0:0:
448,192,45289,1,0,0:0:0:0:
320,192,45483,1,0,0:0:0:0:
64,192,45676,1,0,0:0:0:0:
448,192,45870,1,0,0:0:0:0:
192,192,46063,1,0,0:0:0:0:
320,192,46257,1,0,0:0:0:0:
448,192,46450,1,0,0:0:0:0:
64,192,46644,1,0,0:0:0:0:
448,192,46838,1,0,0:0:0:0:
320,192,47031,1,0,0:0:0:0:
192,192,47031,1,0,0:0:0:0:
64,192,47031,1,0,0:0:0:0:
448,192,47225,1,0,0:0:0:0:
192,192,47418,1,0,0:0:0:0:
320,192,47612,1,0,0:0:0:0:
448,192,47805,1,0,0:0:0:0:
64,192,47999,1,0,0:0:0:0:
192,192,48192,1,0,0:0:0:0:
320,192,48386,1,0,0:0:0:0:
448,192,48579,1,0,0:0:0:0:
192,192,48773,1,0,0:0:0:0:
320,192,48967,1,0,0:0:0:0:
192,192,49160,1,0,0:0:0:0:
448,192,49354,1,0,0:0:0:0:
64,192,49547,1,0,0:0:0:0:
320,192,49741,1,0,0:0:0:0:
192,192,49934,1,0,0:0:0:0:
448,192,50128,1,0,0:0:0:0:
64,192,50128,128,0,51192:0:0:0:0:
192,192,50321,128,0,50805:0:0:0:0:
320,192,50515,128,0,52741:0:0:0:0:
448,192,50709,128,0,51579:0:0:0:0:
192,192,50902,128,0,52354:0:0:0:0:
64,192,51289,128,0,51967:0:0:0:0:
448,192,51676,128,0,53128:0:0:0:0:
64,192,52063,128,0,53128:0:0:0:0:
192,192,52450,128,0,53128:0:0:0:0:
320,192,52838,128,0,53128:0:0:0:0:
448,192,53225,1,0,0:0:0:0:
64,192,53225,128,0,54289:0:0:0:0:
192,192,53418,128,0,53902:0:0:0:0:
320,192,53612,128,0,54676:0:0:0:0:
448,192,53805,128,0,54676:0:0:0:0:
192,192,53999,128,0,55450:0:0:0:0:
64,192,54386,128,0,55450:0:0:0:0:
448,192,54773,128,0,56225:0:0:0:0:
320,192,54773,128,0,55838:0:0:0:0:
64,192,55547,128,0,56225:0:0:0:0:
192,192,55547,128,0,56225:0:0:0:0:
320,192,55934,128,0,56225:0:0:0:0:
64,192,56321,128,0,57386:0:0:0:0:
320,192,56321,1,0,0:0:0:0:
448,192,56321,128,0,56805:0:0:0:0:
192,192,56515,128,0,56999:0:0:0:0:
320,192,56709,128,0,57773:0:0:0:0:
448,192,56902,128,0,57386:0:0:0:0:
192,192,57096,128,0,58160:0:0:0:0:
64,192,57483,128,0,59321:0:0:0:0:
448,192,57483,128,0,58934:0:0:0:0:
320,192,57870,128,0,58547:0:0:0:0:
192,192,58257,128,0,59321:0:0:0:0:
320,192,58644,128,0,59321:0:0:0:0:
448,192,59031,128,0,59321:0:0:0:0:
320,192,59418,1,0,0:0:0:0:
64,192,59418,128,0,60483:0:0:0:0:
448,192,59418,128,0,59902:0:0:0:0:
192,192,59612,128,0,60096:0:0:0:0:
320,192,59805,128,0,60870:0:0:0:0:
448,192,59999,128,0,60870:0:0:0:0:
192,192,60192,128,0,61257:0:0:0:0:
64,192,60579,128,0,61644:0:0:0:0:
448,192,60967,128,0,61644:0:0:0:0:
320,192,60967,128,0,62418:0:0:0:0:
192,192,61354,128,0,62031:0:0:0:0:
448,192,61741,128,0,62418:0:0:0:0:
64,192,61741,128,0,62418:0:0:0:0:
192,192,62128,128,0,62418:0:0:0:0:
320,192,62515,1,0,0:0:0:0:
448,192,62515,128,0,63967:0:0:0:0:
64,192,62709,128,0,63192:0:0:0:0:
192,192,62902,128,0,63579:0:0:0:0:
320,192,63096,128,0,65128:0:0:0:0:
64,192,63289,128,0,64741:0:0:0:0:
192,192,63676,128,0,64354:0:0:0:0:
448,192,64063,128,0,65515:0:0:0:0:
192,192,64450,128,0,65515:0:0:0:0:
64,192,64838,128,0,65515:0:0:0:0:
320,192,65225,128,0,65515:0:0:0:0:
320,192,65612,1,0,0:0:0:0:
448,192,65612,128,0,66289:0:0:0:0:
64,192,65805,128,0,66676:0:0:0:0:
192,192,65999,128,0,67063:0:0:0:0:
320,192,66192,128,0,66676:0:0:0:0:
448,192,66386,128,0,67838:0:0:0:0:
64,192,66773,128,0,68612:0:0:0:0:
320,192,66773,128,0,68225:0:0:0:0:
192,192,67160,128,0,67838:0:0:0:0:
192,192,67934,128,0,68612:0:0:0:0:
448,192,67934,128,0,68612:0:0:0:0:
320,192,68321,128,0,68612:0:0:0:0:
192,192,68709,1,0,0:0:0:0:
448,192,68709,128,0,69773:0:0:0:0:
320,192,68709,128,0,69192:0:0:0:0:
64,192,68902,128,0,69386:0:0:0:0:
192,192,69096,128,0,70160:0:0:0:0:
320,192,69289,128,0,69773:0:0:0:0:
64,192,69483,128,0,70934:0:0:0:0:
320,192,69870,128,0,70547:0:0:0:0:
448,192,69870,128,0,70354:0:0:0:0:
192,192,70257,128,0,70741:0:0:0:0:
448,192,70450,128,0,71128:0:0:0:0:
320,192,70644,128,0,71321:0:0:0:0:
192,192,70838,128,0,71515:0:0:0:0:
64,192,71031,128,0,71709:0:0:0:0:
448,192,71225,128,0,71709:0:0:0:0:
320,192,71418,128,0,71709:0:0:0:0:
192,192,71612,128,0,71709:0:0:0:0:
320,192,71805,1,0,0:0:0:0:
64,192,71805,128,0,77999:0:0:0:0:
448,192,71805,128,0,73257:0:0:0:0:
192,192,72192,128,0,72870:0:0:0:0:
320,192,72579,128,0,74031:0:0:0:0:
192,192,72967,128,0,73644:0:0:0:0:
448,192,73354,128,0,74418:0:0:0:0:
192,192,73741,128,0,74805:0:0:0:0:
320,192,74128,128,0,75579:0:0:0:0:
448,192,74515,128,0,75192:0:0:0:0:
192,192,74902,128,0,77999:0:0:0:0:
448,192,75289,128,0,77999:0:0:0:0:
320,192,75676,128,0,77999:0:0:0:0:
64,192,79160,5,0,0:0:0:0:
192,192,79161,1,0,0:0:0:0:
448,192,79161,128,0,81468:0:0:0:0:
320,192,79161,1,0,0:0:0:0:
320,192,79305,1,0,0:0:0:0:
192,192,79449,1,0,0:0:0:0:
64,192,79593,1,0,0:0:0:0:
320,192,79737,1,0,0:0:0:0:
64,192,79882,1,0,0:0:0:0:
320,192,80026,1,0,0:0:0:0:
192,192,80170,1,0,0:0:0:0:
64,192,80314,1,0,0:0:0:0:
320,192,80459,1,0,0:0:0:0:
192,192,80603,1,0,0:0:0:0:
64,192,80747,1,0,0:0:0:0:
320,192,80891,1,0,0:0:0:0:
64,192,81036,1,0,0:0:0:0:
320,192,81180,1,0,0:0:0:0:
192,192,81324,1,0,0:0:0:0:
64,192,81468,128,0,82622:0:0:0:0:
320,192,81468,1,0,0:0:0:0:
192,192,81612,1,0,0:0:0:0:
448,192,81757,1,0,0:0:0:0:
320,192,81901,1,0,0:0:0:0:
192,192,82045,1,0,0:0:0:0:
320,192,82189,1,0,0:0:0:0:
448,192,82334,1,0,0:0:0:0:
192,192,82478,1,0,0:0:0:0:
448,192,82622,1,0,0:0:0:0:
320,192,82622,128,0,83776:0:0:0:0:
192,192,82766,1,0,0:0:0:0:
64,192,82911,1,0,0:0:0:0:
448,192,83055,1,0,0:0:0:0:
192,192,83199,1,0,0:0:0:0:
64,192,83343,1,0,0:0:0:0:
192,192,83487,1,0,0:0:0:0:
448,192,83632,1,0,0:0:0:0:
64,192,83776,1,0,0:0:0:0:
192,192,83776,128,0,86084:0:0:0:0:
448,192,83920,1,0,0:0:0:0:
320,192,84064,1,0,0:0:0:0:
64,192,84209,1,0,0:0:0:0:
320,192,84353,1,0,0:0:0:0:
448,192,84497,1,0,0:0:0:0:
64,192,84641,1,0,0:0:0:0:
448,192,84785,1,0,0:0:0:0:
64,192,84930,1,0,0:0:0:0:
448,192,85074,1,0,0:0:0:0:
320,192,85218,1,0,0:0:0:0:
64,192,85362,1,0,0:0:0:0:
320,192,85507,1,0,0:0:0:0:
448,192,85651,1,0,0:0:0:0:
64,192,85795,1,0,0:0:0:0:
448,192,85939,1,0,0:0:0:0:
64,192,86084,128,0,87814:0:0:0:0:
320,192,86084,1,0,0:0:0:0:
192,192,86228,1,0,0:0:0:0:
448,192,86372,1,0,0:0:0:0:
320,192,86516,1,0,0:0:0:0:
192,192,86660,1,0,0:0:0:0:
320,192,86805,1,0,0:0:0:0:
448,192,86949,1,0,0:0:0:0:
192,192,87093,1,0,0:0:0:0:
320,192,87237,1,0,0:0:0:0:
192,192,87382,1,0,0:0:0:0:
448,192,87526,1,0,0:0:0:0:
192,192,87670,1,0,0:0:0:0:
320,192,87814,1,0,0:0:0:0:
448,192,87814,1,0,0:0:0:0:
192,192,87886,1,0,0:0:0:0:
64,192,87886,1,0,0:0:0:0:
448,192,87959,1,0,0:0:0:0:
320,192,88031,1,0,0:0:0:0:
192,192,88031,1,0,0:0:0:0:
64,192,88103,1,0,0:0:0:0:
448,192,88175,1,0,0:0:0:0:
320,192,88175,1,0,0:0:0:0:
64,192,88247,1,0,0:0:0:0:
192,192,88247,1,0,0:0:0:0:
320,192,88319,1,0,0:0:0:0:
192,192,88391,1,0,0:0:0:0:
448,192,88391,1,0,0:0:0:0:
64,192,88391,1,0,0:0:0:0:
320,192,88535,1,0,0:0:0:0:
64,192,88680,1,0,0:0:0:0:
192,192,88680,1,0,0:0:0:0:
448,192,88824,1,0,0:0:0:0:
320,192,88968,1,0,0:0:0:0:
192,192,88968,1,0,0:0:0:0:
64,192,89112,1,0,0:0:0:0:
192,192,89257,1,0,0:0:0:0:
448,192,89257,1,0,0:0:0:0:
64,192,89401,1,0,0:0:0:0:
448,192,89545,1,0,0:0:0:0:
320,192,89545,1,0,0:0:0:0:
192,192,89689,1,0,0:0:0:0:
320,192,89834,1,0,0:0:0:0:
448,192,89834,1,0,0:0:0:0:
64,192,89978,1,0,0:0:0:0:
192,192,90122,1,0,0:0:0:0:
320,192,90122,1,0,0:0:0:0:
448,192,90266,1,0,0:0:0:0:
320,192,90410,1,0,0:0:0:0:
64,192,90410,1,0,0:0:0:0:
448,192,90555,1,0,0:0:0:0:
192,192,90699,1,0,0:0:0:0:
64,192,90699,1,0,0:0:0:0:
320,192,90843,1,0,0:0:0:0:
192,192,90987,1,0,0:0:0:0:
448,192,90987,1,0,0:0:0:0:
64,192,91132,1,0,0:0:0:0:
320,192,91276,1,0,0:0:0:0:
192,192,91276,1,0,0:0:0:0:
448,192,91420,1,0,0:0:0:0:
64,192,91564,1,0,0:0:0:0:
192,192,91564,1,0,0:0:0:0:
320,192,91709,1,0,0:0:0:0:
448,192,91853,1,0,0:0:0:0:
64,192,91853,1,0,0:0:0:0:
320,192,91997,1,0,0:0:0:0:
192,192,92141,1,0,0:0:0:0:
64,192,92141,1,0,0:0:0:0:
448,192,92285,1,0,0:0:0:0:
320,192,92430,1,0,0:0:0:0:
192,192,92430,1,0,0:0:0:0:
64,192,92574,1,0,0:0:0:0:
448,192,92574,1,0,0:0:0:0:
320,192,92718,1,0,0:0:0:0:
64,192,92862,1,0,0:0:0:0:
192,192,92862,1,0,0:0:0:0:
320,192,93007,1,0,0:0:0:0:
448,192,93007,1,0,0:0:0:0:
448,192,93151,1,0,0:0:0:0:
320,192,93151,1,0,0:0:0:0:
448,192,93295,1,0,0:0:0:0:
64,192,93295,1,0,0:0:0:0:
320,192,93295,1,0,0:0:0:0:
448,192,93439,1,0,0:0:0:0:
320,192,93439,1,0,0:0:0:0:
64,192,93584,1,0,0:0:0:0:
320,192,93584,1,0,0:0:0:0:
320,192,93728,1,0,0:0:0:0:
64,192,93728,1,0,0:0:0:0:
192,192,93800,1,0,0:0:0:0:
64,192,93872,1,0,0:0:0:0:
448,192,93872,1,0,0:0:0:0:
320,192,93872,1,0,0:0:0:0:
320,192,94016,1,0,0:0:0:0:
64,192,94016,1,0,0:0:0:0:
192,192,94160,1,0,0:0:0:0:
448,192,94160,1,0,0:0:0:0:
192,192,94305,1,0,0:0:0:0:
448,192,94305,1,0,0:0:0:0:
64,192,94449,1,0,0:0:0:0:
448,192,94449,1,0,0:0:0:0:
192,192,94449,1,0,0:0:0:0:
448,192,94593,1,0,0:0:0:0:
192,192,94593,1,0,0:0:0:0:
192,192,94737,1,0,0:0:0:0:
64,192,94737,1,0,0:0:0:0:
320,192,94810,1,0,0:0:0:0:
448,192,94810,1,0,0:0:0:0:
192,192,94882,1,0,0:0:0:0:
64,192,94882,1,0,0:0:0:0:
320,192,94954,1,0,0:0:0:0:
192,192,95026,1,0,0:0:0:0:
64,192,95026,1,0,0:0:0:0:
448,192,95026,1,0,0:0:0:0:
192,192,95170,1,0,0:0:0:0:
64,192,95170,1,0,0:0:0:0:
448,192,95314,1,0,0:0:0:0:
320,192,95314,1,0,0:0:0:0:
192,192,95386,1,0,0:0:0:0:
64,192,95386,1,0,0:0:0:0:
320,192,95459,1,0,0:0:0:0:
448,192,95459,1,0,0:0:0:0:
64,192,95531,1,0,0:0:0:0:
192,192,95531,1,0,0:0:0:0:
448,192,95603,1,0,0:0:0:0:
320,192,95603,1,0,0:0:0:0:
192,192,95675,1,0,0:0:0:0:
64,192,95675,1,0,0:0:0:0:
448,192,95747,1,0,0:0:0:0:
320,192,95747,1,0,0:0:0:0:
64,192,95819,1,0,0:0:0:0:
192,192,95819,1,0,0:0:0:0:
448,192,95891,1,0,0:0:0:0:
320,192,95891,1,0,0:0:0:0:
192,192,95963,1,0,0:0:0:0:
64,192,95963,1,0,0:0:0:0:
320,192,96035,1,0,0:0:0:0:
448,192,96035,1,0,0:0:0:0:
192,192,96108,1,0,0:0:0:0:
64,192,96108,1,0,0:0:0:0:
448,192,96180,1,0,0:0:0:0:
320,192,96180,1,0,0:0:0:0:
192,192,96252,1,0,0:0:0:0:
64,192,96252,1,0,0:0:0:0:
448,192,96324,1,0,0:0:0:0:
320,192,96324,1,0,0:0:0:0:
192,192,96396,1,0,0:0:0:0:
448,192,96468,1,0,0:0:0:0:
64,192,96468,1,0,0:0:0:0:
320,192,96468,128,0,96901:0:0:0:0:
192,192,96612,128,0,96901:0:0:0:0:
64,192,96757,128,0,96901:0:0:0:0:
448,192,96901,1,0,0:0:0:0:
64,192,97045,1,0,0:0:0:0:
320,192,97045,1,0,0:0:0:0:
448,192,97117,1,0,0:0:0:0:
192,192,97117,1,0,0:0:0:0:
320,192,97189,1,0,0:0:0:0:
448,192,97261,1,0,0:0:0:0:
64,192,97261,1,0,0:0:0:0:
192,192,97334,1,0,0:0:0:0:
64,192,97406,1,0,0:0:0:0:
320,192,97406,1,0,0:0:0:0:
192,192,97478,1,0,0:0:0:0:
448,192,97478,1,0,0:0:0:0:
320,192,97550,1,0,0:0:0:0:
192,192,97622,1,0,0:0:0:0:
64,192,97622,1,0,0:0:0:0:
448,192,97622,1,0,0:0:0:0:
320,192,97766,1,0,0:0:0:0:
64,192,97910,1,0,0:0:0:0:
192,192,97910,1,0,0:0:0:0:
320,192,98055,1,0,0:0:0:0:
448,192,98199,1,0,0:0:0:0:
192,192,98199,1,0,0:0:0:0:
64,192,98343,1,0,0:0:0:0:
448,192,98487,1,0,0:0:0:0:
192,192,98487,1,0,0:0:0:0:
64,192,98632,1,0,0:0:0:0:
448,192,98776,1,0,0:0:0:0:
320,192,98776,1,0,0:0:0:0:
192,192,98920,1,0,0:0:0:0:
320,192,99064,1,0,0:0:0:0:
448,192,99064,1,0,0:0:0:0:
192,192,99209,1,0,0:0:0:0:
64,192,99353,1,0,0:0:0:0:
320,192,99353,1,0,0:0:0:0:
448,192,99497,1,0,0:0:0:0:
64,192,99641,1,0,0:0:0:0:
320,192,99641,1,0,0:0:0:0:
448,192,99785,1,0,0:0:0:0:
64,192,99930,1,0,0:0:0:0:
192,192,99930,1,0,0:0:0:0:
320,192,100074,1,0,0:0:0:0:
192,192,100218,1,0,0:0:0:0:
64,192,100218,1,0,0:0:0:0:
320,192,100362,1,0,0:0:0:0:
448,192,100507,1,0,0:0:0:0:
192,192,100507,1,0,0:0:0:0:
64,192,100651,1,0,0:0:0:0:
448,192,100795,1,0,0:0:0:0:
192,192,100795,1,0,0:0:0:0:
64,192,100939,1,0,0:0:0:0:
320,192,101084,1,0,0:0:0:0:
448,192,101084,1,0,0:0:0:0:
192,192,101228,1,0,0:0:0:0:
64,192,101372,1,0,0:0:0:0:
448,192,101372,1,0,0:0:0:0:
320,192,101516,1,0,0:0:0:0:
192,192,101660,1,0,0:0:0:0:
64,192,101660,1,0,0:0:0:0:
448,192,101805,1,0,0:0:0:0:
320,192,101949,1,0,0:0:0:0:
192,192,101949,1,0,0:0:0:0:
192,192,102093,1,0,0:0:0:0:
320,192,102093,1,0,0:0:0:0:
64,192,102237,1,0,0:0:0:0:
448,192,102237,1,0,0:0:0:0:
320,192,102382,1,0,0:0:0:0:
192,192,102454,1,0,0:0:0:0:
64,192,102526,1,0,0:0:0:0:
448,192,102526,1,0,0:0:0:0:
320,192,102670,1,0,0:0:0:0:
192,192,102742,1,0,0:0:0:0:
64,192,102814,1,0,0:0:0:0:
448,192,102814,1,0,0:0:0:0:
320,192,102959,1,0,0:0:0:0:
192,192,103103,1,0,0:0:0:0:
64,192,103103,1,0,0:0:0:0:
320,192,103175,1,0,0:0:0:0:
448,192,103247,1,0,0:0:0:0:
192,192,103391,1,0,0:0:0:0:
64,192,103391,1,0,0:0:0:0:
320,192,103463,1,0,0:0:0:0:
448,192,103535,1,0,0:0:0:0:
64,192,103680,1,0,0:0:0:0:
192,192,103680,1,0,0:0:0:0:
320,192,103752,1,0,0:0:0:0:
448,192,103824,1,0,0:0:0:0:
192,192,103896,1,0,0:0:0:0:
64,192,103968,1,0,0:0:0:0:
320,192,103968,1,0,0:0:0:0:
448,192,104040,1,0,0:0:0:0:
192,192,104112,1,0,0:0:0:0:
64,192,104112,1,0,0:0:0:0:
320,192,104257,128,0,104545:0:0:0:0:
192,192,104401,128,0,104545:0:0:0:0:
64,192,104545,1,0,0:0:0:0:
448,192,104545,1,0,0:0:0:0:
320,192,104617,1,0,0:0:0:0:
192,192,104689,1,0,0:0:0:0:
64,192,104834,1,0,0:0:0:0:
448,192,104834,1,0,0:0:0:0:
320,192,104906,1,0,0:0:0:0:
192,192,104978,1,0,0:0:0:0:
64,192,105122,1,0,0:0:0:0:
448,192,105122,1,0,0:0:0:0:
192,192,105194,1,0,0:0:0:0:
320,192,105266,1,0,0:0:0:0:
64,192,105410,1,0,0:0:0:0:
448,192,105410,1,0,0:0:0:0:
320,192,105483,1,0,0:0:0:0:
192,192,105555,1,0,0:0:0:0:
448,192,105699,1,0,0:0:0:0:
64,192,105699,1,0,0:0:0:0:
320,192,105771,1,0,0:0:0:0:
192,192,105843,1,0,0:0:0:0:
64,192,105843,1,0,0:0:0:0:
320,192,105915,1,0,0:0:0:0:
192,192,105987,1,0,0:0:0:0:
448,192,105987,1,0,0:0:0:0:
64,192,105987,1,0,0:0:0:0:
320,192,106132,1,0,0:0:0:0:
64,192,106132,1,0,0:0:0:0:
192,192,106204,1,0,0:0:0:0:
448,192,106276,1,0,0:0:0:0:
320,192,106276,1,0,0:0:0:0:
64,192,106276,1,0,0:0:0:0:
192,192,106348,1,0,0:0:0:0:
448,192,106420,1,0,0:0:0:0:
320,192,106420,1,0,0:0:0:0:
64,192,106564,1,0,0:0:0:0:
192,192,106564,1,0,0:0:0:0:
448,192,106564,1,0,0:0:0:0:
64,192,106709,1,0,0:0:0:0:
192,192,106709,1,0,0:0:0:0:
320,192,106709,1,0,0:0:0:0:
448,192,106853,1,0,0:0:0:0:
64,192,106853,1,0,0:0:0:0:
192,192,106853,1,0,0:0:0:0:
320,192,106997,1,0,0:0:0:0:
192,192,106997,1,0,0:0:0:0:
64,192,107141,1,0,0:0:0:0:
448,192,107141,1,0,0:0:0:0:
320,192,107141,1,0,0:0:0:0:
192,192,107285,1,0,0:0:0:0:
320,192,107358,1,0,0:0:0:0:
448,192,107430,1,0,0:0:0:0:
64,192,107430,1,0,0:0:0:0:
320,192,107574,1,0,0:0:0:0:
192,192,107646,1,0,0:0:0:0:
64,192,107718,1,0,0:0:0:0:
448,192,107718,1,0,0:0:0:0:
320,192,107790,1,0,0:0:0:0:
192,192,107862,1,0,0:0:0:0:
64,192,108007,1,0,0:0:0:0:
448,192,108007,1,0,0:0:0:0:
320,192,108079,1,0,0:0:0:0:
192,192,108151,1,0,0:0:0:0:
64,192,108295,1,0,0:0:0:0:
448,192,108295,1,0,0:0:0:0:
320,192,108367,1,0,0:0:0:0:
192,192,108439,1,0,0:0:0:0:
320,192,108511,1,0,0:0:0:0:
448,192,108511,1,0,0:0:0:0:
192,192,108584,1,0,0:0:0:0:
64,192,108584,1,0,0:0:0:0:
448,192,108656,1,0,0:0:0:0:
192,192,108728,1,0,0:0:0:0:
64,192,108728,1,0,0:0:0:0:
448,192,108872,128,0,109160:0:0:0:0:
320,192,109016,128,0,109160:0:0:0:0:
192,192,109160,1,0,0:0:0:0:
64,192,109160,1,0,0:0:0:0:
320,192,109233,1,0,0:0:0:0:
448,192,109305,1,0,0:0:0:0:
192,192,109449,1,0,0:0:0:0:
64,192,109449,1,0,0:0:0:0:
320,192,109521,1,0,0:0:0:0:
448,192,109593,1,0,0:0:0:0:
192,192,109737,1,0,0:0:0:0:
64,192,109737,1,0,0:0:0:0:
192,192,109882,1,0,0:0:0:0:
64,192,109882,1,0,0:0:0:0:
448,192,109954,1,0,0:0:0:0:
64,192,110026,1,0,0:0:0:0:
192,192,110026,1,0,0:0:0:0:
320,192,110098,1,0,0:0:0:0:
192,192,110170,1,0,0:0:0:0:
64,192,110170,1,0,0:0:0:0:
320,192,110314,1,0,0:0:0:0:
64,192,110314,1,0,0:0:0:0:
448,192,110314,1,0,0:0:0:0:
192,192,110459,1,0,0:0:0:0:
320,192,110531,1,0,0:0:0:0:
448,192,110531,1,0,0:0:0:0:
64,192,110531,1,0,0:0:0:0:
192,192,110603,1,0,0:0:0:0:
448,192,110747,1,0,0:0:0:0:
192,192,110747,1,0,0:0:0:0:
64,192,110747,1,0,0:0:0:0:
320,192,110891,1,0,0:0:0:0:
448,192,110963,1,0,0:0:0:0:
192,192,110963,1,0,0:0:0:0:
64,192,110963,1,0,0:0:0:0:
320,192,111035,1,0,0:0:0:0:
64,192,111180,1,0,0:0:0:0:
320,192,111180,1,0,0:0:0:0:
448,192,111180,1,0,0:0:0:0:
192,192,111324,1,0,0:0:0:0:
448,192,111324,1,0,0:0:0:0:
320,192,111324,1,0,0:0:0:0:
192,192,111468,1,0,0:0:0:0:
448,192,111468,1,0,0:0:0:0:
64,192,111468,1,0,0:0:0:0:
320,192,111612,1,0,0:0:0:0:
192,192,111757,1,0,0:0:0:0:
320,192,111901,1,0,0:0:0:0:
448,192,112045,1,0,0:0:0:0:
64,192,112189,1,0,0:0:0:0:
192,192,112261,1,0,0:0:0:0:
448,192,112334,1,0,0:0:0:0:
320,192,112406,1,0,0:0:0:0:
64,192,112478,1,0,0:0:0:0:
448,192,112622,1,0,0:0:0:0:
192,192,112622,1,0,0:0:0:0:
320,192,112694,1,0,0:0:0:0:
64,192,112766,1,0,0:0:0:0:
192,192,112838,1,0,0:0:0:0:
320,192,112910,1,0,0:0:0:0:
448,192,112983,1,0,0:0:0:0:
192,192,113055,1,0,0:0:0:0:
64,192,113127,1,0,0:0:0:0:
448,192,113199,1,0,0:0:0:0:
320,192,113199,1,0,0:0:0:0:
192,192,113271,1,0,0:0:0:0:
64,192,113343,1,0,0:0:0:0:
320,192,113343,1,0,0:0:0:0:
448,192,113415,1,0,0:0:0:0:
64,192,113487,1,0,0:0:0:0:
192,192,113487,1,0,0:0:0:0:
320,192,113560,1,0,0:0:0:0:
192,192,113632,1,0,0:0:0:0:
448,192,113632,1,0,0:0:0:0:
64,192,113704,1,0,0:0:0:0:
320,192,113776,1,0,0:0:0:0:
448,192,113776,1,0,0:0:0:0:
192,192,113848,1,0,0:0:0:0:
64,192,113848,1,0,0:0:0:0:
320,192,113920,1,0,0:0:0:0:
448,192,113920,1,0,0:0:0:0:
192,192,113992,1,0,0:0:0:0:
64,192,113992,1,0,0:0:0:0:
320,192,114064,1,0,0:0:0:0:
448,192,114064,1,0,0:0:0:0:
192,192,114136,1,0,0:0:0:0:
64,192,114136,1,0,0:0:0:0:
448,192,114209,1,0,0:0:0:0:
320,192,114209,1,0,0:0:0:0:
64,192,114281,1,0,0:0:0:0:
192,192,114281,1,0,0:0:0:0:
448,192,114353,1,0,0:0:0:0:
320,192,114353,1,0,0:0:0:0:
64,192,114425,1,0,0:0:0:0:
192,192,114425,1,0,0:0:0:0:
320,192,114497,1,0,0:0:0:0:
448,192,114497,1,0,0:0:0:0:
192,192,114569,1,0,0:0:0:0:
64,192,114569,1,0,0:0:0:0:
320,192,114641,1,0,0:0:0:0:
448,192,114641,1,0,0:0:0:0:
192,192,114713,1,0,0:0:0:0:
64,192,114713,1,0,0:0:0:0:
448,192,114785,1,0,0:0:0:0:
320,192,114785,1,0,0:0:0:0:
192,192,114858,1,0,0:0:0:0:
64,192,114930,1,0,0:0:0:0:
320,192,114930,1,0,0:0:0:0:
448,192,114930,1,0,0:0:0:0:
192,192,115074,1,0,0:0:0:0:
448,192,115146,1,0,0:0:0:0:
320,192,115218,1,0,0:0:0:0:
448,192,115362,1,0,0:0:0:0:
64,192,115435,1,0,0:0:0:0:
320,192,115507,1,0,0:0:0:0:
192,192,115579,1,0,0:0:0:0:
64,192,115651,1,0,0:0:0:0:
448,192,115795,1,0,0:0:0:0:
320,192,115795,1,0,0:0:0:0:
192,192,115939,1,0,0:0:0:0:
320,192,116084,1,0,0:0:0:0:
448,192,116084,1,0,0:0:0:0:
64,192,116084,128,0,118319:0:0:0:0:
192,192,116228,128,0,118319:0:0:0:0:
320,192,116372,128,0,118319:0:0:0:0:
448,192,116516,128,0,118319:0:0:0:0:
64,192,118391,128,0,119473:0:0:0:0:
448,192,118391,1,0,0:0:0:0:
192,192,118535,128,0,119473:0:0:0:0:
320,192,118680,128,0,120050:0:0:0:0:
448,192,118824,128,0,120050:0:0:0:0:
64,192,119545,128,0,120627:0:0:0:0:
192,192,119545,128,0,120627:0:0:0:0:
320,192,120122,128,0,120627:0:0:0:0:
448,192,120122,128,0,120627:0:0:0:0:
320,192,120699,1,0,0:0:0:0:
448,192,120699,128,0,121492:0:0:0:0:
64,192,120843,128,0,121492:0:0:0:0:
192,192,120987,128,0,122935:0:0:0:0:
320,192,121132,128,0,122935:0:0:0:0:
448,192,121564,128,0,122935:0:0:0:0:
64,192,121564,128,0,122935:0:0:0:0:
320,192,123007,1,0,0:0:0:0:
448,192,123007,128,0,124665:0:0:0:0:
64,192,123151,128,0,124088:0:0:0:0:
192,192,123295,128,0,124665:0:0:0:0:
320,192,123439,128,0,124088:0:0:0:0:
320,192,124160,128,0,125242:0:0:0:0:
64,192,124160,128,0,125242:0:0:0:0:
448,192,124737,128,0,125242:0:0:0:0:
192,192,124737,128,0,125242:0:0:0:0:
64,192,125314,1,0,0:0:0:0:
448,192,125314,1,0,0:0:0:0:
192,192,125459,1,0,0:0:0:0:
320,192,125603,1,0,0:0:0:0:
448,192,125747,1,0,0:0:0:0:
192,192,125891,1,0,0:0:0:0:
64,192,125891,1,0,0:0:0:0:
320,192,126180,1,0,0:0:0:0:
64,192,126324,1,0,0:0:0:0:
320,192,126468,128,0,126757:0:0:0:0:
192,192,126757,1,0,0:0:0:0:
64,192,127045,1,0,0:0:0:0:
448,192,127045,1,0,0:0:0:0:
320,192,127334,1,0,0:0:0:0:
448,192,127478,1,0,0:0:0:0:
192,192,127622,1,0,0:0:0:0:
64,192,127622,128,0,127910:0:0:0:0:
320,192,127766,1,0,0:0:0:0:
448,192,127910,1,0,0:0:0:0:
64,192,128055,1,0,0:0:0:0:
320,192,128199,1,0,0:0:0:0:
192,192,128199,1,0,0:0:0:0:
448,192,128487,1,0,0:0:0:0:
64,192,128487,1,0,0:0:0:0:
320,192,128632,1,0,0:0:0:0:
192,192,128776,1,0,0:0:0:0:
192,192,129064,1,0,0:0:0:0:
320,192,129353,1,0,0:0:0:0:
448,192,129353,1,0,0:0:0:0:
64,192,129641,1,0,0:0:0:0:
192,192,129930,1,0,0:0:0:0:
320,192,129930,1,0,0:0:0:0:
448,192,130074,1,0,0:0:0:0:
64,192,130218,1,0,0:0:0:0:
192,192,130362,1,0,0:0:0:0:
320,192,130507,1,0,0:0:0:0:
448,192,130507,1,0,0:0:0:0:
192,192,130795,1,0,0:0:0:0:
64,192,130795,1,0,0:0:0:0:
448,192,130939,1,0,0:0:0:0:
192,192,131084,128,0,131372:0:0:0:0:
320,192,131228,1,0,0:0:0:0:
64,192,131372,1,0,0:0:0:0:
448,192,131516,1,0,0:0:0:0:
192,192,131660,1,0,0:0:0:0:
64,192,131660,1,0,0:0:0:0:
320,192,131805,1,0,0:0:0:0:
64,192,131949,128,0,132237:0:0:0:0:
448,192,132093,1,0,0:0:0:0:
320,192,132237,1,0,0:0:0:0:
192,192,132237,1,0,0:0:0:0:
448,192,132526,1,0,0:0:0:0:
64,192,132814,1,0,0:0:0:0:
448,192,133103,1,0,0:0:0:0:
192,192,133391,1,0,0:0:0:0:
448,192,133680,1,0,0:0:0:0:
64,192,133968,128,0,136781:0:0:0:0:
192,192,134257,128,0,136781:0:0:0:0:
320,192,134545,128,0,136781:0:0:0:0:
448,192,134834,128,0,136781:0:0:0:0:
320,192,136853,1,0,0:0:0:0:
448,192,136853,1,0,0:0:0:0:
192,192,136853,1,0,0:0:0:0:
64,192,136853,1,0,0:0:0:0:
192,192,137141,1,0,0:0:0:0:
448,192,137430,1,0,0:0:0:0:
320,192,137574,1,0,0:0:0:0:
192,192,137862,1,0,0:0:0:0:
192,192,138151,1,0,0:0:0:0:
192,192,138439,1,0,0:0:0:0:
64,192,138584,1,0,0:0:0:0:
320,192,138728,1,0,0:0:0:0:
64,192,138872,1,0,0:0:0:0:
448,192,139016,1,0,0:0:0:0:
192,192,139160,1,0,0:0:0:0:
320,192,139160,1,0,0:0:0:0:
64,192,139449,1,0,0:0:0:0:
192,192,139737,1,0,0:0:0:0:
448,192,139882,1,0,0:0:0:0:
320,192,140170,1,0,0:0:0:0:
320,192,140459,1,0,0:0:0:0:
320,192,140747,1,0,0:0:0:0:
448,192,140819,1,0,0:0:0:0:
192,192,140891,1,0,0:0:0:0:
64,192,140963,1,0,0:0:0:0:
448,192,141035,1,0,0:0:0:0:
320,192,141108,1,0,0:0:0:0:
192,192,141180,1,0,0:0:0:0:
64,192,141252,1,0,0:0:0:0:
192,192,141324,1,0,0:0:0:0:
320,192,141396,1,0,0:0:0:0:
448,192,141468,1,0,0:0:0:0:
64,192,141468,1,0,0:0:0:0:
192,192,141757,1,0,0:0:0:0:
448,192,142045,1,0,0:0:0:0:
320,192,142189,1,0,0:0:0:0:
192,192,142478,1,0,0:0:0:0:
448,192,142478,1,0,0:0:0:0:
192,192,142766,1,0,0:0:0:0:
192,192,143055,1,0,0:0:0:0:
320,192,143127,1,0,0:0:0:0:
64,192,143199,1,0,0:0:0:0:
448,192,143271,1,0,0:0:0:0:
320,192,143343,1,0,0:0:0:0:
192,192,143415,1,0,0:0:0:0:
64,192,143487,1,0,0:0:0:0:
448,192,143632,1,0,0:0:0:0:
320,192,143848,1,0,0:0:0:0:
64,192,143920,1,0,0:0:0:0:
192,192,143920,1,0,0:0:0:0:
64,192,144209,1,0,0:0:0:0:
192,192,144353,1,0,0:0:0:0:
448,192,144569,1,0,0:0:0:0:
64,192,144785,1,0,0:0:0:0:
320,192,144930,1,0,0:0:0:0:
64,192,145074,1,0,0:0:0:0:
320,192,145218,1,0,0:0:0:0:
64,192,145362,1,0,0:0:0:0:
192,192,145435,1,0,0:0:0:0:
320,192,145507,1,0,0:0:0:0:
448,192,145579,1,0,0:0:0:0:
320,192,145651,1,0,0:0:0:0:
192,192,145723,1,0,0:0:0:0:
64,192,145795,1,0,0:0:0:0:
448,192,145867,1,0,0:0:0:0:
320,192,145939,1,0,0:0:0:0:
192,192,146011,1,0,0:0:0:0:
320,192,146084,1,0,0:0:0:0:
448,192,146084,1,0,0:0:0:0:
64,192,146084,1,0,0:0:0:0:
192,192,146228,1,0,0:0:0:0:
448,192,146372,1,0,0:0:0:0:
320,192,146372,1,0,0:0:0:0:
64,192,146516,1,0,0:0:0:0:
320,192,146660,1,0,0:0:0:0:
448,192,146660,1,0,0:0:0:0:
192,192,146805,1,0,0:0:0:0:
448,192,146949,1,0,0:0:0:0:
64,192,146949,1,0,0:0:0:0:
320,192,147093,1,0,0:0:0:0:
192,192,147237,1,0,0:0:0:0:
64,192,147237,1,0,0:0:0:0:
320,192,147382,1,0,0:0:0:0:
64,192,147526,1,0,0:0:0:0:
192,192,147526,1,0,0:0:0:0:
320,192,147670,1,0,0:0:0:0:
192,192,147742,1,0,0:0:0:0:
64,192,147814,1,0,0:0:0:0:
448,192,147814,1,0,0:0:0:0:
320,192,147959,1,0,0:0:0:0:
64,192,148103,1,0,0:0:0:0:
192,192,148103,1,0,0:0:0:0:
448,192,148247,1,0,0:0:0:0:
320,192,148391,1,0,0:0:0:0:
64,192,148391,1,0,0:0:0:0:
192,192,148535,1,0,0:0:0:0:
320,192,148680,1,0,0:0:0:0:
448,192,148680,1,0,0:0:0:0:
64,192,148824,1,0,0:0:0:0:
448,192,148968,1,0,0:0:0:0:
320,192,148968,1,0,0:0:0:0:
192,192,149112,1,0,0:0:0:0:
64,192,149257,1,0,0:0:0:0:
448,192,149257,1,0,0:0:0:0:
320,192,149401,1,0,0:0:0:0:
192,192,149545,1,0,0:0:0:0:
64,192,149545,1,0,0:0:0:0:
448,192,149689,1,0,0:0:0:0:
64,192,149834,1,0,0:0:0:0:
320,192,149834,1,0,0:0:0:0:
192,192,149978,1,0,0:0:0:0:
320,192,150122,1,0,0:0:0:0:
448,192,150122,1,0,0:0:0:0:
64,192,150194,1,0,0:0:0:0:
192,192,150266,1,0,0:0:0:0:
320,192,150338,1,0,0:0:0:0:
64,192,150410,1,0,0:0:0:0:
448,192,150410,1,0,0:0:0:0:
192,192,150483,1,0,0:0:0:0:
320,192,150555,1,0,0:0:0:0:
448,192,150627,1,0,0:0:0:0:
192,192,150699,1,0,0:0:0:0:
320,192,150699,1,0,0:0:0:0:
64,192,150699,1,0,0:0:0:0:
192,192,150843,1,0,0:0:0:0:
320,192,150915,1,0,0:0:0:0:
448,192,150987,1,0,0:0:0:0:
64,192,150987,1,0,0:0:0:0:
192,192,151060,1,0,0:0:0:0:
320,192,151132,1,0,0:0:0:0:
448,192,151204,1,0,0:0:0:0:
64,192,151276,1,0,0:0:0:0:
192,192,151276,1,0,0:0:0:0:
320,192,151420,1,0,0:0:0:0:
448,192,151492,1,0,0:0:0:0:
64,192,151564,1,0,0:0:0:0:
192,192,151564,1,0,0:0:0:0:
320,192,151636,1,0,0:0:0:0:
448,192,151709,1,0,0:0:0:0:
64,192,151781,1,0,0:0:0:0:
192,192,151853,1,0,0:0:0:0:
320,192,151853,1,0,0:0:0:0:
448,192,151853,1,0,0:0:0:0:
320,192,151997,1,0,0:0:0:0:
64,192,152141,1,0,0:0:0:0:
448,192,152141,1,0,0:0:0:0:
64,192,152285,1,0,0:0:0:0:
448,192,152430,1,0,0:0:0:0:
192,192,152430,1,0,0:0:0:0:
448,192,152574,1,0,0:0:0:0:
320,192,152718,1,0,0:0:0:0:
192,192,152718,1,0,0:0:0:0:
192,192,152862,1,0,0:0:0:0:
64,192,153007,1,0,0:0:0:0:
448,192,153007,1,0,0:0:0:0:
320,192,153007,1,0,0:0:0:0:
192,192,153151,1,0,0:0:0:0:
320,192,153223,1,0,0:0:0:0:
448,192,153295,1,0,0:0:0:0:
64,192,153295,1,0,0:0:0:0:
192,192,153367,1,0,0:0:0:0:
320,192,153439,1,0,0:0:0:0:
448,192,153511,1,0,0:0:0:0:
64,192,153584,1,0,0:0:0:0:
192,192,153584,1,0,0:0:0:0:
320,192,153728,1,0,0:0:0:0:
448,192,153800,1,0,0:0:0:0:
64,192,153872,1,0,0:0:0:0:
192,192,153872,1,0,0:0:0:0:
320,192,153944,1,0,0:0:0:0:
448,192,154016,1,0,0:0:0:0:
64,192,154088,1,0,0:0:0:0:
192,192,154160,1,0,0:0:0:0:
320,192,154160,1,0,0:0:0:0:
448,192,154233,1,0,0:0:0:0:
320,192,154305,1,0,0:0:0:0:
192,192,154377,1,0,0:0:0:0:
448,192,154449,1,0,0:0:0:0:
64,192,154449,1,0,0:0:0:0:
320,192,154521,1,0,0:0:0:0:
192,192,154593,1,0,0:0:0:0:
64,192,154665,1,0,0:0:0:0:
320,192,154737,1,0,0:0:0:0:
448,192,154737,1,0,0:0:0:0:
192,192,154810,1,0,0:0:0:0:
320,192,154882,1,0,0:0:0:0:
448,192,154954,1,0,0:0:0:0:
192,192,155026,1,0,0:0:0:0:
64,192,155026,1,0,0:0:0:0:
320,192,155098,1,0,0:0:0:0:
448,192,155170,1,0,0:0:0:0:
64,192,155170,1,0,0:0:0:0:
192,192,155242,1,0,0:0:0:0:
448,192,155314,1,0,0:0:0:0:
320,192,155314,1,0,0:0:0:0:
64,192,155314,1,0,0:0:0:0:
192,192,155386,1,0,0:0:0:0:
448,192,155459,1,0,0:0:0:0:
64,192,155459,1,0,0:0:0:0:
320,192,155531,1,0,0:0:0:0:
448,192,155603,1,0,0:0:0:0:
192,192,155603,1,0,0:0:0:0:
64,192,155675,1,0,0:0:0:0:
192,192,155747,1,0,0:0:0:0:
320,192,155747,1,0,0:0:0:0:
448,192,155819,1,0,0:0:0:0:
64,192,155891,1,0,0:0:0:0:
192,192,155891,1,0,0:0:0:0:
320,192,155963,1,0,0:0:0:0:
448,192,155963,1,0,0:0:0:0:
192,192,156035,1,0,0:0:0:0:
64,192,156035,1,0,0:0:0:0:
320,192,156108,1,0,0:0:0:0:
448,192,156108,1,0,0:0:0:0:
192,192,156180,1,0,0:0:0:0:
64,192,156180,1,0,0:0:0:0:
320,192,156252,1,0,0:0:0:0:
448,192,156252,1,0,0:0:0:0:
192,192,156324,1,0,0:0:0:0:
64,192,156324,1,0,0:0:0:0:
320,192,156396,1,0,0:0:0:0:
448,192,156468,1,0,0:0:0:0:
192,192,156468,1,0,0:0:0:0:
64,192,156468,1,0,0:0:0:0:
320,192,156540,1,0,0:0:0:0:
192,192,156612,1,0,0:0:0:0:
64,192,156685,1,0,0:0:0:0:
192,192,156757,1,0,0:0:0:0:
320,192,156829,1,0,0:0:0:0:
448,192,156901,1,0,0:0:0:0:
320,192,156973,1,0,0:0:0:0:
192,192,157045,1,0,0:0:0:0:
64,192,157117,1,0,0:0:0:0:
320,192,157189,1,0,0:0:0:0:
448,192,157261,1,0,0:0:0:0:
192,192,157334,1,0,0:0:0:0:
320,192,157406,1,0,0:0:0:0:
64,192,157478,1,0,0:0:0:0:
192,192,157550,1,0,0:0:0:0:
64,192,157622,1,0,0:0:0:0:
448,192,157622,128,0,161084:0:0:0:0:
320,192,157622,128,0,159353:0:0:0:0:
64,192,160074,1,0,0:0:0:0:
64,192,160362,1,0,0:0:0:0:
192,192,160651,1,0,0:0:0:0:
64,192,160939,1,0,0:0:0:0:
64,192,161228,1,0,0:0:0:0:
192,192,161372,1,0,0:0:0:0:
320,192,161516,1,0,0:0:0:0:
448,192,161660,1,0,0:0:0:0:
320,192,161805,1,0,0:0:0:0:
192,192,161949,1,0,0:0:0:0:
64,192,162093,1,0,0:0:0:0:
448,192,162237,1,0,0:0:0:0:
192,192,162382,1,0,0:0:0:0:
320,192,162454,1,0,0:0:0:0:
448,192,162526,1,0,0:0:0:0:
64,192,162670,1,0,0:0:0:0:
192,192,162742,1,0,0:0:0:0:
320,192,162814,1,0,0:0:0:0:
448,192,162959,1,0,0:0:0:0:
192,192,163103,1,0,0:0:0:0:
320,192,163175,1,0,0:0:0:0:
64,192,163247,1,0,0:0:0:0:
192,192,163391,1,0,0:0:0:0:
320,192,163463,1,0,0:0:0:0:
448,192,163535,1,0,0:0:0:0:
320,192,163680,1,0,0:0:0:0:
192,192,163752,1,0,0:0:0:0:
64,192,163824,1,0,0:0:0:0:
448,192,163896,1,0,0:0:0:0:
192,192,163968,1,0,0:0:0:0:
320,192,164040,1,0,0:0:0:0:
448,192,164112,1,0,0:0:0:0:
192,192,164257,1,0,0:0:0:0:
320,192,164329,1,0,0:0:0:0:
64,192,164401,1,0,0:0:0:0:
192,192,164617,1,0,0:0:0:0:
320,192,164689,1,0,0:0:0:0:
64,192,164834,1,0,0:0:0:0:
192,192,164906,1,0,0:0:0:0:
320,192,164978,1,0,0:0:0:0:
64,192,165122,1,0,0:0:0:0:
192,192,165194,1,0,0:0:0:0:
448,192,165266,1,0,0:0:0:0:
64,192,165410,1,0,0:0:0:0:
192,192,165483,1,0,0:0:0:0:
320,192,165555,1,0,0:0:0:0:
448,192,165771,1,0,0:0:0:0:
64,192,165843,1,0,0:0:0:0:
192,192,165987,1,0,0:0:0:0:
320,192,166132,1,0,0:0:0:0:
64,192,166276,1,0,0:0:0:0:
448,192,166276,1,0,0:0:0:0:
320,192,166420,1,0,0:0:0:0:
448,192,166492,1,0,0:0:0:0:
64,192,166492,1,0,0:0:0:0:
192,192,166564,1,0,0:0:0:0:
320,192,166636,1,0,0:0:0:0:
64,192,166709,1,0,0:0:0:0:
448,192,166709,1,0,0:0:0:0:
192,192,166853,1,0,0:0:0:0:
320,192,166853,1,0,0:0:0:0:
448,192,166853,1,0,0:0:0:0:
64,192,166925,1,0,0:0:0:0:
320,192,166997,1,0,0:0:0:0:
192,192,167069,1,0,0:0:0:0:
448,192,167141,1,0,0:0:0:0:
64,192,167213,1,0,0:0:0:0:
320,192,167285,1,0,0:0:0:0:
192,192,167358,1,0,0:0:0:0:
448,192,167430,1,0,0:0:0:0:
64,192,167502,1,0,0:0:0:0:
320,192,167574,1,0,0:0:0:0:
192,192,167646,1,0,0:0:0:0:
448,192,167718,1,0,0:0:0:0:
64,192,167790,1,0,0:0:0:0:
320,192,167862,1,0,0:0:0:0:
192,192,167935,1,0,0:0:0:0:
64,192,168007,1,0,0:0:0:0:
320,192,168079,1,0,0:0:0:0:
192,192,168151,1,0,0:0:0:0:
448,192,168223,1,0,0:0:0:0:
64,192,168295,1,0,0:0:0:0:
320,192,168367,1,0,0:0:0:0:
192,192,168439,1,0,0:0:0:0:
448,192,168511,1,0,0:0:0:0:
64,192,168584,1,0,0:0:0:0:
320,192,168656,1,0,0:0:0:0:
192,192,168728,1,0,0:0:0:0:
448,192,168800,1,0,0:0:0:0:
64,192,168872,1,0,0:0:0:0:
320,192,168944,1,0,0:0:0:0:
192,192,169016,1,0,0:0:0:0:
448,192,169088,1,0,0:0:0:0:
64,192,169160,1,0,0:0:0:0:
320,192,169160,1,0,0:0:0:0:
192,192,169160,1,0,0:0:0:0:
448,192,169233,1,0,0:0:0:0:
64,192,169305,1,0,0:0:0:0:
320,192,169305,1,0,0:0:0:0:
192,192,169377,1,0,0:0:0:0:
64,192,169449,1,0,0:0:0:0:
448,192,169449,1,0,0:0:0:0:
320,192,169521,1,0,0:0:0:0:
448,192,169593,1,0,0:0:0:0:
192,192,169593,1,0,0:0:0:0:
64,192,169665,1,0,0:0:0:0:
320,192,169737,1,0,0:0:0:0:
448,192,169737,1,0,0:0:0:0:
192,192,169810,1,0,0:0:0:0:
448,192,169882,1,0,0:0:0:0:
64,192,169882,1,0,0:0:0:0:
320,192,169954,1,0,0:0:0:0:
192,192,170026,1,0,0:0:0:0:
64,192,170026,1,0,0:0:0:0:
448,192,170098,1,0,0:0:0:0:
320,192,170170,1,0,0:0:0:0:
64,192,170170,1,0,0:0:0:0:
192,192,170242,1,0,0:0:0:0:
320,192,170314,1,0,0:0:0:0:
448,192,170314,1,0,0:0:0:0:
64,192,170386,1,0,0:0:0:0:
448,192,170459,1,0,0:0:0:0:
192,192,170459,1,0,0:0:0:0:
320,192,170531,1,0,0:0:0:0:
64,192,170603,1,0,0:0:0:0:
448,192,170603,1,0,0:0:0:0:
192,192,170675,1,0,0:0:0:0:
320,192,170747,1,0,0:0:0:0:
64,192,170747,1,0,0:0:0:0:
448,192,170819,1,0,0:0:0:0:
192,192,170891,1,0,0:0:0:0:
64,192,170891,1,0,0:0:0:0:
320,192,170963,1,0,0:0:0:0:
448,192,171035,1,0,0:0:0:0:
64,192,171035,1,0,0:0:0:0:
192,192,171108,1,0,0:0:0:0:
320,192,171180,1,0,0:0:0:0:
448,192,171180,1,0,0:0:0:0:
64,192,171252,1,0,0:0:0:0:
192,192,171324,1,0,0:0:0:0:
448,192,171324,1,0,0:0:0:0:
320,192,171396,1,0,0:0:0:0:
192,192,171468,1,0,0:0:0:0:
64,192,171468,1,0,0:0:0:0:
320,192,171540,1,0,0:0:0:0:
448,192,171540,1,0,0:0:0:0:
192,192,171612,1,0,0:0:0:0:
64,192,171612,1,0,0:0:0:0:
320,192,171685,1,0,0:0:0:0:
448,192,171685,1,0,0:0:0:0:
192,192,171757,1,0,0:0:0:0:
64,192,171757,1,0,0:0:0:0:
320,192,171829,1,0,0:0:0:0:
448,192,171829,1,0,0:0:0:0:
192,192,171901,1,0,0:0:0:0:
64,192,171901,1,0,0:0:0:0:
320,192,171973,1,0,0:0:0:0:
448,192,171973,1,0,0:0:0:0:
192,192,172045,1,0,0:0:0:0:
64,192,172045,1,0,0:0:0:0:
320,192,172117,1,0,0:0:0:0:
448,192,172117,1,0,0:0:0:0:
192,192,172189,1,0,0:0:0:0:
64,192,172189,1,0,0:0:0:0:
320,192,172261,1,0,0:0:0:0:
448,192,172261,1,0,0:0:0:0:
192,192,172334,1,0,0:0:0:0:
64,192,172334,1,0,0:0:0:0:
320,192,172406,1,0,0:0:0:0:
448,192,172406,1,0,0:0:0:0:
192,192,172478,1,0,0:0:0:0:
64,192,172478,1,0,0:0:0:0:
320,192,172550,1,0,0:0:0:0:
64,192,172622,1,0,0:0:0:0:
448,192,172622,1,0,0:0:0:0:
192,192,172694,1,0,0:0:0:0:
320,192,172694,1,0,0:0:0:0:
64,192,172766,1,0,0:0:0:0:
448,192,172766,1,0,0:0:0:0:
192,192,172838,1,0,0:0:0:0:
320,192,172838,1,0,0:0:0:0:
448,192,172910,1,0,0:0:0:0:
64,192,172910,1,0,0:0:0:0:
320,192,172983,1,0,0:0:0:0:
192,192,172983,1,0,0:0:0:0:
64,192,173055,1,0,0:0:0:0:
448,192,173055,1,0,0:0:0:0:
192,192,173127,1,0,0:0:0:0:
320,192,173127,1,0,0:0:0:0:
64,192,173199,1,0,0:0:0:0:
448,192,173199,1,0,0:0:0:0:
192,192,173271,1,0,0:0:0:0:
320,192,173271,1,0,0:0:0:0:
448,192,173343,1,0,0:0:0:0:
64,192,173343,1,0,0:0:0:0:
320,192,173415,1,0,0:0:0:0:
192,192,173415,1,0,0:0:0:0:
448,192,173487,1,0,0:0:0:0:
64,192,173487,1,0,0:0:0:0:
320,192,173560,1,0,0:0:0:0:
192,192,173560,1,0,0:0:0:0:
64,192,173632,1,0,0:0:0:0:
448,192,173632,1,0,0:0:0:0:
192,192,173704,1,0,0:0:0:0:
320,192,173776,1,0,0:0:0:0:
448,192,173776,1,0,0:0:0:0:
320,192,173848,1,0,0:0:0:0:
448,192,173848,1,0,0:0:0:0:
192,192,173920,1,0,0:0:0:0:
64,192,173920,1,0,0:0:0:0:
320,192,173992,1,0,0:0:0:0:
448,192,173992,1,0,0:0:0:0:
192,192,174064,1,0,0:0:0:0:
64,192,174064,1,0,0:0:0:0:
64,192,174136,1,0,0:0:0:0:
192,192,174136,1,0,0:0:0:0:
448,192,174209,1,0,0:0:0:0:
320,192,174209,1,0,0:0:0:0:
192,192,174281,1,0,0:0:0:0:
64,192,174281,1,0,0:0:0:0:
320,192,174353,1,0,0:0:0:0:
448,192,174353,1,0,0:0:0:0:
320,192,174425,1,0,0:0:0:0:
448,192,174425,1,0,0:0:0:0:
192,192,174497,1,0,0:0:0:0:
64,192,174497,1,0,0:0:0:0:
448,192,174569,1,0,0:0:0:0:
320,192,174569,1,0,0:0:0:0:
192,192,174641,1,0,0:0:0:0:
64,192,174641,1,0,0:0:0:0:
64,192,174713,1,0,0:0:0:0:
192,192,174713,1,0,0:0:0:0:
320,192,174785,1,0,0:0:0:0:
448,192,174785,1,0,0:0:0:0:
192,192,174858,1,0,0:0:0:0:
64,192,174930,1,0,0:0:0:0:
320,192,174930,1,0,0:0:0:0:
448,192,174930,1,0,0:0:0:0:
192,192,175074,1,0,0:0:0:0:
320,192,175218,1,0,0:0:0:0:
64,192,175362,1,0,0:0:0:0:
448,192,175507,128,0,176011:0:0:0:0:
320,192,175651,128,0,176011:0:0:0:0:
192,192,175795,128,0,176011:0:0:0:0:
64,192,175939,128,0,176011:0:0:0:0:
64,192,176084,1,0,0:0:0:0:
192,192,176084,1,0,0:0:0:0:
448,192,176084,1,0,0:0:0:0:
320,192,176084,1,0,0:0:0:0:
320,192,176228,1,0,0:0:0:0:
448,192,176372,1,0,0:0:0:0:
64,192,176372,1,0,0:0:0:0:
192,192,176372,1,0,0:0:0:0:
192,192,176516,1,0,0:0:0:0:
320,192,176660,1,0,0:0:0:0:
448,192,176660,1,0,0:0:0:0:
64,192,176660,1,0,0:0:0:0:
448,192,176805,1,0,0:0:0:0:
192,192,176805,1,0,0:0:0:0:
320,192,176949,1,0,0:0:0:0:
64,192,176949,1,0,0:0:0:0:
64,192,177093,1,0,0:0:0:0:
192,192,177093,1,0,0:0:0:0:
320,192,177237,1,0,0:0:0:0:
448,192,177237,1,0,0:0:0:0:
64,192,177382,1,0,0:0:0:0:
192,192,177382,1,0,0:0:0:0:
448,192,177526,1,0,0:0:0:0:
320,192,177526,1,0,0:0:0:0:
192,192,177670,1,0,0:0:0:0:
64,192,177670,1,0,0:0:0:0:
448,192,177742,1,0,0:0:0:0:
320,192,177814,1,0,0:0:0:0:
192,192,177814,1,0,0:0:0:0:
64,192,177886,1,0,0:0:0:0:
448,192,177959,1,0,0:0:0:0:
320,192,177959,1,0,0:0:0:0:
192,192,178031,1,0,0:0:0:0:
448,192,178103,1,0,0:0:0:0:
64,192,178103,1,0,0:0:0:0:
320,192,178103,1,0,0:0:0:0:
448,192,178247,1,0,0:0:0:0:
192,192,178247,1,0,0:0:0:0:
64,192,178391,1,0,0:0:0:0:
320,192,178391,1,0,0:0:0:0:
192,192,178391,1,0,0:0:0:0:
64,192,178535,1,0,0:0:0:0:
192,192,178680,1,0,0:0:0:0:
320,192,178680,1,0,0:0:0:0:
448,192,178680,1,0,0:0:0:0:
448,192,178824,1,0,0:0:0:0:
64,192,178968,1,0,0:0:0:0:
192,192,178968,1,0,0:0:0:0:
320,192,178968,1,0,0:0:0:0:
448,192,179112,1,0,0:0:0:0:
192,192,179112,1,0,0:0:0:0:
320,192,179257,1,0,0:0:0:0:
64,192,179257,1,0,0:0:0:0:
320,192,179401,1,0,0:0:0:0:
448,192,179401,1,0,0:0:0:0:
192,192,179545,1,0,0:0:0:0:
64,192,179545,1,0,0:0:0:0:
320,192,179689,1,0,0:0:0:0:
448,192,179689,1,0,0:0:0:0:
64,192,179834,1,0,0:0:0:0:
192,192,179834,1,0,0:0:0:0:
320,192,179978,1,0,0:0:0:0:
448,192,179978,1,0,0:0:0:0:
64,192,179978,1,0,0:0:0:0:
192,192,180050,1,0,0:0:0:0:
448,192,180122,1,0,0:0:0:0:
320,192,180194,1,0,0:0:0:0:
64,192,180266,1,0,0:0:0:0:
192,192,180302,1,0,0:0:0:0:
320,192,180338,1,0,0:0:0:0:
448,192,180374,1,0,0:0:0:0:
192,192,180410,1,0,0:0:0:0:
64,192,180410,1,0,0:0:0:0:
320,192,180483,1,0,0:0:0:0:
448,192,180483,1,0,0:0:0:0:
192,192,180555,1,0,0:0:0:0:
64,192,180555,1,0,0:0:0:0:
320,192,180627,1,0,0:0:0:0:
64,192,180699,1,0,0:0:0:0:
192,192,180699,1,0,0:0:0:0:
448,192,180699,1,0,0:0:0:0:
192,192,180843,1,0,0:0:0:0:
64,192,180987,1,0,0:0:0:0:
320,192,180987,1,0,0:0:0:0:
448,192,180987,1,0,0:0:0:0:
320,192,181132,1,0,0:0:0:0:
192,192,181276,1,0,0:0:0:0:
64,192,181276,1,0,0:0:0:0:
448,192,181276,1,0,0:0:0:0:
64,192,181420,1,0,0:0:0:0:
320,192,181420,1,0,0:0:0:0:
192,192,181564,1,0,0:0:0:0:
448,192,181564,1,0,0:0:0:0:
320,192,181709,1,0,0:0:0:0:
448,192,181709,1,0,0:0:0:0:
192,192,181853,1,0,0:0:0:0:
64,192,181853,1,0,0:0:0:0:
320,192,181997,1,0,0:0:0:0:
448,192,181997,1,0,0:0:0:0:
192,192,182141,1,0,0:0:0:0:
64,192,182141,1,0,0:0:0:0:
320,192,182285,1,0,0:0:0:0:
448,192,182285,1,0,0:0:0:0:
192,192,182358,1,0,0:0:0:0:
64,192,182430,1,0,0:0:0:0:
448,192,182430,1,0,0:0:0:0:
320,192,182430,1,0,0:0:0:0:
192,192,182502,1,0,0:0:0:0:
448,192,182574,1,0,0:0:0:0:
64,192,182574,1,0,0:0:0:0:
320,192,182646,1,0,0:0:0:0:
192,192,182718,1,0,0:0:0:0:
64,192,182718,1,0,0:0:0:0:
448,192,182790,1,0,0:0:0:0:
320,192,182790,1,0,0:0:0:0:
192,192,182862,1,0,0:0:0:0:
64,192,182862,1,0,0:0:0:0:
320,192,183007,1,0,0:0:0:0:
448,192,183007,1,0,0:0:0:0:
192,192,183079,1,0,0:0:0:0:
64,192,183151,1,0,0:0:0:0:
448,192,183151,1,0,0:0:0:0:
320,192,183151,1,0,0:0:0:0:
192,192,183295,1,0,0:0:0:0:
320,192,183295,1,0,0:0:0:0:
448,192,183439,1,0,0:0:0:0:
320,192,183475,1,0,0:0:0:0:
64,192,183511,1,0,0:0:0:0:
192,192,183548,1,0,0:0:0:0:
320,192,183584,1,0,0:0:0:0:
448,192,183584,1,0,0:0:0:0:
64,192,183728,1,0,0:0:0:0:
320,192,183800,1,0,0:0:0:0:
448,192,183800,1,0,0:0:0:0:
192,192,183800,1,0,0:0:0:0:
64,192,183872,1,0,0:0:0:0:
448,192,183944,1,0,0:0:0:0:
192,192,184016,1,0,0:0:0:0:
64,192,184016,1,0,0:0:0:0:
320,192,184016,1,0,0:0:0:0:
448,192,184160,1,0,0:0:0:0:
320,192,184160,1,0,0:0:0:0:
64,192,184160,1,0,0:0:0:0:
448,192,184305,1,0,0:0:0:0:
192,192,184305,1,0,0:0:0:0:
320,192,184305,1,0,0:0:0:0:
64,192,184449,1,0,0:0:0:0:
192,192,184485,1,0,0:0:0:0:
320,192,184521,1,0,0:0:0:0:
448,192,184557,1,0,0:0:0:0:
64,192,184593,1,0,0:0:0:0:
192,192,184629,1,0,0:0:0:0:
320,192,184665,1,0,0:0:0:0:
448,192,184701,1,0,0:0:0:0:
192,192,184737,1,0,0:0:0:0:
64,192,184737,1,0,0:0:0:0:
320,192,184810,1,0,0:0:0:0:
64,192,184882,1,0,0:0:0:0:
320,192,184954,1,0,0:0:0:0:
448,192,184954,1,0,0:0:0:0:
192,192,185026,1,0,0:0:0:0:
448,192,185098,1,0,0:0:0:0:
64,192,185170,1,0,0:0:0:0:
192,192,185170,1,0,0:0:0:0:
320,192,185242,1,0,0:0:0:0:
192,192,185314,1,0,0:0:0:0:
64,192,185314,1,0,0:0:0:0:
448,192,185314,1,0,0:0:0:0:
320,192,185459,1,0,0:0:0:0:
448,192,185603,1,0,0:0:0:0:
64,192,185603,1,0,0:0:0:0:
320,192,185747,1,0,0:0:0:0:
192,192,185747,1,0,0:0:0:0:
448,192,185891,1,0,0:0:0:0:
320,192,185891,1,0,0:0:0:0:
64,192,186035,1,0,0:0:0:0:
192,192,186035,1,0,0:0:0:0:
64,192,186180,1,0,0:0:0:0:
320,192,186180,1,0,0:0:0:0:
192,192,186324,1,0,0:0:0:0:
448,192,186324,1,0,0:0:0:0:
448,192,186468,1,0,0:0:0:0:
64,192,186612,1,0,0:0:0:0:
192,192,186612,1,0,0:0:0:0:
320,192,186612,1,0,0:0:0:0:
192,192,186757,1,0,0:0:0:0:
448,192,186901,1,0,0:0:0:0:
320,192,186937,1,0,0:0:0:0:
192,192,186973,1,0,0:0:0:0:
64,192,187009,1,0,0:0:0:0:
448,192,187045,1,0,0:0:0:0:
320,192,187045,1,0,0:0:0:0:
64,192,187189,1,0,0:0:0:0:
192,192,187225,1,0,0:0:0:0:
320,192,187261,1,0,0:0:0:0:
448,192,187298,1,0,0:0:0:0:
64,192,187334,1,0,0:0:0:0:
192,192,187334,1,0,0:0:0:0:
448,192,187478,1,0,0:0:0:0:
320,192,187514,1,0,0:0:0:0:
192,192,187550,1,0,0:0:0:0:
64,192,187586,1,0,0:0:0:0:
320,192,187622,1,0,0:0:0:0:
448,192,187622,1,0,0:0:0:0:
448,192,187766,1,0,0:0:0:0:
64,192,187766,1,0,0:0:0:0:
320,192,187766,1,0,0:0:0:0:
192,192,187910,1,0,0:0:0:0:
320,192,187910,1,0,0:0:0:0:
448,192,188055,1,0,0:0:0:0:
64,192,188055,1,0,0:0:0:0:
192,192,188055,1,0,0:0:0:0:
320,192,188199,1,0,0:0:0:0:
64,192,188199,1,0,0:0:0:0:
192,192,188343,1,0,0:0:0:0:
448,192,188343,1,0,0:0:0:0:
320,192,188343,1,0,0:0:0:0:
192,192,188487,1,0,0:0:0:0:
320,192,188632,1,0,0:0:0:0:
64,192,188632,1,0,0:0:0:0:
448,192,188632,1,0,0:0:0:0:
64,192,188920,1,0,0:0:0:0:
320,192,188920,1,0,0:0:0:0:
192,192,188920,1,0,0:0:0:0:
320,192,189064,1,0,0:0:0:0:
192,192,189209,1,0,0:0:0:0:
64,192,189209,1,0,0:0:0:0:
448,192,189209,1,0,0:0:0:0:
64,192,189497,1,0,0:0:0:0:
192,192,189533,1,0,0:0:0:0:
320,192,189569,1,0,0:0:0:0:
448,192,189605,1,0,0:0:0:0:
192,192,189641,1,0,0:0:0:0:
64,192,189641,1,0,0:0:0:0:
448,192,189713,1,0,0:0:0:0:
320,192,189713,1,0,0:0:0:0:
192,192,189785,1,0,0:0:0:0:
64,192,189785,1,0,0:0:0:0:
320,192,189858,1,0,0:0:0:0:
448,192,189930,1,0,0:0:0:0:
64,192,189930,1,0,0:0:0:0:
192,192,189930,1,0,0:0:0:0:
320,192,190074,1,0,0:0:0:0:
448,192,190146,1,0,0:0:0:0:
64,192,190218,1,0,0:0:0:0:
192,192,190218,1,0,0:0:0:0:
320,192,190218,1,0,0:0:0:0:
448,192,190290,1,0,0:0:0:0:
64,192,190362,1,0,0:0:0:0:
192,192,190435,1,0,0:0:0:0:
448,192,190507,1,0,0:0:0:0:
320,192,190507,1,0,0:0:0:0:
64,192,190651,1,0,0:0:0:0:
192,192,190723,1,0,0:0:0:0:
320,192,190795,1,0,0:0:0:0:
448,192,190795,1,0,0:0:0:0:
64,192,190795,1,0,0:0:0:0:
192,192,190867,1,0,0:0:0:0:
320,192,190939,1,0,0:0:0:0:
448,192,191011,1,0,0:0:0:0:
192,192,191084,1,0,0:0:0:0:
64,192,191084,1,0,0:0:0:0:
320,192,191084,1,0,0:0:0:0:
192,192,191228,1,0,0:0:0:0:
64,192,191372,1,0,0:0:0:0:
448,192,191372,1,0,0:0:0:0:
320,192,191372,1,0,0:0:0:0:
320,192,191516,1,0,0:0:0:0:
192,192,191660,1,0,0:0:0:0:
64,192,191660,1,0,0:0:0:0:
448,192,191660,1,0,0:0:0:0:
64,192,191805,1,0,0:0:0:0:
192,192,191949,1,0,0:0:0:0:
448,192,191949,128,0,192237:0:0:0:0:
320,192,191949,128,0,192237:0:0:0:0:
64,192,192237,1,0,0:0:0:0:
192,192,192237,1,0,0:0:0:0:
320,192,192382,1,0,0:0:0:0:
448,192,192454,1,0,0:0:0:0:
192,192,192526,1,0,0:0:0:0:
64,192,192526,1,0,0:0:0:0:
320,192,192526,1,0,0:0:0:0:
448,192,192598,1,0,0:0:0:0:
64,192,192670,1,0,0:0:0:0:
192,192,192742,1,0,0:0:0:0:
320,192,192814,1,0,0:0:0:0:
448,192,192814,1,0,0:0:0:0:
64,192,192814,1,0,0:0:0:0:
192,192,192959,1,0,0:0:0:0:
320,192,193031,1,0,0:0:0:0:
64,192,193103,1,0,0:0:0:0:
448,192,193103,1,0,0:0:0:0:
192,192,193103,1,0,0:0:0:0:
320,192,193175,1,0,0:0:0:0:
448,192,193247,1,0,0:0:0:0:
64,192,193319,1,0,0:0:0:0:
192,192,193391,1,0,0:0:0:0:
320,192,193391,1,0,0:0:0:0:
448,192,193391,1,0,0:0:0:0:
64,192,193463,1,0,0:0:0:0:
320,192,193535,1,0,0:0:0:0:
192,192,193608,1,0,0:0:0:0:
448,192,193680,1,0,0:0:0:0:
64,192,193680,1,0,0:0:0:0:
320,192,193680,1,0,0:0:0:0:
192,192,193752,1,0,0:0:0:0:
64,192,193824,1,0,0:0:0:0:
320,192,193896,1,0,0:0:0:0:
192,192,193968,1,0,0:0:0:0:
64,192,193968,1,0,0:0:0:0:
448,192,193968,1,0,0:0:0:0:
192,192,194112,1,0,0:0:0:0:
320,192,194185,1,0,0:0:0:0:
64,192,194257,1,0,0:0:0:0:
192,192,194257,1,0,0:0:0:0:
448,192,194257,1,0,0:0:0:0:
320,192,194329,1,0,0:0:0:0:
448,192,194401,1,0,0:0:0:0:
192,192,194473,1,0,0:0:0:0:
448,192,194545,1,0,0:0:0:0:
320,192,194545,1,0,0:0:0:0:
64,192,194545,1,0,0:0:0:0:
192,192,194617,1,0,0:0:0:0:
64,192,194689,1,0,0:0:0:0:
320,192,194689,1,0,0:0:0:0:
448,192,194761,1,0,0:0:0:0:
192,192,194834,1,0,0:0:0:0:
64,192,194834,1,0,0:0:0:0:
320,192,194906,1,0,0:0:0:0:
448,192,194978,1,0,0:0:0:0:
192,192,194978,1,0,0:0:0:0:
64,192,195050,1,0,0:0:0:0:
448,192,195122,1,0,0:0:0:0:
320,192,195122,1,0,0:0:0:0:
192,192,195122,1,0,0:0:0:0:
64,192,195194,1,0,0:0:0:0:
320,192,195266,1,0,0:0:0:0:
448,192,195266,1,0,0:0:0:0:
192,192,195338,1,0,0:0:0:0:
64,192,195410,1,0,0:0:0:0:
320,192,195410,1,0,0:0:0:0:
448,192,195483,1,0,0:0:0:0:
64,192,195555,1,0,0:0:0:0:
192,192,195555,1,0,0:0:0:0:
320,192,195627,1,0,0:0:0:0:
192,192,195699,1,0,0:0:0:0:
64,192,195699,1,0,0:0:0:0:
448,192,195771,1,0,0:0:0:0:
320,192,195771,1,0,0:0:0:0:
192,192,195843,1,0,0:0:0:0:
64,192,195843,1,0,0:0:0:0:
320,192,195915,1,0,0:0:0:0:
448,192,195915,1,0,0:0:0:0:
192,192,195987,1,0,0:0:0:0:
64,192,195987,1,0,0:0:0:0:
320,192,196060,1,0,0:0:0:0:
448,192,196060,1,0,0:0:0:0:
192,192,196132,1,0,0:0:0:0:
64,192,196132,1,0,0:0:0:0:
320,192,196204,1,0,0:0:0:0:
448,192,196204,1,0,0:0:0:0:
192,192,196276,1,0,0:0:0:0:
64,192,196276,1,0,0:0:0:0:
320,192,196348,1,0,0:0:0:0:
448,192,196348,1,0,0:0:0:0:
192,192,196420,1,0,0:0:0:0:
64,192,196420,1,0,0:0:0:0:
320,192,196492,1,0,0:0:0:0:
448,192,196492,1,0,0:0:0:0:
64,192,196564,1,0,0:0:0:0:
192,192,196636,1,0,0:0:0:0:
448,192,196709,1,0,0:0:0:0:
320,192,196781,1,0,0:0:0:0:
448,192,196853,1,0,0:0:0:0:
64,192,196853,128,0,199160:0:0:0:0:
192,192,196853,128,0,198007:0:0:0:0:
448,192,199160,128,0,200314:0:0:0:0:
320,192,199160,1,0,0:0:0:0:
192,192,200314,128,0,201468:0:0:0:0:
64,192,200314,1,0,0:0:0:0:
448,192,201468,1,0,0:0:0:0:
320,192,201468,128,0,203776:0:0:0:0:
192,192,201612,1,0,0:0:0:0:
64,192,201757,1,0,0:0:0:0:
448,192,201901,1,0,0:0:0:0:
192,192,202045,1,0,0:0:0:0:
64,192,202189,1,0,0:0:0:0:
448,192,202334,1,0,0:0:0:0:
64,192,202478,1,0,0:0:0:0:
448,192,202622,1,0,0:0:0:0:
192,192,202766,1,0,0:0:0:0:
64,192,202910,1,0,0:0:0:0:
448,192,203055,1,0,0:0:0:0:
192,192,203199,1,0,0:0:0:0:
64,192,203343,1,0,0:0:0:0:
448,192,203487,1,0,0:0:0:0:
64,192,203632,1,0,0:0:0:0:
192,192,203776,128,0,205507:0:0:0:0:
448,192,203776,1,0,0:0:0:0:
64,192,203920,1,0,0:0:0:0:
448,192,204064,1,0,0:0:0:0:
320,192,204209,1,0,0:0:0:0:
64,192,204353,1,0,0:0:0:0:
320,192,204497,1,0,0:0:0:0:
448,192,204641,1,0,0:0:0:0:
64,192,204785,1,0,0:0:0:0:
448,192,204930,1,0,0:0:0:0:
320,192,205074,1,0,0:0:0:0:
64,192,205218,1,0,0:0:0:0:
320,192,205362,1,0,0:0:0:0:
448,192,205507,1,0,0:0:0:0:
64,192,205507,1,0,0:0:0:0:
192,192,205579,1,0,0:0:0:0:
320,192,205579,1,0,0:0:0:0:
64,192,205651,1,0,0:0:0:0:
448,192,205723,1,0,0:0:0:0:
320,192,205723,1,0,0:0:0:0:
192,192,205795,1,0,0:0:0:0:
64,192,205795,1,0,0:0:0:0:
448,192,205867,1,0,0:0:0:0:
320,192,205867,1,0,0:0:0:0:
192,192,205939,1,0,0:0:0:0:
64,192,205939,1,0,0:0:0:0:
64,192,206084,1,0,0:0:0:0:
448,192,206084,1,0,0:0:0:0:
320,192,206084,1,0,0:0:0:0:
192,192,206180,1,0,0:0:0:0:
64,192,206276,1,0,0:0:0:0:
448,192,206372,1,0,0:0:0:0:
192,192,206468,1,0,0:0:0:0:
64,192,206564,1,0,0:0:0:0:
448,192,206660,1,0,0:0:0:0:
320,192,206660,1,0,0:0:0:0:
192,192,206757,1,0,0:0:0:0:
448,192,206853,1,0,0:0:0:0:
64,192,206949,1,0,0:0:0:0:
320,192,207045,1,0,0:0:0:0:
64,192,207141,1,0,0:0:0:0:
448,192,207237,1,0,0:0:0:0:
192,192,207237,1,0,0:0:0:0:
320,192,207334,1,0,0:0:0:0:
64,192,207430,1,0,0:0:0:0:
448,192,207526,1,0,0:0:0:0:
320,192,207622,1,0,0:0:0:0:
192,192,207718,1,0,0:0:0:0:
320,192,207814,1,0,0:0:0:0:
64,192,207814,1,0,0:0:0:0:
448,192,207910,1,0,0:0:0:0:
64,192,208007,1,0,0:0:0:0:
320,192,208103,1,0,0:0:0:0:
192,192,208199,1,0,0:0:0:0:
320,192,208295,1,0,0:0:0:0:
64,192,208391,1,0,0:0:0:0:
448,192,208391,1,0,0:0:0:0:
192,192,208391,1,0,0:0:0:0:
320,192,208487,1,0,0:0:0:0:
448,192,208584,1,0,0:0:0:0:
64,192,208680,1,0,0:0:0:0:
320,192,208776,1,0,0:0:0:0:
448,192,208872,1,0,0:0:0:0:
64,192,208968,1,0,0:0:0:0:
192,192,208968,1,0,0:0:0:0:
320,192,209064,1,0,0:0:0:0:
64,192,209160,1,0,0:0:0:0:
448,192,209257,1,0,0:0:0:0:
192,192,209353,1,0,0:0:0:0:
448,192,209449,1,0,0:0:0:0:
64,192,209545,1,0,0:0:0:0:
320,192,209545,1,0,0:0:0:0:
192,192,209641,1,0,0:0:0:0:
448,192,209737,1,0,0:0:0:0:
64,192,209834,1,0,0:0:0:0:
192,192,209930,1,0,0:0:0:0:
320,192,210026,1,0,0:0:0:0:
448,192,210122,1,0,0:0:0:0:
192,192,210122,1,0,0:0:0:0:
64,192,210218,1,0,0:0:0:0:
448,192,210314,1,0,0:0:0:0:
64,192,210410,1,0,0:0:0:0:
192,192,210410,1,0,0:0:0:0:
320,192,210507,1,0,0:0:0:0:
448,192,210603,1,0,0:0:0:0:
192,192,210603,1,0,0:0:0:0:
64,192,210699,1,0,0:0:0:0:
320,192,210699,1,0,0:0:0:0:
192,192,210795,1,0,0:0:0:0:
320,192,210891,1,0,0:0:0:0:
448,192,210987,1,0,0:0:0:0:
64,192,210987,1,0,0:0:0:0:
192,192,211084,1,0,0:0:0:0:
64,192,211180,1,0,0:0:0:0:
448,192,211276,1,0,0:0:0:0:
320,192,211276,1,0,0:0:0:0:
192,192,211372,1,0,0:0:0:0:
64,192,211468,1,0,0:0:0:0:
448,192,211564,1,0,0:0:0:0:
320,192,211564,1,0,0:0:0:0:
192,192,211660,1,0,0:0:0:0:
320,192,211757,1,0,0:0:0:0:
64,192,211853,1,0,0:0:0:0:
448,192,211853,1,0,0:0:0:0:
192,192,211853,1,0,0:0:0:0:
320,192,211949,1,0,0:0:0:0:
192,192,212045,1,0,0:0:0:0:
64,192,212141,1,0,0:0:0:0:
448,192,212141,1,0,0:0:0:0:
320,192,212237,1,0,0:0:0:0:
448,192,212334,1,0,0:0:0:0:
64,192,212430,1,0,0:0:0:0:
192,192,212430,1,0,0:0:0:0:
320,192,212526,1,0,0:0:0:0:
448,192,212622,1,0,0:0:0:0:
192,192,212718,1,0,0:0:0:0:
64,192,212718,1,0,0:0:0:0:
320,192,212814,1,0,0:0:0:0:
448,192,212910,1,0,0:0:0:0:
192,192,212910,1,0,0:0:0:0:
64,192,213007,1,0,0:0:0:0:
320,192,213007,1,0,0:0:0:0:
192,192,213103,1,0,0:0:0:0:
448,192,213199,1,0,0:0:0:0:
320,192,213199,1,0,0:0:0:0:
192,192,213295,1,0,0:0:0:0:
64,192,213295,1,0,0:0:0:0:
320,192,213391,1,0,0:0:0:0:
192,192,213487,1,0,0:0:0:0:
64,192,213487,1,0,0:0:0:0:
320,192,213584,1,0,0:0:0:0:
448,192,213584,1,0,0:0:0:0:
192,192,213680,1,0,0:0:0:0:
64,192,213680,1,0,0:0:0:0:
320,192,213776,1,0,0:0:0:0:
448,192,213776,1,0,0:0:0:0:
192,192,213872,1,0,0:0:0:0:
64,192,213872,1,0,0:0:0:0:
320,192,213968,1,0,0:0:0:0:
448,192,213968,1,0,0:0:0:0:
192,192,214064,1,0,0:0:0:0:
320,192,214160,1,0,0:0:0:0:
448,192,214160,1,0,0:0:0:0:
64,192,214160,128,0,214641:0:0:0:0:
192,192,214257,128,0,214545:0:0:0:0:
320,192,214353,128,0,214449:0:0:0:0:
448,192,214449,128,0,214737:0:0:0:0:
320,192,214545,128,0,214737:0:0:0:0:
192,192,214641,128,0,214737:0:0:0:0:
64,192,214737,1,0,0:0:0:0:
448,192,214834,1,0,0:0:0:0:
64,192,214930,1,0,0:0:0:0:
320,192,215026,1,0,0:0:0:0:
192,192,215122,1,0,0:0:0:0:
320,192,215218,1,0,0:0:0:0:
64,192,215314,1,0,0:0:0:0:
192,192,215314,1,0,0:0:0:0:
448,192,215314,1,0,0:0:0:0:
320,192,215410,1,0,0:0:0:0:
64,192,215507,1,0,0:0:0:0:
448,192,215603,1,0,0:0:0:0:
320,192,215603,1,0,0:0:0:0:
192,192,215699,1,0,0:0:0:0:
64,192,215795,1,0,0:0:0:0:
192,192,215891,1,0,0:0:0:0:
448,192,215891,1,0,0:0:0:0:
320,192,215987,1,0,0:0:0:0:
448,192,216084,1,0,0:0:0:0:
192,192,216180,1,0,0:0:0:0:
64,192,216180,1,0,0:0:0:0:
320,192,216276,1,0,0:0:0:0:
64,192,216372,1,0,0:0:0:0:
448,192,216468,1,0,0:0:0:0:
320,192,216468,1,0,0:0:0:0:
192,192,216564,1,0,0:0:0:0:
64,192,216660,1,0,0:0:0:0:
448,192,216757,1,0,0:0:0:0:
192,192,216757,1,0,0:0:0:0:
320,192,216853,1,0,0:0:0:0:
64,192,216949,1,0,0:0:0:0:
320,192,217045,1,0,0:0:0:0:
448,192,217045,1,0,0:0:0:0:
192,192,217141,1,0,0:0:0:0:
448,192,217237,1,0,0:0:0:0:
64,192,217334,1,0,0:0:0:0:
192,192,217334,1,0,0:0:0:0:
320,192,217430,1,0,0:0:0:0:
64,192,217526,1,0,0:0:0:0:
448,192,217622,1,0,0:0:0:0:
192,192,217622,1,0,0:0:0:0:
320,192,217718,1,0,0:0:0:0:
64,192,217814,1,0,0:0:0:0:
448,192,217910,1,0,0:0:0:0:
320,192,217910,1,0,0:0:0:0:
192,192,218007,1,0,0:0:0:0:
64,192,218103,1,0,0:0:0:0:
192,192,218199,1,0,0:0:0:0:
448,192,218199,1,0,0:0:0:0:
320,192,218295,1,0,0:0:0:0:
448,192,218391,1,0,0:0:0:0:
64,192,218487,1,0,0:0:0:0:
320,192,218487,1,0,0:0:0:0:
192,192,218584,1,0,0:0:0:0:
320,192,218680,1,0,0:0:0:0:
448,192,218776,1,0,0:0:0:0:
64,192,218776,1,0,0:0:0:0:
192,192,218872,1,0,0:0:0:0:
64,192,218968,1,0,0:0:0:0:
448,192,219064,1,0,0:0:0:0:
192,192,219064,1,0,0:0:0:0:
320,192,219160,1,0,0:0:0:0:
64,192,219257,1,0,0:0:0:0:
448,192,219353,1,0,0:0:0:0:
320,192,219353,1,0,0:0:0:0:
192,192,219449,1,0,0:0:0:0:
64,192,219545,1,0,0:0:0:0:
448,192,219545,1,0,0:0:0:0:
192,192,219641,1,0,0:0:0:0:
320,192,219641,1,0,0:0:0:0:
64,192,219737,1,0,0:0:0:0:
448,192,219737,1,0,0:0:0:0:
192,192,219834,1,0,0:0:0:0:
320,192,219834,1,0,0:0:0:0:
64,192,219930,1,0,0:0:0:0:
448,192,219930,1,0,0:0:0:0:
192,192,220026,1,0,0:0:0:0:
64,192,220122,1,0,0:0:0:0:
448,192,220218,1,0,0:0:0:0:
192,192,220218,1,0,0:0:0:0:
320,192,220314,1,0,0:0:0:0:
64,192,220410,1,0,0:0:0:0:
192,192,220507,1,0,0:0:0:0:
448,192,220507,1,0,0:0:0:0:
320,192,220603,1,0,0:0:0:0:
448,192,220699,1,0,0:0:0:0:
192,192,220795,1,0,0:0:0:0:
64,192,220795,1,0,0:0:0:0:
320,192,220891,1,0,0:0:0:0:
192,192,220987,1,0,0:0:0:0:
448,192,221084,1,0,0:0:0:0:
64,192,221084,1,0,0:0:0:0:
320,192,221180,1,0,0:0:0:0:
64,192,221276,1,0,0:0:0:0:
448,192,221372,1,0,0:0:0:0:
320,192,221372,1,0,0:0:0:0:
192,192,221468,1,0,0:0:0:0:
64,192,221564,1,0,0:0:0:0:
192,192,221660,1,0,0:0:0:0:
448,192,221660,1,0,0:0:0:0:
320,192,221757,1,0,0:0:0:0:
448,192,221853,1,0,0:0:0:0:
192,192,221949,1,0,0:0:0:0:
64,192,221949,1,0,0:0:0:0:
320,192,222045,1,0,0:0:0:0:
192,192,222141,1,0,0:0:0:0:
64,192,222141,1,0,0:0:0:0:
320,192,222237,1,0,0:0:0:0:
448,192,222237,1,0,0:0:0:0:
192,192,222334,1,0,0:0:0:0:
64,192,222430,1,0,0:0:0:0:
320,192,222526,1,0,0:0:0:0:
448,192,222526,1,0,0:0:0:0:
192,192,222622,1,0,0:0:0:0:
320,192,222718,1,0,0:0:0:0:
448,192,222814,1,0,0:0:0:0:
192,192,222814,1,0,0:0:0:0:
64,192,222910,1,0,0:0:0:0:
320,192,223007,1,0,0:0:0:0:
192,192,223103,1,0,0:0:0:0:
64,192,223103,1,0,0:0:0:0:
448,192,223199,1,0,0:0:0:0:
192,192,223295,1,0,0:0:0:0:
320,192,223391,1,0,0:0:0:0:
64,192,223391,1,0,0:0:0:0:
448,192,223487,1,0,0:0:0:0:
320,192,223584,1,0,0:0:0:0:
192,192,223680,1,0,0:0:0:0:
448,192,223680,1,0,0:0:0:0:
64,192,223776,1,0,0:0:0:0:
448,192,223872,1,0,0:0:0:0:
192,192,223968,1,0,0:0:0:0:
64,192,223968,1,0,0:0:0:0:
320,192,224064,1,0,0:0:0:0:
192,192,224160,1,0,0:0:0:0:
64,192,224257,1,0,0:0:0:0:
320,192,224257,1,0,0:0:0:0:
448,192,224353,1,0,0:0:0:0:
192,192,224449,1,0,0:0:0:0:
448,192,224545,1,0,0:0:0:0:
320,192,224545,1,0,0:0:0:0:
64,192,224545,1,0,0:0:0:0:
192,192,224641,1,0,0:0:0:0:
64,192,224737,1,0,0:0:0:0:
448,192,224834,1,0,0:0:0:0:
192,192,224834,1,0,0:0:0:0:
320,192,224930,1,0,0:0:0:0:
64,192,225026,1,0,0:0:0:0:
192,192,225122,1,0,0:0:0:0:
448,192,225122,1,0,0:0:0:0:
320,192,225218,1,0,0:0:0:0:
448,192,225314,1,0,0:0:0:0:
192,192,225410,1,0,0:0:0:0:
64,192,225410,1,0,0:0:0:0:
320,192,225507,1,0,0:0:0:0:
64,192,225603,1,0,0:0:0:0:
448,192,225699,1,0,0:0:0:0:
192,192,225699,1,0,0:0:0:0:
320,192,225795,1,0,0:0:0:0:
64,192,225891,1,0,0:0:0:0:
448,192,225987,1,0,0:0:0:0:
320,192,225987,1,0,0:0:0:0:
192,192,226084,1,0,0:0:0:0:
64,192,226180,1,0,0:0:0:0:
320,192,226276,1,0,0:0:0:0:
448,192,226276,1,0,0:0:0:0:
192,192,226372,1,0,0:0:0:0:
448,192,226468,1,0,0:0:0:0:
64,192,226564,1,0,0:0:0:0:
192,192,226564,1,0,0:0:0:0:
320,192,226660,1,0,0:0:0:0:
64,192,226757,1,0,0:0:0:0:
448,192,226853,1,0,0:0:0:0:
320,192,226853,1,0,0:0:0:0:
192,192,226949,1,0,0:0:0:0:
64,192,227045,1,0,0:0:0:0:
448,192,227141,1,0,0:0:0:0:
192,192,227141,1,0,0:0:0:0:
320,192,227237,1,0,0:0:0:0:
64,192,227334,1,0,0:0:0:0:
192,192,227430,1,0,0:0:0:0:
448,192,227430,1,0,0:0:0:0:
320,192,227526,1,0,0:0:0:0:
448,192,227622,1,0,0:0:0:0:
64,192,227718,1,0,0:0:0:0:
320,192,227718,1,0,0:0:0:0:
192,192,227814,1,0,0:0:0:0:
320,192,227910,1,0,0:0:0:0:
448,192,228007,1,0,0:0:0:0:
64,192,228007,1,0,0:0:0:0:
320,192,228103,1,0,0:0:0:0:
64,192,228199,1,0,0:0:0:0:
448,192,228295,1,0,0:0:0:0:
320,192,228295,1,0,0:0:0:0:
192,192,228391,1,0,0:0:0:0:
64,192,228487,1,0,0:0:0:0:
320,192,228584,1,0,0:0:0:0:
448,192,228584,1,0,0:0:0:0:
192,192,228680,1,0,0:0:0:0:
64,192,228776,1,0,0:0:0:0:
448,192,228776,1,0,0:0:0:0:
192,192,228872,1,0,0:0:0:0:
320,192,228872,1,0,0:0:0:0:
64,192,228968,1,0,0:0:0:0:
448,192,228968,1,0,0:0:0:0:
192,192,229064,1,0,0:0:0:0:
320,192,229064,1,0,0:0:0:0:
448,192,229160,1,0,0:0:0:0:
64,192,229160,1,0,0:0:0:0:
320,192,229257,1,0,0:0:0:0:
64,192,229353,1,0,0:0:0:0:
448,192,229449,1,0,0:0:0:0:
320,192,229449,1,0,0:0:0:0:
192,192,229545,1,0,0:0:0:0:
64,192,229641,1,0,0:0:0:0:
192,192,229737,1,0,0:0:0:0:
448,192,229737,1,0,0:0:0:0:
320,192,229834,1,0,0:0:0:0:
448,192,229930,1,0,0:0:0:0:
64,192,230026,1,0,0:0:0:0:
192,192,230026,1,0,0:0:0:0:
320,192,230122,1,0,0:0:0:0:
64,192,230218,1,0,0:0:0:0:
448,192,230314,1,0,0:0:0:0:
320,192,230314,1,0,0:0:0:0:
192,192,230410,1,0,0:0:0:0:
64,192,230507,1,0,0:0:0:0:
448,192,230603,1,0,0:0:0:0:
192,192,230603,1,0,0:0:0:0:
320,192,230699,1,0,0:0:0:0:
64,192,230795,1,0,0:0:0:0:
192,192,230891,1,0,0:0:0:0:
448,192,230891,1,0,0:0:0:0:
320,192,230987,1,0,0:0:0:0:
448,192,231084,1,0,0:0:0:0:
64,192,231180,1,0,0:0:0:0:
320,192,231180,1,0,0:0:0:0:
192,192,231276,1,0,0:0:0:0:
64,192,231372,1,0,0:0:0:0:
320,192,231372,1,0,0:0:0:0:
448,192,231468,1,0,0:0:0:0:
192,192,231468,1,0,0:0:0:0:
320,192,231564,1,0,0:0:0:0:
64,192,231660,1,0,0:0:0:0:
192,192,231757,1,0,0:0:0:0:
320,192,231757,1,0,0:0:0:0:
448,192,231853,1,0,0:0:0:0:
192,192,231949,1,0,0:0:0:0:
320,192,232045,1,0,0:0:0:0:
448,192,232045,1,0,0:0:0:0:
64,192,232141,1,0,0:0:0:0:
448,192,232237,1,0,0:0:0:0:
192,192,232334,1,0,0:0:0:0:
64,192,232334,1,0,0:0:0:0:
320,192,232430,1,0,0:0:0:0:
192,192,232526,1,0,0:0:0:0:
320,192,232622,1,0,0:0:0:0:
64,192,232622,1,0,0:0:0:0:
448,192,232718,1,0,0:0:0:0:
320,192,232814,1,0,0:0:0:0:
448,192,232910,1,0,0:0:0:0:
192,192,232910,1,0,0:0:0:0:
64,192,233007,1,0,0:0:0:0:
448,192,233103,1,0,0:0:0:0:
192,192,233199,1,0,0:0:0:0:
64,192,233199,1,0,0:0:0:0:
320,192,233295,1,0,0:0:0:0:
192,192,233391,1,0,0:0:0:0:
320,192,233487,1,0,0:0:0:0:
64,192,233487,1,0,0:0:0:0:
448,192,233584,1,0,0:0:0:0:
192,192,233680,1,0,0:0:0:0:
64,192,233776,1,0,0:0:0:0:
448,192,233776,1,0,0:0:0:0:
320,192,233776,1,0,0:0:0:0:
192,192,233920,1,0,0:0:0:0:
320,192,233920,1,0,0:0:0:0:
448,192,234064,1,0,0:0:0:0:
192,192,234064,1,0,0:0:0:0:
64,192,234064,1,0,0:0:0:0:
320,192,234209,1,0,0:0:0:0:
64,192,234209,1,0,0:0:0:0:
192,192,234353,1,0,0:0:0:0:
320,192,234353,1,0,0:0:0:0:
448,192,234353,1,0,0:0:0:0:
64,192,234497,1,0,0:0:0:0:
448,192,234497,1,0,0:0:0:0:
320,192,234641,1,0,0:0:0:0:
192,192,234641,1,0,0:0:0:0:
64,192,234641,1,0,0:0:0:0:
192,192,234785,1,0,0:0:0:0:
448,192,234785,1,0,0:0:0:0:
320,192,234930,1,0,0:0:0:0:
64,192,234930,1,0,0:0:0:0:
448,192,234930,1,0,0:0:0:0:
320,192,235074,1,0,0:0:0:0:
448,192,235218,1,0,0:0:0:0:
64,192,235218,1,0,0:0:0:0:
192,192,235218,1,0,0:0:0:0:
320,192,235362,1,0,0:0:0:0:
64,192,235362,1,0,0:0:0:0:
192,192,235507,1,0,0:0:0:0:
448,192,235507,1,0,0:0:0:0:
320,192,235507,1,0,0:0:0:0:
64,192,235651,1,0,0:0:0:0:
448,192,235723,1,0,0:0:0:0:
320,192,235723,1,0,0:0:0:0:
64,192,235795,1,0,0:0:0:0:
192,192,235795,1,0,0:0:0:0:
448,192,235939,1,0,0:0:0:0:
320,192,235939,1,0,0:0:0:0:
192,192,236084,1,0,0:0:0:0:
64,192,236084,1,0,0:0:0:0:
448,192,236084,1,0,0:0:0:0:
192,192,236228,1,0,0:0:0:0:
64,192,236372,1,0,0:0:0:0:
320,192,236372,1,0,0:0:0:0:
448,192,236372,1,0,0:0:0:0:
192,192,236516,1,0,0:0:0:0:
448,192,236516,1,0,0:0:0:0:
64,192,236660,1,0,0:0:0:0:
192,192,236660,1,0,0:0:0:0:
320,192,236660,1,0,0:0:0:0:
448,192,236805,1,0,0:0:0:0:
320,192,236877,1,0,0:0:0:0:
192,192,236949,1,0,0:0:0:0:
64,192,236949,1,0,0:0:0:0:
448,192,236949,1,0,0:0:0:0:
320,192,237021,1,0,0:0:0:0:
64,192,237093,1,0,0:0:0:0:
192,192,237165,1,0,0:0:0:0:
320,192,237237,1,0,0:0:0:0:
448,192,237237,1,0,0:0:0:0:
64,192,237237,1,0,0:0:0:0:
192,192,237382,1,0,0:0:0:0:
320,192,237382,1,0,0:0:0:0:
64,192,237526,1,0,0:0:0:0:
192,192,237526,1,0,0:0:0:0:
448,192,237526,1,0,0:0:0:0:
64,192,237670,1,0,0:0:0:0:
192,192,237670,1,0,0:0:0:0:
320,192,237670,1,0,0:0:0:0:
320,192,237814,1,0,0:0:0:0:
448,192,237814,1,0,0:0:0:0:
64,192,237959,1,0,0:0:0:0:
192,192,237959,1,0,0:0:0:0:
448,192,238007,1,0,0:0:0:0:
320,192,238055,1,0,0:0:0:0:
64,192,238103,1,0,0:0:0:0:
192,192,238103,1,0,0:0:0:0:
320,192,238175,1,0,0:0:0:0:
448,192,238175,1,0,0:0:0:0:
64,192,238247,1,0,0:0:0:0:
192,192,238247,1,0,0:0:0:0:
320,192,238319,1,0,0:0:0:0:
64,192,238391,1,0,0:0:0:0:
192,192,238391,1,0,0:0:0:0:
448,192,238391,1,0,0:0:0:0:
320,192,238535,1,0,0:0:0:0:
64,192,238608,1,0,0:0:0:0:
448,192,238680,1,0,0:0:0:0:
192,192,238680,1,0,0:0:0:0:
320,192,238752,1,0,0:0:0:0:
192,192,238824,1,0,0:0:0:0:
448,192,238968,1,0,0:0:0:0:
320,192,238968,1,0,0:0:0:0:
64,192,238968,1,0,0:0:0:0:
192,192,239112,1,0,0:0:0:0:
448,192,239185,1,0,0:0:0:0:
64,192,239257,1,0,0:0:0:0:
320,192,239257,1,0,0:0:0:0:
192,192,239329,1,0,0:0:0:0:
320,192,239401,1,0,0:0:0:0:
448,192,239473,1,0,0:0:0:0:
192,192,239545,1,0,0:0:0:0:
320,192,239545,1,0,0:0:0:0:
64,192,239545,1,0,0:0:0:0:
448,192,239689,1,0,0:0:0:0:
320,192,239761,1,0,0:0:0:0:
192,192,239834,1,0,0:0:0:0:
64,192,239834,1,0,0:0:0:0:
448,192,239906,1,0,0:0:0:0:
320,192,239978,1,0,0:0:0:0:
64,192,240050,1,0,0:0:0:0:
192,192,240122,1,0,0:0:0:0:
320,192,240122,1,0,0:0:0:0:
448,192,240122,1,0,0:0:0:0:
64,192,240266,1,0,0:0:0:0:
448,192,240338,1,0,0:0:0:0:
192,192,240338,1,0,0:0:0:0:
320,192,240410,1,0,0:0:0:0:
64,192,240410,1,0,0:0:0:0:
448,192,240555,1,0,0:0:0:0:
320,192,240555,1,0,0:0:0:0:
192,192,240555,1,0,0:0:0:0:
192,192,240699,1,0,0:0:0:0:
64,192,240699,1,0,0:0:0:0:
448,192,240699,1,0,0:0:0:0:
320,192,240843,1,0,0:0:0:0:
64,192,240843,1,0,0:0:0:0:
192,192,240987,1,0,0:0:0:0:
448,192,240987,1,0,0:0:0:0:
64,192,240987,1,0,0:0:0:0:
320,192,241132,1,0,0:0:0:0:
64,192,241132,1,0,0:0:0:0:
192,192,241204,1,0,0:0:0:0:
64,192,241276,1,0,0:0:0:0:
448,192,241276,1,0,0:0:0:0:
320,192,241276,1,0,0:0:0:0:
448,192,241420,1,0,0:0:0:0:
192,192,241420,1,0,0:0:0:0:
320,192,241492,1,0,0:0:0:0:
64,192,241564,1,0,0:0:0:0:
448,192,241564,1,0,0:0:0:0:
192,192,241564,1,0,0:0:0:0:
320,192,241636,1,0,0:0:0:0:
64,192,241709,1,0,0:0:0:0:
448,192,241709,1,0,0:0:0:0:
192,192,241781,1,0,0:0:0:0:
64,192,241853,1,0,0:0:0:0:
448,192,241853,1,0,0:0:0:0:
320,192,241853,1,0,0:0:0:0:
192,192,241997,1,0,0:0:0:0:
320,192,241997,1,0,0:0:0:0:
448,192,242141,1,0,0:0:0:0:
192,192,242141,1,0,0:0:0:0:
64,192,242141,1,0,0:0:0:0:
192,192,242285,1,0,0:0:0:0:
64,192,242285,1,0,0:0:0:0:
448,192,242358,1,0,0:0:0:0:
320,192,242358,1,0,0:0:0:0:
192,192,242430,1,0,0:0:0:0:
64,192,242430,1,0,0:0:0:0:
320,192,242502,1,0,0:0:0:0:
448,192,242502,1,0,0:0:0:0:
192,192,242574,1,0,0:0:0:0:
64,192,242574,1,0,0:0:0:0:
320,192,242646,1,0,0:0:0:0:
64,192,242718,1,0,0:0:0:0:
448,192,242718,1,0,0:0:0:0:
192,192,242862,1,0,0:0:0:0:
448,192,242862,1,0,0:0:0:0:
320,192,243007,1,0,0:0:0:0:
64,192,243007,1,0,0:0:0:0:
448,192,243007,1,0,0:0:0:0:
192,192,243079,1,0,0:0:0:0:
320,192,243151,1,0,0:0:0:0:
64,192,243151,1,0,0:0:0:0:
448,192,243223,1,0,0:0:0:0:
192,192,243295,1,0,0:0:0:0:
64,192,243295,1,0,0:0:0:0:
320,192,243367,1,0,0:0:0:0:
448,192,243439,1,0,0:0:0:0:
192,192,243439,1,0,0:0:0:0:
64,192,243511,1,0,0:0:0:0:
320,192,243584,1,0,0:0:0:0:
448,192,243584,1,0,0:0:0:0:
192,192,243656,1,0,0:0:0:0:
64,192,243728,1,0,0:0:0:0:
448,192,243728,1,0,0:0:0:0:
320,192,243800,1,0,0:0:0:0:
192,192,243872,1,0,0:0:0:0:
64,192,243872,1,0,0:0:0:0:
448,192,243944,1,0,0:0:0:0:
192,192,244016,1,0,0:0:0:0:
64,192,244016,1,0,0:0:0:0:
320,192,244088,1,0,0:0:0:0:
192,192,244160,1,0,0:0:0:0:
64,192,244160,1,0,0:0:0:0:
448,192,244160,1,0,0:0:0:0:
320,192,244233,1,0,0:0:0:0:
448,192,244305,1,0,0:0:0:0:
192,192,244305,1,0,0:0:0:0:
64,192,244377,1,0,0:0:0:0:
320,192,244449,1,0,0:0:0:0:
448,192,244449,1,0,0:0:0:0:
192,192,244521,1,0,0:0:0:0:
64,192,244593,1,0,0:0:0:0:
320,192,244593,1,0,0:0:0:0:
448,192,244665,1,0,0:0:0:0:
64,192,244737,1,0,0:0:0:0:
192,192,244737,1,0,0:0:0:0:
320,192,244810,1,0,0:0:0:0:
64,192,244882,1,0,0:0:0:0:
448,192,244882,1,0,0:0:0:0:
192,192,244954,1,0,0:0:0:0:
320,192,245026,1,0,0:0:0:0:
448,192,245026,1,0,0:0:0:0:
64,192,245098,1,0,0:0:0:0:
448,192,245170,1,0,0:0:0:0:
192,192,245170,1,0,0:0:0:0:
320,192,245242,1,0,0:0:0:0:
64,192,245314,1,0,0:0:0:0:
192,192,245314,1,0,0:0:0:0:
448,192,245314,1,0,0:0:0:0:
320,192,245386,1,0,0:0:0:0:
64,192,245459,1,0,0:0:0:0:
192,192,245459,1,0,0:0:0:0:
448,192,245531,1,0,0:0:0:0:
64,192,245603,1,0,0:0:0:0:
320,192,245603,1,0,0:0:0:0:
192,192,245675,1,0,0:0:0:0:
448,192,245747,1,0,0:0:0:0:
64,192,245747,1,0,0:0:0:0:
320,192,245819,1,0,0:0:0:0:
192,192,245891,1,0,0:0:0:0:
448,192,245891,1,0,0:0:0:0:
64,192,245963,1,0,0:0:0:0:
320,192,246035,1,0,0:0:0:0:
448,192,246035,1,0,0:0:0:0:
192,192,246108,1,0,0:0:0:0:
64,192,246180,1,0,0:0:0:0:
320,192,246180,1,0,0:0:0:0:
448,192,246252,1,0,0:0:0:0:
320,192,246324,1,0,0:0:0:0:
64,192,246324,1,0,0:0:0:0:
192,192,246396,1,0,0:0:0:0:
320,192,246468,1,0,0:0:0:0:
64,192,246468,1,0,0:0:0:0:
448,192,246468,1,0,0:0:0:0:
192,192,246540,1,0,0:0:0:0:
320,192,246612,1,0,0:0:0:0:
448,192,246612,1,0,0:0:0:0:
64,192,246685,1,0,0:0:0:0:
192,192,246757,1,0,0:0:0:0:
448,192,246757,1,0,0:0:0:0:
448,192,246901,1,0,0:0:0:0:
64,192,246901,1,0,0:0:0:0:
64,192,247045,1,0,0:0:0:0:
320,192,247045,1,0,0:0:0:0:
192,192,247117,1,0,0:0:0:0:
448,192,247117,1,0,0:0:0:0:
320,192,247189,1,0,0:0:0:0:
192,192,247261,1,0,0:0:0:0:
64,192,247261,1,0,0:0:0:0:
320,192,247334,1,0,0:0:0:0:
448,192,247334,1,0,0:0:0:0:
192,192,247478,1,0,0:0:0:0:
320,192,247478,1,0,0:0:0:0:
64,192,247622,1,0,0:0:0:0:
448,192,247622,1,0,0:0:0:0:
192,192,247622,1,0,0:0:0:0:
320,192,247766,1,0,0:0:0:0:
64,192,247838,1,0,0:0:0:0:
448,192,247838,1,0,0:0:0:0:
192,192,247838,1,0,0:0:0:0:
448,192,247983,1,0,0:0:0:0:
64,192,248055,1,0,0:0:0:0:
320,192,248055,1,0,0:0:0:0:
192,192,248055,1,0,0:0:0:0:
64,192,248199,1,0,0:0:0:0:
448,192,248199,1,0,0:0:0:0:
192,192,248199,1,0,0:0:0:0:
320,192,248343,1,0,0:0:0:0:
64,192,248415,1,0,0:0:0:0:
448,192,248415,1,0,0:0:0:0:
192,192,248415,1,0,0:0:0:0:
64,192,248560,1,0,0:0:0:0:
192,192,248632,1,0,0:0:0:0:
320,192,248632,1,0,0:0:0:0:
448,192,248632,1,0,0:0:0:0:
64,192,248776,1,0,0:0:0:0:
448,192,248776,1,0,0:0:0:0:
320,192,248776,1,0,0:0:0:0:
192,192,248920,1,0,0:0:0:0:
64,192,248992,1,0,0:0:0:0:
320,192,248992,1,0,0:0:0:0:
448,192,248992,1,0,0:0:0:0:
448,192,249136,1,0,0:0:0:0:
320,192,249209,1,0,0:0:0:0:
192,192,249209,1,0,0:0:0:0:
64,192,249209,1,0,0:0:0:0:
448,192,249353,1,0,0:0:0:0:
320,192,249353,1,0,0:0:0:0:
64,192,249353,1,0,0:0:0:0:
64,192,249497,1,0,0:0:0:0:
320,192,249569,1,0,0:0:0:0:
192,192,249569,1,0,0:0:0:0:
448,192,249569,1,0,0:0:0:0:
320,192,249713,1,0,0:0:0:0:
192,192,249785,1,0,0:0:0:0:
64,192,249785,1,0,0:0:0:0:
448,192,249785,1,0,0:0:0:0:
320,192,249930,1,0,0:0:0:0:
192,192,250002,1,0,0:0:0:0:
64,192,250002,1,0,0:0:0:0:
448,192,250002,1,0,0:0:0:0:
448,192,250146,1,0,0:0:0:0:
192,192,250218,1,0,0:0:0:0:
64,192,250218,1,0,0:0:0:0:
320,192,250218,1,0,0:0:0:0:
320,192,250362,1,0,0:0:0:0:
64,192,250435,1,0,0:0:0:0:
448,192,250435,1,0,0:0:0:0:
192,192,250435,1,0,0:0:0:0:
192,192,250579,1,0,0:0:0:0:
448,192,250651,1,0,0:0:0:0:
64,192,250651,1,0,0:0:0:0:
320,192,250651,1,0,0:0:0:0:
64,192,250795,1,0,0:0:0:0:
192,192,250867,1,0,0:0:0:0:
320,192,250867,1,0,0:0:0:0:
448,192,250867,1,0,0:0:0:0:
320,192,251011,1,0,0:0:0:0:
64,192,251084,1,0,0:0:0:0:
448,192,251084,1,0,0:0:0:0:
192,192,251084,1,0,0:0:0:0:
320,192,251180,128,0,251468:0:0:0:0:
192,192,251276,128,0,251564:0:0:0:0:
64,192,251372,128,0,251660:0:0:0:0:
448,192,251468,128,0,251660:0:0:0:0:
320,192,251564,128,0,251660:0:0:0:0:
192,192,251660,1,0,0:0:0:0:
320,192,251757,128,0,252045:0:0:0:0:
192,192,251853,128,0,252141:0:0:0:0:
64,192,251949,128,0,252237:0:0:0:0:
448,192,252045,128,0,252237:0:0:0:0:
320,192,252141,128,0,252237:0:0:0:0:
192,192,252237,1,0,0:0:0:0:
320,192,252334,1,0,0:0:0:0:
192,192,252430,1,0,0:0:0:0:
64,192,252526,1,0,0:0:0:0:
448,192,252526,1,0,0:0:0:0:
320,192,252622,1,0,0:0:0:0:
64,192,252718,1,0,0:0:0:0:
448,192,252814,1,0,0:0:0:0:
192,192,252910,1,0,0:0:0:0:
448,192,253007,1,0,0:0:0:0:
320,192,253103,1,0,0:0:0:0:
64,192,253103,1,0,0:0:0:0:
192,192,253199,1,0,0:0:0:0:
320,192,253295,1,0,0:0:0:0:
448,192,253391,1,0,0:0:0:0:
64,192,253391,128,0,258007:0:0:0:0:
192,192,253391,128,0,255699:0:0:0:0:
448,192,255699,1,0,0:0:0:0:
320,192,255699,1,0,0:0:0:0:
192,192,255843,1,0,0:0:0:0:
320,192,255987,1,0,0:0:0:0:
448,192,256132,1,0,0:0:0:0:
192,192,256276,1,0,0:0:0:0:
448,192,256420,1,0,0:0:0:0:
320,192,256564,1,0,0:0:0:0:
192,192,256709,1,0,0:0:0:0:
192,192,256997,1,0,0:0:0:0:
192,192,257285,1,0,0:0:0:0:
320,192,257358,1,0,0:0:0:0:
448,192,257430,1,0,0:0:0:0:
320,192,257502,1,0,0:0:0:0:
192,192,257574,1,0,0:0:0:0:
448,192,257646,1,0,0:0:0:0:
320,192,257718,1,0,0:0:0:0:
192,192,257790,1,0,0:0:0:0:
320,192,257862,1,0,0:0:0:0:
448,192,257935,1,0,0:0:0:0:
192,192,258007,1,0,0:0:0:0:
320,192,258151,1,0,0:0:0:0:
448,192,258295,1,0,0:0:0:0:
64,192,258295,1,0,0:0:0:0:
192,192,258439,1,0,0:0:0:0:
320,192,258548,1,0,0:0:0:0:
448,192,258584,1,0,0:0:0:0:
64,192,258728,1,0,0:0:0:0:
320,192,258872,1,0,0:0:0:0:
448,192,259016,1,0,0:0:0:0:
192,192,259160,1,0,0:0:0:0:
448,192,259305,1,0,0:0:0:0:
320,192,259449,1,0,0:0:0:0:
64,192,259593,1,0,0:0:0:0:
448,192,259737,1,0,0:0:0:0:
192,192,259882,1,0,0:0:0:0:
320,192,260026,1,0,0:0:0:0:
448,192,260170,1,0,0:0:0:0:
64,192,260314,1,0,0:0:0:0:
192,192,260314,1,0,0:0:0:0:
320,192,260459,1,0,0:0:0:0:
448,192,260603,1,0,0:0:0:0:
64,192,260747,1,0,0:0:0:0:
320,192,260891,1,0,0:0:0:0:
192,192,261035,1,0,0:0:0:0:
448,192,261108,1,0,0:0:0:0:
64,192,261180,1,0,0:0:0:0:
320,192,261324,1,0,0:0:0:0:
192,192,261468,1,0,0:0:0:0:
64,192,261468,1,0,0:0:0:0:
448,192,261612,1,0,0:0:0:0:
64,192,261757,1,0,0:0:0:0:
320,192,261901,1,0,0:0:0:0:
448,192,261973,1,0,0:0:0:0:
192,192,262045,1,0,0:0:0:0:
320,192,262117,1,0,0:0:0:0:
192,192,262189,1,0,0:0:0:0:
64,192,262261,1,0,0:0:0:0:
448,192,262334,1,0,0:0:0:0:
320,192,262406,1,0,0:0:0:0:
192,192,262478,1,0,0:0:0:0:
64,192,262550,1,0,0:0:0:0:
320,192,262622,1,0,0:0:0:0:
448,192,262622,1,0,0:0:0:0:
192,192,262766,1,0,0:0:0:0:
448,192,262910,1,0,0:0:0:0:
64,192,262910,1,0,0:0:0:0:
320,192,263055,1,0,0:0:0:0:
192,192,263163,1,0,0:0:0:0:
64,192,263199,1,0,0:0:0:0:
320,192,263199,1,0,0:0:0:0:
448,192,263199,1,0,0:0:0:0:
192,192,263343,1,0,0:0:0:0:
64,192,263487,1,0,0:0:0:0:
448,192,263487,1,0,0:0:0:0:
320,192,263632,1,0,0:0:0:0:
448,192,263776,1,0,0:0:0:0:
192,192,263776,1,0,0:0:0:0:
64,192,263920,1,0,0:0:0:0:
448,192,264064,1,0,0:0:0:0:
320,192,264064,1,0,0:0:0:0:
192,192,264209,1,0,0:0:0:0:
448,192,264353,1,0,0:0:0:0:
64,192,264353,1,0,0:0:0:0:
320,192,264353,1,0,0:0:0:0:
192,192,264497,1,0,0:0:0:0:
64,192,264641,1,0,0:0:0:0:
448,192,264641,1,0,0:0:0:0:
320,192,264785,1,0,0:0:0:0:
192,192,264930,1,0,0:0:0:0:
64,192,264930,1,0,0:0:0:0:
320,192,265074,1,0,0:0:0:0:
64,192,265218,1,0,0:0:0:0:
448,192,265218,1,0,0:0:0:0:
192,192,265362,1,0,0:0:0:0:
448,192,265507,1,0,0:0:0:0:
64,192,265507,1,0,0:0:0:0:
320,192,265507,1,0,0:0:0:0:
192,192,265651,1,0,0:0:0:0:
64,192,265795,1,0,0:0:0:0:
320,192,265795,1,0,0:0:0:0:
448,192,265939,1,0,0:0:0:0:
192,192,265957,1,0,0:0:0:0:
448,192,266084,1,0,0:0:0:0:
64,192,266084,1,0,0:0:0:0:
192,192,266228,1,0,0:0:0:0:
320,192,266246,1,0,0:0:0:0:
448,192,266372,1,0,0:0:0:0:
192,192,266372,1,0,0:0:0:0:
320,192,266498,1,0,0:0:0:0:
64,192,266516,1,0,0:0:0:0:
448,192,266660,1,0,0:0:0:0:
64,192,266660,1,0,0:0:0:0:
320,192,266660,1,0,0:0:0:0:
320,192,266949,1,0,0:0:0:0:
448,192,266949,1,0,0:0:0:0:
448,192,267237,1,0,0:0:0:0:
192,192,267237,1,0,0:0:0:0:
448,192,267382,1,0,0:0:0:0:
192,192,267382,1,0,0:0:0:0:
64,192,267526,1,0,0:0:0:0:
320,192,267526,1,0,0:0:0:0:
64,192,267670,1,0,0:0:0:0:
320,192,267670,1,0,0:0:0:0:
64,192,267814,1,0,0:0:0:0:
448,192,267814,1,0,0:0:0:0:
192,192,267814,1,0,0:0:0:0:
320,192,267959,1,0,0:0:0:0:
192,192,267959,1,0,0:0:0:0:
320,192,268103,1,0,0:0:0:0:
448,192,268103,1,0,0:0:0:0:
192,192,268247,1,0,0:0:0:0:
64,192,268247,1,0,0:0:0:0:
64,192,268391,1,0,0:0:0:0:
320,192,268391,1,0,0:0:0:0:
320,192,268535,1,0,0:0:0:0:
64,192,268535,1,0,0:0:0:0:
192,192,268680,1,0,0:0:0:0:
448,192,268680,1,0,0:0:0:0:
192,192,268824,1,0,0:0:0:0:
448,192,268824,1,0,0:0:0:0:
320,192,268968,1,0,0:0:0:0:
64,192,268968,1,0,0:0:0:0:
448,192,268968,1,0,0:0:0:0:
192,192,269112,1,0,0:0:0:0:
320,192,269112,1,0,0:0:0:0:
64,192,269257,1,0,0:0:0:0:
192,192,269257,1,0,0:0:0:0:
320,192,269401,1,0,0:0:0:0:
448,192,269401,1,0,0:0:0:0:
64,192,269545,1,0,0:0:0:0:
192,192,269545,1,0,0:0:0:0:
64,192,269689,1,0,0:0:0:0:
192,192,269689,1,0,0:0:0:0:
320,192,269834,1,0,0:0:0:0:
448,192,269834,1,0,0:0:0:0:
320,192,269978,1,0,0:0:0:0:
448,192,269978,1,0,0:0:0:0:
448,192,270122,1,0,0:0:0:0:
64,192,270122,1,0,0:0:0:0:
192,192,270122,1,0,0:0:0:0:
192,192,270266,1,0,0:0:0:0:
448,192,270266,1,0,0:0:0:0:
64,192,270410,1,0,0:0:0:0:
320,192,270410,1,0,0:0:0:0:
320,192,270555,1,0,0:0:0:0:
64,192,270555,1,0,0:0:0:0:
448,192,270699,1,0,0:0:0:0:
320,192,270699,1,0,0:0:0:0:
448,192,270843,1,0,0:0:0:0:
320,192,270843,1,0,0:0:0:0:
192,192,270987,1,0,0:0:0:0:
64,192,270987,1,0,0:0:0:0:
192,192,271132,1,0,0:0:0:0:
64,192,271132,1,0,0:0:0:0:
64,192,271276,1,0,0:0:0:0:
320,192,271276,1,0,0:0:0:0:
448,192,271276,1,0,0:0:0:0:
64,192,271420,1,0,0:0:0:0:
320,192,271420,1,0,0:0:0:0:
448,192,271564,1,0,0:0:0:0:
192,192,271564,1,0,0:0:0:0:
448,192,271709,1,0,0:0:0:0:
192,192,271709,1,0,0:0:0:0:
320,192,271853,1,0,0:0:0:0:
192,192,271925,1,0,0:0:0:0:
320,192,271997,1,0,0:0:0:0:
64,192,272069,1,0,0:0:0:0:
320,192,272141,1,0,0:0:0:0:
192,192,272213,1,0,0:0:0:0:
320,192,272285,1,0,0:0:0:0:
64,192,272358,1,0,0:0:0:0:
448,192,272430,1,0,0:0:0:0:
192,192,272430,1,0,0:0:0:0:
320,192,272502,1,0,0:0:0:0:
192,192,272574,1,0,0:0:0:0:
448,192,272646,1,0,0:0:0:0:
192,192,272718,1,0,0:0:0:0:
320,192,272790,1,0,0:0:0:0:
192,192,272862,1,0,0:0:0:0:
448,192,272935,1,0,0:0:0:0:
64,192,273007,1,0,0:0:0:0:
320,192,273007,1,0,0:0:0:0:
192,192,273079,1,0,0:0:0:0:
320,192,273151,1,0,0:0:0:0:
64,192,273223,1,0,0:0:0:0:
192,192,273295,1,0,0:0:0:0:
448,192,273295,1,0,0:0:0:0:
320,192,273367,1,0,0:0:0:0:
64,192,273439,1,0,0:0:0:0:
192,192,273439,1,0,0:0:0:0:
320,192,273511,1,0,0:0:0:0:
448,192,273511,1,0,0:0:0:0:
192,192,273584,1,0,0:0:0:0:
64,192,273584,1,0,0:0:0:0:
320,192,273656,1,0,0:0:0:0:
448,192,273656,1,0,0:0:0:0:
192,192,273728,1,0,0:0:0:0:
64,192,273728,1,0,0:0:0:0:
320,192,273800,1,0,0:0:0:0:
64,192,273872,1,0,0:0:0:0:
448,192,273872,1,0,0:0:0:0:
192,192,273944,1,0,0:0:0:0:
320,192,273944,1,0,0:0:0:0:
64,192,274016,1,0,0:0:0:0:
448,192,274016,1,0,0:0:0:0:
192,192,274088,1,0,0:0:0:0:
64,192,274160,1,0,0:0:0:0:
320,192,274160,1,0,0:0:0:0:
448,192,274160,1,0,0:0:0:0:
192,192,274305,1,0,0:0:0:0:
320,192,274449,1,0,0:0:0:0:
448,192,274449,1,0,0:0:0:0:
64,192,274593,1,0,0:0:0:0:
192,192,274593,1,0,0:0:0:0:
448,192,274737,1,0,0:0:0:0:
192,192,274737,1,0,0:0:0:0:
64,192,274882,1,0,0:0:0:0:
320,192,274882,1,0,0:0:0:0:
64,192,275026,1,0,0:0:0:0:
192,192,275026,1,0,0:0:0:0:
448,192,275170,1,0,0:0:0:0:
320,192,275170,1,0,0:0:0:0:
64,192,275314,1,0,0:0:0:0:
192,192,275459,1,0,0:0:0:0:
320,192,275459,1,0,0:0:0:0:
448,192,275459,1,0,0:0:0:0:
64,192,275603,1,0,0:0:0:0:
320,192,275747,1,0,0:0:0:0:
448,192,275747,1,0,0:0:0:0:
192,192,275819,1,0,0:0:0:0:
64,192,275891,1,0,0:0:0:0:
320,192,275891,1,0,0:0:0:0:
448,192,275963,1,0,0:0:0:0:
192,192,276035,1,0,0:0:0:0:
64,192,276035,1,0,0:0:0:0:
320,192,276108,1,0,0:0:0:0:
448,192,276180,1,0,0:0:0:0:
64,192,276180,1,0,0:0:0:0:
192,192,276180,1,0,0:0:0:0:
448,192,276324,1,0,0:0:0:0:
320,192,276324,1,0,0:0:0:0:
192,192,276396,1,0,0:0:0:0:
64,192,276468,1,0,0:0:0:0:
448,192,276468,1,0,0:0:0:0:
320,192,276468,1,0,0:0:0:0:
320,192,276612,1,0,0:0:0:0:
64,192,276612,1,0,0:0:0:0:
448,192,276757,1,0,0:0:0:0:
192,192,276757,1,0,0:0:0:0:
64,192,276901,1,0,0:0:0:0:
320,192,276901,1,0,0:0:0:0:
64,192,277045,1,0,0:0:0:0:
192,192,277045,1,0,0:0:0:0:
448,192,277189,1,0,0:0:0:0:
320,192,277189,1,0,0:0:0:0:
64,192,277334,1,0,0:0:0:0:
320,192,277334,1,0,0:0:0:0:
448,192,277478,1,0,0:0:0:0:
192,192,277478,1,0,0:0:0:0:
320,192,277622,1,0,0:0:0:0:
448,192,277766,1,0,0:0:0:0:
192,192,277766,1,0,0:0:0:0:
64,192,277766,1,0,0:0:0:0:
320,192,277910,1,0,0:0:0:0:
64,192,277983,1,0,0:0:0:0:
448,192,277983,1,0,0:0:0:0:
192,192,278055,1,0,0:0:0:0:
320,192,278127,1,0,0:0:0:0:
64,192,278199,1,0,0:0:0:0:
448,192,278199,1,0,0:0:0:0:
320,192,278271,1,0,0:0:0:0:
192,192,278343,1,0,0:0:0:0:
64,192,278415,1,0,0:0:0:0:
448,192,278415,1,0,0:0:0:0:
320,192,278487,1,0,0:0:0:0:
192,192,278560,1,0,0:0:0:0:
448,192,278632,1,0,0:0:0:0:
64,192,278632,1,0,0:0:0:0:
320,192,278704,1,0,0:0:0:0:
64,192,278776,1,0,0:0:0:0:
448,192,278776,1,0,0:0:0:0:
192,192,278776,128,0,279064:0:0:0:0:
64,192,279064,1,0,0:0:0:0:
320,192,279064,1,0,0:0:0:0:
448,192,279064,1,0,0:0:0:0:
320,192,279209,1,0,0:0:0:0:
192,192,279353,1,0,0:0:0:0:
64,192,279353,1,0,0:0:0:0:
448,192,279353,1,0,0:0:0:0:
320,192,279497,1,0,0:0:0:0:
448,192,279497,1,0,0:0:0:0:
192,192,279641,1,0,0:0:0:0:
64,192,279641,1,0,0:0:0:0:
448,192,279785,1,0,0:0:0:0:
192,192,279785,1,0,0:0:0:0:
64,192,279930,1,0,0:0:0:0:
320,192,279930,1,0,0:0:0:0:
448,192,280074,1,0,0:0:0:0:
192,192,280074,1,0,0:0:0:0:
64,192,280218,1,0,0:0:0:0:
320,192,280218,1,0,0:0:0:0:
448,192,280362,1,0,0:0:0:0:
192,192,280362,1,0,0:0:0:0:
320,192,280435,1,0,0:0:0:0:
64,192,280507,1,0,0:0:0:0:
448,192,280507,1,0,0:0:0:0:
192,192,280507,1,0,0:0:0:0:
320,192,280579,1,0,0:0:0:0:
64,192,280651,1,0,0:0:0:0:
448,192,280651,1,0,0:0:0:0:
192,192,280723,1,0,0:0:0:0:
320,192,280795,1,0,0:0:0:0:
448,192,280795,1,0,0:0:0:0:
192,192,280867,1,0,0:0:0:0:
64,192,280867,1,0,0:0:0:0:
448,192,280939,1,0,0:0:0:0:
320,192,280939,1,0,0:0:0:0:
448,192,281228,1,0,0:0:0:0:
64,192,281228,1,0,0:0:0:0:
192,192,281228,1,0,0:0:0:0:
320,192,281372,1,0,0:0:0:0:
192,192,281372,1,0,0:0:0:0:
64,192,281516,1,0,0:0:0:0:
192,192,281552,1,0,0:0:0:0:
448,192,281588,1,0,0:0:0:0:
320,192,281624,1,0,0:0:0:0:
192,192,281660,1,0,0:0:0:0:
64,192,281660,1,0,0:0:0:0:
320,192,281805,1,0,0:0:0:0:
448,192,281877,1,0,0:0:0:0:
64,192,281877,1,0,0:0:0:0:
192,192,281877,1,0,0:0:0:0:
320,192,281949,1,0,0:0:0:0:
192,192,282021,1,0,0:0:0:0:
64,192,282093,1,0,0:0:0:0:
448,192,282093,1,0,0:0:0:0:
320,192,282093,1,0,0:0:0:0:
192,192,282237,1,0,0:0:0:0:
448,192,282237,1,0,0:0:0:0:
320,192,282237,1,0,0:0:0:0:
448,192,282382,1,0,0:0:0:0:
192,192,282382,1,0,0:0:0:0:
64,192,282382,1,0,0:0:0:0:
320,192,282526,1,0,0:0:0:0:
192,192,282562,1,0,0:0:0:0:
64,192,282598,1,0,0:0:0:0:
448,192,282634,1,0,0:0:0:0:
320,192,282670,1,0,0:0:0:0:
192,192,282706,1,0,0:0:0:0:
64,192,282742,1,0,0:0:0:0:
448,192,282778,1,0,0:0:0:0:
320,192,282814,1,0,0:0:0:0:
192,192,282814,1,0,0:0:0:0:
64,192,282886,1,0,0:0:0:0:
320,192,282959,1,0,0:0:0:0:
448,192,282959,1,0,0:0:0:0:
192,192,283031,1,0,0:0:0:0:
64,192,283031,1,0,0:0:0:0:
448,192,283103,1,0,0:0:0:0:
320,192,283175,1,0,0:0:0:0:
64,192,283247,1,0,0:0:0:0:
192,192,283319,1,0,0:0:0:0:
64,192,283391,1,0,0:0:0:0:
448,192,283391,1,0,0:0:0:0:
320,192,283391,1,0,0:0:0:0:
192,192,283535,1,0,0:0:0:0:
448,192,283680,1,0,0:0:0:0:
64,192,283680,1,0,0:0:0:0:
320,192,283824,1,0,0:0:0:0:
192,192,283824,1,0,0:0:0:0:
448,192,283968,1,0,0:0:0:0:
192,192,283968,1,0,0:0:0:0:
64,192,284112,1,0,0:0:0:0:
320,192,284112,1,0,0:0:0:0:
320,192,284257,1,0,0:0:0:0:
448,192,284257,1,0,0:0:0:0:
64,192,284401,1,0,0:0:0:0:
192,192,284401,1,0,0:0:0:0:
64,192,284545,1,0,0:0:0:0:
192,192,284689,1,0,0:0:0:0:
320,192,284689,1,0,0:0:0:0:
448,192,284689,1,0,0:0:0:0:
448,192,284834,1,0,0:0:0:0:
64,192,284978,1,0,0:0:0:0:
192,192,285014,1,0,0:0:0:0:
320,192,285050,1,0,0:0:0:0:
448,192,285086,1,0,0:0:0:0:
64,192,285122,1,0,0:0:0:0:
192,192,285122,1,0,0:0:0:0:
448,192,285266,1,0,0:0:0:0:
320,192,285302,1,0,0:0:0:0:
192,192,285338,1,0,0:0:0:0:
64,192,285374,1,0,0:0:0:0:
448,192,285410,1,0,0:0:0:0:
320,192,285410,1,0,0:0:0:0:
64,192,285555,1,0,0:0:0:0:
192,192,285591,1,0,0:0:0:0:
320,192,285627,1,0,0:0:0:0:
448,192,285663,1,0,0:0:0:0:
192,192,285699,1,0,0:0:0:0:
64,192,285699,1,0,0:0:0:0:
320,192,285843,1,0,0:0:0:0:
64,192,285843,1,0,0:0:0:0:
192,192,285843,1,0,0:0:0:0:
192,192,285987,1,0,0:0:0:0:
448,192,285987,1,0,0:0:0:0:
448,192,286132,1,0,0:0:0:0:
64,192,286132,1,0,0:0:0:0:
320,192,286132,1,0,0:0:0:0:
320,192,286276,1,0,0:0:0:0:
192,192,286276,1,0,0:0:0:0:
192,192,286420,1,0,0:0:0:0:
448,192,286420,1,0,0:0:0:0:
64,192,286420,1,0,0:0:0:0:
64,192,286564,1,0,0:0:0:0:
448,192,286709,1,0,0:0:0:0:
192,192,286709,1,0,0:0:0:0:
320,192,286709,1,0,0:0:0:0:
64,192,286997,1,0,0:0:0:0:
448,192,286997,1,0,0:0:0:0:
192,192,286997,1,0,0:0:0:0:
448,192,287141,1,0,0:0:0:0:
320,192,287285,1,0,0:0:0:0:
64,192,287285,1,0,0:0:0:0:
192,192,287285,1,0,0:0:0:0:
64,192,287574,1,0,0:0:0:0:
192,192,287610,1,0,0:0:0:0:
320,192,287646,1,0,0:0:0:0:
448,192,287682,1,0,0:0:0:0:
192,192,287718,1,0,0:0:0:0:
64,192,287718,1,0,0:0:0:0:
448,192,287790,1,0,0:0:0:0:
320,192,287790,1,0,0:0:0:0:
192,192,287862,1,0,0:0:0:0:
64,192,287862,1,0,0:0:0:0:
320,192,287935,1,0,0:0:0:0:
448,192,288007,1,0,0:0:0:0:
64,192,288007,1,0,0:0:0:0:
192,192,288007,1,0,0:0:0:0:
320,192,288151,1,0,0:0:0:0:
448,192,288223,1,0,0:0:0:0:
320,192,288295,1,0,0:0:0:0:
192,192,288295,1,0,0:0:0:0:
64,192,288295,1,0,0:0:0:0:
448,192,288367,1,0,0:0:0:0:
64,192,288439,1,0,0:0:0:0:
192,192,288511,1,0,0:0:0:0:
448,192,288584,1,0,0:0:0:0:
320,192,288584,1,0,0:0:0:0:
64,192,288584,1,0,0:0:0:0:
192,192,288728,1,0,0:0:0:0:
320,192,288800,1,0,0:0:0:0:
448,192,288872,1,0,0:0:0:0:
64,192,288872,1,0,0:0:0:0:
192,192,288872,1,0,0:0:0:0:
320,192,288944,1,0,0:0:0:0:
448,192,289016,1,0,0:0:0:0:
64,192,289088,1,0,0:0:0:0:
320,192,289160,1,0,0:0:0:0:
448,192,289160,1,0,0:0:0:0:
192,192,289160,1,0,0:0:0:0:
192,192,289305,1,0,0:0:0:0:
64,192,289449,1,0,0:0:0:0:
448,192,289449,1,0,0:0:0:0:
320,192,289449,1,0,0:0:0:0:
320,192,289593,1,0,0:0:0:0:
192,192,289737,1,0,0:0:0:0:
64,192,289737,1,0,0:0:0:0:
448,192,289737,1,0,0:0:0:0:
64,192,289882,1,0,0:0:0:0:
192,192,290026,1,0,0:0:0:0:
448,192,290026,128,0,290314:0:0:0:0:
320,192,290026,128,0,290314:0:0:0:0:
64,192,290314,1,0,0:0:0:0:
192,192,290314,1,0,0:0:0:0:
64,192,290459,1,0,0:0:0:0:
192,192,290459,1,0,0:0:0:0:
448,192,290531,1,0,0:0:0:0:
64,192,290603,1,0,0:0:0:0:
192,192,290603,1,0,0:0:0:0:
320,192,290675,1,0,0:0:0:0:
448,192,290747,1,0,0:0:0:0:
192,192,290747,1,0,0:0:0:0:
64,192,290819,1,0,0:0:0:0:
448,192,290891,1,0,0:0:0:0:
320,192,290891,1,0,0:0:0:0:
448,192,291035,1,0,0:0:0:0:
320,192,291035,1,0,0:0:0:0:
192,192,291108,1,0,0:0:0:0:
320,192,291180,1,0,0:0:0:0:
64,192,291180,1,0,0:0:0:0:
448,192,291252,1,0,0:0:0:0:
64,192,291324,1,0,0:0:0:0:
192,192,291324,1,0,0:0:0:0:
320,192,291396,1,0,0:0:0:0:
448,192,291468,1,0,0:0:0:0:
64,192,291468,1,0,0:0:0:0:
192,192,291468,1,0,0:0:0:0:
320,192,291540,1,0,0:0:0:0:
448,192,291612,1,0,0:0:0:0:
192,192,291612,1,0,0:0:0:0:
64,192,291685,1,0,0:0:0:0:
448,192,291757,1,0,0:0:0:0:
320,192,291757,1,0,0:0:0:0:
192,192,291829,1,0,0:0:0:0:
64,192,291901,1,0,0:0:0:0:
320,192,291901,1,0,0:0:0:0:
448,192,291973,1,0,0:0:0:0:
64,192,292045,1,0,0:0:0:0:
192,192,292045,1,0,0:0:0:0:
320,192,292117,1,0,0:0:0:0:
448,192,292117,1,0,0:0:0:0:
192,192,292189,1,0,0:0:0:0:
64,192,292189,1,0,0:0:0:0:
320,192,292261,1,0,0:0:0:0:
448,192,292261,1,0,0:0:0:0:
64,192,292334,1,0,0:0:0:0:
192,192,292334,1,0,0:0:0:0:
320,192,292406,1,0,0:0:0:0:
448,192,292478,1,0,0:0:0:0:
192,192,292478,1,0,0:0:0:0:
64,192,292550,1,0,0:0:0:0:
448,192,292622,1,0,0:0:0:0:
320,192,292622,1,0,0:0:0:0:
192,192,292694,1,0,0:0:0:0:
448,192,292766,1,0,0:0:0:0:
320,192,292766,1,0,0:0:0:0:
64,192,292766,1,0,0:0:0:0:
192,192,292838,1,0,0:0:0:0:
64,192,292910,1,0,0:0:0:0:
448,192,292983,1,0,0:0:0:0:
320,192,292983,1,0,0:0:0:0:
192,192,292983,1,0,0:0:0:0:
64,192,293055,1,0,0:0:0:0:
448,192,293127,1,0,0:0:0:0:
64,192,293199,1,0,0:0:0:0:
320,192,293199,1,0,0:0:0:0:
192,192,293199,1,0,0:0:0:0:
448,192,293271,1,0,0:0:0:0:
320,192,293343,1,0,0:0:0:0:
64,192,293415,1,0,0:0:0:0:
448,192,293415,1,0,0:0:0:0:
192,192,293415,1,0,0:0:0:0:
320,192,293487,1,0,0:0:0:0:
192,192,293560,1,0,0:0:0:0:
448,192,293632,1,0,0:0:0:0:
64,192,293632,1,0,0:0:0:0:
320,192,293632,1,0,0:0:0:0:
192,192,293704,1,0,0:0:0:0:
448,192,293776,1,0,0:0:0:0:
320,192,293776,1,0,0:0:0:0:
64,192,293848,1,0,0:0:0:0:
192,192,293920,1,0,0:0:0:0:
448,192,293920,1,0,0:0:0:0:
320,192,293920,1,0,0:0:0:0:
64,192,293992,1,0,0:0:0:0:
192,192,294064,1,0,0:0:0:0:
64,192,294136,1,0,0:0:0:0:
320,192,294136,1,0,0:0:0:0:
448,192,294136,1,0,0:0:0:0:
192,192,294209,1,0,0:0:0:0:
320,192,294281,1,0,0:0:0:0:
448,192,294281,1,0,0:0:0:0:
192,192,294353,1,0,0:0:0:0:
64,192,294353,1,0,0:0:0:0:
320,192,294425,1,0,0:0:0:0:
448,192,294425,1,0,0:0:0:0:
64,192,294497,1,0,0:0:0:0:
192,192,294533,1,0,0:0:0:0:
320,192,294569,1,0,0:0:0:0:
448,192,294605,1,0,0:0:0:0:
64,192,294641,1,0,0:0:0:0:
192,192,294641,1,0,0:0:0:0:
320,192,294713,1,0,0:0:0:0:
448,192,294713,1,0,0:0:0:0:
192,192,294785,1,0,0:0:0:0:
64,192,294785,1,0,0:0:0:0:
320,192,294858,1,0,0:0:0:0:
448,192,294930,1,0,0:0:0:0:
64,192,294930,128,0,297237:0:0:0:0:
192,192,294930,128,0,296084:0:0:0:0:
448,192,297237,1,0,0:0:0:0:
320,192,297310,1,0,0:0:0:0:
192,192,297382,1,0,0:0:0:0:
64,192,297454,1,0,0:0:0:0:
320,192,297526,1,0,0:0:0:0:
448,192,297598,1,0,0:0:0:0:
64,192,297670,1,0,0:0:0:0:
192,192,297742,1,0,0:0:0:0:
320,192,297814,1,0,0:0:0:0:
448,192,297886,1,0,0:0:0:0:
192,192,297959,1,0,0:0:0:0:
64,192,298031,1,0,0:0:0:0:
448,192,298103,1,0,0:0:0:0:
320,192,298175,1,0,0:0:0:0:
192,192,298247,1,0,0:0:0:0:
64,192,298319,1,0,0:0:0:0:
320,192,298391,1,0,0:0:0:0:
448,192,298463,1,0,0:0:0:0:
64,192,298535,1,0,0:0:0:0:
192,192,298608,1,0,0:0:0:0:
320,192,298680,1,0,0:0:0:0:
448,192,298752,1,0,0:0:0:0:
192,192,298824,1,0,0:0:0:0:
64,192,298896,1,0,0:0:0:0:
448,192,298968,1,0,0:0:0:0:
320,192,299004,1,0,0:0:0:0:
192,192,299040,1,0,0:0:0:0:
64,192,299076,1,0,0:0:0:0:
448,192,299112,1,0,0:0:0:0:
320,192,299148,1,0,0:0:0:0:
192,192,299185,1,0,0:0:0:0:
64,192,299221,1,0,0:0:0:0:
448,192,299257,1,0,0:0:0:0:
320,192,299293,1,0,0:0:0:0:
192,192,299329,1,0,0:0:0:0:
64,192,299365,1,0,0:0:0:0:
448,192,299401,1,0,0:0:0:0:
320,192,299437,1,0,0:0:0:0:
192,192,299473,1,0,0:0:0:0:
64,192,299509,1,0,0:0:0:0:
448,192,299545,128,0,304160:0:0:0:0:
320,192,299545,128,0,301853:0:0:0:0:
