osu file format v14

[General]
AudioFilename: audio.mp3
AudioLeadIn: 0
PreviewTime: 104518
Countdown: 0
SampleSet: Soft
StackLeniency: 0.7
Mode: 3
LetterboxInBreaks: 0
SpecialStyle: 0
WidescreenStoryboard: 1

[Editor]
Bookmarks: 86778,96009
DistanceSpacing: 1.2
BeatDivisor: 4
GridSize: 4
TimelineZoom: 3.999998

[Metadata]
Title:Alpha Omega
TitleUnicode:Alpha Omega
Artist:BlackY
ArtistUnicode:BlackY
Creator:-[Apple]-
Version:NOVICE Lv.6
Source:SOUND VOLTEX III GRAVITY WARS
Tags:
BeatmapID:1192560
BeatmapSetID:564033

[Difficulty]
HPDrainRate:7
CircleSize:4
OverallDifficulty:7
ApproachRate:5
SliderMultiplier:1.4
SliderTickRate:1

[Events]
//Background and Video events
0,0,"KakaoTalk_20150831_220657381.jpg",0,0
//Break Periods
2,1594,9424
2,59286,67117
2,96209,103030
//Storyboard Layer 0 (Background)
//Storyboard Layer 1 (Fail)
//Storyboard Layer 2 (Pass)
//Storyboard Layer 3 (Foreground)
//Storyboard Sound Samples

[TimingPoints]
1394,288.461538461538,4,2,1,5,1,0

[HitObjects]
448,192,1394,5,0,0:0:0:0:
64,192,1394,1,0,0:0:0:0:
192,192,10624,5,0,0:0:0:0:
64,192,10624,1,0,0:0:0:0:
448,192,10913,1,0,0:0:0:0:
192,192,11201,1,0,0:0:0:0:
320,192,11490,1,0,0:0:0:0:
64,192,11778,1,0,0:0:0:0:
448,192,12067,1,0,0:0:0:0:
192,192,12355,1,0,0:0:0:0:
448,192,12643,1,0,0:0:0:0:
64,192,12932,1,0,0:0:0:0:
448,192,13220,1,0,0:0:0:0:
192,192,13509,1,0,0:0:0:0:
448,192,13797,1,0,0:0:0:0:
64,192,14086,1,0,0:0:0:0:
320,192,14374,1,0,0:0:0:0:
448,192,14663,1,0,0:0:0:0:
320,192,14807,1,0,0:0:0:0:
448,192,15095,1,0,0:0:0:0:
64,192,15240,1,0,0:0:0:0:
192,192,15384,1,0,0:0:0:0:
448,192,15528,1,0,0:0:0:0:
64,192,15672,1,0,0:0:0:0:
320,192,15817,1,0,0:0:0:0:
448,192,15961,1,0,0:0:0:0:
320,192,16033,1,0,0:0:0:0:
192,192,16105,1,0,0:0:0:0:
64,192,16249,1,0,0:0:0:0:
448,192,16393,1,0,0:0:0:0:
192,192,16538,1,0,0:0:0:0:
320,192,16682,1,0,0:0:0:0:
448,192,16826,1,0,0:0:0:0:
192,192,16970,128,0,17259:0:0:0:0:
320,192,17403,1,0,0:0:0:0:
64,192,17547,128,0,18701:0:0:0:0:
448,192,18701,1,0,0:0:0:0:
320,192,19855,1,0,0:0:0:0:
64,192,20143,1,0,0:0:0:0:
448,192,20432,1,0,0:0:0:0:
320,192,20720,1,0,0:0:0:0:
192,192,21009,1,0,0:0:0:0:
448,192,21297,1,0,0:0:0:0:
64,192,21586,1,0,0:0:0:0:
320,192,21874,1,0,0:0:0:0:
448,192,22163,1,0,0:0:0:0:
64,192,22451,1,0,0:0:0:0:
320,192,22740,1,0,0:0:0:0:
192,192,23028,1,0,0:0:0:0:
448,192,23317,1,0,0:0:0:0:
192,192,23605,1,0,0:0:0:0:
320,192,23893,1,0,0:0:0:0:
64,192,24182,1,0,0:0:0:0:
320,192,24326,1,0,0:0:0:0:
448,192,24470,1,0,0:0:0:0:
192,192,24759,1,0,0:0:0:0:
320,192,25047,1,0,0:0:0:0:
192,192,25336,1,0,0:0:0:0:
448,192,25624,1,0,0:0:0:0:
64,192,25913,1,0,0:0:0:0:
320,192,26201,1,0,0:0:0:0:
192,192,26345,1,0,0:0:0:0:
448,192,26778,1,0,0:0:0:0:
320,192,27067,1,0,0:0:0:0:
64,192,27355,1,0,0:0:0:0:
192,192,27643,1,0,0:0:0:0:
320,192,27932,1,0,0:0:0:0:
64,192,28076,1,0,0:0:0:0:
192,192,28148,1,0,0:0:0:0:
320,192,28220,1,0,0:0:0:0:
448,192,28365,128,0,28653:0:0:0:0:
320,192,28797,1,0,0:0:0:0:
64,192,28942,1,0,0:0:0:0:
320,192,29086,1,0,0:0:0:0:
192,192,29230,1,0,0:0:0:0:
320,192,29374,1,0,0:0:0:0:
448,192,29374,1,0,0:0:0:0:
64,192,29663,1,0,0:0:0:0:
320,192,29951,1,0,0:0:0:0:
192,192,30240,1,0,0:0:0:0:
448,192,30528,1,0,0:0:0:0:
320,192,30817,1,0,0:0:0:0:
192,192,30961,1,0,0:0:0:0:
448,192,31393,1,0,0:0:0:0:
64,192,31682,1,0,0:0:0:0:
448,192,31970,1,0,0:0:0:0:
320,192,32115,1,0,0:0:0:0:
192,192,32259,1,0,0:0:0:0:
448,192,32403,1,0,0:0:0:0:
64,192,32547,1,0,0:0:0:0:
192,192,32764,1,0,0:0:0:0:
448,192,32980,1,0,0:0:0:0:
320,192,33196,1,0,0:0:0:0:
64,192,33413,1,0,0:0:0:0:
320,192,33557,1,0,0:0:0:0:
192,192,33701,1,0,0:0:0:0:
320,192,36009,128,0,36586:0:0:0:0:
64,192,36586,128,0,37163:0:0:0:0:
448,192,37163,1,0,0:0:0:0:
64,192,38317,1,0,0:0:0:0:
320,192,38605,1,0,0:0:0:0:
192,192,38893,1,0,0:0:0:0:
448,192,39182,1,0,0:0:0:0:
64,192,39470,1,0,0:0:0:0:
448,192,39759,1,0,0:0:0:0:
192,192,40047,1,0,0:0:0:0:
320,192,40336,1,0,0:0:0:0:
448,192,40624,1,0,0:0:0:0:
64,192,40913,1,0,0:0:0:0:
320,192,41201,1,0,0:0:0:0:
448,192,41490,1,0,0:0:0:0:
64,192,41778,1,0,0:0:0:0:
320,192,42067,1,0,0:0:0:0:
192,192,42211,1,0,0:0:0:0:
448,192,42643,1,0,0:0:0:0:
320,192,42716,1,0,0:0:0:0:
192,192,42788,1,0,0:0:0:0:
64,192,42932,1,0,0:0:0:0:
448,192,43220,1,0,0:0:0:0:
192,192,43509,1,0,0:0:0:0:
320,192,43797,1,0,0:0:0:0:
448,192,44086,1,0,0:0:0:0:
64,192,44374,1,0,0:0:0:0:
448,192,44663,1,0,0:0:0:0:
320,192,44807,1,0,0:0:0:0:
192,192,44951,1,0,0:0:0:0:
320,192,45023,1,0,0:0:0:0:
448,192,45095,1,0,0:0:0:0:
64,192,45240,1,0,0:0:0:0:
448,192,45384,1,0,0:0:0:0:
320,192,45817,1,0,0:0:0:0:
64,192,46033,1,0,0:0:0:0:
192,192,46249,1,0,0:0:0:0:
448,192,46393,1,0,0:0:0:0:
320,192,46538,1,0,0:0:0:0:
64,192,46682,1,0,0:0:0:0:
192,192,46970,1,0,0:0:0:0:
192,192,47187,1,0,0:0:0:0:
192,192,47403,1,0,0:0:0:0:
448,192,47547,1,0,0:0:0:0:
320,192,47980,1,0,0:0:0:0:
192,192,48413,1,0,0:0:0:0:
448,192,48845,1,0,0:0:0:0:
192,192,49278,1,0,0:0:0:0:
448,192,49567,1,0,0:0:0:0:
192,192,49855,1,0,0:0:0:0:
320,192,49999,1,0,0:0:0:0:
64,192,50143,1,0,0:0:0:0:
192,192,50288,1,0,0:0:0:0:
448,192,50576,1,0,0:0:0:0:
64,192,50720,1,0,0:0:0:0:
320,192,50865,1,0,0:0:0:0:
192,192,51153,1,0,0:0:0:0:
192,192,51442,1,0,0:0:0:0:
448,192,51874,1,0,0:0:0:0:
320,192,51946,1,0,0:0:0:0:
192,192,52018,1,0,0:0:0:0:
64,192,52163,1,0,0:0:0:0:
320,192,52451,1,0,0:0:0:0:
192,192,52740,1,0,0:0:0:0:
320,192,53028,1,0,0:0:0:0:
448,192,53317,1,0,0:0:0:0:
64,192,53605,1,0,0:0:0:0:
448,192,53893,1,0,0:0:0:0:
64,192,54182,1,0,0:0:0:0:
320,192,54470,1,0,0:0:0:0:
192,192,54615,1,0,0:0:0:0:
320,192,54759,1,0,0:0:0:0:
192,192,54903,1,0,0:0:0:0:
448,192,55047,1,0,0:0:0:0:
64,192,55192,1,0,0:0:0:0:
448,192,55336,1,0,0:0:0:0:
64,192,55480,1,0,0:0:0:0:
192,192,55624,1,0,0:0:0:0:
448,192,55768,1,0,0:0:0:0:
192,192,55913,1,0,0:0:0:0:
448,192,56057,1,0,0:0:0:0:
320,192,56201,1,0,0:0:0:0:
192,192,56345,1,0,0:0:0:0:
320,192,56490,1,0,0:0:0:0:
192,192,56634,1,0,0:0:0:0:
64,192,56778,1,0,0:0:0:0:
320,192,56922,1,0,0:0:0:0:
192,192,57067,1,0,0:0:0:0:
448,192,57211,1,0,0:0:0:0:
64,192,57355,1,0,0:0:0:0:
320,192,57499,1,0,0:0:0:0:
192,192,57643,1,0,0:0:0:0:
448,192,57788,1,0,0:0:0:0:
320,192,57932,128,0,59086:0:0:0:0:
448,192,59086,1,0,0:0:0:0:
320,192,68317,5,0,0:0:0:0:
448,192,68317,1,0,0:0:0:0:
192,192,68893,1,0,0:0:0:0:
448,192,69470,1,0,0:0:0:0:
320,192,70047,1,0,0:0:0:0:
64,192,70624,1,0,0:0:0:0:
448,192,71201,1,0,0:0:0:0:
192,192,71778,1,0,0:0:0:0:
320,192,72355,1,0,0:0:0:0:
448,192,72643,1,0,0:0:0:0:
192,192,72836,1,0,0:0:0:0:
64,192,72932,1,0,0:0:0:0:
320,192,73220,1,0,0:0:0:0:
192,192,73509,1,0,0:0:0:0:
448,192,73797,1,0,0:0:0:0:
64,192,74086,1,0,0:0:0:0:
320,192,74374,1,0,0:0:0:0:
192,192,74663,1,0,0:0:0:0:
448,192,74951,1,0,0:0:0:0:
192,192,75143,1,0,0:0:0:0:
64,192,75240,1,0,0:0:0:0:
320,192,75432,1,0,0:0:0:0:
448,192,75528,1,0,0:0:0:0:
192,192,75720,1,0,0:0:0:0:
320,192,75817,1,0,0:0:0:0:
448,192,75913,1,0,0:0:0:0:
192,192,76009,128,0,76393:0:0:0:0:
448,192,76393,1,0,0:0:0:0:
192,192,77547,1,0,0:0:0:0:
320,192,77836,1,0,0:0:0:0:
64,192,78124,1,0,0:0:0:0:
448,192,78413,1,0,0:0:0:0:
320,192,78701,1,0,0:0:0:0:
64,192,78990,1,0,0:0:0:0:
448,192,79278,1,0,0:0:0:0:
192,192,79567,1,0,0:0:0:0:
320,192,79855,1,0,0:0:0:0:
320,192,80143,1,0,0:0:0:0:
64,192,80432,1,0,0:0:0:0:
320,192,80720,1,0,0:0:0:0:
192,192,81009,1,0,0:0:0:0:
448,192,81297,1,0,0:0:0:0:
320,192,81586,1,0,0:0:0:0:
192,192,81802,1,0,0:0:0:0:
64,192,81874,1,0,0:0:0:0:
448,192,82018,1,0,0:0:0:0:
320,192,82091,1,0,0:0:0:0:
192,192,82163,1,0,0:0:0:0:
448,192,82451,1,0,0:0:0:0:
64,192,82740,1,0,0:0:0:0:
320,192,83028,1,0,0:0:0:0:
192,192,83317,1,0,0:0:0:0:
448,192,83605,1,0,0:0:0:0:
320,192,83893,1,0,0:0:0:0:
448,192,84182,1,0,0:0:0:0:
192,192,84398,1,0,0:0:0:0:
64,192,84470,1,0,0:0:0:0:
320,192,84759,1,0,0:0:0:0:
448,192,85047,1,0,0:0:0:0:
192,192,85336,1,0,0:0:0:0:
320,192,85624,1,0,0:0:0:0:
64,192,85913,1,0,0:0:0:0:
448,192,86201,1,0,0:0:0:0:
192,192,86778,1,0,0:0:0:0:
320,192,86922,1,0,0:0:0:0:
192,192,87067,1,0,0:0:0:0:
448,192,87211,1,0,0:0:0:0:
64,192,87355,1,0,0:0:0:0:
448,192,87499,1,0,0:0:0:0:
192,192,87643,1,0,0:0:0:0:
320,192,87788,1,0,0:0:0:0:
192,192,87932,1,0,0:0:0:0:
448,192,88076,1,0,0:0:0:0:
192,192,88220,1,0,0:0:0:0:
448,192,88365,1,0,0:0:0:0:
320,192,88509,1,0,0:0:0:0:
64,192,88653,1,0,0:0:0:0:
320,192,88797,1,0,0:0:0:0:
64,192,88942,1,0,0:0:0:0:
192,192,89014,1,0,0:0:0:0:
448,192,89086,1,0,0:0:0:0:
320,192,89230,1,0,0:0:0:0:
192,192,89374,1,0,0:0:0:0:
320,192,89518,1,0,0:0:0:0:
192,192,89663,1,0,0:0:0:0:
448,192,89807,1,0,0:0:0:0:
192,192,89951,1,0,0:0:0:0:
448,192,90095,1,0,0:0:0:0:
192,192,90240,1,0,0:0:0:0:
320,192,90384,1,0,0:0:0:0:
192,192,90528,1,0,0:0:0:0:
320,192,90672,1,0,0:0:0:0:
64,192,90817,1,0,0:0:0:0:
192,192,90889,1,0,0:0:0:0:
448,192,91033,1,0,0:0:0:0:
320,192,91105,1,0,0:0:0:0:
192,192,91249,1,0,0:0:0:0:
448,192,91393,1,0,0:0:0:0:
448,192,91610,1,0,0:0:0:0:
192,192,91826,1,0,0:0:0:0:
320,192,91970,1,0,0:0:0:0:
320,192,92187,1,0,0:0:0:0:
64,192,92403,1,0,0:0:0:0:
192,192,92547,1,0,0:0:0:0:
192,192,92764,1,0,0:0:0:0:
448,192,92980,1,0,0:0:0:0:
192,192,93124,1,0,0:0:0:0:
320,192,93341,1,0,0:0:0:0:
448,192,93557,1,0,0:0:0:0:
64,192,93773,1,0,0:0:0:0:
320,192,93990,1,0,0:0:0:0:
192,192,94206,1,0,0:0:0:0:
448,192,94422,1,0,0:0:0:0:
64,192,94639,1,0,0:0:0:0:
320,192,94855,128,0,96009:0:0:0:0:
320,192,104230,5,0,0:0:0:0:
192,192,104374,1,0,0:0:0:0:
320,192,104663,1,0,0:0:0:0:
448,192,104879,1,0,0:0:0:0:
320,192,105095,1,0,0:0:0:0:
192,192,105240,1,0,0:0:0:0:
320,192,105384,1,0,0:0:0:0:
192,192,105528,1,0,0:0:0:0:
448,192,105817,1,0,0:0:0:0:
64,192,105961,1,0,0:0:0:0:
192,192,106033,1,0,0:0:0:0:
320,192,106393,1,0,0:0:0:0:
192,192,106826,1,0,0:0:0:0:
320,192,107259,1,0,0:0:0:0:
192,192,107692,1,0,0:0:0:0:
448,192,108124,1,0,0:0:0:0:
192,192,108413,1,0,0:0:0:0:
320,192,108701,1,0,0:0:0:0:
448,192,108845,1,0,0:0:0:0:
64,192,109134,1,0,0:0:0:0:
320,192,109422,1,0,0:0:0:0:
192,192,109711,1,0,0:0:0:0:
448,192,109999,1,0,0:0:0:0:
192,192,110288,1,0,0:0:0:0:
320,192,111009,1,0,0:0:0:0:
64,192,111297,1,0,0:0:0:0:
448,192,111586,1,0,0:0:0:0:
192,192,111874,1,0,0:0:0:0:
320,192,112163,1,0,0:0:0:0:
64,192,112451,1,0,0:0:0:0:
448,192,112740,1,0,0:0:0:0:
192,192,113028,1,0,0:0:0:0:
320,192,113317,1,0,0:0:0:0:
192,192,113461,1,0,0:0:0:0:
320,192,113605,1,0,0:0:0:0:
192,192,113749,1,0,0:0:0:0:
448,192,113893,1,0,0:0:0:0:
192,192,114038,1,0,0:0:0:0:
448,192,114182,1,0,0:0:0:0:
192,192,114326,1,0,0:0:0:0:
320,192,114470,1,0,0:0:0:0:
64,192,114615,1,0,0:0:0:0:
320,192,114759,1,0,0:0:0:0:
64,192,114903,1,0,0:0:0:0:
448,192,115047,128,0,115336:0:0:0:0:
320,192,115336,1,0,0:0:0:0:
192,192,115480,1,0,0:0:0:0:
320,192,115768,1,0,0:0:0:0:
192,192,115985,1,0,0:0:0:0:
448,192,116201,1,0,0:0:0:0:
320,192,116418,1,0,0:0:0:0:
448,192,116634,1,0,0:0:0:0:
64,192,116778,1,0,0:0:0:0:
192,192,116922,1,0,0:0:0:0:
320,192,117139,1,0,0:0:0:0:
192,192,117355,1,0,0:0:0:0:
448,192,117643,1,0,0:0:0:0:
320,192,117716,1,0,0:0:0:0:
192,192,117788,1,0,0:0:0:0:
320,192,117860,1,0,0:0:0:0:
64,192,117932,128,0,120240:0:0:0:0:
320,192,120240,1,0,0:0:0:0:
