osu file format v14

[General]
AudioFilename: audio.mp3
AudioLeadIn: 0
PreviewTime: 104518
Countdown: 0
SampleSet: Soft
StackLeniency: 0.7
Mode: 3
LetterboxInBreaks: 0
SpecialStyle: 0
WidescreenStoryboard: 1

[Editor]
Bookmarks: 86778,96009
DistanceSpacing: 1.2
BeatDivisor: 4
GridSize: 4
TimelineZoom: 3.299999

[Metadata]
Title:Alpha Omega
TitleUnicode:Alpha Omega
Artist:BlackY
ArtistUnicode:BlackY
Creator:-[Apple]-
Version:EXHAUST LV.16
Source:SOUND VOLTEX III GRAVITY WARS
Tags:
BeatmapID:1192559
BeatmapSetID:564033

[Difficulty]
HPDrainRate:8
CircleSize:4
OverallDifficulty:8
ApproachRate:5
SliderMultiplier:1.4
SliderTickRate:1

[Events]
//Background and Video events
0,0,"KakaoTalk_20150831_220657381.jpg",0,0
//Break Periods
//Storyboard Layer 0 (Background)
//Storyboard Layer 1 (Fail)
//Storyboard Layer 2 (Pass)
//Storyboard Layer 3 (Foreground)
//Storyboard Sound Samples

[TimingPoints]
1394,288.461538461538,4,2,1,5,1,0

[HitObjects]
448,192,1394,5,0,0:0:0:0:
320,192,1394,1,0,0:0:0:0:
64,192,1394,1,0,0:0:0:0:
192,192,1538,1,0,0:0:0:0:
448,192,1682,1,0,0:0:0:0:
320,192,1826,1,0,0:0:0:0:
64,192,1970,1,0,0:0:0:0:
192,192,1970,1,0,0:0:0:0:
448,192,2115,1,0,0:0:0:0:
64,192,2259,1,0,0:0:0:0:
192,192,2403,1,0,0:0:0:0:
320,192,2547,1,0,0:0:0:0:
192,192,2692,1,0,0:0:0:0:
448,192,2836,1,0,0:0:0:0:
64,192,2980,1,0,0:0:0:0:
320,192,3124,1,0,0:0:0:0:
448,192,3124,1,0,0:0:0:0:
192,192,3268,1,0,0:0:0:0:
64,192,3413,1,0,0:0:0:0:
448,192,3557,1,0,0:0:0:0:
192,192,3701,1,0,0:0:0:0:
320,192,3845,1,0,0:0:0:0:
64,192,3990,1,0,0:0:0:0:
448,192,4134,1,0,0:0:0:0:
192,192,4278,1,0,0:0:0:0:
64,192,4278,1,0,0:0:0:0:
448,192,4422,1,0,0:0:0:0:
192,192,4567,1,0,0:0:0:0:
320,192,4711,1,0,0:0:0:0:
64,192,4855,1,0,0:0:0:0:
448,192,4999,1,0,0:0:0:0:
320,192,5143,1,0,0:0:0:0:
192,192,5288,1,0,0:0:0:0:
448,192,5432,1,0,0:0:0:0:
320,192,5432,1,0,0:0:0:0:
64,192,5576,1,0,0:0:0:0:
448,192,5720,1,0,0:0:0:0:
192,192,5865,1,0,0:0:0:0:
320,192,6009,1,0,0:0:0:0:
64,192,6153,1,0,0:0:0:0:
320,192,6297,1,0,0:0:0:0:
448,192,6442,1,0,0:0:0:0:
192,192,6586,1,0,0:0:0:0:
64,192,6586,1,0,0:0:0:0:
320,192,6730,1,0,0:0:0:0:
64,192,6874,1,0,0:0:0:0:
448,192,7018,1,0,0:0:0:0:
192,192,7163,1,0,0:0:0:0:
320,192,7307,1,0,0:0:0:0:
64,192,7451,1,0,0:0:0:0:
320,192,7595,1,0,0:0:0:0:
192,192,7740,1,0,0:0:0:0:
64,192,7740,1,0,0:0:0:0:
448,192,7884,1,0,0:0:0:0:
192,192,8028,1,0,0:0:0:0:
320,192,8172,1,0,0:0:0:0:
64,192,8317,1,0,0:0:0:0:
448,192,8461,1,0,0:0:0:0:
320,192,8605,1,0,0:0:0:0:
192,192,8749,1,0,0:0:0:0:
64,192,8893,1,0,0:0:0:0:
448,192,8893,1,0,0:0:0:0:
320,192,9038,1,0,0:0:0:0:
64,192,9182,1,0,0:0:0:0:
448,192,9326,1,0,0:0:0:0:
192,192,9470,1,0,0:0:0:0:
320,192,9615,1,0,0:0:0:0:
448,192,9759,1,0,0:0:0:0:
192,192,9903,1,0,0:0:0:0:
64,192,10047,1,0,0:0:0:0:
448,192,10047,1,0,0:0:0:0:
320,192,10192,1,0,0:0:0:0:
192,192,10336,1,0,0:0:0:0:
64,192,10480,1,0,0:0:0:0:
320,192,10624,1,0,0:0:0:0:
448,192,10624,1,0,0:0:0:0:
64,192,10768,1,0,0:0:0:0:
192,192,10913,1,0,0:0:0:0:
320,192,10913,1,0,0:0:0:0:
448,192,11057,1,0,0:0:0:0:
64,192,11201,1,0,0:0:0:0:
192,192,11201,1,0,0:0:0:0:
448,192,11345,1,0,0:0:0:0:
320,192,11490,1,0,0:0:0:0:
192,192,11490,1,0,0:0:0:0:
64,192,11634,1,0,0:0:0:0:
448,192,11778,1,0,0:0:0:0:
320,192,11778,1,0,0:0:0:0:
192,192,11922,1,0,0:0:0:0:
64,192,12067,1,0,0:0:0:0:
448,192,12067,1,0,0:0:0:0:
320,192,12211,1,0,0:0:0:0:
448,192,12355,1,0,0:0:0:0:
64,192,12355,1,0,0:0:0:0:
320,192,12499,1,0,0:0:0:0:
192,192,12643,1,0,0:0:0:0:
64,192,12643,1,0,0:0:0:0:
448,192,12788,1,0,0:0:0:0:
192,192,12932,1,0,0:0:0:0:
320,192,12932,1,0,0:0:0:0:
64,192,13076,1,0,0:0:0:0:
320,192,13220,1,0,0:0:0:0:
448,192,13220,1,0,0:0:0:0:
192,192,13365,1,0,0:0:0:0:
64,192,13509,1,0,0:0:0:0:
448,192,13509,1,0,0:0:0:0:
320,192,13653,1,0,0:0:0:0:
192,192,13797,1,0,0:0:0:0:
64,192,13797,1,0,0:0:0:0:
448,192,13942,1,0,0:0:0:0:
320,192,14086,1,0,0:0:0:0:
192,192,14086,1,0,0:0:0:0:
64,192,14230,1,0,0:0:0:0:
192,192,14374,1,0,0:0:0:0:
320,192,14374,1,0,0:0:0:0:
448,192,14518,1,0,0:0:0:0:
320,192,14663,1,0,0:0:0:0:
192,192,14663,1,0,0:0:0:0:
64,192,14807,1,0,0:0:0:0:
192,192,14807,1,0,0:0:0:0:
320,192,14951,1,0,0:0:0:0:
448,192,14951,1,0,0:0:0:0:
320,192,15095,1,0,0:0:0:0:
192,192,15095,1,0,0:0:0:0:
64,192,15240,1,0,0:0:0:0:
192,192,15240,1,0,0:0:0:0:
448,192,15384,1,0,0:0:0:0:
64,192,15384,1,0,0:0:0:0:
320,192,15528,1,0,0:0:0:0:
64,192,15528,1,0,0:0:0:0:
192,192,15672,1,0,0:0:0:0:
320,192,15672,1,0,0:0:0:0:
192,192,15817,1,0,0:0:0:0:
448,192,15817,1,0,0:0:0:0:
448,192,15961,1,0,0:0:0:0:
64,192,15961,1,0,0:0:0:0:
320,192,16033,1,0,0:0:0:0:
64,192,16105,1,0,0:0:0:0:
192,192,16105,1,0,0:0:0:0:
320,192,16249,1,0,0:0:0:0:
448,192,16249,1,0,0:0:0:0:
448,192,16393,1,0,0:0:0:0:
64,192,16393,1,0,0:0:0:0:
192,192,16538,1,0,0:0:0:0:
320,192,16538,1,0,0:0:0:0:
448,192,16682,1,0,0:0:0:0:
192,192,16682,1,0,0:0:0:0:
320,192,16826,1,0,0:0:0:0:
448,192,16826,1,0,0:0:0:0:
448,192,16970,1,0,0:0:0:0:
64,192,16970,1,0,0:0:0:0:
320,192,17043,1,0,0:0:0:0:
192,192,17115,1,0,0:0:0:0:
64,192,17187,1,0,0:0:0:0:
320,192,17259,1,0,0:0:0:0:
448,192,17259,1,0,0:0:0:0:
192,192,17403,1,0,0:0:0:0:
64,192,17403,1,0,0:0:0:0:
448,192,17547,1,0,0:0:0:0:
320,192,17547,1,0,0:0:0:0:
192,192,17619,1,0,0:0:0:0:
320,192,17692,1,0,0:0:0:0:
64,192,17764,1,0,0:0:0:0:
192,192,17836,1,0,0:0:0:0:
320,192,17836,1,0,0:0:0:0:
448,192,17908,1,0,0:0:0:0:
320,192,17980,1,0,0:0:0:0:
192,192,18052,1,0,0:0:0:0:
64,192,18124,1,0,0:0:0:0:
320,192,18124,1,0,0:0:0:0:
448,192,18196,1,0,0:0:0:0:
320,192,18268,1,0,0:0:0:0:
192,192,18341,1,0,0:0:0:0:
64,192,18413,1,0,0:0:0:0:
448,192,18413,1,0,0:0:0:0:
320,192,18485,1,0,0:0:0:0:
448,192,18557,1,0,0:0:0:0:
192,192,18629,1,0,0:0:0:0:
320,192,18701,1,0,0:0:0:0:
448,192,18701,1,0,0:0:0:0:
64,192,18845,1,0,0:0:0:0:
448,192,18990,1,0,0:0:0:0:
320,192,19134,1,0,0:0:0:0:
64,192,19278,1,0,0:0:0:0:
448,192,19278,1,0,0:0:0:0:
192,192,19422,1,0,0:0:0:0:
448,192,19567,1,0,0:0:0:0:
320,192,19711,1,0,0:0:0:0:
192,192,19855,1,0,0:0:0:0:
64,192,19855,1,0,0:0:0:0:
448,192,19927,1,0,0:0:0:0:
192,192,19999,1,0,0:0:0:0:
320,192,20071,1,0,0:0:0:0:
64,192,20143,1,0,0:0:0:0:
192,192,20143,1,0,0:0:0:0:
448,192,20216,1,0,0:0:0:0:
192,192,20288,1,0,0:0:0:0:
320,192,20360,1,0,0:0:0:0:
192,192,20432,1,0,0:0:0:0:
64,192,20432,1,0,0:0:0:0:
448,192,20504,1,0,0:0:0:0:
192,192,20576,1,0,0:0:0:0:
320,192,20648,1,0,0:0:0:0:
448,192,20720,1,0,0:0:0:0:
64,192,20720,1,0,0:0:0:0:
192,192,20793,1,0,0:0:0:0:
448,192,20865,1,0,0:0:0:0:
320,192,20937,1,0,0:0:0:0:
192,192,21009,1,0,0:0:0:0:
64,192,21009,1,0,0:0:0:0:
448,192,21081,1,0,0:0:0:0:
192,192,21153,1,0,0:0:0:0:
320,192,21225,1,0,0:0:0:0:
64,192,21297,1,0,0:0:0:0:
192,192,21297,1,0,0:0:0:0:
448,192,21369,1,0,0:0:0:0:
320,192,21442,1,0,0:0:0:0:
192,192,21514,1,0,0:0:0:0:
448,192,21586,1,0,0:0:0:0:
320,192,21586,1,0,0:0:0:0:
192,192,21658,1,0,0:0:0:0:
64,192,21730,1,0,0:0:0:0:
320,192,21802,1,0,0:0:0:0:
192,192,21874,1,0,0:0:0:0:
64,192,21874,1,0,0:0:0:0:
448,192,21946,1,0,0:0:0:0:
192,192,22018,1,0,0:0:0:0:
320,192,22091,1,0,0:0:0:0:
448,192,22163,1,0,0:0:0:0:
64,192,22163,1,0,0:0:0:0:
320,192,22235,1,0,0:0:0:0:
448,192,22307,1,0,0:0:0:0:
192,192,22379,1,0,0:0:0:0:
320,192,22451,1,0,0:0:0:0:
448,192,22451,1,0,0:0:0:0:
192,192,22523,1,0,0:0:0:0:
64,192,22595,1,0,0:0:0:0:
448,192,22668,1,0,0:0:0:0:
320,192,22740,1,0,0:0:0:0:
192,192,22740,1,0,0:0:0:0:
64,192,22812,1,0,0:0:0:0:
320,192,22884,1,0,0:0:0:0:
448,192,22956,1,0,0:0:0:0:
192,192,23028,1,0,0:0:0:0:
64,192,23028,1,0,0:0:0:0:
320,192,23100,1,0,0:0:0:0:
448,192,23172,1,0,0:0:0:0:
64,192,23244,1,0,0:0:0:0:
192,192,23317,1,0,0:0:0:0:
320,192,23317,1,0,0:0:0:0:
448,192,23389,1,0,0:0:0:0:
64,192,23461,1,0,0:0:0:0:
320,192,23533,1,0,0:0:0:0:
192,192,23605,1,0,0:0:0:0:
64,192,23605,1,0,0:0:0:0:
448,192,23677,1,0,0:0:0:0:
320,192,23749,1,0,0:0:0:0:
192,192,23821,1,0,0:0:0:0:
64,192,23893,1,0,0:0:0:0:
448,192,23893,1,0,0:0:0:0:
320,192,23966,1,0,0:0:0:0:
192,192,24038,1,0,0:0:0:0:
320,192,24110,1,0,0:0:0:0:
448,192,24182,1,0,0:0:0:0:
64,192,24182,1,0,0:0:0:0:
192,192,24254,1,0,0:0:0:0:
320,192,24326,1,0,0:0:0:0:
448,192,24326,1,0,0:0:0:0:
64,192,24398,1,0,0:0:0:0:
192,192,24470,1,0,0:0:0:0:
320,192,24470,1,0,0:0:0:0:
448,192,24543,1,0,0:0:0:0:
192,192,24615,1,0,0:0:0:0:
320,192,24687,1,0,0:0:0:0:
448,192,24759,1,0,0:0:0:0:
64,192,24759,1,0,0:0:0:0:
320,192,24831,1,0,0:0:0:0:
192,192,24903,1,0,0:0:0:0:
448,192,24975,1,0,0:0:0:0:
320,192,25047,1,0,0:0:0:0:
192,192,25047,1,0,0:0:0:0:
64,192,25119,1,0,0:0:0:0:
448,192,25192,1,0,0:0:0:0:
192,192,25264,1,0,0:0:0:0:
320,192,25336,1,0,0:0:0:0:
448,192,25336,1,0,0:0:0:0:
192,192,25408,1,0,0:0:0:0:
448,192,25480,1,0,0:0:0:0:
64,192,25552,1,0,0:0:0:0:
320,192,25624,1,0,0:0:0:0:
448,192,25624,1,0,0:0:0:0:
192,192,25696,1,0,0:0:0:0:
64,192,25768,1,0,0:0:0:0:
320,192,25841,1,0,0:0:0:0:
192,192,25913,1,0,0:0:0:0:
64,192,25913,1,0,0:0:0:0:
448,192,25985,1,0,0:0:0:0:
192,192,26057,1,0,0:0:0:0:
320,192,26129,1,0,0:0:0:0:
64,192,26201,1,0,0:0:0:0:
192,192,26201,1,0,0:0:0:0:
448,192,26273,1,0,0:0:0:0:
320,192,26345,1,0,0:0:0:0:
192,192,26345,1,0,0:0:0:0:
64,192,26418,1,0,0:0:0:0:
448,192,26490,128,0,26634:0:0:0:0:
192,192,26562,1,0,0:0:0:0:
64,192,26634,1,0,0:0:0:0:
448,192,26706,1,0,0:0:0:0:
320,192,26778,1,0,0:0:0:0:
192,192,26778,1,0,0:0:0:0:
64,192,26850,1,0,0:0:0:0:
448,192,26922,1,0,0:0:0:0:
320,192,26994,1,0,0:0:0:0:
192,192,27067,1,0,0:0:0:0:
64,192,27067,1,0,0:0:0:0:
448,192,27139,1,0,0:0:0:0:
192,192,27211,1,0,0:0:0:0:
320,192,27283,1,0,0:0:0:0:
64,192,27355,1,0,0:0:0:0:
192,192,27355,1,0,0:0:0:0:
448,192,27427,1,0,0:0:0:0:
192,192,27499,1,0,0:0:0:0:
320,192,27571,1,0,0:0:0:0:
448,192,27643,1,0,0:0:0:0:
64,192,27643,1,0,0:0:0:0:
320,192,27716,1,0,0:0:0:0:
192,192,27788,1,0,0:0:0:0:
448,192,27860,1,0,0:0:0:0:
320,192,27932,1,0,0:0:0:0:
192,192,27932,1,0,0:0:0:0:
64,192,28004,1,0,0:0:0:0:
448,192,28076,1,0,0:0:0:0:
320,192,28076,1,0,0:0:0:0:
192,192,28148,1,0,0:0:0:0:
64,192,28148,1,0,0:0:0:0:
320,192,28220,1,0,0:0:0:0:
448,192,28220,1,0,0:0:0:0:
192,192,28365,1,0,0:0:0:0:
64,192,28365,1,0,0:0:0:0:
320,192,28437,1,0,0:0:0:0:
448,192,28437,1,0,0:0:0:0:
64,192,28509,1,0,0:0:0:0:
192,192,28509,1,0,0:0:0:0:
320,192,28581,1,0,0:0:0:0:
448,192,28581,1,0,0:0:0:0:
192,192,28653,1,0,0:0:0:0:
64,192,28653,1,0,0:0:0:0:
320,192,28725,1,0,0:0:0:0:
448,192,28797,1,0,0:0:0:0:
64,192,28797,1,0,0:0:0:0:
192,192,28869,1,0,0:0:0:0:
64,192,28942,1,0,0:0:0:0:
320,192,28942,1,0,0:0:0:0:
448,192,29014,1,0,0:0:0:0:
192,192,29086,1,0,0:0:0:0:
320,192,29086,1,0,0:0:0:0:
64,192,29158,1,0,0:0:0:0:
448,192,29230,128,0,29302:0:0:0:0:
320,192,29230,128,0,29302:0:0:0:0:
320,192,29374,1,0,0:0:0:0:
448,192,29374,1,0,0:0:0:0:
64,192,29374,1,0,0:0:0:0:
192,192,29446,1,0,0:0:0:0:
448,192,29518,1,0,0:0:0:0:
320,192,29591,1,0,0:0:0:0:
192,192,29663,1,0,0:0:0:0:
64,192,29663,1,0,0:0:0:0:
448,192,29735,1,0,0:0:0:0:
192,192,29807,1,0,0:0:0:0:
320,192,29879,1,0,0:0:0:0:
64,192,29951,1,0,0:0:0:0:
192,192,29951,1,0,0:0:0:0:
448,192,30023,1,0,0:0:0:0:
320,192,30095,1,0,0:0:0:0:
192,192,30168,1,0,0:0:0:0:
448,192,30240,1,0,0:0:0:0:
320,192,30240,1,0,0:0:0:0:
64,192,30312,1,0,0:0:0:0:
320,192,30384,1,0,0:0:0:0:
192,192,30456,1,0,0:0:0:0:
64,192,30528,1,0,0:0:0:0:
448,192,30528,1,0,0:0:0:0:
320,192,30600,1,0,0:0:0:0:
192,192,30672,1,0,0:0:0:0:
448,192,30744,1,0,0:0:0:0:
320,192,30744,1,0,0:0:0:0:
192,192,30817,1,0,0:0:0:0:
64,192,30817,1,0,0:0:0:0:
448,192,30889,1,0,0:0:0:0:
192,192,30961,1,0,0:0:0:0:
64,192,30961,1,0,0:0:0:0:
320,192,31033,1,0,0:0:0:0:
448,192,31105,1,0,0:0:0:0:
64,192,31105,1,0,0:0:0:0:
192,192,31105,128,0,31249:0:0:0:0:
448,192,31249,128,0,31393:0:0:0:0:
64,192,31393,1,0,0:0:0:0:
192,192,31466,1,0,0:0:0:0:
448,192,31538,1,0,0:0:0:0:
320,192,31610,1,0,0:0:0:0:
192,192,31682,1,0,0:0:0:0:
64,192,31682,1,0,0:0:0:0:
448,192,31754,1,0,0:0:0:0:
192,192,31826,1,0,0:0:0:0:
64,192,31898,1,0,0:0:0:0:
320,192,31970,1,0,0:0:0:0:
448,192,31970,1,0,0:0:0:0:
192,192,32043,1,0,0:0:0:0:
320,192,32115,1,0,0:0:0:0:
448,192,32115,1,0,0:0:0:0:
64,192,32187,1,0,0:0:0:0:
192,192,32259,1,0,0:0:0:0:
320,192,32259,1,0,0:0:0:0:
448,192,32331,1,0,0:0:0:0:
192,192,32403,1,0,0:0:0:0:
64,192,32403,1,0,0:0:0:0:
320,192,32475,1,0,0:0:0:0:
192,192,32547,1,0,0:0:0:0:
64,192,32547,1,0,0:0:0:0:
448,192,32547,128,0,32692:0:0:0:0:
64,192,32764,1,0,0:0:0:0:
448,192,32764,1,0,0:0:0:0:
320,192,32764,1,0,0:0:0:0:
192,192,32836,128,0,32980:0:0:0:0:
448,192,32980,1,0,0:0:0:0:
320,192,32980,1,0,0:0:0:0:
64,192,32980,1,0,0:0:0:0:
64,192,33124,128,0,33268:0:0:0:0:
192,192,33196,1,0,0:0:0:0:
448,192,33196,1,0,0:0:0:0:
320,192,33268,128,0,33341:0:0:0:0:
64,192,33413,1,0,0:0:0:0:
320,192,33413,1,0,0:0:0:0:
448,192,33413,1,0,0:0:0:0:
448,192,33557,1,0,0:0:0:0:
64,192,33557,1,0,0:0:0:0:
192,192,33557,128,0,33629:0:0:0:0:
448,192,33701,1,0,0:0:0:0:
192,192,33701,1,0,0:0:0:0:
320,192,33701,1,0,0:0:0:0:
64,192,33990,1,0,0:0:0:0:
320,192,34134,1,0,0:0:0:0:
320,192,34567,1,0,0:0:0:0:
448,192,34999,1,0,0:0:0:0:
320,192,35143,1,0,0:0:0:0:
192,192,35288,1,0,0:0:0:0:
64,192,35432,1,0,0:0:0:0:
320,192,35576,1,0,0:0:0:0:
192,192,35720,1,0,0:0:0:0:
64,192,35865,1,0,0:0:0:0:
320,192,36009,1,0,0:0:0:0:
448,192,36009,1,0,0:0:0:0:
192,192,36081,1,0,0:0:0:0:
64,192,36153,1,0,0:0:0:0:
448,192,36225,1,0,0:0:0:0:
192,192,36297,1,0,0:0:0:0:
320,192,36369,1,0,0:0:0:0:
192,192,36442,1,0,0:0:0:0:
64,192,36514,1,0,0:0:0:0:
320,192,36586,1,0,0:0:0:0:
448,192,36586,1,0,0:0:0:0:
192,192,36658,1,0,0:0:0:0:
448,192,36730,1,0,0:0:0:0:
64,192,36802,1,0,0:0:0:0:
320,192,36874,1,0,0:0:0:0:
192,192,36946,1,0,0:0:0:0:
64,192,37018,1,0,0:0:0:0:
448,192,37091,1,0,0:0:0:0:
320,192,37163,1,0,0:0:0:0:
192,192,37163,1,0,0:0:0:0:
64,192,37163,1,0,0:0:0:0:
448,192,37307,1,0,0:0:0:0:
192,192,37451,1,0,0:0:0:0:
320,192,37595,1,0,0:0:0:0:
64,192,37740,1,0,0:0:0:0:
448,192,37884,1,0,0:0:0:0:
320,192,38028,1,0,0:0:0:0:
192,192,38172,1,0,0:0:0:0:
64,192,38317,1,0,0:0:0:0:
448,192,38317,128,0,38461:0:0:0:0:
320,192,38317,1,0,0:0:0:0:
192,192,38461,1,0,0:0:0:0:
320,192,38605,128,0,38749:0:0:0:0:
64,192,38605,1,0,0:0:0:0:
448,192,38749,1,0,0:0:0:0:
192,192,38749,1,0,0:0:0:0:
64,192,38893,1,0,0:0:0:0:
448,192,38893,128,0,39038:0:0:0:0:
192,192,39038,128,0,39182:0:0:0:0:
320,192,39182,1,0,0:0:0:0:
448,192,39182,1,0,0:0:0:0:
64,192,39326,128,0,39398:0:0:0:0:
448,192,39470,1,0,0:0:0:0:
64,192,39470,1,0,0:0:0:0:
448,192,39615,128,0,39759:0:0:0:0:
192,192,39759,1,0,0:0:0:0:
64,192,39759,1,0,0:0:0:0:
320,192,39903,128,0,40047:0:0:0:0:
448,192,40047,1,0,0:0:0:0:
192,192,40047,128,0,40192:0:0:0:0:
448,192,40192,128,0,40336:0:0:0:0:
64,192,40336,1,0,0:0:0:0:
320,192,40336,128,0,40480:0:0:0:0:
192,192,40480,128,0,40624:0:0:0:0:
448,192,40624,1,0,0:0:0:0:
320,192,40624,128,0,40768:0:0:0:0:
64,192,40913,128,0,41057:0:0:0:0:
192,192,40913,1,0,0:0:0:0:
448,192,40913,1,0,0:0:0:0:
320,192,41201,1,0,0:0:0:0:
448,192,41201,1,0,0:0:0:0:
192,192,41201,128,0,41345:0:0:0:0:
448,192,41345,128,0,41490:0:0:0:0:
64,192,41490,1,0,0:0:0:0:
320,192,41490,1,0,0:0:0:0:
192,192,41634,128,0,41778:0:0:0:0:
320,192,41778,1,0,0:0:0:0:
448,192,41778,1,0,0:0:0:0:
192,192,41922,128,0,42067:0:0:0:0:
448,192,42067,1,0,0:0:0:0:
320,192,42067,1,0,0:0:0:0:
192,192,42211,1,0,0:0:0:0:
64,192,42211,1,0,0:0:0:0:
448,192,42211,1,0,0:0:0:0:
320,192,42283,1,0,0:0:0:0:
192,192,42355,1,0,0:0:0:0:
448,192,42427,1,0,0:0:0:0:
64,192,42499,1,0,0:0:0:0:
192,192,42535,1,0,0:0:0:0:
320,192,42571,1,0,0:0:0:0:
448,192,42607,1,0,0:0:0:0:
192,192,42643,1,0,0:0:0:0:
64,192,42643,1,0,0:0:0:0:
448,192,42716,1,0,0:0:0:0:
320,192,42716,1,0,0:0:0:0:
64,192,42788,1,0,0:0:0:0:
192,192,42788,1,0,0:0:0:0:
320,192,42860,1,0,0:0:0:0:
448,192,42932,1,0,0:0:0:0:
64,192,42932,1,0,0:0:0:0:
192,192,42932,128,0,43076:0:0:0:0:
320,192,43220,1,0,0:0:0:0:
448,192,43220,1,0,0:0:0:0:
64,192,43220,128,0,43365:0:0:0:0:
448,192,43509,1,0,0:0:0:0:
192,192,43509,1,0,0:0:0:0:
320,192,43509,128,0,43653:0:0:0:0:
64,192,43653,128,0,43797:0:0:0:0:
192,192,43797,1,0,0:0:0:0:
448,192,43797,1,0,0:0:0:0:
320,192,43942,128,0,44086:0:0:0:0:
192,192,44086,1,0,0:0:0:0:
64,192,44086,1,0,0:0:0:0:
320,192,44230,128,0,44374:0:0:0:0:
192,192,44374,1,0,0:0:0:0:
64,192,44374,1,0,0:0:0:0:
448,192,44518,128,0,44591:0:0:0:0:
64,192,44663,1,0,0:0:0:0:
320,192,44663,128,0,44735:0:0:0:0:
448,192,44663,1,0,0:0:0:0:
192,192,44807,128,0,44879:0:0:0:0:
192,192,44951,1,0,0:0:0:0:
64,192,44951,1,0,0:0:0:0:
320,192,45023,1,0,0:0:0:0:
448,192,45023,1,0,0:0:0:0:
192,192,45095,1,0,0:0:0:0:
64,192,45095,1,0,0:0:0:0:
448,192,45240,128,0,45312:0:0:0:0:
320,192,45240,128,0,45312:0:0:0:0:
448,192,45384,1,0,0:0:0:0:
320,192,45384,1,0,0:0:0:0:
64,192,45384,1,0,0:0:0:0:
192,192,45528,1,0,0:0:0:0:
64,192,45528,1,0,0:0:0:0:
320,192,45672,128,0,45744:0:0:0:0:
448,192,45817,1,0,0:0:0:0:
192,192,45817,1,0,0:0:0:0:
64,192,45817,1,0,0:0:0:0:
320,192,46009,1,0,0:0:0:0:
448,192,46009,128,0,46105:0:0:0:0:
64,192,46105,1,0,0:0:0:0:
192,192,46105,128,0,46177:0:0:0:0:
192,192,46249,1,0,0:0:0:0:
320,192,46249,128,0,46321:0:0:0:0:
448,192,46393,1,0,0:0:0:0:
64,192,46393,1,0,0:0:0:0:
320,192,46538,128,0,46610:0:0:0:0:
192,192,46538,1,0,0:0:0:0:
64,192,46682,1,0,0:0:0:0:
192,192,46682,1,0,0:0:0:0:
448,192,46826,1,0,0:0:0:0:
320,192,46862,1,0,0:0:0:0:
192,192,46898,1,0,0:0:0:0:
64,192,46934,1,0,0:0:0:0:
320,192,46970,1,0,0:0:0:0:
448,192,46970,1,0,0:0:0:0:
192,192,47043,1,0,0:0:0:0:
320,192,47115,1,0,0:0:0:0:
448,192,47187,1,0,0:0:0:0:
64,192,47187,1,0,0:0:0:0:
192,192,47259,1,0,0:0:0:0:
320,192,47331,1,0,0:0:0:0:
64,192,47403,1,0,0:0:0:0:
448,192,47403,1,0,0:0:0:0:
320,192,47475,1,0,0:0:0:0:
64,192,47547,1,0,0:0:0:0:
192,192,47547,128,0,47692:0:0:0:0:
448,192,47692,1,0,0:0:0:0:
448,192,47836,1,0,0:0:0:0:
64,192,47836,128,0,47980:0:0:0:0:
192,192,47980,1,0,0:0:0:0:
320,192,47980,1,0,0:0:0:0:
448,192,48124,128,0,48268:0:0:0:0:
192,192,48268,128,0,48413:0:0:0:0:
320,192,48413,1,0,0:0:0:0:
64,192,48413,1,0,0:0:0:0:
448,192,48557,128,0,48701:0:0:0:0:
448,192,48845,128,0,48990:0:0:0:0:
320,192,48845,1,0,0:0:0:0:
64,192,48845,1,0,0:0:0:0:
192,192,48990,1,0,0:0:0:0:
192,192,49134,128,0,49278:0:0:0:0:
64,192,49278,1,0,0:0:0:0:
448,192,49278,128,0,49422:0:0:0:0:
64,192,49422,128,0,49567:0:0:0:0:
448,192,49567,128,0,49711:0:0:0:0:
192,192,49567,1,0,0:0:0:0:
320,192,49711,128,0,49855:0:0:0:0:
192,192,49855,1,0,0:0:0:0:
64,192,49855,1,0,0:0:0:0:
448,192,49855,128,0,49999:0:0:0:0:
64,192,49999,1,0,0:0:0:0:
192,192,49999,1,0,0:0:0:0:
320,192,50143,1,0,0:0:0:0:
448,192,50143,1,0,0:0:0:0:
192,192,50143,128,0,50288:0:0:0:0:
64,192,50288,1,0,0:0:0:0:
448,192,50288,1,0,0:0:0:0:
192,192,50432,128,0,50576:0:0:0:0:
448,192,50576,1,0,0:0:0:0:
320,192,50576,128,0,50720:0:0:0:0:
64,192,50720,1,0,0:0:0:0:
192,192,50720,1,0,0:0:0:0:
192,192,50865,1,0,0:0:0:0:
64,192,50865,1,0,0:0:0:0:
448,192,50865,128,0,51081:0:0:0:0:
192,192,51153,1,0,0:0:0:0:
448,192,51153,1,0,0:0:0:0:
64,192,51153,128,0,51369:0:0:0:0:
320,192,51297,1,0,0:0:0:0:
192,192,51297,1,0,0:0:0:0:
320,192,51442,1,0,0:0:0:0:
448,192,51442,1,0,0:0:0:0:
64,192,51442,1,0,0:0:0:0:
192,192,51730,1,0,0:0:0:0:
320,192,51802,1,0,0:0:0:0:
448,192,51874,1,0,0:0:0:0:
64,192,51874,1,0,0:0:0:0:
192,192,51946,1,0,0:0:0:0:
320,192,51946,1,0,0:0:0:0:
64,192,52018,1,0,0:0:0:0:
448,192,52018,1,0,0:0:0:0:
320,192,52163,1,0,0:0:0:0:
64,192,52163,1,0,0:0:0:0:
448,192,52307,1,0,0:0:0:0:
320,192,52379,1,0,0:0:0:0:
192,192,52451,1,0,0:0:0:0:
64,192,52451,1,0,0:0:0:0:
448,192,52523,1,0,0:0:0:0:
320,192,52595,1,0,0:0:0:0:
192,192,52668,1,0,0:0:0:0:
64,192,52740,1,0,0:0:0:0:
448,192,52740,1,0,0:0:0:0:
192,192,52884,1,0,0:0:0:0:
320,192,52956,1,0,0:0:0:0:
448,192,53028,1,0,0:0:0:0:
64,192,53028,1,0,0:0:0:0:
320,192,53100,1,0,0:0:0:0:
64,192,53172,1,0,0:0:0:0:
192,192,53244,1,0,0:0:0:0:
320,192,53317,1,0,0:0:0:0:
64,192,53317,1,0,0:0:0:0:
448,192,53317,128,0,53533:0:0:0:0:
448,192,53605,1,0,0:0:0:0:
192,192,53605,128,0,53821:0:0:0:0:
64,192,53605,1,0,0:0:0:0:
448,192,53893,1,0,0:0:0:0:
192,192,53893,1,0,0:0:0:0:
64,192,53893,128,0,54110:0:0:0:0:
64,192,54182,1,0,0:0:0:0:
448,192,54182,1,0,0:0:0:0:
192,192,54182,128,0,54398:0:0:0:0:
320,192,54470,1,0,0:0:0:0:
192,192,54470,1,0,0:0:0:0:
64,192,54470,1,0,0:0:0:0:
320,192,54615,1,0,0:0:0:0:
448,192,54615,1,0,0:0:0:0:
64,192,54759,1,0,0:0:0:0:
448,192,54759,1,0,0:0:0:0:
192,192,54831,1,0,0:0:0:0:
320,192,54903,1,0,0:0:0:0:
448,192,54903,1,0,0:0:0:0:
192,192,54975,1,0,0:0:0:0:
448,192,55047,1,0,0:0:0:0:
64,192,55047,1,0,0:0:0:0:
320,192,55119,1,0,0:0:0:0:
192,192,55192,1,0,0:0:0:0:
64,192,55192,1,0,0:0:0:0:
320,192,55264,1,0,0:0:0:0:
448,192,55336,1,0,0:0:0:0:
64,192,55336,1,0,0:0:0:0:
192,192,55408,1,0,0:0:0:0:
320,192,55480,1,0,0:0:0:0:
448,192,55480,1,0,0:0:0:0:
192,192,55552,1,0,0:0:0:0:
448,192,55624,1,0,0:0:0:0:
64,192,55624,1,0,0:0:0:0:
320,192,55696,1,0,0:0:0:0:
192,192,55768,1,0,0:0:0:0:
64,192,55768,1,0,0:0:0:0:
448,192,55841,1,0,0:0:0:0:
320,192,55913,1,0,0:0:0:0:
192,192,55913,1,0,0:0:0:0:
448,192,55985,1,0,0:0:0:0:
64,192,56057,1,0,0:0:0:0:
192,192,56057,1,0,0:0:0:0:
320,192,56129,1,0,0:0:0:0:
448,192,56201,1,0,0:0:0:0:
64,192,56201,1,0,0:0:0:0:
192,192,56273,1,0,0:0:0:0:
320,192,56345,1,0,0:0:0:0:
448,192,56345,1,0,0:0:0:0:
192,192,56418,1,0,0:0:0:0:
64,192,56490,1,0,0:0:0:0:
448,192,56490,1,0,0:0:0:0:
192,192,56562,1,0,0:0:0:0:
448,192,56634,1,0,0:0:0:0:
64,192,56634,1,0,0:0:0:0:
192,192,56706,1,0,0:0:0:0:
320,192,56778,1,0,0:0:0:0:
448,192,56778,1,0,0:0:0:0:
64,192,56850,1,0,0:0:0:0:
320,192,56922,1,0,0:0:0:0:
448,192,56922,1,0,0:0:0:0:
192,192,56994,1,0,0:0:0:0:
320,192,57067,1,0,0:0:0:0:
448,192,57067,1,0,0:0:0:0:
64,192,57139,1,0,0:0:0:0:
320,192,57211,1,0,0:0:0:0:
448,192,57211,1,0,0:0:0:0:
192,192,57283,1,0,0:0:0:0:
64,192,57355,1,0,0:0:0:0:
192,192,57355,1,0,0:0:0:0:
320,192,57427,1,0,0:0:0:0:
192,192,57499,1,0,0:0:0:0:
64,192,57499,1,0,0:0:0:0:
448,192,57571,1,0,0:0:0:0:
192,192,57643,1,0,0:0:0:0:
64,192,57643,1,0,0:0:0:0:
320,192,57716,1,0,0:0:0:0:
192,192,57788,1,0,0:0:0:0:
64,192,57788,1,0,0:0:0:0:
320,192,57860,1,0,0:0:0:0:
448,192,57932,1,0,0:0:0:0:
64,192,57932,1,0,0:0:0:0:
192,192,58004,1,0,0:0:0:0:
448,192,58076,1,0,0:0:0:0:
320,192,58148,1,0,0:0:0:0:
192,192,58220,1,0,0:0:0:0:
64,192,58293,1,0,0:0:0:0:
448,192,58365,1,0,0:0:0:0:
192,192,58437,1,0,0:0:0:0:
320,192,58509,1,0,0:0:0:0:
64,192,58581,1,0,0:0:0:0:
192,192,58653,1,0,0:0:0:0:
320,192,58725,1,0,0:0:0:0:
448,192,58797,1,0,0:0:0:0:
192,192,58869,1,0,0:0:0:0:
320,192,58942,1,0,0:0:0:0:
64,192,59014,1,0,0:0:0:0:
448,192,59086,1,0,0:0:0:0:
320,192,59086,1,0,0:0:0:0:
192,192,59230,1,0,0:0:0:0:
64,192,59374,1,0,0:0:0:0:
448,192,59518,1,0,0:0:0:0:
192,192,59663,1,0,0:0:0:0:
64,192,59663,1,0,0:0:0:0:
320,192,59807,1,0,0:0:0:0:
64,192,59951,1,0,0:0:0:0:
448,192,60095,1,0,0:0:0:0:
320,192,60240,1,0,0:0:0:0:
64,192,60384,1,0,0:0:0:0:
448,192,60528,1,0,0:0:0:0:
192,192,60672,1,0,0:0:0:0:
320,192,60817,1,0,0:0:0:0:
448,192,60817,1,0,0:0:0:0:
64,192,60961,1,0,0:0:0:0:
320,192,61105,1,0,0:0:0:0:
448,192,61249,1,0,0:0:0:0:
192,192,61393,1,0,0:0:0:0:
64,192,61538,1,0,0:0:0:0:
320,192,61682,1,0,0:0:0:0:
448,192,61826,1,0,0:0:0:0:
192,192,61970,1,0,0:0:0:0:
64,192,61970,1,0,0:0:0:0:
320,192,62115,1,0,0:0:0:0:
192,192,62259,1,0,0:0:0:0:
448,192,62403,1,0,0:0:0:0:
320,192,62547,1,0,0:0:0:0:
192,192,62692,1,0,0:0:0:0:
64,192,62836,1,0,0:0:0:0:
320,192,62980,1,0,0:0:0:0:
192,192,63124,1,0,0:0:0:0:
64,192,63124,1,0,0:0:0:0:
448,192,63268,1,0,0:0:0:0:
64,192,63413,1,0,0:0:0:0:
320,192,63557,1,0,0:0:0:0:
64,192,63701,1,0,0:0:0:0:
448,192,63701,1,0,0:0:0:0:
192,192,63845,1,0,0:0:0:0:
448,192,63990,1,0,0:0:0:0:
320,192,64134,1,0,0:0:0:0:
192,192,64278,1,0,0:0:0:0:
64,192,64278,1,0,0:0:0:0:
448,192,64422,1,0,0:0:0:0:
192,192,64567,1,0,0:0:0:0:
320,192,64711,1,0,0:0:0:0:
64,192,64855,1,0,0:0:0:0:
448,192,64999,1,0,0:0:0:0:
192,192,65143,1,0,0:0:0:0:
320,192,65288,1,0,0:0:0:0:
448,192,65432,1,0,0:0:0:0:
64,192,65432,1,0,0:0:0:0:
320,192,65576,1,0,0:0:0:0:
64,192,65720,1,0,0:0:0:0:
448,192,65865,1,0,0:0:0:0:
192,192,66009,1,0,0:0:0:0:
320,192,66009,1,0,0:0:0:0:
448,192,66153,1,0,0:0:0:0:
64,192,66297,1,0,0:0:0:0:
320,192,66442,1,0,0:0:0:0:
192,192,66586,1,0,0:0:0:0:
64,192,66586,1,0,0:0:0:0:
448,192,66730,1,0,0:0:0:0:
192,192,66874,1,0,0:0:0:0:
320,192,67018,1,0,0:0:0:0:
448,192,67163,1,0,0:0:0:0:
64,192,67163,1,0,0:0:0:0:
320,192,67307,1,0,0:0:0:0:
448,192,67451,1,0,0:0:0:0:
320,192,67595,1,0,0:0:0:0:
192,192,67740,1,0,0:0:0:0:
64,192,67740,1,0,0:0:0:0:
320,192,67884,1,0,0:0:0:0:
448,192,68028,1,0,0:0:0:0:
64,192,68172,1,0,0:0:0:0:
192,192,68317,1,0,0:0:0:0:
320,192,68317,1,0,0:0:0:0:
448,192,68413,1,0,0:0:0:0:
320,192,68509,1,0,0:0:0:0:
192,192,68605,1,0,0:0:0:0:
64,192,68701,1,0,0:0:0:0:
448,192,68797,1,0,0:0:0:0:
320,192,68893,1,0,0:0:0:0:
192,192,68893,1,0,0:0:0:0:
64,192,68990,1,0,0:0:0:0:
448,192,69086,1,0,0:0:0:0:
192,192,69182,1,0,0:0:0:0:
320,192,69278,1,0,0:0:0:0:
64,192,69374,1,0,0:0:0:0:
192,192,69470,1,0,0:0:0:0:
320,192,69470,1,0,0:0:0:0:
448,192,69567,1,0,0:0:0:0:
320,192,69663,1,0,0:0:0:0:
192,192,69759,1,0,0:0:0:0:
64,192,69855,1,0,0:0:0:0:
448,192,69951,1,0,0:0:0:0:
320,192,70047,1,0,0:0:0:0:
192,192,70047,1,0,0:0:0:0:
64,192,70143,1,0,0:0:0:0:
320,192,70240,1,0,0:0:0:0:
192,192,70336,1,0,0:0:0:0:
448,192,70432,1,0,0:0:0:0:
320,192,70528,1,0,0:0:0:0:
192,192,70624,1,0,0:0:0:0:
64,192,70624,1,0,0:0:0:0:
320,192,70720,1,0,0:0:0:0:
192,192,70817,1,0,0:0:0:0:
448,192,70913,1,0,0:0:0:0:
64,192,71009,1,0,0:0:0:0:
320,192,71105,1,0,0:0:0:0:
192,192,71201,1,0,0:0:0:0:
64,192,71201,1,0,0:0:0:0:
448,192,71297,1,0,0:0:0:0:
192,192,71393,1,0,0:0:0:0:
320,192,71490,1,0,0:0:0:0:
448,192,71586,1,0,0:0:0:0:
64,192,71682,1,0,0:0:0:0:
192,192,71778,1,0,0:0:0:0:
320,192,71778,1,0,0:0:0:0:
448,192,71874,1,0,0:0:0:0:
64,192,71970,1,0,0:0:0:0:
192,192,72067,1,0,0:0:0:0:
448,192,72163,1,0,0:0:0:0:
320,192,72259,1,0,0:0:0:0:
192,192,72355,1,0,0:0:0:0:
64,192,72355,1,0,0:0:0:0:
448,192,72451,1,0,0:0:0:0:
192,192,72547,1,0,0:0:0:0:
320,192,72643,1,0,0:0:0:0:
448,192,72643,1,0,0:0:0:0:
192,192,72740,1,0,0:0:0:0:
448,192,72836,1,0,0:0:0:0:
320,192,72836,1,0,0:0:0:0:
192,192,72932,1,0,0:0:0:0:
64,192,72932,1,0,0:0:0:0:
320,192,73028,1,0,0:0:0:0:
448,192,73124,1,0,0:0:0:0:
192,192,73220,1,0,0:0:0:0:
64,192,73220,1,0,0:0:0:0:
320,192,73317,1,0,0:0:0:0:
448,192,73413,1,0,0:0:0:0:
192,192,73509,1,0,0:0:0:0:
64,192,73509,1,0,0:0:0:0:
320,192,73605,1,0,0:0:0:0:
448,192,73701,1,0,0:0:0:0:
192,192,73797,1,0,0:0:0:0:
64,192,73797,1,0,0:0:0:0:
320,192,73893,1,0,0:0:0:0:
192,192,73990,1,0,0:0:0:0:
448,192,74086,1,0,0:0:0:0:
320,192,74086,1,0,0:0:0:0:
192,192,74182,1,0,0:0:0:0:
64,192,74278,1,0,0:0:0:0:
448,192,74374,1,0,0:0:0:0:
320,192,74374,1,0,0:0:0:0:
192,192,74470,1,0,0:0:0:0:
448,192,74567,1,0,0:0:0:0:
64,192,74663,1,0,0:0:0:0:
192,192,74663,1,0,0:0:0:0:
320,192,74759,1,0,0:0:0:0:
448,192,74855,1,0,0:0:0:0:
64,192,74951,1,0,0:0:0:0:
320,192,74951,1,0,0:0:0:0:
192,192,75047,1,0,0:0:0:0:
320,192,75143,1,0,0:0:0:0:
448,192,75143,1,0,0:0:0:0:
64,192,75240,1,0,0:0:0:0:
192,192,75240,1,0,0:0:0:0:
320,192,75336,1,0,0:0:0:0:
192,192,75432,1,0,0:0:0:0:
64,192,75432,1,0,0:0:0:0:
320,192,75528,1,0,0:0:0:0:
448,192,75528,1,0,0:0:0:0:
192,192,75624,1,0,0:0:0:0:
320,192,75720,1,0,0:0:0:0:
448,192,75720,1,0,0:0:0:0:
192,192,75817,1,0,0:0:0:0:
64,192,75817,1,0,0:0:0:0:
320,192,75913,1,0,0:0:0:0:
448,192,75913,1,0,0:0:0:0:
192,192,76009,1,0,0:0:0:0:
64,192,76009,1,0,0:0:0:0:
320,192,76105,1,0,0:0:0:0:
448,192,76105,1,0,0:0:0:0:
192,192,76201,1,0,0:0:0:0:
64,192,76201,1,0,0:0:0:0:
320,192,76297,1,0,0:0:0:0:
448,192,76297,1,0,0:0:0:0:
192,192,76393,1,0,0:0:0:0:
64,192,76393,1,0,0:0:0:0:
320,192,76466,1,0,0:0:0:0:
448,192,76538,1,0,0:0:0:0:
192,192,76610,1,0,0:0:0:0:
448,192,76682,1,0,0:0:0:0:
64,192,76754,1,0,0:0:0:0:
192,192,76826,1,0,0:0:0:0:
448,192,76898,1,0,0:0:0:0:
320,192,76970,1,0,0:0:0:0:
192,192,77043,1,0,0:0:0:0:
64,192,77115,1,0,0:0:0:0:
448,192,77187,1,0,0:0:0:0:
320,192,77259,1,0,0:0:0:0:
192,192,77331,1,0,0:0:0:0:
64,192,77403,1,0,0:0:0:0:
320,192,77475,1,0,0:0:0:0:
192,192,77547,1,0,0:0:0:0:
64,192,77547,1,0,0:0:0:0:
448,192,77547,1,0,0:0:0:0:
320,192,77643,1,0,0:0:0:0:
64,192,77740,1,0,0:0:0:0:
192,192,77836,1,0,0:0:0:0:
320,192,77836,1,0,0:0:0:0:
448,192,77932,1,0,0:0:0:0:
320,192,78028,1,0,0:0:0:0:
64,192,78124,1,0,0:0:0:0:
192,192,78124,1,0,0:0:0:0:
448,192,78220,1,0,0:0:0:0:
320,192,78317,1,0,0:0:0:0:
192,192,78413,1,0,0:0:0:0:
64,192,78413,1,0,0:0:0:0:
448,192,78509,1,0,0:0:0:0:
192,192,78605,1,0,0:0:0:0:
320,192,78701,1,0,0:0:0:0:
448,192,78701,1,0,0:0:0:0:
64,192,78797,1,0,0:0:0:0:
192,192,78893,1,0,0:0:0:0:
320,192,78990,1,0,0:0:0:0:
448,192,78990,1,0,0:0:0:0:
192,192,79086,1,0,0:0:0:0:
64,192,79182,1,0,0:0:0:0:
448,192,79278,1,0,0:0:0:0:
320,192,79278,1,0,0:0:0:0:
192,192,79374,1,0,0:0:0:0:
64,192,79470,1,0,0:0:0:0:
320,192,79567,1,0,0:0:0:0:
192,192,79567,1,0,0:0:0:0:
448,192,79663,1,0,0:0:0:0:
320,192,79759,1,0,0:0:0:0:
192,192,79855,1,0,0:0:0:0:
64,192,79855,1,0,0:0:0:0:
320,192,79951,1,0,0:0:0:0:
448,192,80047,1,0,0:0:0:0:
64,192,80143,1,0,0:0:0:0:
192,192,80143,1,0,0:0:0:0:
320,192,80240,1,0,0:0:0:0:
448,192,80336,1,0,0:0:0:0:
192,192,80432,1,0,0:0:0:0:
320,192,80432,1,0,0:0:0:0:
64,192,80528,1,0,0:0:0:0:
448,192,80624,1,0,0:0:0:0:
320,192,80720,1,0,0:0:0:0:
192,192,80720,1,0,0:0:0:0:
64,192,80817,1,0,0:0:0:0:
448,192,80913,1,0,0:0:0:0:
320,192,81009,1,0,0:0:0:0:
192,192,81009,1,0,0:0:0:0:
64,192,81105,1,0,0:0:0:0:
320,192,81201,1,0,0:0:0:0:
192,192,81297,1,0,0:0:0:0:
64,192,81297,1,0,0:0:0:0:
320,192,81393,1,0,0:0:0:0:
448,192,81490,1,0,0:0:0:0:
64,192,81586,1,0,0:0:0:0:
192,192,81586,1,0,0:0:0:0:
320,192,81682,1,0,0:0:0:0:
448,192,81778,1,0,0:0:0:0:
192,192,81874,1,0,0:0:0:0:
64,192,81874,1,0,0:0:0:0:
320,192,81970,1,0,0:0:0:0:
448,192,81970,1,0,0:0:0:0:
192,192,82067,1,0,0:0:0:0:
64,192,82067,1,0,0:0:0:0:
320,192,82163,1,0,0:0:0:0:
448,192,82163,1,0,0:0:0:0:
192,192,82259,1,0,0:0:0:0:
448,192,82355,1,0,0:0:0:0:
64,192,82451,1,0,0:0:0:0:
192,192,82451,1,0,0:0:0:0:
320,192,82547,1,0,0:0:0:0:
192,192,82643,1,0,0:0:0:0:
64,192,82740,1,0,0:0:0:0:
448,192,82740,1,0,0:0:0:0:
320,192,82836,1,0,0:0:0:0:
64,192,82932,1,0,0:0:0:0:
192,192,83028,1,0,0:0:0:0:
320,192,83028,1,0,0:0:0:0:
448,192,83124,1,0,0:0:0:0:
64,192,83220,1,0,0:0:0:0:
192,192,83317,1,0,0:0:0:0:
320,192,83317,1,0,0:0:0:0:
448,192,83413,1,0,0:0:0:0:
320,192,83509,1,0,0:0:0:0:
192,192,83605,1,0,0:0:0:0:
64,192,83605,1,0,0:0:0:0:
448,192,83701,1,0,0:0:0:0:
192,192,83797,1,0,0:0:0:0:
448,192,83893,1,0,0:0:0:0:
64,192,83893,1,0,0:0:0:0:
320,192,83990,1,0,0:0:0:0:
64,192,84086,1,0,0:0:0:0:
192,192,84182,1,0,0:0:0:0:
320,192,84182,1,0,0:0:0:0:
448,192,84278,1,0,0:0:0:0:
192,192,84374,1,0,0:0:0:0:
64,192,84374,1,0,0:0:0:0:
448,192,84470,1,0,0:0:0:0:
320,192,84470,1,0,0:0:0:0:
192,192,84567,1,0,0:0:0:0:
64,192,84663,1,0,0:0:0:0:
192,192,84759,1,0,0:0:0:0:
320,192,84759,1,0,0:0:0:0:
448,192,84855,1,0,0:0:0:0:
320,192,84951,1,0,0:0:0:0:
64,192,85047,1,0,0:0:0:0:
192,192,85047,1,0,0:0:0:0:
448,192,85143,1,0,0:0:0:0:
192,192,85240,1,0,0:0:0:0:
320,192,85336,1,0,0:0:0:0:
448,192,85336,1,0,0:0:0:0:
192,192,85432,1,0,0:0:0:0:
64,192,85528,1,0,0:0:0:0:
320,192,85624,1,0,0:0:0:0:
448,192,85624,1,0,0:0:0:0:
64,192,85720,1,0,0:0:0:0:
448,192,85817,1,0,0:0:0:0:
192,192,85913,1,0,0:0:0:0:
64,192,85913,1,0,0:0:0:0:
320,192,86009,1,0,0:0:0:0:
192,192,86105,1,0,0:0:0:0:
448,192,86201,1,0,0:0:0:0:
320,192,86201,1,0,0:0:0:0:
64,192,86297,1,0,0:0:0:0:
192,192,86393,1,0,0:0:0:0:
320,192,86490,1,0,0:0:0:0:
448,192,86490,1,0,0:0:0:0:
192,192,86562,1,0,0:0:0:0:
64,192,86634,1,0,0:0:0:0:
448,192,86706,1,0,0:0:0:0:
320,192,86778,1,0,0:0:0:0:
192,192,86778,1,0,0:0:0:0:
64,192,86850,1,0,0:0:0:0:
320,192,86922,1,0,0:0:0:0:
448,192,86922,1,0,0:0:0:0:
192,192,86994,1,0,0:0:0:0:
64,192,87067,1,0,0:0:0:0:
448,192,87067,1,0,0:0:0:0:
320,192,87139,1,0,0:0:0:0:
192,192,87211,1,0,0:0:0:0:
64,192,87211,1,0,0:0:0:0:
320,192,87283,1,0,0:0:0:0:
448,192,87355,1,0,0:0:0:0:
64,192,87355,1,0,0:0:0:0:
192,192,87427,1,0,0:0:0:0:
64,192,87499,1,0,0:0:0:0:
448,192,87499,1,0,0:0:0:0:
320,192,87571,1,0,0:0:0:0:
192,192,87643,1,0,0:0:0:0:
64,192,87643,1,0,0:0:0:0:
448,192,87716,1,0,0:0:0:0:
320,192,87788,1,0,0:0:0:0:
192,192,87788,1,0,0:0:0:0:
64,192,87860,1,0,0:0:0:0:
448,192,87932,1,0,0:0:0:0:
320,192,87932,1,0,0:0:0:0:
192,192,88004,1,0,0:0:0:0:
64,192,88076,1,0,0:0:0:0:
448,192,88076,1,0,0:0:0:0:
320,192,88148,1,0,0:0:0:0:
64,192,88220,1,0,0:0:0:0:
192,192,88220,1,0,0:0:0:0:
448,192,88293,1,0,0:0:0:0:
64,192,88365,1,0,0:0:0:0:
192,192,88365,1,0,0:0:0:0:
320,192,88437,1,0,0:0:0:0:
448,192,88509,1,0,0:0:0:0:
64,192,88509,1,0,0:0:0:0:
192,192,88581,1,0,0:0:0:0:
320,192,88653,1,0,0:0:0:0:
448,192,88653,1,0,0:0:0:0:
64,192,88725,1,0,0:0:0:0:
192,192,88797,1,0,0:0:0:0:
320,192,88797,1,0,0:0:0:0:
448,192,88869,1,0,0:0:0:0:
64,192,88942,1,0,0:0:0:0:
192,192,88942,1,0,0:0:0:0:
448,192,89014,1,0,0:0:0:0:
320,192,89014,1,0,0:0:0:0:
192,192,89086,1,0,0:0:0:0:
64,192,89086,1,0,0:0:0:0:
320,192,89158,1,0,0:0:0:0:
448,192,89230,1,0,0:0:0:0:
64,192,89230,1,0,0:0:0:0:
192,192,89302,1,0,0:0:0:0:
448,192,89374,1,0,0:0:0:0:
320,192,89374,1,0,0:0:0:0:
64,192,89446,1,0,0:0:0:0:
192,192,89518,1,0,0:0:0:0:
320,192,89518,1,0,0:0:0:0:
448,192,89591,1,0,0:0:0:0:
320,192,89663,1,0,0:0:0:0:
64,192,89663,1,0,0:0:0:0:
192,192,89735,1,0,0:0:0:0:
448,192,89807,1,0,0:0:0:0:
64,192,89807,1,0,0:0:0:0:
320,192,89879,1,0,0:0:0:0:
192,192,89951,1,0,0:0:0:0:
64,192,89951,1,0,0:0:0:0:
448,192,90023,1,0,0:0:0:0:
192,192,90095,1,0,0:0:0:0:
320,192,90095,1,0,0:0:0:0:
64,192,90168,1,0,0:0:0:0:
320,192,90240,1,0,0:0:0:0:
448,192,90240,1,0,0:0:0:0:
192,192,90240,1,0,0:0:0:0:
64,192,90312,1,0,0:0:0:0:
320,192,90384,1,0,0:0:0:0:
192,192,90384,1,0,0:0:0:0:
448,192,90456,1,0,0:0:0:0:
64,192,90528,1,0,0:0:0:0:
192,192,90528,128,0,90600:0:0:0:0:
320,192,90600,1,0,0:0:0:0:
64,192,90672,1,0,0:0:0:0:
448,192,90672,128,0,90744:0:0:0:0:
192,192,90744,1,0,0:0:0:0:
320,192,90817,128,0,90889:0:0:0:0:
448,192,90817,1,0,0:0:0:0:
64,192,90889,1,0,0:0:0:0:
192,192,90889,1,0,0:0:0:0:
448,192,90961,1,0,0:0:0:0:
320,192,91009,1,0,0:0:0:0:
448,192,91057,1,0,0:0:0:0:
192,192,91105,1,0,0:0:0:0:
64,192,91105,1,0,0:0:0:0:
320,192,91177,1,0,0:0:0:0:
448,192,91249,1,0,0:0:0:0:
192,192,91249,128,0,91321:0:0:0:0:
448,192,91393,1,0,0:0:0:0:
64,192,91393,1,0,0:0:0:0:
320,192,91393,128,0,91538:0:0:0:0:
448,192,91610,1,0,0:0:0:0:
192,192,91610,1,0,0:0:0:0:
64,192,91610,128,0,91754:0:0:0:0:
320,192,91826,1,0,0:0:0:0:
448,192,91826,1,0,0:0:0:0:
192,192,91826,128,0,91898:0:0:0:0:
320,192,91970,1,0,0:0:0:0:
64,192,91970,1,0,0:0:0:0:
448,192,91970,128,0,92115:0:0:0:0:
192,192,92187,1,0,0:0:0:0:
64,192,92187,1,0,0:0:0:0:
320,192,92187,128,0,92331:0:0:0:0:
192,192,92403,1,0,0:0:0:0:
448,192,92403,1,0,0:0:0:0:
64,192,92403,128,0,92475:0:0:0:0:
448,192,92547,1,0,0:0:0:0:
320,192,92547,1,0,0:0:0:0:
192,192,92547,128,0,92692:0:0:0:0:
448,192,92764,1,0,0:0:0:0:
64,192,92764,1,0,0:0:0:0:
320,192,92764,128,0,92908:0:0:0:0:
192,192,92980,1,0,0:0:0:0:
64,192,92980,1,0,0:0:0:0:
448,192,92980,128,0,93052:0:0:0:0:
64,192,93124,1,0,0:0:0:0:
192,192,93124,1,0,0:0:0:0:
320,192,93124,128,0,93268:0:0:0:0:
320,192,93341,1,0,0:0:0:0:
64,192,93341,1,0,0:0:0:0:
448,192,93341,128,0,93485:0:0:0:0:
64,192,93557,1,0,0:0:0:0:
192,192,93557,1,0,0:0:0:0:
320,192,93557,128,0,93701:0:0:0:0:
192,192,93701,128,0,93773:0:0:0:0:
448,192,93773,1,0,0:0:0:0:
64,192,93773,128,0,93918:0:0:0:0:
192,192,93990,1,0,0:0:0:0:
448,192,93990,1,0,0:0:0:0:
320,192,93990,128,0,94206:0:0:0:0:
64,192,94278,1,0,0:0:0:0:
448,192,94278,1,0,0:0:0:0:
192,192,94278,128,0,94350:0:0:0:0:
192,192,94422,1,0,0:0:0:0:
448,192,94422,1,0,0:0:0:0:
320,192,94422,128,0,94494:0:0:0:0:
64,192,94567,1,0,0:0:0:0:
192,192,94567,1,0,0:0:0:0:
448,192,94567,128,0,94711:0:0:0:0:
64,192,94783,128,0,94855:0:0:0:0:
320,192,94855,1,0,0:0:0:0:
448,192,94855,1,0,0:0:0:0:
192,192,94951,1,0,0:0:0:0:
320,192,95047,1,0,0:0:0:0:
64,192,95143,1,0,0:0:0:0:
192,192,95240,1,0,0:0:0:0:
320,192,95336,1,0,0:0:0:0:
448,192,95432,1,0,0:0:0:0:
192,192,95528,1,0,0:0:0:0:
64,192,95624,1,0,0:0:0:0:
320,192,95720,1,0,0:0:0:0:
192,192,95817,1,0,0:0:0:0:
64,192,95913,1,0,0:0:0:0:
320,192,96009,1,0,0:0:0:0:
448,192,96009,1,0,0:0:0:0:
192,192,96105,1,0,0:0:0:0:
64,192,96201,1,0,0:0:0:0:
320,192,96297,1,0,0:0:0:0:
192,192,96393,1,0,0:0:0:0:
64,192,96490,1,0,0:0:0:0:
448,192,96586,1,0,0:0:0:0:
320,192,96682,1,0,0:0:0:0:
192,192,96778,1,0,0:0:0:0:
448,192,96874,1,0,0:0:0:0:
320,192,96874,1,0,0:0:0:0:
64,192,97163,1,0,0:0:0:0:
192,192,97163,1,0,0:0:0:0:
448,192,97163,1,0,0:0:0:0:
320,192,97451,1,0,0:0:0:0:
64,192,97740,1,0,0:0:0:0:
192,192,97884,1,0,0:0:0:0:
320,192,98172,1,0,0:0:0:0:
320,192,98461,1,0,0:0:0:0:
320,192,98749,1,0,0:0:0:0:
448,192,98893,1,0,0:0:0:0:
192,192,99038,1,0,0:0:0:0:
320,192,99182,1,0,0:0:0:0:
448,192,99326,1,0,0:0:0:0:
64,192,99470,1,0,0:0:0:0:
192,192,99759,1,0,0:0:0:0:
448,192,100047,1,0,0:0:0:0:
320,192,100192,1,0,0:0:0:0:
64,192,100480,1,0,0:0:0:0:
64,192,100768,1,0,0:0:0:0:
320,192,101057,1,0,0:0:0:0:
192,192,101129,1,0,0:0:0:0:
64,192,101201,1,0,0:0:0:0:
320,192,101273,1,0,0:0:0:0:
192,192,101345,1,0,0:0:0:0:
64,192,101418,1,0,0:0:0:0:
448,192,101490,1,0,0:0:0:0:
320,192,101562,1,0,0:0:0:0:
192,192,101634,1,0,0:0:0:0:
64,192,101706,1,0,0:0:0:0:
448,192,101778,1,0,0:0:0:0:
320,192,101778,1,0,0:0:0:0:
192,192,101922,1,0,0:0:0:0:
64,192,102067,1,0,0:0:0:0:
320,192,102211,1,0,0:0:0:0:
448,192,102355,1,0,0:0:0:0:
320,192,102499,1,0,0:0:0:0:
192,192,102643,1,0,0:0:0:0:
448,192,102788,1,0,0:0:0:0:
320,192,102932,1,0,0:0:0:0:
64,192,103076,1,0,0:0:0:0:
192,192,103220,1,0,0:0:0:0:
320,192,103365,1,0,0:0:0:0:
448,192,103509,1,0,0:0:0:0:
192,192,103653,1,0,0:0:0:0:
320,192,103797,1,0,0:0:0:0:
64,192,103942,1,0,0:0:0:0:
320,192,104086,128,0,104158:0:0:0:0:
448,192,104086,128,0,104158:0:0:0:0:
320,192,104230,1,0,0:0:0:0:
448,192,104230,1,0,0:0:0:0:
448,192,104374,1,0,0:0:0:0:
64,192,104374,1,0,0:0:0:0:
192,192,104518,1,0,0:0:0:0:
320,192,104518,128,0,104663:0:0:0:0:
448,192,104663,1,0,0:0:0:0:
64,192,104663,1,0,0:0:0:0:
192,192,104663,128,0,104807:0:0:0:0:
320,192,104807,1,0,0:0:0:0:
448,192,104879,128,0,105095:0:0:0:0:
64,192,104879,1,0,0:0:0:0:
320,192,105095,1,0,0:0:0:0:
192,192,105095,1,0,0:0:0:0:
64,192,105240,1,0,0:0:0:0:
192,192,105240,1,0,0:0:0:0:
448,192,105240,128,0,105384:0:0:0:0:
320,192,105384,1,0,0:0:0:0:
64,192,105384,1,0,0:0:0:0:
192,192,105528,1,0,0:0:0:0:
64,192,105528,1,0,0:0:0:0:
64,192,105672,1,0,0:0:0:0:
448,192,105672,1,0,0:0:0:0:
320,192,105744,1,0,0:0:0:0:
192,192,105817,1,0,0:0:0:0:
64,192,105817,1,0,0:0:0:0:
448,192,105889,1,0,0:0:0:0:
192,192,105961,1,0,0:0:0:0:
64,192,105961,1,0,0:0:0:0:
320,192,106033,1,0,0:0:0:0:
448,192,106033,1,0,0:0:0:0:
64,192,106105,1,0,0:0:0:0:
192,192,106177,1,0,0:0:0:0:
448,192,106249,1,0,0:0:0:0:
320,192,106321,1,0,0:0:0:0:
192,192,106393,1,0,0:0:0:0:
64,192,106393,1,0,0:0:0:0:
448,192,106393,128,0,106538:0:0:0:0:
64,192,106538,1,0,0:0:0:0:
192,192,106682,128,0,106826:0:0:0:0:
448,192,106682,1,0,0:0:0:0:
320,192,106826,1,0,0:0:0:0:
64,192,106826,1,0,0:0:0:0:
448,192,106970,128,0,107115:0:0:0:0:
192,192,107115,128,0,107259:0:0:0:0:
448,192,107259,1,0,0:0:0:0:
64,192,107259,1,0,0:0:0:0:
320,192,107403,128,0,107547:0:0:0:0:
320,192,107692,128,0,107836:0:0:0:0:
64,192,107692,1,0,0:0:0:0:
192,192,107836,1,0,0:0:0:0:
448,192,107836,1,0,0:0:0:0:
320,192,107980,128,0,108124:0:0:0:0:
448,192,108124,1,0,0:0:0:0:
64,192,108124,1,0,0:0:0:0:
192,192,108124,128,0,108268:0:0:0:0:
64,192,108268,128,0,108413:0:0:0:0:
448,192,108413,1,0,0:0:0:0:
320,192,108413,128,0,108557:0:0:0:0:
192,192,108557,128,0,108701:0:0:0:0:
64,192,108701,1,0,0:0:0:0:
448,192,108701,1,0,0:0:0:0:
448,192,108845,1,0,0:0:0:0:
320,192,108845,1,0,0:0:0:0:
448,192,108990,1,0,0:0:0:0:
64,192,108990,128,0,109134:0:0:0:0:
320,192,109134,1,0,0:0:0:0:
192,192,109134,1,0,0:0:0:0:
320,192,109278,128,0,109422:0:0:0:0:
448,192,109422,128,0,109567:0:0:0:0:
64,192,109422,1,0,0:0:0:0:
192,192,109567,1,0,0:0:0:0:
320,192,109567,1,0,0:0:0:0:
64,192,109711,128,0,109927:0:0:0:0:
448,192,109711,1,0,0:0:0:0:
320,192,109711,1,0,0:0:0:0:
64,192,109999,1,0,0:0:0:0:
192,192,109999,1,0,0:0:0:0:
448,192,109999,128,0,110143:0:0:0:0:
320,192,110143,1,0,0:0:0:0:
192,192,110143,1,0,0:0:0:0:
64,192,110288,128,0,110576:0:0:0:0:
320,192,110288,1,0,0:0:0:0:
448,192,110576,1,0,0:0:0:0:
320,192,110648,1,0,0:0:0:0:
192,192,110720,1,0,0:0:0:0:
64,192,110720,1,0,0:0:0:0:
320,192,110793,1,0,0:0:0:0:
448,192,110793,1,0,0:0:0:0:
192,192,110865,1,0,0:0:0:0:
64,192,110865,1,0,0:0:0:0:
320,192,111009,1,0,0:0:0:0:
448,192,111009,1,0,0:0:0:0:
64,192,111153,1,0,0:0:0:0:
192,192,111225,1,0,0:0:0:0:
448,192,111297,1,0,0:0:0:0:
64,192,111297,1,0,0:0:0:0:
320,192,111369,1,0,0:0:0:0:
64,192,111442,1,0,0:0:0:0:
192,192,111514,1,0,0:0:0:0:
320,192,111586,1,0,0:0:0:0:
448,192,111586,1,0,0:0:0:0:
192,192,111730,1,0,0:0:0:0:
320,192,111802,1,0,0:0:0:0:
448,192,111874,1,0,0:0:0:0:
64,192,111874,1,0,0:0:0:0:
192,192,111946,1,0,0:0:0:0:
448,192,112018,1,0,0:0:0:0:
320,192,112091,1,0,0:0:0:0:
64,192,112163,1,0,0:0:0:0:
192,192,112163,128,0,112379:0:0:0:0:
192,192,112451,1,0,0:0:0:0:
448,192,112451,128,0,112668:0:0:0:0:
448,192,112740,1,0,0:0:0:0:
64,192,112740,128,0,112956:0:0:0:0:
64,192,113028,1,0,0:0:0:0:
320,192,113028,128,0,113244:0:0:0:0:
448,192,113317,1,0,0:0:0:0:
320,192,113317,1,0,0:0:0:0:
192,192,113389,1,0,0:0:0:0:
64,192,113461,1,0,0:0:0:0:
448,192,113461,1,0,0:0:0:0:
320,192,113533,1,0,0:0:0:0:
192,192,113605,1,0,0:0:0:0:
448,192,113605,1,0,0:0:0:0:
64,192,113677,1,0,0:0:0:0:
320,192,113749,1,0,0:0:0:0:
448,192,113749,1,0,0:0:0:0:
192,192,113821,1,0,0:0:0:0:
448,192,113893,1,0,0:0:0:0:
64,192,113893,1,0,0:0:0:0:
320,192,113966,1,0,0:0:0:0:
64,192,114038,1,0,0:0:0:0:
448,192,114038,1,0,0:0:0:0:
192,192,114110,1,0,0:0:0:0:
320,192,114182,1,0,0:0:0:0:
448,192,114182,1,0,0:0:0:0:
192,192,114254,1,0,0:0:0:0:
320,192,114326,1,0,0:0:0:0:
448,192,114326,1,0,0:0:0:0:
64,192,114398,1,0,0:0:0:0:
192,192,114398,1,0,0:0:0:0:
320,192,114470,1,0,0:0:0:0:
448,192,114470,1,0,0:0:0:0:
64,192,114543,1,0,0:0:0:0:
192,192,114615,1,0,0:0:0:0:
320,192,114615,1,0,0:0:0:0:
448,192,114687,1,0,0:0:0:0:
320,192,114759,1,0,0:0:0:0:
192,192,114759,1,0,0:0:0:0:
64,192,114831,1,0,0:0:0:0:
448,192,114903,1,0,0:0:0:0:
320,192,114903,1,0,0:0:0:0:
192,192,114975,1,0,0:0:0:0:
64,192,115047,1,0,0:0:0:0:
448,192,115047,1,0,0:0:0:0:
320,192,115119,1,0,0:0:0:0:
192,192,115119,1,0,0:0:0:0:
64,192,115192,1,0,0:0:0:0:
448,192,115192,1,0,0:0:0:0:
320,192,115264,1,0,0:0:0:0:
192,192,115264,1,0,0:0:0:0:
64,192,115336,1,0,0:0:0:0:
448,192,115336,1,0,0:0:0:0:
320,192,115408,1,0,0:0:0:0:
64,192,115480,1,0,0:0:0:0:
192,192,115552,1,0,0:0:0:0:
320,192,115624,1,0,0:0:0:0:
64,192,115624,1,0,0:0:0:0:
448,192,115624,1,0,0:0:0:0:
192,192,115696,1,0,0:0:0:0:
320,192,115768,1,0,0:0:0:0:
448,192,115841,1,0,0:0:0:0:
64,192,115913,1,0,0:0:0:0:
192,192,115985,1,0,0:0:0:0:
320,192,115985,1,0,0:0:0:0:
448,192,115985,1,0,0:0:0:0:
64,192,116057,1,0,0:0:0:0:
192,192,116129,1,0,0:0:0:0:
320,192,116201,1,0,0:0:0:0:
448,192,116201,1,0,0:0:0:0:
64,192,116201,1,0,0:0:0:0:
192,192,116273,1,0,0:0:0:0:
320,192,116345,1,0,0:0:0:0:
64,192,116418,1,0,0:0:0:0:
192,192,116418,1,0,0:0:0:0:
448,192,116418,1,0,0:0:0:0:
320,192,116490,1,0,0:0:0:0:
64,192,116562,1,0,0:0:0:0:
192,192,116634,1,0,0:0:0:0:
320,192,116634,1,0,0:0:0:0:
448,192,116634,1,0,0:0:0:0:
64,192,116706,1,0,0:0:0:0:
448,192,116778,1,0,0:0:0:0:
192,192,116778,1,0,0:0:0:0:
320,192,116778,1,0,0:0:0:0:
64,192,116850,1,0,0:0:0:0:
192,192,116922,1,0,0:0:0:0:
448,192,116922,1,0,0:0:0:0:
320,192,116922,1,0,0:0:0:0:
64,192,116994,1,0,0:0:0:0:
192,192,117067,1,0,0:0:0:0:
448,192,117139,1,0,0:0:0:0:
64,192,117139,1,0,0:0:0:0:
320,192,117139,1,0,0:0:0:0:
192,192,117211,1,0,0:0:0:0:
448,192,117283,1,0,0:0:0:0:
320,192,117355,1,0,0:0:0:0:
192,192,117355,1,0,0:0:0:0:
64,192,117355,1,0,0:0:0:0:
448,192,117427,1,0,0:0:0:0:
192,192,117499,1,0,0:0:0:0:
320,192,117571,1,0,0:0:0:0:
64,192,117643,1,0,0:0:0:0:
192,192,117643,1,0,0:0:0:0:
320,192,117716,1,0,0:0:0:0:
448,192,117716,1,0,0:0:0:0:
192,192,117788,1,0,0:0:0:0:
64,192,117788,1,0,0:0:0:0:
320,192,117860,1,0,0:0:0:0:
448,192,117860,1,0,0:0:0:0:
64,192,117932,1,0,0:0:0:0:
192,192,117932,128,0,120240:0:0:0:0:
448,192,119663,128,0,120240:0:0:0:0:
320,192,120240,1,0,0:0:0:0:
64,192,120240,1,0,0:0:0:0:
