osu file format v14

[General]
AudioFilename: audio.mp3
AudioLeadIn: 0
PreviewTime: 73533
Countdown: 0
SampleSet: Normal
StackLeniency: 0.7
Mode: 1
LetterboxInBreaks: 0
WidescreenStoryboard: 1

[Editor]
Bookmarks: 11612,23225,42580,52902,63225,73548,94193,104515,114838,125160,135483
DistanceSpacing: 0.5
BeatDivisor: 4
GridSize: 16
TimelineZoom: 3.400004

[Metadata]
Title:ARTEMiS
TitleUnicode:ARTEMiS
Artist:BlackY
ArtistUnicode:BlackY
Creator:ikin5050
Version:Kantan
Source:WACCA Lily
Tags:-Dusk Dusk- _DUSK_ Rosemi Lovelock eyenine hard renaissance tunecore japan beatfloor electronic instrumental piano trance hardcore WAiKURO
BeatmapID:3047356
BeatmapSetID:1314196

[Difficulty]
HPDrainRate:8
CircleSize:5
OverallDifficulty:3
ApproachRate:5
SliderMultiplier:1.4
SliderTickRate:1

[Events]
//Background and Video events
0,0,"artemis.jpg",0,150
//Break Periods
//Storyboard Layer 0 (Background)
//Storyboard Layer 1 (Fail)
//Storyboard Layer 2 (Pass)
//Storyboard Layer 3 (Foreground)
//Storyboard Layer 4 (Overlay)
//Storyboard Sound Samples

[TimingPoints]
1275,322.58064516129,4,1,0,100,1,0
2565,-100,4,1,0,60,0,0
6395,-100,4,1,0,100,0,0
7726,-100,4,1,0,60,0,0
11557,-100,4,1,0,70,0,0
16718,-100,4,1,0,75,0,0
23129,-100,4,1,0,85,0,0
42605,-100,4,1,0,60,0,0
52524,-100,4,1,0,75,0,0
63129,-100,4,1,0,70,0,0
68331,-100,4,1,0,85,0,0
73452,-100,4,1,0,100,0,0
73533,-100,4,1,0,100,0,1
94178,-100,4,1,0,100,0,0
94420,-100,4,1,0,85,0,0
114904,-100,4,1,0,70,0,0
125226,-100,4,1,0,85,0,0
127807,-100,4,1,0,100,0,0
127887,-100,4,1,0,100,0,1
134258,-100,4,1,0,85,0,1
135468,-100,4,1,0,85,0,0
138008,-100,4,1,0,50,0,0
139339,-100,4,1,0,35,0,0
140629,-100,4,1,0,20,0,0

[HitObjects]
256,192,1275,5,4,0:0:0:0:
256,192,1920,1,4,0:0:0:0:
256,192,2404,1,4,0:0:0:0:
256,192,2887,1,8,0:0:0:0:
256,192,3855,1,0,0:0:0:0:
256,192,4339,1,8,0:0:0:0:
256,192,4984,1,8,0:0:0:0:
256,192,5629,1,8,0:0:0:0:
256,192,6436,5,4,0:0:0:0:
256,192,7081,1,4,0:0:0:0:
256,192,7565,1,4,0:0:0:0:
256,192,8049,1,8,0:0:0:0:
256,192,8694,1,0,0:0:0:0:
256,192,9016,1,0,0:0:0:0:
256,192,9500,1,8,0:0:0:0:
256,192,10145,1,8,0:0:0:0:
256,192,10791,1,8,0:0:0:0:
256,192,11597,1,4,0:0:0:0:
256,192,11920,1,8,0:0:0:0:
256,192,12242,1,0,0:0:0:0:
256,192,12887,1,0,0:0:0:0:
256,192,13210,1,8,0:0:0:0:
256,192,13533,1,0,0:0:0:0:
256,192,14178,1,0,0:0:0:0:
256,192,14500,1,8,0:0:0:0:
256,192,14823,1,0,0:0:0:0:
256,192,15468,1,0,0:0:0:0:
256,192,15791,1,8,0:0:0:0:
256,192,16113,1,0,0:0:0:0:
256,192,16758,1,0,0:0:0:0:
256,192,17404,1,8,0:0:0:0:
256,192,18049,1,0,0:0:0:0:
256,192,18694,1,8,0:0:0:0:
256,192,19339,1,0,0:0:0:0:
261,193,19662,1,0,0:0:0:0:
256,192,19984,1,0,0:0:0:0:
256,192,20307,1,8,0:0:0:0:
128,176,20629,2,0,L|192:144,8,70
256,192,23210,1,4,0:0:0:0:
256,192,23533,1,8,0:0:0:0:
256,192,23855,1,8,0:0:0:0:
256,192,24500,1,0,0:0:0:0:
256,192,24823,1,8,0:0:0:0:
256,192,25145,1,0,0:0:0:0:
256,192,25468,1,8,0:0:0:0:
256,192,25791,1,0,0:0:0:0:
256,192,26113,1,8,0:0:0:0:
256,192,27081,1,0,0:0:0:0:
256,192,27726,1,0,0:0:0:0:
256,192,28049,1,8,0:0:0:0:
256,192,28371,1,8,0:0:0:0:
256,192,28694,1,8,0:0:0:0:
256,192,29016,1,0,0:0:0:0:
256,192,29662,1,0,0:0:0:0:
256,192,30307,1,0,0:0:0:0:
256,192,30629,1,0,0:0:0:0:
261,193,30952,1,8,0:0:0:0:
256,192,31274,1,0,0:0:0:0:
256,192,32242,1,0,0:0:0:0:
256,192,32726,1,8,0:0:0:0:
256,192,33210,1,8,0:0:0:0:
256,192,33694,1,8,0:0:0:0:
256,192,34178,1,0,0:0:0:0:
256,192,34823,1,0,0:0:0:0:
256,192,35307,1,8,0:0:0:0:
256,192,35791,1,8,0:0:0:0:
256,192,36758,1,0,0:0:0:0:
256,192,37404,1,0,0:0:0:0:
256,192,37726,1,8,0:0:0:0:
256,192,38049,1,0,0:0:0:0:
256,192,38694,1,8,0:0:0:0:
256,192,39016,1,8,0:0:0:0:
256,192,39339,1,0,0:0:0:0:
256,192,39662,1,8,0:0:0:0:
256,192,39984,1,0,0:0:0:0:
256,192,40629,1,8,0:0:0:0:
256,192,40952,1,8,0:0:0:0:
256,192,41274,1,0,0:0:0:0:
256,192,42565,1,4,0:0:0:0:
256,192,44339,1,8,0:0:0:0:
256,192,45145,1,8,0:0:0:0:
256,192,45629,1,0,0:0:0:0:
256,192,46436,1,8,0:0:0:0:
256,192,47081,1,0,0:0:0:0:
256,192,47726,1,8,0:0:0:0:
256,192,49016,1,0,0:0:0:0:
256,192,50307,1,8,0:0:0:0:
256,192,50952,1,8,0:0:0:0:
256,192,51274,1,8,0:0:0:0:
256,192,51597,1,0,0:0:0:0:
256,192,52887,1,12,0:0:0:0:
256,192,53371,1,0,0:0:0:0:
256,192,54339,1,8,0:0:0:0:
256,192,54823,1,0,0:0:0:0:
256,192,55145,1,0,0:0:0:0:
256,192,55468,1,8,0:0:0:0:
256,192,55952,1,0,0:0:0:0:
256,192,56597,1,8,0:0:0:0:
256,192,56920,1,0,0:0:0:0:
256,192,57404,1,8,0:0:0:0:
256,192,58049,1,0,0:0:0:0:
256,192,58371,1,8,0:0:0:0:
256,192,58855,1,8,0:0:0:0:
256,192,59339,1,0,0:0:0:0:
256,192,59823,1,8,0:0:0:0:
256,192,60629,1,0,0:0:0:0:
256,192,60952,1,8,0:0:0:0:
256,192,61274,1,0,0:0:0:0:
256,192,61920,1,12,0:0:0:0:
256,192,63210,1,0,0:0:0:0:
256,192,64178,1,8,0:0:0:0:
256,192,64500,1,0,0:0:0:0:
256,192,65468,1,8,0:0:0:0:
256,192,65791,1,0,0:0:0:0:
256,192,66758,1,8,0:0:0:0:
256,192,67081,1,0,0:0:0:0:
256,192,67726,1,8,0:0:0:0:
256,192,68049,1,8,0:0:0:0:
256,192,68371,1,0,0:0:0:0:
256,192,69016,1,0,0:0:0:0:
256,192,69662,1,0,0:0:0:0:
256,192,70307,1,0,0:0:0:0:
256,192,70952,1,0,0:0:0:0:
256,192,71274,1,0,0:0:0:0:
256,192,71597,1,8,0:0:0:0:
256,192,71920,1,0,0:0:0:0:
256,192,72242,1,8,0:0:0:0:
256,192,73533,1,4,0:0:0:0:
256,192,73855,1,0,0:0:0:0:
256,192,74500,1,8,0:0:0:0:
256,192,74984,1,8,0:0:0:0:
256,192,75307,1,0,0:0:0:0:
256,192,75791,1,8,0:0:0:0:
256,192,76113,1,0,0:0:0:0:
256,192,76597,1,8,0:0:0:0:
256,192,77081,1,8,0:0:0:0:
256,192,77887,1,8,0:0:0:0:
256,192,78371,1,0,0:0:0:0:
256,192,78694,1,8,0:0:0:0:
256,192,79339,1,8,0:0:0:0:
256,192,79662,1,0,0:0:0:0:
256,192,79984,1,8,0:0:0:0:
256,192,80629,1,8,0:0:0:0:
256,192,81274,1,8,0:0:0:0:
256,192,81920,1,0,0:0:0:0:
256,192,83210,1,0,0:0:0:0:
256,192,84178,1,0,0:0:0:0:
256,192,84823,1,8,0:0:0:0:
256,192,85307,1,8,0:0:0:0:
256,192,85629,1,0,0:0:0:0:
256,192,86113,1,8,0:0:0:0:
256,192,86436,1,0,0:0:0:0:
256,192,86758,1,0,0:0:0:0:
256,192,87404,1,8,0:0:0:0:
256,192,87887,1,0,0:0:0:0:
256,192,88210,1,8,0:0:0:0:
256,192,88694,1,8,0:0:0:0:
256,192,89016,1,8,0:0:0:0:
256,192,89662,1,8,0:0:0:0:
256,192,90307,1,0,0:0:0:0:
256,192,90952,1,8,0:0:0:0:
256,192,91274,1,0,0:0:0:0:
256,192,91597,1,0,0:0:0:0:
256,192,92242,1,8,0:0:0:0:
256,192,92565,1,0,0:0:0:0:
256,192,92887,1,8,0:0:0:0:
256,192,93371,1,8,0:0:0:0:
256,192,94178,1,0,0:0:0:0:
256,192,94500,1,12,0:0:0:0:
256,192,95145,1,0,0:0:0:0:
256,192,95468,1,0,0:0:0:0:
256,192,96113,1,8,0:0:0:0:
256,192,96758,1,8,0:0:0:0:
256,192,97404,1,8,0:0:0:0:
256,192,97887,1,0,0:0:0:0:
256,192,98371,1,0,0:0:0:0:
256,192,98694,1,8,0:0:0:0:
256,192,99662,1,12,0:0:0:0:
256,192,100307,1,0,0:0:0:0:
256,192,100629,1,8,0:0:0:0:
256,192,101274,1,8,0:0:0:0:
256,192,101758,1,0,0:0:0:0:
256,192,102242,1,12,0:0:0:0:
256,192,102887,1,0,0:0:0:0:
256,192,103210,1,8,0:0:0:0:
256,192,103855,1,8,0:0:0:0:
256,192,104823,1,12,0:0:0:0:
256,192,105791,1,8,0:0:0:0:
256,192,106436,1,8,0:0:0:0:
256,192,107081,1,8,0:0:0:0:
256,192,107404,1,0,0:0:0:0:
256,192,108049,1,0,0:0:0:0:
256,192,108371,1,8,0:0:0:0:
256,192,109016,1,0,0:0:0:0:
256,192,109662,1,8,0:0:0:0:
256,192,110468,1,0,0:0:0:0:
256,192,110791,1,0,0:0:0:0:
256,192,111597,1,8,0:0:0:0:
256,192,111920,1,0,0:0:0:0:
256,192,112242,1,8,0:0:0:0:
256,192,112726,1,0,0:0:0:0:
256,192,113210,1,0,0:0:0:0:
256,192,113533,1,8,0:0:0:0:
256,192,114823,1,4,0:0:0:0:
256,192,117404,1,0,0:0:0:0:
256,192,119984,1,8,0:0:0:0:
256,192,121274,1,0,0:0:0:0:
256,192,121920,1,8,0:0:0:0:
256,192,122565,1,8,0:0:0:0:
256,192,123855,1,8,0:0:0:0:
256,192,124823,1,8,0:0:0:0:
256,192,125468,1,4,0:0:0:0:
256,192,125952,1,0,0:0:0:0:
256,192,126274,1,0,0:0:0:0:
256,192,126597,1,0,0:0:0:0:
256,192,127081,1,8,0:0:0:0:
256,192,128049,1,0,0:0:0:0:
256,192,128533,1,0,0:0:0:0:
256,192,128855,1,8,0:0:0:0:
256,192,129178,1,0,0:0:0:0:
256,192,129662,1,8,0:0:0:0:
256,192,130307,1,0,0:0:0:0:
256,192,130791,1,8,0:0:0:0:
256,192,131274,1,8,0:0:0:0:
256,192,131597,1,8,0:0:0:0:
256,192,131920,1,0,0:0:0:0:
256,192,132242,1,0,0:0:0:0:
256,192,132887,1,0,0:0:0:0:
256,192,133210,1,8,0:0:0:0:
256,192,133533,1,0,0:0:0:0:
256,192,134178,1,0,0:0:0:0:
256,192,134662,1,0,0:0:0:0:
256,192,135468,1,4,0:0:0:0:
256,192,136113,1,4,0:0:0:0:
256,192,136597,1,4,0:0:0:0:
256,192,136920,1,12,0:0:0:0:
256,192,137404,1,12,0:0:0:0:
256,192,137887,1,12,0:0:0:0:
256,192,138049,12,0,144500,0:0:0:0:
