osu file format v14

[General]
AudioFilename: audio.mp3
AudioLeadIn: 0
PreviewTime: 73533
Countdown: 0
SampleSet: Normal
StackLeniency: 0.7
Mode: 1
LetterboxInBreaks: 0
WidescreenStoryboard: 0

[Editor]
Bookmarks: 11612,23225,42580,52902,63225,73548,94193,104515,114838,125160,135483
DistanceSpacing: 0.5
BeatDivisor: 4
GridSize: 16
TimelineZoom: 3.400004

[Metadata]
Title:ARTEMiS
TitleUnicode:ARTEMiS
Artist:BlackY
ArtistUnicode:BlackY
Creator:ikin5050
Version:Crescent Moon
Source:WACCA Lily
Tags:-Dusk Dusk- _DUSK_ Rosemi Lovelock eyenine hard renaissance tunecore japan beatfloor electronic instrumental piano trance hardcore WAiKURO
BeatmapID:2723750
BeatmapSetID:1314196

[Difficulty]
HPDrainRate:5
CircleSize:5
OverallDifficulty:6.5
ApproachRate:5
SliderMultiplier:1.4
SliderTickRate:1

[Events]
//Background and Video events
0,0,"artemis.jpg",0,150
//Break Periods
//Storyboard Layer 0 (Background)
//Storyboard Layer 1 (Fail)
//Storyboard Layer 2 (Pass)
//Storyboard Layer 3 (Foreground)
//Storyboard Layer 4 (Overlay)
//Storyboard Sound Samples

[TimingPoints]
1275,322.58064516129,4,1,0,100,1,0
1275,-90.9090909090909,4,1,0,100,0,0
2565,-111.111111111111,4,1,0,60,0,0
5952,-111.111111111111,4,1,0,60,0,0
6033,-107.195267972091,4,1,0,60,0,0
6113,-103.546144821709,4,1,0,60,0,0
6194,-100.137187947488,4,1,0,60,0,0
6274,-96.9455369667874,4,1,0,60,0,0
6355,-93.9510552582527,4,1,0,60,0,0
6436,-91.136102655706,4,1,0,60,0,0
7726,-111.111111111111,4,1,0,60,0,0
10791,-111.111111111111,4,1,0,60,0,0
10844,-110.294077097766,4,1,0,60,0,0
10898,-109.489091054413,4,1,0,60,0,0
10952,-108.695652173913,4,1,0,60,0,0
11033,-107.52688172043,4,1,0,60,0,0
11113,-106.382978723404,4,1,0,60,0,0
11194,-105.263157894737,4,1,0,60,0,0
11274,-104.166666666667,4,1,0,60,0,0
11355,-103.092783505155,4,1,0,60,0,0
11436,-102.040816326531,4,1,0,60,0,0
11516,-101.010101010101,4,1,0,60,0,0
11557,-100,4,1,0,70,0,0
11597,-100,4,1,0,60,0,0
12847,-97.5609756097561,4,1,0,60,0,0
14137,-95.2380952380952,4,1,0,60,0,0
15428,-93.0232558139535,4,1,0,60,0,0
16718,-90.9090909090909,4,1,0,75,0,0
19339,-90.9090909090909,4,1,0,75,0,0
19420,-90.5243623690226,4,1,0,75,0,0
19500,-90.1427952018793,4,1,0,75,0,0
19581,-89.7645117797969,4,1,0,75,0,0
19662,-89.3893900157415,4,1,0,75,0,0
19742,-89.0173111965084,4,1,0,75,0,0
19823,-88.6483956413357,4,1,0,75,0,0
19904,-88.2825252686658,4,1,0,75,0,0
19984,-87.9195852305647,4,1,0,75,0,0
20065,-87.5596938212627,4,1,0,75,0,0
20145,-87.2027367706908,4,1,0,75,0,0
20226,-86.8486029099493,4,1,0,75,0,0
20307,-86.4974085376402,4,1,0,75,0,0
20387,-86.1490430133557,4,1,0,75,0,0
20468,-85.8033986726214,4,1,0,75,0,0
20549,-85.4605898489911,4,1,0,75,0,0
20629,-85.120509361128,4,1,0,75,0,0
20683,-84.8952647119249,4,1,0,75,0,0
20737,-84.6712089947919,4,1,0,75,0,0
20791,-84.4483328210135,4,1,0,75,0,0
20871,-84.1162452863359,4,1,0,75,0,0
20952,-83.7867593459941,4,1,0,75,0,0
21006,-83.5685090458733,4,1,0,75,0,0
21059,-83.3513928017737,4,1,0,75,0,0
21113,-83.1354017975537,4,1,0,75,0,0
21194,-82.8135403451006,4,1,0,75,0,0
21274,-82.4940934229109,4,1,0,75,0,0
21328,-82.2825170221957,4,1,0,75,0,0
21382,-82.0720231246132,4,1,0,75,0,0
21436,-81.8626704585456,4,1,0,75,0,0
21516,-81.5505034112576,4,1,0,75,0,0
21597,-81.2407740945919,4,1,0,75,0,0
21651,-81.0355697529874,4,1,0,75,0,0
21705,-80.8313994421017,4,1,0,75,0,0
21758,-80.6282553658104,4,1,0,75,0,0
21839,-80.3254788402607,4,1,0,75,0,0
21920,-80,4,1,0,75,0,0
22242,-84.2105263157895,4,1,0,75,0,0
22565,-88.8888888888889,4,1,0,75,0,0
22887,-94.1176470588235,4,1,0,75,0,0
23049,-96.969696969697,4,1,0,75,0,0
23210,-100,4,1,0,85,0,0
39984,-100,4,1,0,85,0,0
40065,-99.3788819875776,4,1,0,85,0,0
40145,-98.7654320987654,4,1,0,85,0,0
40226,-98.159509202454,4,1,0,85,0,0
40307,-97.5609756097561,4,1,0,85,0,0
40387,-96.969696969697,4,1,0,85,0,0
40468,-96.3855421686747,4,1,0,85,0,0
40549,-95.8083832335329,4,1,0,85,0,0
40629,-95.2380952380952,4,1,0,85,0,0
40710,-94.6745562130178,4,1,0,85,0,0
40791,-94.1176470588235,4,1,0,85,0,0
40871,-93.5672514619883,4,1,0,85,0,0
40952,-93.0232558139535,4,1,0,85,0,0
41033,-92.485549132948,4,1,0,85,0,0
41113,-91.9540229885058,4,1,0,85,0,0
41194,-91.4285714285714,4,1,0,85,0,0
41274,-90.9090909090909,4,1,0,85,0,0
41920,-93.75,4,1,0,85,0,0
41973,-95.5414018824293,4,1,0,85,0,0
42027,-97.7198728898981,4,1,0,85,0,0
42081,-100,4,1,0,85,0,0
42161,-103.448275862069,4,1,0,85,0,0
42242,-107.142857142857,4,1,0,85,0,0
42323,-111.111111111111,4,1,0,85,0,0
42403,-115.384615384615,4,1,0,85,0,0
42484,-120,4,1,0,85,0,0
42565,-125,4,1,0,85,0,0
42605,-125,4,1,0,60,0,0
52524,-125,4,1,0,75,0,0
52565,-125,4,1,0,75,0,0
52645,-121.212121212121,4,1,0,75,0,0
52726,-117.647058823529,4,1,0,75,0,0
52807,-114.285714285714,4,1,0,75,0,0
52887,-111.111111111111,4,1,0,75,0,0
63129,-106.382978723404,4,1,0,70,0,0
64460,-106.382978723404,4,1,0,70,0,0
65750,-104.166666666667,4,1,0,70,0,0
67041,-102.040816326531,4,1,0,70,0,0
67726,-102.040816326531,4,1,0,70,0,0
67807,-101.781170483461,4,1,0,70,0,0
67887,-101.522842639594,4,1,0,70,0,0
67968,-101.26582278481,4,1,0,70,0,0
68049,-101.010101010101,4,1,0,70,0,0
68129,-100.755667506297,4,1,0,70,0,0
68210,-100.502512562814,4,1,0,70,0,0
68291,-100.250626566416,4,1,0,70,0,0
68331,-100,4,1,0,85,0,0
68371,-100,4,1,0,85,0,0
68533,-99.3674269599728,4,1,0,85,0,0
68613,-99.0541320926473,4,1,0,85,0,0
68694,-98.7428065865402,4,1,0,85,0,0
68774,-98.433431930821,4,1,0,85,0,0
68855,-98.1259898459226,4,1,0,85,0,0
69016,-97.5168314051005,4,1,0,85,0,0
69178,-96.9151895176531,4,1,0,85,0,0
69258,-96.6171439392549,4,1,0,85,0,0
69339,-96.3209259137966,4,1,0,85,0,0
69500,-95.7339056944442,4,1,0,85,0,0
69662,-95.1539972291156,4,1,0,85,0,0
69823,-94.5810720575356,4,1,0,85,0,0
69984,-94.0150047947652,4,1,0,85,0,0
70145,-93.4555857001739,4,1,0,85,0,0
70307,-92.9028709774218,4,1,0,85,0,0
70468,-92.3566555438468,4,1,0,85,0,0
70549,-92.0859493416775,4,1,0,85,0,0
70629,-91.8168254332606,4,1,0,85,0,0
70791,-91.2832693285477,4,1,0,85,0,0
70844,-91.1067926491396,4,1,0,85,0,0
70898,-90.9309970129168,4,1,0,85,0,0
70952,-90.9090909090909,4,1,0,85,0,0
71113,-92.485549132948,4,1,0,85,0,0
71194,-93.2944606413994,4,1,0,85,0,0
71274,-94.1176470588235,4,1,0,85,0,0
71355,-94.9554896142433,4,1,0,85,0,0
71436,-95.8083832335329,4,1,0,85,0,0
71597,-97.5609756097561,4,1,0,85,0,0
71678,-98.4615384615385,4,1,0,85,0,0
71758,-99.3788819875776,4,1,0,85,0,0
71839,-100.313479623824,4,1,0,85,0,0
71920,-101.26582278481,4,1,0,85,0,0
72000,-102.23642172524,4,1,0,85,0,0
72081,-103.225806451613,4,1,0,85,0,0
72162,-104.234527687296,4,1,0,85,0,0
72242,-105.263157894737,4,1,0,85,0,0
72887,-90.9090909090909,4,1,0,85,0,0
72941,-91.8239074561931,4,1,0,85,0,0
72995,-92.7573227268427,4,1,0,85,0,0
73049,-93.709909729244,4,1,0,85,0,0
73102,-94.6822652542597,4,1,0,85,0,0
73156,-95.67501112222,4,1,0,85,0,0
73210,-96.6887020218575,4,1,0,85,0,0
73264,-97.7241988570178,4,1,0,85,0,0
73318,-98.7821153004606,4,1,0,85,0,0
73371,-99.8631874332165,4,1,0,85,0,0
73452,-100,4,1,0,100,0,0
73533,-100,4,1,0,100,0,1
94178,-100,4,1,0,100,0,0
94420,-100,4,1,0,85,0,0
94500,-100,4,1,0,85,0,0
94581,-98.6078543128117,4,1,0,85,0,0
94662,-97.2540323953182,4,1,0,85,0,0
94742,-95.9367891683527,4,1,0,85,0,0
94823,-94.6547515265445,4,1,0,85,0,0
94904,-93.4066139355195,4,1,0,85,0,0
94984,-92.190879371922,4,1,0,85,0,0
95065,-91.0063850079722,4,1,0,85,0,0
96758,-90.9090909090909,4,1,0,85,0,0
96839,-91.4603473663993,4,1,0,85,0,0
96920,-92.0183300513462,4,1,0,85,0,0
97000,-92.5831628260085,4,1,0,85,0,0
97081,-93.1548858340297,4,1,0,85,0,0
97162,-93.7338016274063,4,1,0,85,0,0
97242,-94.3199578201149,4,1,0,85,0,0
97323,-94.9134910985382,4,1,0,85,0,0
97404,-95.5145416113876,4,1,0,85,0,0
97484,-96.1232530800293,4,1,0,85,0,0
97565,-96.739679327311,4,1,0,85,0,0
97645,-97.3641575274177,4,1,0,85,0,0
97726,-97.9967504277558,4,1,0,85,0,0
97807,-98.6376172308081,4,1,0,85,0,0
97887,-99.2869213310008,4,1,0,85,0,0
97968,-99.9448304535896,4,1,0,85,0,0
103855,-100,4,1,0,85,0,0
103936,-99.1791929987424,4,1,0,85,0,0
104016,-98.3717507810717,4,1,0,85,0,0
104097,-97.5773495650002,4,1,0,85,0,0
104178,-96.7957696376837,4,1,0,85,0,0
104258,-96.0265186833996,4,1,0,85,0,0
104339,-95.2693980403085,4,1,0,85,0,0
104500,-93.7904178081742,4,1,0,85,0,0
104581,-93.0680150360685,4,1,0,85,0,0
104742,-91.6561720349687,4,1,0,85,0,0
104823,-90.9661514950287,4,1,0,85,0,0
106920,-89.8876404494382,4,1,0,85,0,0
107081,-88.8888888888889,4,1,0,85,0,0
107162,-87.9120879120879,4,1,0,85,0,0
107242,-86.9565217391304,4,1,0,85,0,0
107323,-87.3634836363827,4,1,0,85,0,0
107404,-87.7742726584896,4,1,0,85,0,0
107484,-88.1889430466987,4,1,0,85,0,0
107565,-88.6076285851754,4,1,0,85,0,0
107645,-89.0302293240647,4,1,0,85,0,0
107726,-89.4568804417738,4,1,0,85,0,0
107807,-89.8876404494382,4,1,0,85,0,0
107887,-90.3225689906363,4,1,0,85,0,0
107968,-90.7617268689201,4,1,0,85,0,0
108049,-91.2051760761527,4,1,0,85,0,0
108129,-91.6530638244441,4,1,0,85,0,0
108210,-92.1052873961283,4,1,0,85,0,0
108291,-92.5619957106771,4,1,0,85,0,0
108371,-93.0232558139535,4,1,0,85,0,0
108452,-93.4891360949401,4,1,0,85,0,0
108533,-93.9597063195419,4,1,0,85,0,0
108613,-94.4350376654148,4,1,0,85,0,0
108694,-94.9152928468988,4,1,0,85,0,0
108774,-95.4003667190097,4,1,0,85,0,0
108855,-95.8904240945786,4,1,0,85,0,0
108936,-96.3855421686747,4,1,0,85,0,0
109016,-96.8857997389896,4,1,0,85,0,0
109097,-97.3912772476446,4,1,0,85,0,0
109178,-97.9020568243118,4,1,0,85,0,0
109258,-98.4183191922612,4,1,0,85,0,0
109339,-98.9399572975144,4,1,0,85,0,0
109420,-99.4671544535921,4,1,0,85,0,0
109500,-100,4,1,0,85,0,0
111436,-100,4,1,0,85,0,0
111516,-99.009900990099,4,1,0,85,0,0
111597,-98.0392156862745,4,1,0,85,0,0
111678,-97.0873786407767,4,1,0,85,0,0
111758,-96.1538461538461,4,1,0,85,0,0
111839,-95.2380952380952,4,1,0,85,0,0
111920,-94.3396226415094,4,1,0,85,0,0
112000,-93.4579439252336,4,1,0,85,0,0
112081,-92.5925925925926,4,1,0,85,0,0
112162,-91.743119266055,4,1,0,85,0,0
112242,-90.9090909090909,4,1,0,85,0,0
113533,-90.9090909090909,4,1,0,85,0,0
113613,-91.4285714285714,4,1,0,85,0,0
113694,-91.9540229885058,4,1,0,85,0,0
113774,-92.485549132948,4,1,0,85,0,0
113855,-93.0232558139535,4,1,0,85,0,0
113936,-93.5672514619883,4,1,0,85,0,0
114016,-94.1176470588235,4,1,0,85,0,0
114070,-94.4882187364469,4,1,0,85,0,0
114124,-94.861630083279,4,1,0,85,0,0
114178,-95.2380952380952,4,1,0,85,0,0
114258,-95.8083832335329,4,1,0,85,0,0
114339,-96.3855421686747,4,1,0,85,0,0
114420,-96.969696969697,4,1,0,85,0,0
114500,-97.5609756097561,4,1,0,85,0,0
114581,-98.159509202454,4,1,0,85,0,0
114662,-98.7654320987654,4,1,0,85,0,0
114742,-99.3788819875776,4,1,0,85,0,0
114823,-100,4,1,0,85,0,0
114904,-100,4,1,0,70,0,0
114984,-111.111111111111,4,1,0,70,0,0
124500,-111.111111111111,4,1,0,70,0,0
124581,-109.58904109589,4,1,0,70,0,0
124662,-108.108108108108,4,1,0,70,0,0
124742,-106.666666666667,4,1,0,70,0,0
124823,-105.263157894737,4,1,0,70,0,0
124904,-103.896103896104,4,1,0,70,0,0
124984,-102.564102564103,4,1,0,70,0,0
125065,-101.26582278481,4,1,0,70,0,0
125145,-100,4,1,0,70,0,0
125226,-100,4,1,0,85,0,0
127807,-100,4,1,0,100,0,0
127887,-90.9090909090909,4,1,0,100,0,1
134178,-90.9090909090909,4,1,0,100,0,1
134258,-100,4,1,0,85,0,1
134339,-91.9540229885058,4,1,0,100,0,1
134420,-92.485549132948,4,1,0,100,0,1
134581,-93.5672514619883,4,1,0,100,0,1
134662,-94.1176470588235,4,1,0,100,0,1
134715,-94.4882187364469,4,1,0,100,0,1
134769,-94.861630083279,4,1,0,100,0,1
134823,-95.2380952380952,4,1,0,100,0,1
134904,-95.8083832335329,4,1,0,100,0,1
134984,-96.3855421686747,4,1,0,100,0,1
135065,-96.969696969697,4,1,0,100,0,1
135145,-97.5609756097561,4,1,0,100,0,1
135226,-98.159509202454,4,1,0,100,0,1
135307,-98.7654320987654,4,1,0,100,0,1
135387,-99.3788819875776,4,1,0,100,0,1
135468,-100,4,1,0,100,0,1
135549,-100,4,1,0,85,0,0
138008,-100,4,1,0,50,0,0
139339,-100,4,1,0,35,0,0
140629,-100,4,1,0,20,0,0

[HitObjects]
256,192,1275,5,4,0:0:0:0:
256,192,1920,1,4,0:0:0:0:
256,192,2404,1,4,0:0:0:0:
256,192,2645,1,8,0:0:0:0:
256,192,2726,1,0,0:0:0:0:
256,192,2887,1,8,0:0:0:0:
256,192,3049,1,8,0:0:0:0:
256,192,3129,1,8,0:0:0:0:
256,192,3210,1,0,0:0:0:0:
256,192,3291,1,8,0:0:0:0:
256,192,3371,1,0,0:0:0:0:
256,192,3533,1,0,0:0:0:0:
256,192,3694,1,8,0:0:0:0:
256,192,3855,1,0,0:0:0:0:
256,192,4016,1,0,0:0:0:0:
256,192,4178,1,8,0:0:0:0:
256,192,4339,1,8,0:0:0:0:
256,192,4420,1,8,0:0:0:0:
256,192,4500,1,8,0:0:0:0:
256,192,4581,1,8,0:0:0:0:
256,192,4662,1,0,0:0:0:0:
256,192,4823,1,0,0:0:0:0:
256,192,4984,1,8,0:0:0:0:
256,192,5145,1,8,0:0:0:0:
256,192,5226,1,8,0:0:0:0:
256,192,5307,1,0,0:0:0:0:
256,192,5387,1,8,0:0:0:0:
256,192,5468,1,0,0:0:0:0:
256,192,5629,1,8,0:0:0:0:
256,192,5710,1,8,0:0:0:0:
256,192,5791,1,0,0:0:0:0:
256,192,5952,1,8,0:0:0:0:
256,192,6033,1,8,0:0:0:0:
256,192,6113,1,0,0:0:0:0:
256,192,6194,1,0,0:0:0:0:
256,192,6274,1,8,0:0:0:0:
256,192,6355,1,8,0:0:0:0:
256,192,6436,1,4,0:0:0:0:
256,192,7081,1,4,0:0:0:0:
256,192,7565,1,4,0:0:0:0:
256,192,7807,1,8,0:0:0:0:
256,192,7887,1,0,0:0:0:0:
256,192,8049,1,8,0:0:0:0:
256,192,8210,1,8,0:0:0:0:
256,192,8291,1,8,0:0:0:0:
256,192,8371,1,0,0:0:0:0:
256,192,8452,1,8,0:0:0:0:
256,192,8533,1,0,0:0:0:0:
256,192,8694,1,0,0:0:0:0:
256,192,8774,1,0,0:0:0:0:
256,192,8855,1,8,0:0:0:0:
256,192,9016,1,0,0:0:0:0:
256,192,9178,1,0,0:0:0:0:
256,192,9339,1,8,0:0:0:0:
256,192,9500,1,8,0:0:0:0:
256,192,9581,1,8,0:0:0:0:
256,192,9662,1,8,0:0:0:0:
256,192,9742,1,8,0:0:0:0:
256,192,9823,1,0,0:0:0:0:
256,192,9984,1,0,0:0:0:0:
256,192,10145,1,8,0:0:0:0:
256,192,10307,1,8,0:0:0:0:
256,192,10387,1,8,0:0:0:0:
256,192,10468,1,0,0:0:0:0:
256,192,10549,1,8,0:0:0:0:
256,192,10629,1,0,0:0:0:0:
256,192,10791,1,8,0:0:0:0:
256,192,10844,1,8,0:0:0:0:
256,192,10898,1,8,0:0:0:0:
256,192,10952,1,0,0:0:0:0:
256,192,11033,1,8,0:0:0:0:
256,192,11113,1,0,0:0:0:0:
256,192,11194,1,8,0:0:0:0:
256,192,11274,1,0,0:0:0:0:
256,192,11355,1,0,0:0:0:0:
256,192,11436,1,8,0:0:0:0:
256,192,11516,1,8,0:0:0:0:
256,192,11597,1,4,0:0:0:0:
256,192,11758,1,8,0:0:0:0:
256,192,11920,1,0,0:0:0:0:
256,192,12081,1,8,0:0:0:0:
256,192,12162,1,8,0:0:0:0:
256,192,12242,1,0,0:0:0:0:
256,192,12323,1,8,0:0:0:0:
256,192,12484,1,0,0:0:0:0:
256,192,12565,1,8,0:0:0:0:
256,192,12726,1,8,0:0:0:0:
256,192,12887,1,0,0:0:0:0:
256,192,13049,1,0,0:0:0:0:
256,192,13210,1,8,0:0:0:0:
256,192,13371,1,8,0:0:0:0:
256,192,13452,1,8,0:0:0:0:
256,192,13533,1,0,0:0:0:0:
256,192,13613,1,8,0:0:0:0:
256,192,13774,1,0,0:0:0:0:
256,192,13855,1,8,0:0:0:0:
256,192,14016,1,0,0:0:0:0:
256,192,14178,1,12,0:0:0:0:
256,192,14339,1,0,0:0:0:0:
256,192,14500,1,0,0:0:0:0:
256,192,14662,1,8,0:0:0:0:
256,192,14742,1,8,0:0:0:0:
256,192,14823,1,0,0:0:0:0:
256,192,14904,1,8,0:0:0:0:
256,192,15065,1,0,0:0:0:0:
256,192,15145,1,8,0:0:0:0:
256,192,15307,1,0,0:0:0:0:
256,192,15468,1,0,0:0:0:0:
256,192,15629,1,8,0:0:0:0:
256,192,15791,1,0,0:0:0:0:
256,192,15952,1,8,0:0:0:0:
256,192,16033,1,8,0:0:0:0:
256,192,16113,1,0,0:0:0:0:
256,192,16194,1,8,0:0:0:0:
256,192,16355,1,0,0:0:0:0:
256,192,16436,1,8,0:0:0:0:
256,192,16597,1,0,0:0:0:0:
256,192,16758,1,4,0:0:0:0:
256,192,16920,1,8,0:0:0:0:
256,192,17000,1,0,0:0:0:0:
256,192,17081,1,8,0:0:0:0:
256,192,17242,1,0,0:0:0:0:
256,192,17404,1,0,0:0:0:0:
256,192,17484,1,8,0:0:0:0:
256,192,17645,1,0,0:0:0:0:
256,192,17726,1,8,0:0:0:0:
256,192,17887,1,0,0:0:0:0:
256,192,18049,1,0,0:0:0:0:
256,192,18210,1,8,0:0:0:0:
256,192,18291,1,0,0:0:0:0:
256,192,18371,1,8,0:0:0:0:
256,192,18533,1,0,0:0:0:0:
256,192,18694,1,0,0:0:0:0:
256,192,18774,1,8,0:0:0:0:
256,192,18936,1,0,0:0:0:0:
256,192,19016,1,8,0:0:0:0:
256,192,19178,1,0,0:0:0:0:
256,192,19339,1,0,0:0:0:0:
256,192,19420,1,0,0:0:0:0:
256,192,19500,1,8,0:0:0:0:
256,192,19581,1,8,0:0:0:0:
256,192,19662,1,0,0:0:0:0:
256,192,19742,1,0,0:0:0:0:
256,192,19823,1,8,0:0:0:0:
256,192,19904,1,8,0:0:0:0:
256,192,19984,1,0,0:0:0:0:
256,192,20065,1,8,0:0:0:0:
256,192,20145,1,0,0:0:0:0:
256,192,20226,1,0,0:0:0:0:
256,192,20307,1,8,0:0:0:0:
256,192,20387,1,8,0:0:0:0:
256,192,20468,1,0,0:0:0:0:
256,192,20549,1,0,0:0:0:0:
256,192,20629,1,8,0:0:0:0:
256,192,20683,1,8,0:0:0:0:
256,192,20737,1,8,0:0:0:0:
256,192,20791,1,0,0:0:0:0:
256,192,20871,1,0,0:0:0:0:
256,192,20952,1,8,0:0:0:0:
256,192,21006,1,0,0:0:0:0:
256,192,21059,1,0,0:0:0:0:
256,192,21113,1,8,0:0:0:0:
256,192,21194,1,0,0:0:0:0:
256,192,21274,1,8,0:0:0:0:
256,192,21328,1,8,0:0:0:0:
256,192,21382,1,8,0:0:0:0:
256,192,21436,1,0,0:0:0:0:
256,192,21516,1,0,0:0:0:0:
256,192,21597,1,8,0:0:0:0:
256,192,21651,1,0,0:0:0:0:
256,192,21705,1,0,0:0:0:0:
256,192,21758,1,8,0:0:0:0:
256,192,21839,1,8,0:0:0:0:
256,192,21920,1,4,0:0:0:0:
256,192,22242,1,8,0:0:0:0:
256,192,22565,1,0,0:0:0:0:
256,192,22887,1,0,0:0:0:0:
256,192,23049,1,8,0:0:0:0:
256,192,23210,1,0,0:0:0:0:
256,192,23371,1,8,0:0:0:0:
256,192,23533,1,0,0:0:0:0:
256,192,23694,1,8,0:0:0:0:
256,192,23774,1,8,0:0:0:0:
256,192,23855,1,0,0:0:0:0:
256,192,23936,1,8,0:0:0:0:
256,192,24016,1,8,0:0:0:0:
256,192,24097,1,8,0:0:0:0:
256,192,24178,1,0,0:0:0:0:
256,192,24339,1,8,0:0:0:0:
256,192,24500,1,0,0:0:0:0:
256,192,24662,1,8,0:0:0:0:
256,192,24823,1,0,0:0:0:0:
256,192,24984,1,0,0:0:0:0:
256,192,25145,1,8,0:0:0:0:
256,192,25226,1,8,0:0:0:0:
256,192,25307,1,0,0:0:0:0:
256,192,25387,1,0,0:0:0:0:
256,192,25468,1,8,0:0:0:0:
256,192,25549,1,8,0:0:0:0:
256,192,25629,1,8,0:0:0:0:
256,192,25710,1,8,0:0:0:0:
256,192,25791,1,0,0:0:0:0:
256,192,25871,1,8,0:0:0:0:
256,192,25952,1,8,0:0:0:0:
256,192,26033,1,8,0:0:0:0:
256,192,26113,1,0,0:0:0:0:
256,192,26274,1,0,0:0:0:0:
256,192,26436,1,0,0:0:0:0:
256,192,26516,1,8,0:0:0:0:
256,192,26597,1,8,0:0:0:0:
256,192,26678,1,0,0:0:0:0:
256,192,26839,1,8,0:0:0:0:
256,192,26920,1,0,0:0:0:0:
256,192,27081,1,8,0:0:0:0:
256,192,27162,1,0,0:0:0:0:
256,192,27242,1,8,0:0:0:0:
256,192,27323,1,8,0:0:0:0:
256,192,27404,1,0,0:0:0:0:
256,192,27484,1,8,0:0:0:0:
256,192,27565,1,0,0:0:0:0:
256,192,27645,1,0,0:0:0:0:
256,192,27726,1,8,0:0:0:0:
256,192,27807,1,8,0:0:0:0:
256,192,27887,1,8,0:0:0:0:
256,192,27968,1,8,0:0:0:0:
256,192,28049,1,0,0:0:0:0:
256,192,28129,1,8,0:0:0:0:
256,192,28210,1,0,0:0:0:0:
256,192,28291,1,0,0:0:0:0:
256,192,28371,1,8,0:0:0:0:
256,192,28452,1,8,0:0:0:0:
256,192,28533,1,0,0:0:0:0:
256,192,28613,1,0,0:0:0:0:
256,192,28694,1,8,0:0:0:0:
256,192,28774,1,0,0:0:0:0:
256,192,28855,1,8,0:0:0:0:
256,192,28936,1,8,0:0:0:0:
256,192,29016,1,0,0:0:0:0:
256,192,29097,1,0,0:0:0:0:
256,192,29178,1,8,0:0:0:0:
256,192,29258,1,0,0:0:0:0:
256,192,29339,1,8,0:0:0:0:
256,192,29420,1,8,0:0:0:0:
256,192,29500,1,0,0:0:0:0:
256,192,29581,1,8,0:0:0:0:
256,192,29662,1,0,0:0:0:0:
256,192,29823,1,8,0:0:0:0:
256,192,29984,1,0,0:0:0:0:
256,192,30145,1,0,0:0:0:0:
256,192,30307,1,0,0:0:0:0:
256,192,30387,1,0,0:0:0:0:
256,192,30468,1,8,0:0:0:0:
256,192,30549,1,8,0:0:0:0:
256,192,30629,1,0,0:0:0:0:
256,192,30710,1,8,0:0:0:0:
256,192,30791,1,0,0:0:0:0:
256,192,30871,1,8,0:0:0:0:
256,192,30952,1,0,0:0:0:0:
256,192,31033,1,0,0:0:0:0:
256,192,31113,1,8,0:0:0:0:
256,192,31194,1,8,0:0:0:0:
256,192,31274,1,0,0:0:0:0:
256,192,31355,1,0,0:0:0:0:
256,192,31436,1,8,0:0:0:0:
256,192,31516,1,8,0:0:0:0:
256,192,31597,1,0,0:0:0:0:
256,192,31678,1,8,0:0:0:0:
256,192,31758,1,8,0:0:0:0:
256,192,31839,1,0,0:0:0:0:
256,192,31920,1,8,0:0:0:0:
256,192,32000,1,8,0:0:0:0:
256,192,32081,1,0,0:0:0:0:
256,192,32162,1,8,0:0:0:0:
256,192,32242,1,0,0:0:0:0:
256,192,32404,1,8,0:0:0:0:
256,192,32565,1,8,0:0:0:0:
256,192,32726,1,0,0:0:0:0:
256,192,32887,1,8,0:0:0:0:
256,192,32968,1,8,0:0:0:0:
256,192,33049,1,8,0:0:0:0:
256,192,33210,1,0,0:0:0:0:
256,192,33371,1,8,0:0:0:0:
256,192,33452,1,0,0:0:0:0:
256,192,33533,1,8,0:0:0:0:
256,192,33694,1,0,0:0:0:0:
256,192,33855,1,8,0:0:0:0:
256,192,33936,1,8,0:0:0:0:
256,192,34016,1,8,0:0:0:0:
256,192,34097,1,8,0:0:0:0:
256,192,34178,1,0,0:0:0:0:
256,192,34339,1,8,0:0:0:0:
256,192,34420,1,8,0:0:0:0:
256,192,34500,1,0,0:0:0:0:
256,192,34581,1,8,0:0:0:0:
256,192,34662,1,8,0:0:0:0:
256,192,34823,1,0,0:0:0:0:
256,192,34984,1,8,0:0:0:0:
256,192,35145,1,8,0:0:0:0:
256,192,35307,1,0,0:0:0:0:
256,192,35387,1,8,0:0:0:0:
256,192,35468,1,8,0:0:0:0:
256,192,35549,1,8,0:0:0:0:
256,192,35629,1,8,0:0:0:0:
256,192,35710,1,8,0:0:0:0:
256,192,35791,1,0,0:0:0:0:
256,192,35952,1,8,0:0:0:0:
256,192,36033,1,8,0:0:0:0:
256,192,36113,1,8,0:0:0:0:
256,192,36194,1,8,0:0:0:0:
256,192,36274,1,0,0:0:0:0:
256,192,36436,1,8,0:0:0:0:
256,192,36597,1,0,0:0:0:0:
256,192,36678,1,8,0:0:0:0:
256,192,36758,1,0,0:0:0:0:
256,192,36839,1,8,0:0:0:0:
256,192,36920,1,8,0:0:0:0:
256,192,37000,1,0,0:0:0:0:
256,192,37081,1,8,0:0:0:0:
256,192,37162,1,8,0:0:0:0:
256,192,37242,1,0,0:0:0:0:
256,192,37404,1,0,0:0:0:0:
256,192,37565,1,0,0:0:0:0:
256,192,37726,1,8,0:0:0:0:
256,192,37887,1,0,0:0:0:0:
256,192,37968,1,8,0:0:0:0:
256,192,38049,1,0,0:0:0:0:
256,192,38129,1,0,0:0:0:0:
256,192,38210,1,8,0:0:0:0:
256,192,38291,1,8,0:0:0:0:
256,192,38371,1,0,0:0:0:0:
256,192,38533,1,8,0:0:0:0:
256,192,38694,1,0,0:0:0:0:
256,192,38855,1,0,0:0:0:0:
256,192,39016,1,8,0:0:0:0:
256,192,39178,1,0,0:0:0:0:
256,192,39258,1,8,0:0:0:0:
256,192,39339,1,0,0:0:0:0:
256,192,39420,1,0,0:0:0:0:
256,192,39500,1,8,0:0:0:0:
256,192,39581,1,8,0:0:0:0:
256,192,39662,1,0,0:0:0:0:
256,192,39823,1,8,0:0:0:0:
256,192,39984,1,0,0:0:0:0:
256,192,40065,1,0,0:0:0:0:
256,192,40145,1,8,0:0:0:0:
256,192,40226,1,0,0:0:0:0:
256,192,40307,1,8,0:0:0:0:
256,192,40387,1,0,0:0:0:0:
256,192,40468,1,8,0:0:0:0:
256,192,40549,1,0,0:0:0:0:
256,192,40629,1,8,0:0:0:0:
256,192,40710,1,8,0:0:0:0:
256,192,40791,1,8,0:0:0:0:
256,192,40871,1,8,0:0:0:0:
256,192,40952,1,8,0:0:0:0:
256,192,41033,1,8,0:0:0:0:
256,192,41113,1,8,0:0:0:0:
256,192,41194,1,8,0:0:0:0:
256,192,41274,1,0,0:0:0:0:
256,192,41920,1,8,0:0:0:0:
256,192,41973,1,8,0:0:0:0:
256,192,42027,1,8,0:0:0:0:
256,192,42081,1,0,0:0:0:0:
256,192,42162,1,0,0:0:0:0:
256,192,42242,1,8,0:0:0:0:
256,192,42323,1,8,0:0:0:0:
256,192,42404,1,0,0:0:0:0:
256,192,42484,1,0,0:0:0:0:
256,192,42565,1,12,0:0:0:0:
256,192,43049,1,0,0:0:0:0:
256,192,43371,1,0,0:0:0:0:
256,192,43533,1,8,0:0:0:0:
256,192,43694,1,8,0:0:0:0:
256,192,44016,1,8,0:0:0:0:
256,192,44178,1,0,0:0:0:0:
256,192,44339,1,8,0:0:0:0:
256,192,44662,1,0,0:0:0:0:
256,192,44823,1,8,0:0:0:0:
256,192,45105,1,8,0:0:0:0:
256,192,45145,1,0,0:0:0:0:
256,192,45629,1,0,0:0:0:0:
256,192,46113,1,0,0:0:0:0:
256,192,46436,1,0,0:0:0:0:
256,192,47081,1,8,0:0:0:0:
256,192,47242,1,8,0:0:0:0:
256,192,47323,1,0,0:0:0:0:
256,192,47565,1,8,0:0:0:0:
256,192,47726,1,0,0:0:0:0:
256,192,48210,1,0,0:0:0:0:
256,192,48533,1,0,0:0:0:0:
256,192,48774,1,8,0:0:0:0:
256,192,49016,1,8,0:0:0:0:
256,192,49500,1,8,0:0:0:0:
256,192,49823,1,0,0:0:0:0:
256,192,49984,1,8,0:0:0:0:
256,192,50307,1,8,0:0:0:0:
256,192,50629,1,0,0:0:0:0:
256,192,50737,1,8,0:0:0:0:
256,192,50844,1,8,0:0:0:0:
256,192,50952,1,8,0:0:0:0:
256,192,51059,1,0,0:0:0:0:
256,192,51167,1,0,0:0:0:0:
256,192,51274,1,8,0:0:0:0:
256,192,51382,1,8,0:0:0:0:
256,192,51490,1,0,0:0:0:0:
256,192,51597,1,8,0:0:0:0:
256,192,52027,1,0,0:0:0:0:
256,192,52135,1,8,0:0:0:0:
256,192,52242,1,0,0:0:0:0:
256,192,52565,1,8,0:0:0:0:
256,192,52645,1,8,0:0:0:0:
256,192,52726,1,8,0:0:0:0:
256,192,52807,1,8,0:0:0:0:
256,192,52887,1,0,0:0:0:0:
256,192,53049,1,8,0:0:0:0:
256,192,53210,1,8,0:0:0:0:
256,192,53371,1,0,0:0:0:0:
256,192,53533,1,8,0:0:0:0:
256,192,53613,1,0,0:0:0:0:
256,192,53694,1,8,0:0:0:0:
256,192,53855,1,0,0:0:0:0:
256,192,54016,1,8,0:0:0:0:
256,192,54097,1,8,0:0:0:0:
256,192,54178,1,0,0:0:0:0:
256,192,54339,1,0,0:0:0:0:
256,192,54500,1,8,0:0:0:0:
256,192,54662,1,8,0:0:0:0:
256,192,54823,1,0,0:0:0:0:
256,192,54984,1,8,0:0:0:0:
256,192,55038,1,8,0:0:0:0:
256,192,55092,1,8,0:0:0:0:
256,192,55145,1,0,0:0:0:0:
256,192,55307,1,8,0:0:0:0:
256,192,55361,1,8,0:0:0:0:
256,192,55414,1,8,0:0:0:0:
256,192,55468,1,0,0:0:0:0:
256,192,55629,1,8,0:0:0:0:
256,192,55791,1,8,0:0:0:0:
256,192,55952,1,0,0:0:0:0:
256,192,56113,1,0,0:0:0:0:
256,192,56194,1,8,0:0:0:0:
256,192,56274,1,8,0:0:0:0:
256,192,56355,1,8,0:0:0:0:
256,192,56436,1,0,0:0:0:0:
256,192,56597,1,0,0:0:0:0:
256,192,56758,1,8,0:0:0:0:
256,192,56839,1,8,0:0:0:0:
256,192,56920,1,0,0:0:0:0:
256,192,57081,1,0,0:0:0:0:
256,192,57242,1,8,0:0:0:0:
256,192,57323,1,8,0:0:0:0:
256,192,57404,1,0,0:0:0:0:
256,192,57565,1,8,0:0:0:0:
256,192,57645,1,0,0:0:0:0:
256,192,57807,1,8,0:0:0:0:
256,192,57887,1,0,0:0:0:0:
256,192,58049,1,0,0:0:0:0:
256,192,58210,1,8,0:0:0:0:
256,192,58371,1,0,0:0:0:0:
256,192,58533,1,8,0:0:0:0:
256,192,58613,1,8,0:0:0:0:
256,192,58694,1,0,0:0:0:0:
256,192,58774,1,8,0:0:0:0:
256,192,58855,1,0,0:0:0:0:
256,192,59016,1,8,0:0:0:0:
256,192,59178,1,8,0:0:0:0:
256,192,59231,1,8,0:0:0:0:
256,192,59285,1,8,0:0:0:0:
256,192,59339,1,0,0:0:0:0:
256,192,59500,1,8,0:0:0:0:
256,192,59581,1,0,0:0:0:0:
256,192,59742,1,8,0:0:0:0:
256,192,59823,1,0,0:0:0:0:
256,192,59984,1,8,0:0:0:0:
256,192,60065,1,0,0:0:0:0:
256,192,60226,1,8,0:0:0:0:
256,192,60307,1,0,0:0:0:0:
256,192,60387,1,0,0:0:0:0:
256,192,60468,1,8,0:0:0:0:
256,192,60522,1,8,0:0:0:0:
256,192,60576,1,8,0:0:0:0:
256,192,60629,1,0,0:0:0:0:
256,192,60791,1,0,0:0:0:0:
256,192,60952,1,8,0:0:0:0:
256,192,61113,1,8,0:0:0:0:
256,192,61274,1,0,0:0:0:0:
256,192,61355,1,0,0:0:0:0:
256,192,61436,1,0,0:0:0:0:
256,192,61516,1,0,0:0:0:0:
256,192,61597,1,8,0:0:0:0:
256,192,61678,1,8,0:0:0:0:
256,192,61758,1,8,0:0:0:0:
256,192,61839,1,8,0:0:0:0:
256,192,61920,1,0,0:0:0:0:
256,192,62887,1,8,0:0:0:0:
256,192,63210,1,4,0:0:0:0:
256,192,63533,1,8,0:0:0:0:
256,192,63774,1,8,0:0:0:0:
256,192,63855,1,0,0:0:0:0:
256,192,64097,1,8,0:0:0:0:
256,192,64178,1,0,0:0:0:0:
256,192,64339,1,0,0:0:0:0:
256,192,64500,1,8,0:0:0:0:
256,192,64662,1,0,0:0:0:0:
256,192,64823,1,8,0:0:0:0:
256,192,65065,1,8,0:0:0:0:
256,192,65145,1,0,0:0:0:0:
256,192,65307,1,8,0:0:0:0:
256,192,65387,1,0,0:0:0:0:
256,192,65468,1,8,0:0:0:0:
256,192,65629,1,0,0:0:0:0:
256,192,65791,1,0,0:0:0:0:
256,192,65952,1,8,0:0:0:0:
256,192,66113,1,8,0:0:0:0:
256,192,66274,1,0,0:0:0:0:
256,192,66355,1,0,0:0:0:0:
256,192,66436,1,8,0:0:0:0:
256,192,66597,1,8,0:0:0:0:
256,192,66678,1,0,0:0:0:0:
256,192,66758,1,8,0:0:0:0:
256,192,66920,1,0,0:0:0:0:
256,192,67081,1,0,0:0:0:0:
256,192,67242,1,8,0:0:0:0:
256,192,67323,1,8,0:0:0:0:
256,192,67404,1,0,0:0:0:0:
256,192,67565,1,8,0:0:0:0:
256,192,67619,1,8,0:0:0:0:
256,192,67672,1,8,0:0:0:0:
256,192,67726,1,0,0:0:0:0:
256,192,67807,1,8,0:0:0:0:
256,192,67887,1,0,0:0:0:0:
256,192,67968,1,0,0:0:0:0:
256,192,68049,1,8,0:0:0:0:
256,192,68129,1,8,0:0:0:0:
256,192,68210,1,0,0:0:0:0:
256,192,68291,1,8,0:0:0:0:
256,192,68371,1,0,0:0:0:0:
256,192,68533,1,8,0:0:0:0:
256,192,68613,1,8,0:0:0:0:
256,192,68694,1,0,0:0:0:0:
256,192,68774,1,0,0:0:0:0:
256,192,68855,1,8,0:0:0:0:
256,192,69016,1,0,0:0:0:0:
256,192,69178,1,8,0:0:0:0:
256,192,69258,1,8,0:0:0:0:
256,192,69339,1,0,0:0:0:0:
256,192,69500,1,0,0:0:0:0:
256,192,69662,1,0,0:0:0:0:
256,192,69823,1,8,0:0:0:0:
256,192,69984,1,8,0:0:0:0:
256,192,70145,1,8,0:0:0:0:
256,192,70307,1,0,0:0:0:0:
256,192,70468,1,8,0:0:0:0:
256,192,70549,1,8,0:0:0:0:
256,192,70629,1,0,0:0:0:0:
256,192,70791,1,8,0:0:0:0:
256,192,70844,1,8,0:0:0:0:
256,192,70898,1,8,0:0:0:0:
256,192,70952,1,0,0:0:0:0:
256,192,71113,1,8,0:0:0:0:
256,192,71194,1,8,0:0:0:0:
256,192,71274,1,0,0:0:0:0:
256,192,71355,1,8,0:0:0:0:
256,192,71436,1,0,0:0:0:0:
256,192,71597,1,0,0:0:0:0:
256,192,71678,1,0,0:0:0:0:
256,192,71758,1,8,0:0:0:0:
256,192,71839,1,8,0:0:0:0:
256,192,71920,1,0,0:0:0:0:
256,192,72000,1,8,0:0:0:0:
256,192,72081,1,0,0:0:0:0:
256,192,72162,1,8,0:0:0:0:
256,192,72242,1,0,0:0:0:0:
256,192,72887,1,0,0:0:0:0:
256,192,72941,1,8,0:0:0:0:
256,192,72995,1,8,0:0:0:0:
256,192,73049,1,0,0:0:0:0:
256,192,73102,1,0,0:0:0:0:
256,192,73156,1,8,0:0:0:0:
256,192,73210,1,0,0:0:0:0:
256,192,73264,1,8,0:0:0:0:
256,192,73318,1,8,0:0:0:0:
256,192,73371,1,0,0:0:0:0:
256,192,73533,1,0,0:0:0:0:
256,192,73694,1,8,0:0:0:0:
256,192,73774,1,8,0:0:0:0:
256,192,73855,1,0,0:0:0:0:
256,192,73936,1,8,0:0:0:0:
256,192,74016,1,0,0:0:0:0:
256,192,74178,1,8,0:0:0:0:
256,192,74258,1,8,0:0:0:0:
256,192,74339,1,0,0:0:0:0:
256,192,74420,1,0,0:0:0:0:
256,192,74500,1,8,0:0:0:0:
256,192,74662,1,8,0:0:0:0:
256,192,74823,1,0,0:0:0:0:
256,192,74904,1,0,0:0:0:0:
256,192,74984,1,8,0:0:0:0:
256,192,75145,1,0,0:0:0:0:
256,192,75226,1,0,0:0:0:0:
256,192,75307,1,8,0:0:0:0:
256,192,75387,1,8,0:0:0:0:
256,192,75468,1,0,0:0:0:0:
256,192,75549,1,0,0:0:0:0:
256,192,75629,1,8,0:0:0:0:
256,192,75791,1,8,0:0:0:0:
256,192,75871,1,0,0:0:0:0:
256,192,75952,1,8,0:0:0:0:
256,192,76033,1,0,0:0:0:0:
256,192,76113,1,8,0:0:0:0:
256,192,76274,1,0,0:0:0:0:
256,192,76355,1,0,0:0:0:0:
256,192,76436,1,8,0:0:0:0:
256,192,76516,1,0,0:0:0:0:
256,192,76597,1,8,0:0:0:0:
256,192,76758,1,8,0:0:0:0:
256,192,76839,1,8,0:0:0:0:
256,192,76920,1,0,0:0:0:0:
256,192,77000,1,0,0:0:0:0:
256,192,77081,1,8,0:0:0:0:
256,192,77242,1,8,0:0:0:0:
256,192,77404,1,0,0:0:0:0:
256,192,77565,1,8,0:0:0:0:
256,192,77726,1,0,0:0:0:0:
256,192,77887,1,8,0:0:0:0:
256,192,78049,1,0,0:0:0:0:
256,192,78129,1,8,0:0:0:0:
256,192,78291,1,8,0:0:0:0:
256,192,78371,1,0,0:0:0:0:
256,192,78533,1,8,0:0:0:0:
256,192,78613,1,8,0:0:0:0:
256,192,78694,1,0,0:0:0:0:
256,192,78855,1,0,0:0:0:0:
256,192,79016,1,8,0:0:0:0:
256,192,79097,1,0,0:0:0:0:
256,192,79178,1,8,0:0:0:0:
256,192,79339,1,0,0:0:0:0:
256,192,79500,1,8,0:0:0:0:
256,192,79581,1,8,0:0:0:0:
256,192,79662,1,0,0:0:0:0:
256,192,79742,1,0,0:0:0:0:
256,192,79823,1,8,0:0:0:0:
256,192,79904,1,0,0:0:0:0:
256,192,79984,1,8,0:0:0:0:
256,192,80145,1,0,0:0:0:0:
256,192,80307,1,8,0:0:0:0:
256,192,80387,1,8,0:0:0:0:
256,192,80468,1,0,0:0:0:0:
256,192,80549,1,0,0:0:0:0:
256,192,80629,1,8,0:0:0:0:
256,192,80710,1,0,0:0:0:0:
256,192,80871,1,8,0:0:0:0:
256,192,80952,1,0,0:0:0:0:
256,192,81113,1,8,0:0:0:0:
256,192,81274,1,8,0:0:0:0:
256,192,81436,1,0,0:0:0:0:
256,192,81516,1,0,0:0:0:0:
256,192,81597,1,8,0:0:0:0:
256,192,81758,1,8,0:0:0:0:
256,192,81920,1,0,0:0:0:0:
256,192,82081,1,0,0:0:0:0:
256,192,82162,1,8,0:0:0:0:
256,192,82242,1,0,0:0:0:0:
256,192,82404,1,8,0:0:0:0:
256,192,82484,1,0,0:0:0:0:
256,192,82565,1,8,0:0:0:0:
256,192,82726,1,0,0:0:0:0:
256,192,82887,1,8,0:0:0:0:
256,192,82968,1,0,0:0:0:0:
256,192,83049,1,0,0:0:0:0:
256,192,83129,1,0,0:0:0:0:
256,192,83210,1,8,0:0:0:0:
256,192,83291,1,8,0:0:0:0:
256,192,83371,1,0,0:0:0:0:
256,192,83452,1,8,0:0:0:0:
256,192,83533,1,8,0:0:0:0:
256,192,83613,1,0,0:0:0:0:
256,192,83694,1,8,0:0:0:0:
256,192,83774,1,8,0:0:0:0:
256,192,83855,1,0,0:0:0:0:
256,192,84016,1,8,0:0:0:0:
256,192,84097,1,8,0:0:0:0:
256,192,84178,1,0,0:0:0:0:
256,192,84258,1,0,0:0:0:0:
256,192,84339,1,8,0:0:0:0:
256,192,84500,1,0,0:0:0:0:
256,192,84581,1,0,0:0:0:0:
256,192,84662,1,8,0:0:0:0:
256,192,84742,1,0,0:0:0:0:
256,192,84823,1,8,0:0:0:0:
256,192,84984,1,8,0:0:0:0:
256,192,85145,1,0,0:0:0:0:
256,192,85226,1,0,0:0:0:0:
256,192,85307,1,8,0:0:0:0:
256,192,85468,1,0,0:0:0:0:
256,192,85629,1,8,0:0:0:0:
256,192,85791,1,0,0:0:0:0:
256,192,85871,1,0,0:0:0:0:
256,192,85952,1,8,0:0:0:0:
256,192,86113,1,8,0:0:0:0:
256,192,86194,1,8,0:0:0:0:
256,192,86274,1,0,0:0:0:0:
256,192,86355,1,0,0:0:0:0:
256,192,86436,1,8,0:0:0:0:
256,192,86597,1,0,0:0:0:0:
256,192,86678,1,0,0:0:0:0:
256,192,86758,1,8,0:0:0:0:
256,192,86839,1,8,0:0:0:0:
256,192,86920,1,0,0:0:0:0:
256,192,87081,1,0,0:0:0:0:
256,192,87162,1,0,0:0:0:0:
256,192,87242,1,8,0:0:0:0:
256,192,87323,1,0,0:0:0:0:
256,192,87404,1,8,0:0:0:0:
256,192,87565,1,8,0:0:0:0:
256,192,87726,1,0,0:0:0:0:
256,192,87887,1,8,0:0:0:0:
256,192,87968,1,8,0:0:0:0:
256,192,88049,1,0,0:0:0:0:
256,192,88210,1,8,0:0:0:0:
256,192,88291,1,8,0:0:0:0:
256,192,88371,1,0,0:0:0:0:
256,192,88452,1,8,0:0:0:0:
256,192,88533,1,0,0:0:0:0:
256,192,88694,1,8,0:0:0:0:
256,192,88855,1,8,0:0:0:0:
256,192,88936,1,0,0:0:0:0:
256,192,89016,1,8,0:0:0:0:
256,192,89178,1,0,0:0:0:0:
256,192,89339,1,8,0:0:0:0:
256,192,89500,1,8,0:0:0:0:
256,192,89662,1,0,0:0:0:0:
256,192,89823,1,0,0:0:0:0:
256,192,89904,1,8,0:0:0:0:
256,192,89984,1,0,0:0:0:0:
256,192,90065,1,0,0:0:0:0:
256,192,90145,1,8,0:0:0:0:
256,192,90226,1,0,0:0:0:0:
256,192,90307,1,8,0:0:0:0:
256,192,90468,1,8,0:0:0:0:
256,192,90629,1,0,0:0:0:0:
256,192,90791,1,0,0:0:0:0:
256,192,90871,1,8,0:0:0:0:
256,192,90952,1,0,0:0:0:0:
256,192,91033,1,8,0:0:0:0:
256,192,91113,1,8,0:0:0:0:
256,192,91194,1,0,0:0:0:0:
256,192,91274,1,8,0:0:0:0:
256,192,91355,1,8,0:0:0:0:
256,192,91436,1,0,0:0:0:0:
256,192,91516,1,8,0:0:0:0:
256,192,91597,1,0,0:0:0:0:
256,192,91758,1,0,0:0:0:0:
256,192,91839,1,0,0:0:0:0:
256,192,91920,1,8,0:0:0:0:
256,192,92000,1,8,0:0:0:0:
256,192,92081,1,0,0:0:0:0:
256,192,92162,1,0,0:0:0:0:
256,192,92242,1,8,0:0:0:0:
256,192,92404,1,8,0:0:0:0:
256,192,92457,1,8,0:0:0:0:
256,192,92511,1,8,0:0:0:0:
256,192,92565,1,0,0:0:0:0:
256,192,92726,1,8,0:0:0:0:
256,192,92780,1,8,0:0:0:0:
256,192,92834,1,8,0:0:0:0:
256,192,92887,1,0,0:0:0:0:
256,192,93049,1,0,0:0:0:0:
256,192,93210,1,8,0:0:0:0:
256,192,93371,1,8,0:0:0:0:
256,192,93425,1,8,0:0:0:0:
256,192,93479,1,8,0:0:0:0:
256,192,93533,1,0,0:0:0:0:
256,192,93613,1,0,0:0:0:0:
256,192,93694,1,8,0:0:0:0:
256,192,93774,1,8,0:0:0:0:
256,192,93855,1,0,0:0:0:0:
256,192,93936,1,8,0:0:0:0:
256,192,94016,1,0,0:0:0:0:
256,192,94097,1,0,0:0:0:0:
256,192,94178,1,8,0:0:0:0:
256,192,94500,5,0,0:0:0:0:
256,192,94581,1,8,0:0:0:0:
256,192,94662,1,0,0:0:0:0:
256,192,94742,1,0,0:0:0:0:
256,192,94823,1,8,0:0:0:0:
256,192,94904,1,0,0:0:0:0:
256,192,94984,1,8,0:0:0:0:
256,192,95065,1,0,0:0:0:0:
256,192,95145,5,8,0:0:0:0:
256,192,95226,1,8,0:0:0:0:
256,192,95307,1,8,0:0:0:0:
256,192,95387,1,8,0:0:0:0:
256,192,95468,1,0,0:0:0:0:
256,192,95549,1,0,0:0:0:0:
256,192,95629,1,8,0:0:0:0:
256,192,95710,1,0,0:0:0:0:
256,192,95791,1,8,0:0:0:0:
256,192,95871,1,0,0:0:0:0:
256,192,95952,1,8,0:0:0:0:
256,192,96033,1,8,0:0:0:0:
256,192,96113,1,0,0:0:0:0:
256,192,96194,1,8,0:0:0:0:
256,192,96274,1,0,0:0:0:0:
256,192,96355,1,8,0:0:0:0:
256,192,96436,1,0,0:0:0:0:
256,192,96516,1,8,0:0:0:0:
256,192,96597,1,0,0:0:0:0:
256,192,96678,1,0,0:0:0:0:
256,192,96758,1,8,0:0:0:0:
256,192,96839,1,8,0:0:0:0:
256,192,96920,1,8,0:0:0:0:
256,192,97000,1,8,0:0:0:0:
256,192,97081,5,0,0:0:0:0:
256,192,97162,1,0,0:0:0:0:
256,192,97242,1,8,0:0:0:0:
256,192,97323,1,8,0:0:0:0:
256,192,97404,1,0,0:0:0:0:
256,192,97484,1,0,0:0:0:0:
256,192,97565,1,8,0:0:0:0:
256,192,97645,1,0,0:0:0:0:
256,192,97726,1,8,0:0:0:0:
256,192,97807,1,8,0:0:0:0:
256,192,97887,1,0,0:0:0:0:
256,192,97968,1,0,0:0:0:0:
256,192,98049,1,8,0:0:0:0:
256,192,98129,1,0,0:0:0:0:
256,192,98210,1,8,0:0:0:0:
256,192,98291,1,8,0:0:0:0:
256,192,98371,1,0,0:0:0:0:
256,192,98452,1,0,0:0:0:0:
256,192,98533,1,8,0:0:0:0:
256,192,98613,1,8,0:0:0:0:
256,192,98694,1,0,0:0:0:0:
256,192,98774,1,8,0:0:0:0:
256,192,98855,1,8,0:0:0:0:
256,192,98936,1,0,0:0:0:0:
256,192,99016,1,8,0:0:0:0:
256,192,99097,1,8,0:0:0:0:
256,192,99178,1,0,0:0:0:0:
256,192,99339,1,8,0:0:0:0:
256,192,99500,1,0,0:0:0:0:
256,192,99581,1,0,0:0:0:0:
256,192,99662,1,8,0:0:0:0:
256,192,99742,1,0,0:0:0:0:
256,192,99823,1,8,0:0:0:0:
256,192,99904,1,8,0:0:0:0:
256,192,99984,1,0,0:0:0:0:
256,192,100065,1,8,0:0:0:0:
256,192,100145,1,0,0:0:0:0:
256,192,100226,1,8,0:0:0:0:
256,192,100307,1,0,0:0:0:0:
256,192,100387,1,0,0:0:0:0:
256,192,100468,1,8,0:0:0:0:
256,192,100549,1,8,0:0:0:0:
256,192,100629,1,0,0:0:0:0:
256,192,100710,1,8,0:0:0:0:
256,192,100791,1,0,0:0:0:0:
256,192,100871,1,8,0:0:0:0:
256,192,100952,1,8,0:0:0:0:
256,192,101033,1,0,0:0:0:0:
256,192,101113,1,8,0:0:0:0:
256,192,101194,1,8,0:0:0:0:
256,192,101274,1,0,0:0:0:0:
256,192,101355,1,8,0:0:0:0:
256,192,101436,1,0,0:0:0:0:
256,192,101516,1,8,0:0:0:0:
256,192,101597,1,0,0:0:0:0:
256,192,101758,1,8,0:0:0:0:
256,192,101920,1,0,0:0:0:0:
256,192,102081,1,8,0:0:0:0:
256,192,102162,1,8,0:0:0:0:
256,192,102242,1,0,0:0:0:0:
256,192,102404,1,8,0:0:0:0:
256,192,102484,1,8,0:0:0:0:
256,192,102565,1,0,0:0:0:0:
256,192,102645,1,8,0:0:0:0:
256,192,102726,1,0,0:0:0:0:
256,192,102807,1,0,0:0:0:0:
256,192,102887,1,8,0:0:0:0:
256,192,102968,1,0,0:0:0:0:
256,192,103049,1,8,0:0:0:0:
256,192,103129,1,8,0:0:0:0:
256,192,103210,1,0,0:0:0:0:
256,192,103291,1,8,0:0:0:0:
256,192,103371,1,0,0:0:0:0:
256,192,103452,1,8,0:0:0:0:
256,192,103533,1,0,0:0:0:0:
256,192,103613,1,0,0:0:0:0:
256,192,103694,1,8,0:0:0:0:
256,192,103774,1,8,0:0:0:0:
256,192,103855,5,0,0:0:0:0:
256,192,103936,1,8,0:0:0:0:
256,192,104016,1,8,0:0:0:0:
256,192,104097,1,0,0:0:0:0:
256,192,104178,1,8,0:0:0:0:
256,192,104258,1,8,0:0:0:0:
256,192,104339,1,0,0:0:0:0:
256,192,104500,1,8,0:0:0:0:
256,192,104581,1,0,0:0:0:0:
256,192,104742,1,0,0:0:0:0:
256,192,104823,1,8,0:0:0:0:
256,192,104984,5,8,0:0:0:0:
256,192,105065,1,8,0:0:0:0:
256,192,105145,1,0,0:0:0:0:
256,192,105226,1,0,0:0:0:0:
256,192,105307,1,8,0:0:0:0:
256,192,105387,1,0,0:0:0:0:
256,192,105468,1,8,0:0:0:0:
256,192,105549,1,8,0:0:0:0:
256,192,105629,1,0,0:0:0:0:
256,192,105710,1,0,0:0:0:0:
256,192,105791,5,8,0:0:0:0:
256,192,105871,1,0,0:0:0:0:
256,192,105952,1,8,0:0:0:0:
256,192,106033,1,8,0:0:0:0:
256,192,106113,1,0,0:0:0:0:
256,192,106194,1,0,0:0:0:0:
256,192,106274,1,8,0:0:0:0:
256,192,106355,1,0,0:0:0:0:
256,192,106436,1,8,0:0:0:0:
256,192,106597,1,0,0:0:0:0:
256,192,106678,1,8,0:0:0:0:
256,192,106758,1,0,0:0:0:0:
256,192,106920,1,8,0:0:0:0:
256,192,107081,1,0,0:0:0:0:
256,192,107162,1,8,0:0:0:0:
256,192,107242,5,0,0:0:0:0:
256,192,107323,1,8,0:0:0:0:
256,192,107404,1,0,0:0:0:0:
256,192,107484,1,0,0:0:0:0:
256,192,107565,1,8,0:0:0:0:
256,192,107645,1,8,0:0:0:0:
256,192,107726,1,0,0:0:0:0:
256,192,107807,1,0,0:0:0:0:
256,192,107887,1,0,0:0:0:0:
256,192,107968,1,0,0:0:0:0:
256,192,108049,1,8,0:0:0:0:
256,192,108129,1,0,0:0:0:0:
256,192,108210,1,8,0:0:0:0:
256,192,108291,1,8,0:0:0:0:
256,192,108371,1,0,0:0:0:0:
256,192,108452,1,8,0:0:0:0:
256,192,108533,1,0,0:0:0:0:
256,192,108613,1,8,0:0:0:0:
256,192,108694,1,0,0:0:0:0:
256,192,108774,1,0,0:0:0:0:
256,192,108855,1,8,0:0:0:0:
256,192,108936,1,8,0:0:0:0:
256,192,109016,1,0,0:0:0:0:
256,192,109097,1,8,0:0:0:0:
256,192,109178,1,0,0:0:0:0:
256,192,109258,1,8,0:0:0:0:
256,192,109339,1,8,0:0:0:0:
256,192,109420,1,8,0:0:0:0:
256,192,109500,1,0,0:0:0:0:
256,192,109662,1,0,0:0:0:0:
256,192,109823,1,0,0:0:0:0:
256,192,109904,1,8,0:0:0:0:
256,192,109984,1,0,0:0:0:0:
256,192,110145,1,0,0:0:0:0:
256,192,110307,1,0,0:0:0:0:
256,192,110468,1,8,0:0:0:0:
256,192,110549,1,8,0:0:0:0:
256,192,110629,1,0,0:0:0:0:
256,192,110710,1,0,0:0:0:0:
256,192,110791,1,8,0:0:0:0:
256,192,110871,1,8,0:0:0:0:
256,192,110952,1,0,0:0:0:0:
256,192,111113,1,0,0:0:0:0:
256,192,111194,1,8,0:0:0:0:
256,192,111274,1,0,0:0:0:0:
256,192,111436,1,8,0:0:0:0:
256,192,111516,1,8,0:0:0:0:
256,192,111597,1,0,0:0:0:0:
256,192,111678,1,0,0:0:0:0:
256,192,111758,1,0,0:0:0:0:
256,192,111839,1,0,0:0:0:0:
256,192,111920,1,8,0:0:0:0:
256,192,112000,1,8,0:0:0:0:
256,192,112081,1,8,0:0:0:0:
256,192,112162,1,8,0:0:0:0:
256,192,112242,1,0,0:0:0:0:
256,192,112404,1,8,0:0:0:0:
256,192,112484,1,8,0:0:0:0:
256,192,112565,1,8,0:0:0:0:
256,192,112645,1,8,0:0:0:0:
256,192,112726,1,0,0:0:0:0:
256,192,112887,1,8,0:0:0:0:
256,192,112968,1,8,0:0:0:0:
256,192,113049,1,8,0:0:0:0:
256,192,113129,1,8,0:0:0:0:
256,192,113210,1,0,0:0:0:0:
256,192,113291,1,8,0:0:0:0:
256,192,113371,1,8,0:0:0:0:
256,192,113452,1,8,0:0:0:0:
256,192,113533,1,0,0:0:0:0:
256,192,113613,1,8,0:0:0:0:
256,192,113694,1,8,0:0:0:0:
256,192,113774,1,8,0:0:0:0:
256,192,113855,1,0,0:0:0:0:
256,192,113936,1,8,0:0:0:0:
256,192,114016,1,0,0:0:0:0:
256,192,114070,1,0,0:0:0:0:
256,192,114124,1,0,0:0:0:0:
256,192,114178,1,8,0:0:0:0:
256,192,114258,1,8,0:0:0:0:
256,192,114339,1,0,0:0:0:0:
256,192,114420,1,8,0:0:0:0:
256,192,114500,1,0,0:0:0:0:
256,192,114581,1,0,0:0:0:0:
256,192,114662,1,8,0:0:0:0:
256,192,114742,1,8,0:0:0:0:
256,192,114823,1,0,0:0:0:0:
256,192,115307,1,0,0:0:0:0:
256,192,115791,1,8,0:0:0:0:
256,192,116758,1,8,0:0:0:0:
256,192,117404,1,0,0:0:0:0:
256,192,117887,1,0,0:0:0:0:
256,192,118371,1,0,0:0:0:0:
256,192,118533,1,8,0:0:0:0:
256,192,118774,1,8,0:0:0:0:
256,192,118855,1,0,0:0:0:0:
256,192,119016,1,0,0:0:0:0:
256,192,119178,1,8,0:0:0:0:
256,192,119420,1,0,0:0:0:0:
256,192,119500,1,8,0:0:0:0:
256,192,119581,1,0,0:0:0:0:
256,192,119662,1,8,0:0:0:0:
256,192,119823,1,8,0:0:0:0:
256,192,119984,1,0,0:0:0:0:
256,192,120226,1,0,0:0:0:0:
256,192,120307,1,8,0:0:0:0:
256,192,120468,1,8,0:0:0:0:
256,192,120549,1,0,0:0:0:0:
256,192,120629,1,8,0:0:0:0:
256,192,120791,1,8,0:0:0:0:
256,192,120871,1,0,0:0:0:0:
256,192,120952,1,8,0:0:0:0:
256,192,121033,1,8,0:0:0:0:
256,192,121113,1,0,0:0:0:0:
256,192,121194,1,0,0:0:0:0:
256,192,121274,1,8,0:0:0:0:
256,192,121516,1,0,0:0:0:0:
256,192,121597,1,8,0:0:0:0:
256,192,121678,1,0,0:0:0:0:
256,192,121758,1,8,0:0:0:0:
256,192,121920,1,8,0:0:0:0:
256,192,122081,1,0,0:0:0:0:
256,192,122162,1,8,0:0:0:0:
256,192,122323,1,0,0:0:0:0:
256,192,122404,1,8,0:0:0:0:
256,192,122565,1,8,0:0:0:0:
256,192,122726,1,0,0:0:0:0:
256,192,122807,1,8,0:0:0:0:
256,192,122968,1,0,0:0:0:0:
256,192,123049,1,8,0:0:0:0:
256,192,123210,1,8,0:0:0:0:
256,192,123371,1,0,0:0:0:0:
256,192,123452,1,8,0:0:0:0:
256,192,123533,1,0,0:0:0:0:
256,192,123613,1,0,0:0:0:0:
256,192,123694,1,8,0:0:0:0:
256,192,123855,1,4,0:0:0:0:
256,192,124016,1,4,0:0:0:0:
256,192,124178,1,8,0:0:0:0:
256,192,124339,1,0,0:0:0:0:
256,192,124500,1,8,0:0:0:0:
256,192,124581,1,8,0:0:0:0:
256,192,124662,1,0,0:0:0:0:
256,192,124742,1,0,0:0:0:0:
256,192,124823,1,8,0:0:0:0:
256,192,124904,1,0,0:0:0:0:
256,192,124984,1,0,0:0:0:0:
256,192,125065,1,0,0:0:0:0:
256,192,125145,1,8,0:0:0:0:
256,192,125307,1,8,0:0:0:0:
256,192,125387,1,8,0:0:0:0:
256,192,125468,1,0,0:0:0:0:
256,192,125549,1,8,0:0:0:0:
256,192,125629,1,0,0:0:0:0:
256,192,125791,1,8,0:0:0:0:
256,192,125871,1,8,0:0:0:0:
256,192,125952,1,0,0:0:0:0:
256,192,126033,1,8,0:0:0:0:
256,192,126113,1,8,0:0:0:0:
256,192,126274,1,0,0:0:0:0:
256,192,126436,1,8,0:0:0:0:
256,192,126516,1,8,0:0:0:0:
256,192,126597,1,0,0:0:0:0:
256,192,126758,1,8,0:0:0:0:
256,192,126839,1,0,0:0:0:0:
256,192,127000,1,8,0:0:0:0:
256,192,127081,1,0,0:0:0:0:
256,192,127242,1,8,0:0:0:0:
256,192,127323,1,0,0:0:0:0:
256,192,127484,1,8,0:0:0:0:
256,192,127565,1,0,0:0:0:0:
256,192,127645,1,0,0:0:0:0:
256,192,127726,1,8,0:0:0:0:
256,192,127887,1,8,0:0:0:0:
256,192,127968,1,8,0:0:0:0:
256,192,128049,1,0,0:0:0:0:
256,192,128129,1,8,0:0:0:0:
256,192,128210,1,0,0:0:0:0:
256,192,128371,1,0,0:0:0:0:
256,192,128452,1,8,0:0:0:0:
256,192,128533,1,8,0:0:0:0:
256,192,128613,1,8,0:0:0:0:
256,192,128694,1,0,0:0:0:0:
256,192,128855,1,8,0:0:0:0:
256,192,129016,1,0,0:0:0:0:
256,192,129178,1,0,0:0:0:0:
256,192,129339,1,0,0:0:0:0:
256,192,129420,1,8,0:0:0:0:
256,192,129581,1,8,0:0:0:0:
256,192,129662,1,0,0:0:0:0:
256,192,129904,1,0,0:0:0:0:
256,192,129984,1,8,0:0:0:0:
256,192,130038,1,8,0:0:0:0:
256,192,130092,1,8,0:0:0:0:
256,192,130145,1,0,0:0:0:0:
256,192,130307,1,0,0:0:0:0:
256,192,130387,1,8,0:0:0:0:
256,192,130468,1,0,0:0:0:0:
256,192,130549,1,8,0:0:0:0:
256,192,130629,1,0,0:0:0:0:
256,192,130710,1,0,0:0:0:0:
256,192,130791,1,8,0:0:0:0:
256,192,130871,1,0,0:0:0:0:
256,192,130952,1,8,0:0:0:0:
256,192,131033,1,0,0:0:0:0:
256,192,131113,1,8,0:0:0:0:
256,192,131194,1,8,0:0:0:0:
256,192,131274,1,0,0:0:0:0:
256,192,131355,1,0,0:0:0:0:
256,192,131436,1,8,0:0:0:0:
256,192,131516,1,0,0:0:0:0:
256,192,131597,1,8,0:0:0:0:
256,192,131678,1,8,0:0:0:0:
256,192,131758,1,0,0:0:0:0:
256,192,131839,1,0,0:0:0:0:
256,192,131920,1,8,0:0:0:0:
256,192,131973,1,8,0:0:0:0:
256,192,132027,1,8,0:0:0:0:
256,192,132081,1,8,0:0:0:0:
256,192,132135,1,8,0:0:0:0:
256,192,132188,1,8,0:0:0:0:
256,192,132242,1,0,0:0:0:0:
256,192,132404,1,8,0:0:0:0:
256,192,132484,1,0,0:0:0:0:
256,192,132645,1,8,0:0:0:0:
256,192,132726,1,0,0:0:0:0:
256,192,132887,1,8,0:0:0:0:
240,192,132968,1,0,0:0:0:0:
240,192,133049,1,8,0:0:0:0:
240,192,133129,1,8,0:0:0:0:
240,192,133210,1,0,0:0:0:0:
240,192,133291,1,0,0:0:0:0:
240,192,133371,1,8,0:0:0:0:
240,192,133452,1,8,0:0:0:0:
240,192,133533,1,0,0:0:0:0:
240,192,133613,1,0,0:0:0:0:
240,192,133694,1,8,0:0:0:0:
256,192,133748,1,8,0:0:0:0:
256,192,133801,1,8,0:0:0:0:
256,192,133855,1,0,0:0:0:0:
256,192,133936,1,0,0:0:0:0:
256,192,134016,1,8,0:0:0:0:
256,192,134070,1,8,0:0:0:0:
256,192,134124,1,8,0:0:0:0:
256,192,134178,1,0,0:0:0:0:
256,192,134339,1,8,0:0:0:0:
256,192,134420,1,0,0:0:0:0:
256,192,134581,1,8,0:0:0:0:
256,192,134662,1,0,0:0:0:0:
256,192,134715,1,0,0:0:0:0:
256,192,134769,1,0,0:0:0:0:
256,192,134823,1,8,0:0:0:0:
256,192,134904,1,8,0:0:0:0:
256,192,134984,1,0,0:0:0:0:
256,192,135065,1,0,0:0:0:0:
256,192,135145,1,8,0:0:0:0:
256,192,135226,1,8,0:0:0:0:
256,192,135307,1,8,0:0:0:0:
256,192,135387,1,8,0:0:0:0:
256,192,135468,1,0,0:0:0:0:
256,192,135629,1,8,0:0:0:0:
256,192,135791,1,0,0:0:0:0:
256,192,135871,1,0,0:0:0:0:
256,192,135952,1,8,0:0:0:0:
256,192,136033,1,8,0:0:0:0:
256,192,136113,1,0,0:0:0:0:
256,192,136194,1,8,0:0:0:0:
256,192,136274,1,0,0:0:0:0:
256,192,136436,1,0,0:0:0:0:
256,192,136597,1,12,0:0:0:0:
256,192,136920,1,4,0:0:0:0:
256,192,137162,1,4,0:0:0:0:
256,192,137404,1,4,0:0:0:0:
240,192,137645,1,4,0:0:0:0:
240,192,137887,1,4,0:0:0:0:
256,192,138049,8,0,144500,0:0:0:0:
