osu file format v14

[General]
AudioFilename: audio.ogg
AudioLeadIn: 0
PreviewTime: 73449
Countdown: 0
SampleSet: Soft
StackLeniency: 0.7
Mode: 2
LetterboxInBreaks: 0
WidescreenStoryboard: 1

[Editor]
Bookmarks: 11662,23275,42630,52952,63275,73920,86823,94565,104888,114888,114969,115049,115210,115291,115372,115614,115694,115775,115856,115936,116017,116098,116178,116259,116339,116501,116662,116823,116904,116985,117065,117146,117227,117307,117388,117549,117710,117872,117952,118033,118194,118275,118356,118436,118598,118759,118920,119001,119081,119243,119404,119485,119565,119646,119727,119807,119969,120049,125614,128114,134243,137952
DistanceSpacing: 0.5
BeatDivisor: 4
GridSize: 32
TimelineZoom: 3.299999

[Metadata]
Title:ARTEMiS
TitleUnicode:ARTEMiS
Artist:BlackY
ArtistUnicode:BlackY
Creator:Jemzuu
Version:SALAD
Source:WACCA Lily
Tags:cwc osu!catch world cup 2022 cwc2022 qf nm2 quarterfinals no mod 2 ajamez bighzonda bigh syamu -rustyy instrumental video game piano electronic hard renaissance syamu
BeatmapID:3678512
BeatmapSetID:1779436

[Difficulty]
HPDrainRate:3
CircleSize:3
OverallDifficulty:7
ApproachRate:7
SliderMultiplier:1.43
SliderTickRate:1

[Events]
//Background and Video events
0,0,"artemis.jpg",0,0
//Break Periods
2,115020,119081
//Storyboard Layer 0 (Background)
//Storyboard Layer 1 (Fail)
//Storyboard Layer 2 (Pass)
//Storyboard Layer 3 (Foreground)
//Storyboard Layer 4 (Overlay)
//Storyboard Sound Samples

[TimingPoints]
1272,322.58064516129,4,2,1,60,1,0
2401,-100,4,2,2,60,0,0
2481,-100,4,2,1,50,0,0
7562,-100,4,2,2,60,0,0
7642,-100,4,2,1,50,0,0
10949,-100,4,2,1,40,0,0
11110,-100,4,2,1,50,0,0
11271,-100,4,2,1,60,0,0
11433,-100,4,2,1,70,0,0
11594,-100,4,2,1,80,0,0
11675,-100,4,2,1,60,0,0
23207,-100,4,2,2,70,0,0
23288,-100,4,2,1,70,0,0
26917,-100,4,2,2,70,0,0
26997,-100,4,2,1,70,0,0
31594,-100,4,2,1,50,0,0
31755,-100,4,2,1,60,0,0
31917,-100,4,2,1,75,0,0
32078,-100,4,2,1,80,0,0
32239,-100,4,2,2,70,0,1
32320,-100,4,2,1,70,0,1
40626,-100,4,2,1,50,0,1
40788,-100,4,2,1,65,0,1
40949,-100,4,2,1,75,0,1
41110,-100,4,2,1,80,0,1
41271,-100,4,2,2,60,0,0
41917,-100,4,2,2,70,0,0
41957,-100,4,2,1,60,0,0
42239,-100,4,2,3,60,0,0
42562,-100,4,2,2,70,0,0
43046,-100,4,2,1,50,0,0
52562,-100,4,2,3,60,0,0
52884,-100,4,2,1,60,0,0
61271,-100,4,2,1,55,0,0
61433,-100,4,2,1,65,0,0
61594,-100,4,2,1,75,0,0
61755,-100,4,2,1,85,0,0
61917,-100,4,2,1,70,0,0
62562,-100,4,2,1,60,0,0
62884,-100,4,2,2,75,0,0
63207,-100,4,2,1,60,0,0
68046,-100,4,2,2,60,0,0
68126,-100,4,2,1,60,0,0
68207,-100,4,2,3,60,0,0
68368,-100,4,2,1,60,0,0
68852,-100,4,2,3,60,0,0
69013,-100,4,2,1,60,0,0
72884,-100,4,2,2,60,0,0
72924,-100,4,2,3,60,0,0
73530,-100,4,2,1,75,0,0
73852,-100,4,2,4,80,0,1
74013,-100,4,2,1,80,0,1
83852,-100,4,2,1,80,0,0
84175,-100,4,2,1,80,0,1
86433,-100,4,2,1,80,0,0
86755,-100,4,2,1,80,0,1
94175,-100,4,2,1,70,0,0
94497,-100,4,2,4,70,0,0
94578,-100,4,2,1,70,0,0
104820,-100,4,2,2,70,0,0
104901,-100,4,2,1,60,0,0
114820,-100,4,2,2,85,0,0
119981,-100,4,2,1,30,0,0
123207,-100,4,2,1,40,0,0
123852,-100,4,2,1,70,0,0
124094,-100,4,2,1,40,0,0
124820,-100,4,2,2,60,0,0
124901,-100,4,2,1,40,0,0
125142,-100,4,2,1,80,0,0
125465,-100,4,2,2,80,0,0
125546,-100,4,2,1,80,0,0
128046,-100,4,2,2,80,0,1
128126,-100,4,2,1,80,0,1
135465,-100,4,2,1,80,0,0
136917,-100,4,2,1,80,0,0
137401,-100,4,2,1,80,0,0
137884,-100,4,2,2,80,0,1
137965,-100,4,2,1,80,0,0

[Colours]
Combo1 : 192,192,192
Combo2 : 138,138,255
Combo3 : 255,157,206
Combo4 : 232,0,232

[HitObjects]
259,191,1272,5,6,3:2:0:0:
64,198,1917,1,6,3:2:0:0:
401,257,2401,6,0,L|402:107,1,143,6|4,3:2|0:3,0:0:0:0:
330,100,2884,1,8,0:1:0:0:
254,173,3046,2,0,L|405:208,1,143,4|4,0:3|0:3,0:0:0:0:
433,260,3530,1,2,0:0:0:0:
395,318,3691,1,8,0:1:0:0:
316,327,3852,6,0,L|307:154,1,143,4|8,0:3|0:1,0:0:0:0:
240,168,4336,1,2,0:0:0:0:
93,177,4659,2,0,L|86:98,1,71.5,4|4,0:3|0:3,0:0:0:0:
178,91,4981,6,0,L|14:133,1,143,8|4,0:1|0:3,0:0:0:0:
112,177,5465,1,8,0:1:0:0:
191,203,5626,2,0,L|354:221,1,143,2|4,0:0|0:3,0:0:0:0:
248,250,6110,2,0,L|237:158,1,71.5,4|8,0:3|0:1,0:0:0:0:
402,127,6433,5,6,3:2:0:0:
185,71,7078,1,6,3:2:0:0:
477,24,7562,6,0,L|494:172,1,143,6|4,3:2|0:3,0:0:0:0:
419,192,8046,1,8,0:1:0:0:
344,202,8207,2,0,L|325:358,1,143,4|4,0:3|0:3,0:0:0:0:
261,365,8691,1,2,0:0:0:0:
183,364,8852,1,4,0:3:0:0:
259,318,9013,6,0,L|417:289,1,143,4|8,0:3|0:1,0:0:0:0:
323,261,9497,1,2,0:0:0:0:
173,266,9820,2,0,L|160:179,1,71.5,4|0,0:3|1:0,0:0:0:0:
248,171,10142,2,0,L|85:154,1,143,8|4,0:1|0:3,0:0:0:0:
66,97,10626,1,8,0:1:0:0:
105,156,10788,6,0,L|261:157,1,143,4|8,0:3|3:1,0:0:0:0:
319,215,11271,2,0,L|242:231,1,71.5,8|8,3:1|3:1,0:0:0:0:
82,289,11594,6,0,L|67:138,1,143,6|8,3:2|3:1,0:0:0:0:
216,101,12239,1,0,3:0:0:0:
343,236,12481,2,0,L|294:248,1,35.75,0|8,3:0|3:1,0:0:0:0:
223,252,12723,1,0,3:0:0:0:
316,282,12884,6,0,L|481:299,2,143,0|8|0,3:0|3:1|3:0,0:0:0:0:
185,249,13771,2,0,L|237:231,1,35.75,0|8,3:0|3:1,0:0:0:0:
294,220,14013,1,2,3:2:0:0:
460,233,14175,6,0,L|467:81,1,143,6|8,3:2|3:1,0:0:0:0:
315,52,14820,1,0,3:0:0:0:
195,145,15062,2,0,L|241:144,1,35.75,0|8,3:0|3:1,0:0:0:0:
318,169,15304,1,0,3:0:0:0:
226,225,15465,6,0,L|55:253,2,143,0|8|0,3:0|3:1|3:0,0:0:0:0:
346,316,16352,2,0,L|301:323,1,35.75,0|8,3:0|0:1,0:0:0:0:
228,334,16594,1,2,3:2:0:0:
61,347,16755,6,0,L|29:222,2,107.25,6|0|0,3:2|3:0|3:0,0:0:0:0:
140,335,17401,2,0,L|34:280,2,107.25,6|0|0,3:2|3:0|3:0,0:0:0:0:
301,331,18046,6,0,L|380:242,2,107.25,6|0|0,3:2|3:0|3:0,0:0:0:0:
220,300,18691,2,0,L|110:274,2,107.25,6|0|0,3:2|3:0|3:0,0:0:0:0:
379,281,19336,6,0,L|504:202,1,143,6|8,3:2|3:2,0:0:0:0:
352,169,19981,2,0,L|255:153,1,71.5,6|0,3:2|3:0,0:0:0:0:
368,150,20304,2,0,L|372:76,1,71.5,8|0,3:2|3:0,0:0:0:0:
206,57,20626,5,0,3:0:0:0:
138,69,20787,1,0,3:0:0:0:
109,131,20948,1,0,3:2:0:0:
144,191,21109,1,0,3:0:0:0:
219,200,21271,2,0,L|384:201,1,143,0|0,3:0|1:0,0:0:0:0:
84,354,21917,5,6,3:2:0:0:
54,233,22239,2,0,L|218:168,2,143,2|2|2,1:0|1:0|0:1,0:0:0:0:
131,274,23046,1,2,0:1:0:0:
291,313,23207,6,0,L|388:294,2,71.5,6|2|10,3:2|0:1|3:2,0:0:0:0:
139,334,23852,2,0,L|97:267,2,71.5,0|2|10,3:0|1:0|3:2,0:0:0:0:
213,348,24336,1,2,1:0:0:0:
369,235,24497,6,0,L|210:198,1,143,2|8,3:1|3:1,0:0:0:0:
188,141,24981,1,2,0:1:0:0:
229,199,25142,1,0,3:0:0:0:
299,224,25304,1,2,0:1:0:0:
374,229,25465,1,8,3:1:0:0:
222,304,25788,6,0,L|143:316,2,71.5,2|2|8,3:2|1:0|3:1,0:0:0:0:
483,177,26433,2,0,L|355:160,2,107.25,2|2|10,3:1|3:1|3:1,0:0:0:0:
402,218,27078,1,6,3:2:0:0:
143,98,27401,5,10,3:2:0:0:
210,110,27562,1,2,0:0:0:0:
241,171,27723,1,2,3:2:0:0:
210,233,27884,1,2,0:2:0:0:
143,245,28046,2,0,L|54:248,1,71.5,10|2,3:2|0:2,0:0:0:0:
160,280,28368,6,0,L|245:275,2,71.5,2|2|10,3:2|0:0|3:2,0:0:0:0:
303,215,29013,2,0,L|346:141,2,71.5,0|2|10,3:0|0:0|3:2,0:0:0:0:
231,234,29497,1,2,1:0:0:0:
79,264,29659,6,0,L|66:91,1,143,2|8,3:1|3:1,0:0:0:0:
139,96,30142,1,2,0:1:0:0:
224,93,30304,1,2,3:2:0:0:
142,68,30465,2,0,L|-5:123,1,143,2|2,0:1|0:0,0:0:0:0:
86,171,30949,5,0,3:0:0:0:
246,236,31271,2,0,L|166:256,1,71.5,6|2,3:2|0:1,0:0:0:0:
100,285,31594,2,0,L|23:186,2,107.25,10|10|10,3:1|3:1|3:1,0:0:0:0:
262,274,32239,6,0,L|423:226,1,143,4|2,3:1|1:0,0:0:0:0:
319,207,32723,2,0,L|172:173,1,143,6|0,3:2|1:3,0:0:0:0:
260,171,33207,2,0,L|320:90,2,71.5,6|2|2,3:2|1:0|1:0,0:0:0:0:
100,231,33691,5,6,3:2:0:0:
43,328,34013,1,2,1:2:0:0:
114,340,34175,1,6,3:2:0:0:
245,277,34497,2,0,L|335:271,1,71.5,6|2,3:2|1:0,0:0:0:0:
150,237,34820,6,0,P|110:233|95:130,1,143,6|8,3:2|0:1,0:0:0:0:
160,115,35304,2,0,L|265:115,2,71.5,6|2|2,3:2|0:1|0:1,0:0:0:0:
81,101,35788,6,0,L|41:25,2,71.5,6|2|2,3:2|0:0|0:0,0:0:0:0:
241,164,36271,2,0,L|328:170,1,71.5,6|8,3:2|0:1,0:0:0:0:
168,249,36755,2,0,L|74:189,2,107.25,6|2|2,3:2|3:1|3:1,0:0:0:0:
332,265,37401,5,6,3:2:0:0:
442,304,37723,2,0,L|473:237,2,71.5,8|2|0,3:1|3:1|3:0,0:0:0:0:
315,344,38368,1,8,3:1:0:0:
58,222,38691,6,0,L|120:168,1,71.5,6|2,3:2|3:1,0:0:0:0:
200,164,39013,2,0,L|203:73,1,71.5,8|2,3:1|3:1,0:0:0:0:
110,71,39336,2,0,L|103:223,1,143,0|8,3:0|3:1,0:0:0:0:
187,239,39820,1,10,3:1:0:0:
345,304,39981,6,0,L|478:234,2,143,6|8|8,3:2|3:1|3:1,0:0:0:0:
268,294,40788,1,8,3:1:0:0:
230,222,40949,1,8,3:1:0:0:
268,294,41110,1,8,3:1:0:0:
427,346,41271,5,4,3:3:0:0:
456,157,41917,2,0,L|389:135,1,71.5,8|2,3:1|0:0,0:0:0:0:
311,128,42239,1,2,3:2:0:0:
46,91,42562,5,6,3:2:0:0:
139,242,43046,1,2,0:0:0:0:
278,311,43368,1,2,0:0:0:0:
205,346,43530,1,2,0:0:0:0:
119,358,43691,6,0,L|55:221,2,143,2|2|2,0:0|0:0|0:0,0:0:0:0:
318,364,44820,1,2,0:0:0:0:
475,343,45142,6,0,P|469:284|322:215,2,214.5,0|2|2,0:0|0:0|0:0,0:0:0:0:
330,366,46433,2,0,L|285:75,1,286,2|2,0:0|0:0,0:0:0:0:
186,50,47320,1,2,0:0:0:0:
72,51,47562,1,2,0:0:0:0:
158,128,47723,6,0,L|342:288,1,214.5,2|2,0:0|0:0,0:0:0:0:
181,314,48530,2,0,L|55:289,1,107.25,2|2,0:0|0:0,0:0:0:0:
201,295,49013,6,0,P|213:243|90:149,2,214.5,2|2|2,0:0|0:0|0:0,0:0:0:0:
46,311,50304,6,0,L|36:162,1,143,2|2,0:0|0:0,0:0:0:0:
135,118,50841,1,2,0:0:0:0:
189,102,50949,2,0,L|334:84,1,143,2|2,0:0|0:0,0:0:0:0:
229,36,51487,1,2,0:0:0:0:
174,44,51594,6,0,L|146:219,1,143,2|2,0:0|0:0,0:0:0:0:
250,241,52132,2,0,L|319:242,1,47.6666666666667,2|2,0:0|0:0,0:0:0:0:
443,277,52562,2,0,L|448:177,1,71.5,2|2,3:2|3:2,0:0:0:0:
282,128,52884,6,0,L|121:151,1,143,6|8,3:2|0:1,0:0:0:0:
218,200,53368,2,0,L|56:237,1,143,6|8,3:2|0:1,0:0:0:0:
41,275,53852,1,2,0:0:0:0:
81,311,54013,1,4,0:3:0:0:
327,349,54336,6,0,L|333:188,1,143,6|8,3:2|0:1,0:0:0:0:
241,182,54820,2,0,L|319:158,1,71.5,6|0,3:2|3:0,0:0:0:0:
384,118,55142,2,0,L|300:106,1,71.5,6|0,3:2|3:0,0:0:0:0:
150,114,55465,6,0,L|145:31,2,71.5,8|8|8,3:1|0:1|0:1,0:0:0:0:
311,194,55949,1,6,3:2:0:0:
448,325,56433,2,0,L|360:339,1,71.5,6|0,3:2|3:0,0:0:0:0:
111,357,56917,6,0,L|100:194,1,143,6|2,3:2|0:0,0:0:0:0:
187,190,57401,2,0,L|53:169,2,107.25,6|6|6,3:2|3:2|3:2,0:0:0:0:
265,188,58046,1,0,3:0:0:0:
18,65,58368,6,0,L|190:41,1,143,6|0,3:2|3:0,0:0:0:0:
239,106,58852,2,0,L|94:141,1,143,6|0,3:2|3:0,0:0:0:0:
258,229,59336,6,0,L|367:168,1,107.25,6|2,3:2|3:1,0:0:0:0:
230,135,59820,2,0,L|223:272,1,107.25,2|2,3:1|3:1,0:0:0:0:
336,298,60304,2,0,L|424:309,1,71.5,0|0,3:0|3:0,0:0:0:0:
248,363,60626,6,0,L|153:342,2,71.5,6|8|8,3:2|3:1|3:1,0:0:0:0:
400,367,61271,2,0,L|445:289,2,71.5,8|8|8,3:0|3:0|3:0,0:0:0:0:
329,369,61755,1,8,3:0:0:0:
163,358,61917,6,0,P|150:282|302:162,1,286,6|4,3:2|0:3,0:0:0:0:
339,118,62723,1,4,0:3:0:0:
294,162,62884,1,8,3:1:0:0:
39,61,63207,6,0,L|34:226,1,143,6|8,3:2|0:1,0:0:0:0:
141,222,63771,2,0,L|208:233,1,35.75,8|8,0:3|0:3,0:0:0:0:
286,286,64094,1,2,0:0:0:0:
177,331,64336,1,8,0:3:0:0:
100,342,64497,6,0,L|94:198,1,143,8|8,0:3|0:1,0:0:0:0:
206,167,65062,2,0,L|253:161,1,35.75,8|8,0:3|0:3,0:0:0:0:
352,150,65384,1,2,0:0:0:0:
239,77,65626,1,8,0:3:0:0:
310,86,65788,6,0,L|479:117,1,143,8|8,0:3|0:1,0:0:0:0:
348,191,66352,2,0,L|343:240,1,35.75,0|8,0:0|0:3,0:0:0:0:
459,273,66675,1,8,0:3:0:0:
348,320,66917,1,8,0:3:0:0:
275,324,67078,6,0,L|254:162,1,143,8|8,0:3|0:1,0:0:0:0:
185,160,67562,1,4,1:3:0:0:
114,159,67723,1,8,0:3:0:0:
262,72,68046,2,0,L|341:73,1,71.5,8|2,0:1|3:2,0:0:0:0:
176,182,68368,6,0,L|29:237,1,143,6|8,3:2|0:1,0:0:0:0:
114,276,68852,1,2,3:2:0:0:
192,318,69013,2,0,L|92:364,2,107.25,6|2|2,3:2|3:1|3:1,0:0:0:0:
352,325,69659,6,0,L|403:233,2,71.5,6|8|8,3:2|3:0|0:1,0:0:0:0:
198,273,70304,2,0,L|75:263,2,107.25,6|2|2,3:2|3:1|3:1,0:0:0:0:
361,210,70949,6,0,L|492:134,2,143,6|0|0,3:2|3:0|3:0,0:0:0:0:
288,202,71755,2,0,L|240:126,2,71.5,2|2|2,3:2|3:2|3:2,0:0:0:0:
446,259,72239,6,0,L|449:347,1,71.5,6|2,3:2|0:1,0:0:0:0:
297,357,72723,1,2,0:1:0:0:
223,347,72884,5,8,3:1:0:0:
192,285,73045,1,2,0:2:0:0:
222,223,73206,1,2,3:2:0:0:
290,208,73367,1,2,3:2:0:0:
367,208,73529,1,2,3:0:0:0:
112,201,73852,5,4,3:1:0:0:
42,208,74013,2,0,P|42:153|113:85,1,143,2|2,0:1|0:0,0:0:0:0:
172,77,74497,1,10,3:2:0:0:
252,113,74659,6,0,L|92:148,2,143,2|2|2,0:1|0:1|0:1,0:0:0:0:
319,128,75465,1,8,3:0:0:0:
349,190,75626,1,8,0:3:0:0:
320,253,75787,1,10,3:2:0:0:
253,269,75949,1,2,0:0:0:0:
92,313,76110,6,0,L|81:155,1,143,2|10,3:1|3:2,0:0:0:0:
159,142,76594,2,0,L|320:124,1,143,2|2,0:1|0:0,0:0:0:0:
226,83,77078,1,10,3:2:0:0:
66,104,77239,5,2,0:1:0:0:
184,215,77562,1,2,0:1:0:0:
334,274,77884,2,0,L|245:314,1,71.5,2|2,0:0|3:1,0:0:0:0:
195,332,78207,1,2,0:0:0:0:
270,344,78368,2,0,L|357:356,1,71.5,10|0,3:2|3:0,0:0:0:0:
183,368,78691,6,0,L|35:337,1,143,2|10,3:1|3:2,0:0:0:0:
109,298,79175,1,2,0:1:0:0:
192,293,79336,2,0,L|212:142,1,143,2|10,3:1|3:2,0:0:0:0:
281,125,79820,1,2,0:0:0:0:
359,111,79981,6,0,L|503:86,1,143,2|10,3:1|3:2,0:0:0:0:
428,59,80465,1,2,0:0:0:0:
265,53,80626,2,0,L|157:95,2,107.25,2|2|2,3:1|0:1|0:1,0:0:0:0:
346,76,81271,6,0,L|405:182,2,107.25,2|2|2,3:1|0:1|0:1,0:0:0:0:
261,170,81917,2,0,L|393:259,1,143,2|10,3:1|3:2,0:0:0:0:
453,264,82401,1,2,0:1:0:0:
292,325,82562,6,0,L|212:337,2,71.5,6|2|10,3:2|3:2|3:2,0:0:0:0:
440,354,83207,2,0,L|312:303,2,107.25,2|2|2,3:1|3:1|0:1,0:0:0:0:
440,354,83852,1,2,0:0:0:0:
441,309,84013,1,0,3:0:0:0:
276,277,84175,5,6,3:2:0:0:
200,250,84336,2,0,L|185:98,1,143,2|2,0:1|0:0,0:0:0:0:
257,80,84820,1,10,3:2:0:0:
341,100,84981,2,0,L|483:130,2,143,2|2|2,0:1|0:1|0:1,0:0:0:0:
251,135,85788,6,0,L|322:202,1,71.5,8|8,3:0|0:3,0:0:0:0:
394,206,86110,2,0,L|441:145,2,71.5,2|2|2,3:1|3:1|3:2,0:0:0:0:
133,325,86755,5,6,3:1:0:0:
59,333,86917,2,0,L|54:160,1,143,2|2,0:1|0:0,0:0:0:0:
133,167,87401,1,10,3:2:0:0:
210,160,87562,5,2,0:1:0:0:
56,86,87884,1,2,3:1:0:0:
201,40,88207,1,2,3:1:0:0:
281,90,88368,2,0,L|185:111,1,71.5,0|2,3:0|3:1,0:0:0:0:
122,170,88691,2,0,L|207:187,1,71.5,10|2,3:2|3:2,0:0:0:0:
357,187,89013,6,0,L|371:338,1,143,6|10,3:2|3:2,0:0:0:0:
296,354,89497,1,0,3:0:0:0:
219,366,89659,2,0,L|85:337,2,107.25,6|2|2,3:2|3:1|3:1,0:0:0:0:
383,340,90304,6,0,P|387:283|312:240,1,143,6|10,3:2|3:2,0:0:0:0:
245,238,90788,1,0,3:0:0:0:
329,201,90949,2,0,L|466:185,2,107.25,6|2|2,3:2|3:1|3:1,0:0:0:0:
163,217,91594,6,0,L|159:69,1,143,6|2,3:2|3:2,0:0:0:0:
234,62,92078,1,2,3:2:0:0:
310,117,92239,2,0,L|236:133,1,71.5,6|0,3:2|3:0,0:0:0:0:
151,164,92562,2,0,L|148:251,1,71.5,6|0,3:2|3:0,0:0:0:0:
308,278,92884,6,0,L|400:282,1,71.5,6|2,3:2|3:1,0:0:0:0:
248,367,93368,1,8,1:0:0:0:
84,360,93530,6,0,L|40:298,2,71.5,2|2|10,3:3|3:2|3:2,0:0:0:0:
161,367,94013,1,4,0:3:0:0:
81,360,94175,1,6,3:2:0:0:
338,362,94497,5,4,3:1:0:0:
410,371,94659,2,0,L|419:217,1,143,2|2,0:2|0:2,0:0:0:0:
348,198,95142,2,0,L|252:198,1,71.5,10|2,3:2|0:2,0:0:0:0:
361,161,95465,6,0,L|499:121,2,143,2|10|2,3:2|3:2|3:2,0:0:0:0:
286,180,96271,1,2,0:2:0:0:
363,206,96433,1,10,3:2:0:0:
114,284,96755,6,0,L|70:217,2,71.5,2|2|10,3:2|0:2|3:2,0:0:0:0:
264,303,97401,2,0,L|305:239,2,71.5,2|2|10,3:2|0:2|3:2,0:0:0:0:
99,326,98046,5,2,3:2:0:0:
166,314,98207,1,2,0:2:0:0:
196,252,98368,1,10,3:2:0:0:
164,191,98529,1,2,0:2:0:0:
95,183,98691,5,2,3:2:0:0:
214,129,98933,1,2,3:2:0:0:
92,91,99175,2,0,L|5:79,2,71.5,2|2|2,3:2|0:0|3:2,0:0:0:0:
259,93,99659,5,6,3:2:0:0:
330,98,99820,2,0,L|345:246,1,143,2|2,0:2|0:2,0:0:0:0:
274,282,100304,2,0,L|178:295,1,71.5,10|2,3:2|0:2,0:0:0:0:
290,318,100626,2,0,L|407:349,2,107.25,2|2|2,0:2|0:2|0:2,0:0:0:0:
128,347,101271,6,0,L|62:249,2,107.25,2|2|2,3:2|0:2|3:2,0:0:0:0:
206,357,101917,1,2,3:0:0:0:
462,340,102239,5,6,3:2:0:0:
401,298,102401,1,2,0:2:0:0:
323,298,102562,2,0,L|305:131,1,143,2|10,3:2|3:2,0:0:0:0:
385,136,103046,1,2,0:2:0:0:
307,108,103207,5,6,3:2:0:0:
227,109,103368,2,0,L|79:138,1,143,2|2,3:2|0:2,0:0:0:0:
251,229,103852,2,0,L|365:260,2,107.25,8|8|8,3:3|3:3|3:3,0:0:0:0:
161,236,104497,2,0,L|155:169,1,35.75,8|0,3:2|3:0,0:0:0:0:
357,132,104820,5,4,3:1:0:0:
428,146,104981,1,2,0:2:0:0:
355,182,105142,2,0,L|186:210,1,143,2|10,3:2|3:2,0:0:0:0:
375,290,105788,6,0,L|383:131,1,143,2|10,3:2|0:2,0:0:0:0:
224,113,106433,2,0,L|334:82,2,107.25,2|2|2,3:2|3:2|3:2,0:0:0:0:
145,133,107078,2,0,L|136:218,1,71.5,2|2,3:2|3:2,0:0:0:0:
300,278,107401,6,0,L|381:287,2,71.5,14|2|2,3:2|0:2|3:2,0:0:0:0:
147,344,108046,1,10,3:2:0:0:
301,365,108368,2,0,L|463:333,1,143,2|10,3:2|3:2,0:0:0:0:
281,278,109013,2,0,L|277:199,1,71.5,2|2,3:2|3:2,0:0:0:0:
365,199,109336,2,0,L|370:109,1,71.5,10|2,3:2|3:2,0:0:0:0:
204,95,109659,6,0,L|128:93,2,71.5,6|2|10,3:2|3:2|3:2,0:0:0:0:
359,141,110304,2,0,L|403:73,2,71.5,2|2|10,3:2|3:2|3:2,0:0:0:0:
285,166,110788,1,2,3:2:0:0:
121,217,110949,6,0,L|55:284,2,71.5,6|2|10,3:2|3:2|3:2,0:0:0:0:
274,266,111594,2,0,L|212:308,1,71.5,2|2,3:2|3:2,0:0:0:0:
138,322,111917,1,10,3:2:0:0:
393,355,112239,6,0,L|437:288,2,71.5,6|10|10,3:2|0:2|0:2,0:0:0:0:
235,372,112723,2,0,P|235:310|323:262,1,143,6|10,3:2|3:2,0:0:0:0:
371,249,113207,2,0,L|294:250,1,71.5,10|10,3:2|3:2,0:0:0:0:
134,277,113530,6,0,L|126:110,1,143,14|2,3:2|3:2,0:0:0:0:
203,109,114013,1,10,3:2:0:0:
361,58,114175,2,0,L|282:48,1,71.5,10|10,3:2|3:2,0:0:0:0:
203,42,114497,2,0,L|202:124,1,71.5,10|10,3:2|3:2,0:0:0:0:
368,197,114820,5,6,3:0:0:0:
256,192,119981,12,8,123530,0:3:0:0:
263,86,123852,6,0,L|260:186,1,71.5,6|6,3:2|3:2,0:0:0:0:
70,155,124497,1,8,0:3:0:0:
140,171,124658,1,8,0:3:0:0:
173,233,124819,1,8,0:1:0:0:
143,297,124980,1,0,0:0:0:0:
65,317,125142,1,2,0:3:0:0:
323,351,125465,5,6,3:2:0:0:
394,339,125626,2,0,L|245:310,1,143,2|2,0:1|3:1,0:0:0:0:
182,302,126110,1,2,0:1:0:0:
257,262,126271,2,0,L|425:238,1,143,6|2,3:2|3:1,0:0:0:0:
200,181,126836,6,0,L|191:68,1,107.25,6|2,3:2|3:1,0:0:0:0:
312,77,127320,2,0,L|195:103,1,107.25,6|2,3:2|3:1,0:0:0:0:
134,113,127723,1,2,0:3:0:0:
394,264,128046,5,6,3:1:0:0:
465,241,128207,2,0,P|468:191|377:140,1,143,2|2,0:1|0:1,0:0:0:0:
330,127,128691,1,10,3:2:0:0:
256,104,128852,2,0,L|340:86,1,71.5,2|0,0:1|3:0,0:0:0:0:
167,216,129175,6,0,L|60:255,1,107.25,6|2,3:2|3:1,0:0:0:0:
268,216,129659,2,0,L|275:338,1,107.25,6|2,3:2|3:1,0:0:0:0:
149,368,130142,1,6,3:2:0:0:
76,345,130304,2,0,L|159:322,1,71.5,8|0,0:3|3:0,0:0:0:0:
310,345,130626,5,14,3:2:0:0:
383,319,130788,2,0,L|241:264,1,143,2|2,3:2|3:2,0:0:0:0:
171,229,131271,2,0,L|261:208,1,71.5,10|2,3:2|3:2,0:0:0:0:
323,200,131594,2,0,L|246:153,1,71.5,10|2,3:2|3:2,0:0:0:0:
184,149,131917,1,8,3:2:0:0:
439,71,132239,6,0,L|452:200,1,107.25,6|2,3:2|3:1,0:0:0:0:
334,229,132723,1,2,3:1:0:0:
171,286,132884,6,0,L|32:226,1,143,6|0,3:2|3:0,0:0:0:0:
110,193,133368,1,0,3:0:0:0:
187,188,133530,2,0,L|190:111,1,71.5,2|2,3:1|3:1,0:0:0:0:
107,115,133852,2,0,L|97:25,1,71.5,2|2,3:1|3:1,0:0:0:0:
264,48,134175,6,0,L|393:64,1,107.25,6|2,3:2|3:1,0:0:0:0:
163,175,134659,2,0,P|130:245|182:314,1,143,2|8,3:1|3:0,0:0:0:0:
224,328,135142,1,8,3:0:0:0:
296,340,135304,1,8,3:0:0:0:
461,305,135465,5,6,3:2:0:0:
439,197,135788,2,0,L|357:189,1,71.5,4|4,0:3|0:3,0:0:0:0:
206,216,136110,6,0,L|159:149,2,71.5,6|2|8,3:2|0:2|3:3,0:0:0:0:
288,237,136594,1,6,3:2:0:0:
35,261,136917,6,0,L|28:132,1,107.25,6|6,3:2|3:2,0:0:0:0:
245,168,137401,2,0,L|257:53,1,107.25,6|6,3:2|3:2,0:0:0:0:
42,36,137884,5,6,3:2:0:0:
