osu file format v14

[General]
AudioFilename: audio.ogg
AudioLeadIn: 0
PreviewTime: 73449
Countdown: 0
SampleSet: Soft
StackLeniency: 0.7
Mode: 2
LetterboxInBreaks: 0
WidescreenStoryboard: 0

[Editor]
Bookmarks: 11662,23275,42630,52952,63275,73920,86823,94565,104888,114888,114969,115049,115210,115291,115372,115614,115694,115775,115856,115936,116017,116098,116178,116259,116339,116501,116662,116823,116904,116985,117065,117146,117227,117307,117388,117549,117710,117872,117952,118033,118194,118275,118356,118436,118598,118759,118920,119001,119081,119243,119404,119485,119565,119646,119727,119807,119969,120049,125614,128114,134243,137952
DistanceSpacing: 0.5
BeatDivisor: 4
GridSize: 32
TimelineZoom: 3.299999

[Metadata]
Title:ARTEMiS
TitleUnicode:ARTEMiS
Artist:BlackY
ArtistUnicode:BlackY
Creator:Jemzuu
Version:PURiTY
Source:WACCA Lily
Tags:cwc osu!catch world cup 2022 cwc2022 qf nm2 quarterfinals no mod 2 ajamez bighzonda bigh syamu -rustyy instrumental video game piano electronic hard renaissance syamu
BeatmapID:3644263
BeatmapSetID:1779436

[Difficulty]
HPDrainRate:6
CircleSize:4.2
OverallDifficulty:9.5
ApproachRate:9.5
SliderMultiplier:2.25
SliderTickRate:2

[Events]
//Background and Video events
0,0,"artemis.jpg",0,0
//Break Periods
2,115020,119456
//Storyboard Layer 0 (Background)
//Storyboard Layer 1 (Fail)
//Storyboard Layer 2 (Pass)
//Storyboard Layer 3 (Foreground)
//Storyboard Layer 4 (Overlay)
//Storyboard Sound Samples

[TimingPoints]
1272,322.58064516129,4,2,1,60,1,0
2401,-100,4,2,2,60,0,0
2481,-100,4,2,1,50,0,0
7562,-100,4,2,2,60,0,0
7642,-100,4,2,1,50,0,0
10949,-100,4,2,1,40,0,0
11110,-100,4,2,1,50,0,0
11271,-100,4,2,1,60,0,0
11433,-100,4,2,1,70,0,0
11594,-100,4,2,1,80,0,0
11675,-100,4,2,1,60,0,0
23207,-100,4,2,2,70,0,0
23288,-100,4,2,1,70,0,0
26917,-100,4,2,2,70,0,0
26997,-100,4,2,1,70,0,0
31594,-100,4,2,1,50,0,0
31755,-100,4,2,1,60,0,0
31917,-100,4,2,1,75,0,0
32078,-100,4,2,1,80,0,0
32239,-100,4,2,2,70,0,1
32320,-100,4,2,1,70,0,1
40626,-100,4,2,1,50,0,1
40788,-100,4,2,1,65,0,1
40949,-100,4,2,1,75,0,1
41110,-100,4,2,1,80,0,1
41271,-1000,4,2,2,60,0,0
41917,-100,4,2,2,70,0,0
41957,-100,4,2,1,60,0,0
42239,-100,4,2,3,60,0,0
42562,-100,4,2,2,70,0,0
43046,-100,4,2,1,50,0,0
52562,-100,4,2,3,60,0,0
52884,-100,4,2,1,60,0,0
61271,-100,4,2,1,55,0,0
61433,-100,4,2,1,65,0,0
61594,-100,4,2,1,75,0,0
61755,-100,4,2,1,85,0,0
61917,-100,4,2,1,70,0,0
62562,-100,4,2,1,60,0,0
62884,-100,4,2,2,75,0,0
63207,-100,4,2,1,60,0,0
68046,-100,4,2,2,60,0,0
68126,-100,4,2,1,60,0,0
68207,-100,4,2,3,60,0,0
68368,-100,4,2,1,60,0,0
68852,-100,4,2,3,60,0,0
69013,-100,4,2,1,60,0,0
72884,-100,4,2,2,60,0,0
72924,-100,4,2,3,60,0,0
73530,-100,4,2,1,75,0,0
73852,-100,4,2,4,80,0,1
74013,-100,4,2,1,80,0,1
83852,-100,4,2,1,80,0,0
84175,-100,4,2,1,80,0,1
86433,-100,4,2,1,80,0,0
86755,-100,4,2,1,80,0,1
94175,-100,4,2,1,70,0,0
94497,-100,4,2,4,70,0,0
94578,-100,4,2,1,70,0,0
104820,-100,4,2,2,70,0,0
104901,-100,4,2,1,60,0,0
114820,-100,4,2,2,85,0,0
119981,-100,4,2,1,30,0,0
123207,-100,4,2,1,40,0,0
123852,-100,4,2,1,70,0,0
124094,-100,4,2,1,40,0,0
124820,-100,4,2,2,60,0,0
124901,-100,4,2,1,40,0,0
125142,-100,4,2,1,80,0,0
125465,-100,4,2,2,80,0,0
125546,-100,4,2,1,80,0,0
128046,-100,4,2,2,80,0,1
128126,-100,4,2,1,80,0,1
135465,-100,4,2,1,80,0,0
136917,-83.3333333333333,4,2,1,80,0,0
137401,-39.2156862745098,4,2,1,80,0,0
137884,-100,4,2,2,80,0,1
137965,-100,4,2,1,80,0,0

[Colours]
Combo1 : 192,192,192
Combo2 : 138,138,255
Combo3 : 255,157,206
Combo4 : 232,0,232

[HitObjects]
355,247,1272,5,6,3:2:0:0:
153,246,1352,1,0,0:0:0:0:
111,138,1917,1,6,3:2:0:0:
313,137,1997,1,0,0:0:0:0:
374,31,2401,1,6,3:2:0:0:
147,26,2481,6,0,L|143:153,1,112.5,0|4,0:0|0:3,0:0:0:0:
202,140,2723,1,4,0:3:0:0:
331,187,2884,1,8,0:1:0:0:
201,233,3046,2,4,L|112:246,1,56.25,4|4,0:3|0:3,0:3:0:0:
288,337,3288,2,4,L|293:273,1,56.25,4|4,0:3|0:3,0:3:0:0:
432,271,3530,6,2,L|441:206,1,56.25
363,211,3691,2,0,L|355:145,1,56.25,8|0,0:1|0:0,0:0:0:0:
440,136,3852,2,4,L|457:3,1,112.5,4|4,0:3|0:3,0:3:0:0:
315,43,4175,6,0,L|418:90,1,112.5,8|2,0:1|0:0,0:0:0:0:
355,111,4417,1,4,0:3:0:0:
229,151,4578,2,4,L|159:159,1,56.25,4|4,0:3|0:3,0:3:0:0:
295,228,4820,1,4,0:3:0:0:
171,266,4981,6,0,L|56:264,1,112.5,8|0,0:1|1:0,0:0:0:0:
176,355,5304,1,4,0:3:0:0:
182,305,5384,1,4,0:3:0:0:
189,255,5465,1,8,0:1:0:0:
326,203,5626,6,0,L|256:185,1,56.25,2|4,0:0|0:3,0:0:0:0:
213,188,5788,1,8,0:1:0:0:
342,131,5949,2,4,L|408:124,1,56.25,4|4,0:3|0:3,0:3:0:0:
336,100,6110,2,4,L|259:98,1,56.25,4|4,0:3|0:3,0:3:0:0:
442,37,6271,2,8,L|509:31,1,56.25,8|8,0:1|0:1,0:1:0:0:
261,15,6433,5,6,3:2:0:0:
112,69,6755,2,2,L|85:121,2,56.25
398,184,7078,5,6,3:2:0:0:
451,278,7320,2,2,L|379:283,1,56.25
120,214,7562,6,0,L|325:189,1,168.75,6|4,3:2|0:3,0:0:0:0:
344,191,7884,1,4,0:3:0:0:
217,140,8046,1,8,0:1:0:0:
350,117,8207,2,4,L|354:41,1,56.25,4|4,0:3|0:3,0:3:0:0:
201,37,8449,2,0,L|124:39,2,56.25,4|4|2,0:3|0:3|0:0,0:0:0:0:
275,46,8691,2,0,L|304:-4,2,56.25,2|2|4,0:0|0:0|0:3,0:0:0:0:
211,76,8933,1,2,0:0:0:0:
136,82,9013,5,4,0:3:0:0:
136,82,9175,1,4,0:3:0:0:
276,167,9336,1,8,0:1:0:0:
244,214,9416,1,2,0:0:0:0:
196,242,9497,1,2,0:0:0:0:
140,246,9577,1,4,0:3:0:0:
281,335,9739,2,0,L|362:323,2,56.25,4|4|2,0:3|0:3|0:0,0:0:0:0:
216,335,9981,1,0,1:0:0:0:
458,357,10142,5,8,0:1:0:0:
345,355,10304,1,2,0:0:0:0:
291,347,10384,1,2,0:0:0:0:
265,300,10465,1,4,0:3:0:0:
290,251,10545,1,4,0:3:0:0:
343,243,10626,1,8,0:1:0:0:
202,228,10788,6,0,L|192:193,4,28.125,4|4|4|4|8,0:3|0:3|0:3|0:3|0:1,0:0:0:0:
263,237,11030,1,8,0:1:0:0:
330,162,11110,6,8,L|258:155,1,56.25,8|8,3:1|0:1,0:1:0:0:
92,105,11271,2,8,L|162:100,1,56.25,8|8,3:1|3:1,3:1:0:0:
345,38,11433,2,8,L|258:30,1,56.25,8|8,3:1|3:1,3:1:0:0:
72,14,11594,6,0,L|62:267,1,225,6|8,3:2|3:1,0:0:0:0:
318,298,12239,1,0,3:0:0:0:
124,358,12481,2,0,L|197:346,1,56.25,0|8,3:0|3:1,0:0:0:0:
314,357,12723,1,0,3:0:0:0:
77,374,12884,6,0,L|54:131,1,225,0|8,3:0|3:1,0:0:0:0:
307,139,13530,2,0,L|341:86,2,56.25,0|4|2,3:0|0:3|0:0,0:0:0:0:
228,172,13771,2,0,L|300:164,1,56.25,0|8,3:0|3:1,0:0:0:0:
431,263,14013,2,2,L|347:273,1,56.25,2|2,3:2|0:2,0:2:0:0:
168,366,14175,6,0,P|153:276|259:218,1,225,6|8,3:2|3:1,0:0:0:0:
39,139,14820,1,0,3:0:0:0:
233,53,15062,2,0,L|152:53,1,56.25,0|8,3:0|3:1,0:0:0:0:
44,103,15304,1,0,3:0:0:0:
297,129,15465,6,0,L|310:357,1,225,0|8,3:0|3:1,0:0:0:0:
61,373,16110,2,0,L|30:327,2,56.25,0|4|2,3:0|0:3|0:0,0:0:0:0:
148,371,16352,2,0,L|88:363,1,56.25,0|8,3:0|0:1,0:0:0:0:
231,301,16594,2,2,L|168:289,1,56.25,2|2,3:2|0:2,0:2:0:0:
368,248,16755,6,0,L|492:229,1,112.5,6|0,3:2|0:0,0:0:0:0:
283,142,16997,2,0,L|206:137,1,56.25,0|8,3:0|0:1,0:0:0:0:
367,101,17239,1,0,3:0:0:0:
92,53,17401,6,0,L|75:177,1,112.5,6|0,3:2|0:0,0:0:0:0:
241,204,17642,2,0,L|254:335,1,112.5,0|0,3:0|0:0,0:0:0:0:
419,344,17884,2,0,L|475:332,1,56.25,0|0,3:0|0:0,0:0:0:0:
263,364,18046,6,0,L|140:342,1,112.5,6|0,3:2|0:0,0:0:0:0:
346,275,18288,2,0,L|416:262,1,56.25,0|8,3:0|0:1,0:0:0:0:
273,206,18530,1,0,3:0:0:0:
20,92,18691,6,0,L|141:75,1,112.5,6|0,3:2|0:0,0:0:0:0:
322,23,18933,2,0,L|208:8,1,112.5,0|0,3:0|0:0,0:0:0:0:
42,229,19175,2,0,L|30:296,1,56.25,0|0,3:0|0:0,0:0:0:0:
205,229,19336,6,0,L|216:304,1,56.25,6|0,3:2|3:0,0:0:0:0:
130,300,19497,2,0,L|117:373,1,56.25,0|0,3:0|3:0,3:0:0:0:
309,245,19659,2,0,L|320:320,1,56.25,8|0,3:2|3:0,3:0:0:0:
225,314,19820,2,0,L|212:387,1,56.25,0|0,3:0|3:0,3:0:0:0:
412,231,19981,6,0,L|423:306,1,56.25,6|0,3:2|3:0,3:0:0:0:
314,306,20142,2,0,L|301:379,1,56.25,0|0,3:0|3:0,3:0:0:0:
509,162,20304,2,0,L|451:107,1,56.25,8|0,3:2|3:0,3:0:0:0:
293,99,20465,2,0,L|224:95,1,56.25,0|0,3:0|3:0,3:0:0:0:
454,169,20626,5,0,3:0:0:0:
459,141,20666,1,0,3:0:0:0:
457,113,20706,1,0,3:0:0:0:
446,88,20746,1,0,3:0:0:0:
427,67,20787,1,0,3:0:0:0:
403,52,20827,1,0,3:0:0:0:
376,46,20867,1,0,3:0:0:0:
183,209,20949,5,0,3:2:0:0:
210,213,20989,1,0,3:0:0:0:
238,218,21029,1,0,3:0:0:0:
266,223,21069,1,0,3:0:0:0:
293,228,21110,1,0,3:0:0:0:
321,233,21150,1,0,3:0:0:0:
349,237,21190,1,0,3:0:0:0:
153,113,21271,5,0,3:0:0:0:
125,119,21311,1,0,1:0:0:0:
101,133,21351,1,0,1:0:0:0:
83,154,21392,1,0,1:0:0:0:
71,180,21432,1,0,1:0:0:0:
69,208,21472,1,0,1:0:0:0:
75,235,21512,1,0,1:0:0:0:
280,348,21594,6,0,L|302:313,2,28.125,0|0|0,1:0|1:0|1:0,1:0:0:0:
78,351,21755,6,0,L|56:316,2,28.125,0|0|0,1:0|1:0|1:0,1:0:0:0:
293,361,21917,5,6,3:2:0:0:
370,343,21997,1,0,1:0:0:0:
337,305,22037,1,0,1:0:0:0:
284,294,22078,1,0,1:0:0:0:
49,229,22239,5,2,1:0:0:0:
46,200,22279,1,0,1:0:0:0:
44,172,22319,1,0,1:0:0:0:
42,144,22359,1,0,1:0:0:0:
40,116,22400,1,0,1:0:0:0:
181,134,22562,5,2,1:0:0:0:
184,105,22602,1,0,1:0:0:0:
186,77,22642,1,0,1:0:0:0:
188,49,22682,1,0,1:0:0:0:
190,21,22723,1,0,1:0:0:0:
437,64,22884,6,0,L|406:75,1,28.125,2|0,0:1|0:0,0:0:0:0:
193,228,23046,2,0,L|235:233,1,28.125,2|0,0:1|0:0,0:0:0:0:
443,305,23207,5,6,3:2:0:0:
315,364,23368,2,0,L|350:354,1,28.125,2|0,0:1|0:0,0:0:0:0:
135,325,23530,1,10,3:2:0:0:
259,297,23691,2,2,L|183:290,1,56.25,2|2,1:0|1:0,1:0:0:0:
37,180,23852,5,0,3:0:0:0:
160,128,24013,2,2,L|82:117,1,56.25,2|2,1:0|1:0,1:0:0:0:
323,53,24175,1,10,3:2:0:0:
194,16,24336,1,2,1:0:0:0:
165,15,24376,1,0,1:0:0:0:
137,14,24416,1,0,1:0:0:0:
371,153,24497,5,2,3:1:0:0:
398,152,24537,1,0,1:0:0:0:
424,163,24577,1,0,1:0:0:0:
443,183,24617,1,0,1:0:0:0:
453,209,24659,1,4,1:3:0:0:
451,237,24698,1,0,1:0:0:0:
438,262,24738,1,0,1:0:0:0:
218,353,24820,5,8,3:1:0:0:
347,325,24981,2,0,L|302:321,1,28.125,2|0,0:1|0:0,0:0:0:0:
87,288,25142,1,0,3:0:0:0:
211,237,25303,2,0,L|166:233,1,28.125,2|0,0:1|0:0,0:0:0:0:
387,168,25465,2,0,L|467:158,1,56.25,8|2,3:1|0:0,0:0:0:0:
375,149,25626,2,2,L|449:142,1,56.25
232,38,25788,6,0,L|225:113,1,56.25,2|4,3:2|0:3,0:0:0:0:
301,109,25949,2,0,L|325:70,2,28.125,2|0|0,1:0|1:0|1:0,1:0:0:0:
103,128,26110,2,0,L|86:316,1,168.75,8|0,3:1|0:0,0:0:0:0:
276,347,26433,6,0,L|144:356,1,112.5,2|0,3:1|0:0,0:0:0:0:
348,276,26675,2,0,L|464:263,1,112.5,2|0,3:1|0:0,0:0:0:0:
287,211,26917,2,0,L|274:128,1,56.25,10|0,3:1|0:0,0:0:0:0:
104,100,27078,6,0,L|219:84,1,112.5,6|2,3:2|0:0,0:0:0:0:
283,78,27320,1,2,0:0:0:0:
104,15,27401,1,10,3:2:0:0:
35,52,27481,2,2,L|11:110,2,56.25
113,85,27723,6,2,L|46:106,1,56.25,2|2,3:2|0:2,0:2:0:0:
140,150,27884,2,2,L|215:160,1,56.25,2|2,0:2|0:2,0:2:0:0:
24,244,28046,2,2,L|19:319,1,56.25,10|2,3:2|0:2,0:2:0:0:
102,292,28207,2,2,L|115:361,1,56.25,2|2,0:2|0:2,0:2:0:0:
294,348,28368,6,2,L|220:339,1,56.25,2|2,3:2|0:2,0:2:0:0:
302,326,28530,2,2,L|375:316,1,56.25
282,302,28691,2,2,L|354:295,1,56.25,10|2,3:2|0:2,0:2:0:0:
183,262,28852,2,0,L|163:230,2,28.125,2|0|2,1:0|1:0|1:0,1:0:0:0:
371,203,29013,6,0,L|394:134,1,56.25,0|2,3:0|0:0,0:0:0:0:
319,117,29175,2,2,L|381:107,1,56.25
451,43,29336,2,2,L|370:39,1,56.25,10|2,3:2|0:2,0:2:0:0:
210,31,29497,2,0,L|159:33,2,28.125,2|0|0,1:0|1:0|1:0,1:0:0:0:
421,277,29659,6,0,P|426:218|314:158,1,168.75,2|0,3:1|0:0,0:0:0:0:
145,184,29981,5,8,3:1:0:0:
263,128,30142,2,0,L|305:121,1,28.125,2|0,0:1|0:0,0:0:0:0:
82,106,30304,1,2,3:2:0:0:
209,54,30465,2,0,L|251:47,1,28.125,2|0,0:1|0:0,0:0:0:0:
26,26,30626,2,0,L|21:107,1,56.25,8|0,3:1|0:0,0:0:0:0:
110,106,30788,2,2,L|42:131,1,56.25
154,168,30949,5,0,3:0:0:0:
37,270,31110,2,0,L|122:293,1,56.25,2|2,0:1|0:0,0:0:0:0:
303,362,31271,2,0,L|314:298,1,56.25,6|0,3:2|0:0,0:0:0:0:
226,302,31433,2,0,L|212:220,1,56.25,2|0,0:1|0:0,0:0:0:0:
413,234,31594,6,8,L|487:225,2,56.25,10|8|8,3:1|0:1|0:1,0:1:0:0:
217,144,31836,2,8,L|277:105,1,56.25,10|8,3:1|0:1,0:1:0:0:
332,105,31997,1,8,0:1:0:0:
126,72,32078,2,8,L|52:61,1,56.25,10|8,3:1|0:1,0:1:0:0:
278,14,32239,6,0,L|298:150,1,112.5,4|2,3:1|0:1,0:0:0:0:
408,184,32562,1,2,1:0:0:0:
435,187,32602,1,0,1:0:0:0:
463,190,32642,1,0,1:0:0:0:
283,290,32723,6,0,L|258:248,2,28.125,6|0|0,3:2|1:0|1:3,0:0:0:0:
350,305,32884,1,0,1:0:0:0:
418,339,32965,6,0,L|465:334,2,28.125,2|0|0,1:1|1:0|1:3,0:0:0:0:
351,355,33126,1,0,1:0:0:0:
158,370,33207,5,6,3:2:0:0:
283,305,33368,2,0,L|248:302,1,28.125,2|0,1:0|0:0,0:0:0:0:
34,166,33530,2,0,L|71:161,1,28.125,2|0,1:0|0:0,0:0:0:0:
268,102,33691,5,6,3:2:0:0:
140,109,33852,2,2,L|132:212,1,56.25,2|2,1:2|1:2,1:2:0:0:
217,28,34013,2,2,L|152:29,1,56.25,2|2,1:2|1:2,1:2:0:0:
355,157,34175,5,6,3:2:0:0:
453,237,34336,2,4,L|393:253,1,56.25,4|4,0:3|0:3,0:3:0:0:
217,313,34497,1,6,3:2:0:0:
435,356,34659,2,0,L|458:318,2,28.125,2|0|0,1:0|1:0|1:0,1:0:0:0:
206,212,34820,5,6,3:2:0:0:
177,212,34860,1,0,1:0:0:0:
149,212,34900,1,0,1:0:0:0:
299,191,34981,1,2,1:0:0:0:
303,163,35021,1,0,1:0:0:0:
308,135,35061,1,0,1:0:0:0:
458,98,35142,1,8,0:1:0:0:
206,349,35304,6,0,L|199:315,1,28.125,6|0,3:2|0:0,0:0:0:0:
313,305,35465,2,0,L|322:256,1,28.125,2|0,0:1|0:0,0:0:0:0:
432,225,35626,2,0,L|393:224,1,28.125,2|0,0:1|0:0,0:0:0:0:
114,69,35788,6,0,L|155:20,1,56.25,6|2,3:2|0:0,0:0:0:0:
222,13,35949,2,2,L|287:3,1,56.25
189,162,36110,2,2,L|114:162,1,56.25
318,206,36271,6,0,L|384:193,2,56.25,6|2|8,3:2|0:0|0:1,0:0:0:0:
177,204,36594,1,2,0:0:0:0:
446,331,36755,2,0,L|331:315,1,112.5,6|0,3:2|0:0,0:0:0:0:
139,220,36997,2,0,L|260:191,1,112.5,2|0,3:1|0:0,0:0:0:0:
435,164,37239,2,0,L|443:71,1,56.25,2|0,3:1|0:0,0:0:0:0:
214,72,37401,5,6,3:2:0:0:
346,60,37562,1,0,3:0:0:0:
201,37,37723,1,8,3:1:0:0:
54,68,37884,2,0,L|28:35,2,28.125,2|0|0,3:1|1:0|1:0,0:0:0:0:
260,215,38046,6,0,L|315:164,2,56.25,0|2|0,3:0|0:0|3:0,0:0:0:0:
114,249,38368,2,0,L|31:261,2,56.25,8|2|2,3:1|0:0|3:1,0:0:0:0:
142,249,38570,1,0,1:0:0:0:
170,249,38610,1,0,1:0:0:0:
359,347,38691,6,0,L|375:273,1,56.25,6|0,3:2|0:0,0:0:0:0:
277,280,38852,1,2,3:1:0:0:
270,252,38892,1,0,1:0:0:0:
264,225,38932,1,0,1:0:0:0:
474,222,39013,2,0,L|486:144,1,56.25,8|0,3:1|0:0,0:0:0:0:
389,166,39175,1,2,3:1:0:0:
385,138,39215,1,0,1:0:0:0:
382,110,39255,1,0,1:0:0:0:
155,121,39336,6,0,L|194:49,1,56.25,0|0,3:0|0:0,0:0:0:0:
271,44,39498,1,2,3:1:0:0:
299,40,39538,1,0,1:0:0:0:
327,37,39578,1,0,1:0:0:0:
126,258,39659,2,0,L|48:246,1,56.25,8|0,3:1|0:0,0:0:0:0:
263,334,39820,2,0,L|287:299,2,28.125,10|0|0,3:1|1:0|1:0,0:0:0:0:
54,357,39981,6,0,L|35:280,1,56.25,6|0,3:2|3:0,3:0:0:0:
127,283,40142,2,0,L|126:220,1,56.25,0|0,3:0|3:0,3:0:0:0:
217,216,40304,2,0,L|235:152,1,56.25,8|0,3:1|3:0,3:0:0:0:
411,90,40465,2,0,L|472:55,1,56.25,8|0,3:1|3:0,3:0:0:0:
245,52,40626,6,8,L|152:31,1,56.25,8|8,3:1|3:1,3:1:0:0:
377,190,40788,2,8,L|448:180,1,56.25,8|8,3:1|3:1,3:1:0:0:
221,299,40949,2,0,L|184:264,2,28.125,8|0|8,3:1|3:0|3:1,3:0:0:0:
458,331,41110,2,0,L|499:332,2,28.125,8|0|8,3:1|3:0|3:1,3:0:0:0:
245,362,41271,6,0,L|245:320,1,39.375,4|0,3:3|0:0,0:0:0:0:
28,240,41917,5,8,3:1:0:0:
39,214,41957,1,2,0:0:0:0:
56,191,41997,1,2,0:0:0:0:
77,173,42037,1,2,0:0:0:0:
102,161,42078,1,2,0:0:0:0:
129,154,42118,1,2,0:0:0:0:
157,154,42158,1,2,0:0:0:0:
378,77,42239,6,2,L|308:65,1,56.25,2|2,3:2|3:2,3:2:0:0:
86,28,42401,2,2,L|159:9,1,56.25,2|2,3:2|3:2,3:2:0:0:
392,217,42562,5,6,3:2:0:0:
484,88,43046,1,2,0:0:0:0:
375,10,43368,1,2,0:0:0:0:
272,34,43530,1,2,0:0:0:0:
389,86,43691,6,2,P|395:159|258:242,2,225
94,62,44820,1,2,0:0:0:0:
380,28,45122,6,0,L|363:26,1,14.0625,2|0,0:0|0:0,0:0:0:0:
45,77,45626,1,2,0:0:0:0:
256,265,46110,1,2,0:0:0:0:
486,348,46433,6,2,P|495:271|245:11,1,450
434,73,47320,1,2,0:0:0:0:
265,151,47562,1,2,0:0:0:0:
110,159,47703,5,2,0:0:0:0:
83,157,47723,2,0,P|65:186|226:369,1,337.5,0|2,0:0|0:0,0:0:0:0:
402,338,48530,1,2,0:0:0:0:
217,332,48771,1,2,0:0:0:0:
403,311,49013,6,2,P|427:241|235:101,2,337.5
139,363,50304,5,2,0:0:0:0:
209,349,50411,1,2,0:0:0:0:
239,283,50519,1,2,0:0:0:0:
203,221,50626,1,2,0:0:0:0:
131,214,50734,1,2,0:0:0:0:
210,194,50841,1,2,0:0:0:0:
119,172,50949,5,2,0:0:0:0:
53,141,51056,1,2,0:0:0:0:
119,172,51164,1,2,0:0:0:0:
207,170,51271,2,2,L|93:216,1,75
225,249,51487,1,2,0:0:0:0:
322,118,51594,5,2,0:0:0:0:
242,128,51702,1,2,0:0:0:0:
202,207,51809,1,2,0:0:0:0:
242,128,51917,1,2,0:0:0:0:
324,109,52024,1,2,0:0:0:0:
236,103,52132,1,2,0:0:0:0:
327,126,52239,5,2,0:0:0:0:
341,199,52346,1,2,0:0:0:0:
355,273,52454,1,2,0:0:0:0:
435,315,52562,2,2,L|491:322,1,56.25,2|2,3:2|3:2,3:2:0:0:
277,40,52723,2,2,L|201:34,1,56.25,2|2,3:2|3:2,3:2:0:0:
445,21,52884,6,0,P|462:103|378:139,1,168.75,6|0,3:2|0:0,0:0:0:0:
337,142,53207,1,8,0:1:0:0:
84,232,53368,6,0,L|333:287,1,225,6|8,3:2|0:1,0:0:0:0:
307,350,53852,1,2,0:0:0:0:
175,365,54013,2,4,L|166:299,1,56.25,4|4,0:3|0:3,0:3:0:0:
343,214,54175,1,8,3:1:0:0:
84,232,54336,6,0,P|81:170|210:95,1,225,6|8,3:2|0:1,0:0:0:0:
475,147,54820,1,6,3:2:0:0:
346,161,54981,1,0,3:0:0:0:
340,133,55021,1,0,3:0:0:0:
334,105,55061,1,0,3:0:0:0:
132,323,55142,5,6,3:2:0:0:
252,334,55303,1,0,3:0:0:0:
258,306,55343,1,0,3:0:0:0:
264,278,55383,1,0,3:0:0:0:
47,260,55465,5,8,3:1:0:0:
173,225,55626,1,8,0:1:0:0:
47,260,55788,1,8,0:1:0:0:
317,349,55949,6,0,P|333:283|193:216,1,225,6|2,3:2|0:0,0:0:0:0:
452,166,56433,1,6,3:2:0:0:
215,116,56594,2,0,L|72:109,1,112.5,0|0,3:0|0:0,0:0:0:0:
361,30,56917,6,0,L|378:269,1,225,6|2,3:2|0:0,0:0:0:0:
117,350,57401,5,6,3:2:0:0:
348,360,57642,1,6,3:2:0:0:
117,350,57884,1,6,3:2:0:0:
252,352,58046,2,0,L|267:229,1,112.5,0|2,3:0|0:0,0:0:0:0:
18,172,58368,6,0,P|43:113|200:58,1,225,6|0,3:2|3:0,0:0:0:0:
458,110,58852,6,0,L|278:140,1,168.75,6|0,3:2|0:0,0:0:0:0:
111,247,59175,1,0,3:0:0:0:
138,253,59215,1,0,3:0:0:0:
173,259,59255,1,0,3:0:0:0:
372,340,59336,6,0,L|501:334,1,112.5,6|0,3:2|0:0,0:0:0:0:
313,302,59578,2,0,L|294:183,1,112.5,2|0,3:1|0:0,0:0:0:0:
115,158,59820,2,0,L|238:139,1,112.5,2|0,3:1|0:0,0:0:0:0:
46,34,60062,6,0,L|34:160,1,112.5,2|0,3:1|0:0,0:0:0:0:
226,140,60304,2,0,L|149:149,1,56.25,0|0,3:0|3:0,3:0:0:0:
365,217,60465,2,0,L|395:180,2,28.125,0|0|0,3:0|3:0|3:0,3:0:0:0:
170,247,60626,5,6,3:2:0:0:
306,277,60788,1,8,3:1:0:0:
47,338,60949,1,8,3:1:0:0:
182,363,61110,1,8,3:1:0:0:
439,368,61271,6,8,L|448:291,1,56.25,8|8,3:0|3:0,3:0:0:0:
350,306,61433,2,8,L|342:231,1,56.25,8|8,3:0|3:0,3:0:0:0:
141,225,61594,2,8,L|206:200,1,56.25,8|8,3:0|3:0,3:0:0:0:
414,171,61755,2,8,L|337:155,1,56.25,8|8,3:0|3:0,3:0:0:0:
149,362,61917,6,0,P|133:281|400:43,1,450,6|4,3:2|0:3,0:0:0:0:
308,24,62642,1,4,0:3:0:0:
230,25,62723,1,4,0:3:0:0:
467,39,62884,6,0,L|480:215,1,168.75,8|0,3:1|0:0,0:0:0:0:
245,242,63207,6,0,L|55:93,1,225,6|8,3:2|0:1,0:0:0:0:
265,50,63771,2,8,L|209:39,1,56.25,8|8,0:3|0:3,0:3:0:0:
202,140,64013,2,2,L|282:125,1,56.25
344,145,64175,2,0,L|358:231,1,56.25,8|0,0:1|0:0,0:0:0:0:
264,195,64336,2,0,L|262:268,1,56.25,8|0,0:3|0:0,0:0:0:0:
173,192,64497,6,0,L|168:325,1,112.5,8|2,0:3|0:0,0:0:0:0:
311,350,64820,2,0,L|319:226,1,112.5,8|2,0:1|0:0,0:0:0:0:
381,217,65062,1,8,0:3:0:0:
450,212,65142,1,8,0:3:0:0:
453,122,65304,5,2,0:0:0:0:
397,130,65384,1,2,0:0:0:0:
335,155,65465,1,8,0:1:0:0:
403,174,65545,1,2,0:0:0:0:
466,250,65626,2,2,L|395:251,1,56.25,8|2,0:3|0:0,0:0:0:0:
217,367,65788,6,0,L|197:131,1,225,8|8,0:3|0:1,0:0:0:0:
135,115,66191,1,2,0:0:0:0:
58,112,66271,1,2,0:0:0:0:
203,53,66433,2,0,L|221:193,1,112.5,8|2,0:3|0:0,0:0:0:0:
308,230,66675,2,0,L|227:242,1,56.25,8|8,0:3|0:1,0:0:0:0:
120,270,66917,1,8,0:3:0:0:
373,362,67078,6,0,L|382:234,1,112.5,8|2,0:3|0:0,0:0:0:0:
227,289,67401,2,0,L|213:168,1,112.5,8|4,0:1|1:3,0:0:0:0:
242,179,67602,1,0,1:0:0:0:
270,182,67642,1,4,1:3:0:0:
368,157,67723,5,8,0:3:0:0:
452,86,67884,2,2,L|383:75,1,56.25
193,96,68046,6,0,L|184:27,1,56.25,8|2,0:1|0:0,0:0:0:0:
378,25,68207,2,2,L|303:20,1,56.25,2|2,3:2|3:2,3:2:0:0:
113,51,68368,5,6,3:2:0:0:
97,160,68530,1,0,3:0:0:0:
240,217,68691,2,0,L|184:244,1,56.25,8|2,0:1|0:0,0:0:0:0:
115,262,68852,2,2,L|109:332,1,56.25,2|2,3:2|3:2,3:2:0:0:
294,349,69013,6,0,L|351:353,2,56.25,6|2|8,3:2|0:0|0:3,0:0:0:0:
110,318,69255,2,0,L|172:286,1,56.25,2|8,3:1|3:3,0:0:0:0:
231,282,69417,1,2,0:0:0:0:
54,231,69497,2,0,L|45:147,1,56.25,2|2,3:1|0:0,0:0:0:0:
254,137,69659,5,6,3:2:0:0:
124,138,69820,2,0,L|113:15,1,112.5,8|8,3:0|0:1,0:0:0:0:
249,13,70142,1,8,0:3:0:0:
489,115,70304,6,0,L|375:134,1,112.5,6|8,3:2|0:3,0:0:0:0:
198,283,70546,1,2,3:1:0:0:
271,287,70626,2,0,L|281:216,1,56.25,8|0,0:3|0:0,0:0:0:0:
85,199,70788,2,0,L|48:158,2,28.125,2|0|0,3:1|3:0|3:0,3:0:0:0:
294,113,70949,6,0,L|417:97,1,112.5,6|0,3:2|3:0,0:0:0:0:
266,193,71271,2,0,L|265:257,1,56.25,0|2,3:0|0:0,0:0:0:0:
335,273,71433,1,0,3:0:0:0:
204,349,71594,6,0,L|144:349,1,56.25,0|0,3:0|3:0,3:0:0:0:
211,324,71755,2,2,L|306:327,1,56.25,2|2,3:2|3:2,3:2:0:0:
85,264,71917,2,0,L|1:271,1,56.25,2|0,3:2|3:0,3:0:0:0:
242,178,72078,2,0,L|319:177,1,56.25,2|0,3:2|3:0,3:0:0:0:
85,140,72239,5,6,3:2:0:0:
49,58,72401,2,0,L|96:44,1,28.125,2|0,0:1|0:0,0:0:0:0:
284,37,72723,2,0,L|330:49,1,28.125,2|0,0:1|0:0,0:0:0:0:
88,168,72884,5,8,3:1:0:0:
72,192,72924,1,2,0:2:0:0:
69,220,72964,1,2,0:2:0:0:
79,247,73004,1,2,0:2:0:0:
99,269,73045,1,2,0:2:0:0:
128,283,73085,1,2,0:2:0:0:
161,286,73125,1,2,0:2:0:0:
367,358,73207,6,2,L|296:346,1,56.25,2|2,3:2|3:2,3:2:0:0:
385,341,73368,2,2,L|395:258,1,56.25,2|2,3:2|3:2,3:2:0:0:
188,370,73530,6,0,L|179:189,1,168.75,2|0,3:0|0:0,0:0:0:0:
422,134,73852,5,4,3:1:0:0:
291,88,74013,2,0,L|141:81,1,112.5,2|2,0:1|3:2,0:0:0:0:
317,195,74336,2,2,L|381:193,1,56.25
186,308,74497,1,10,3:2:0:0:
447,351,74659,2,0,L|455:231,1,112.5,2|0,0:1|3:0,0:0:0:0:
209,155,74981,2,0,L|338:148,1,112.5,2|10,0:1|3:2,0:0:0:0:
72,59,75304,5,2,0:1:0:0:
209,155,75465,2,0,L|131:171,1,56.25,8|8,3:0|0:3,0:0:0:0:
75,206,75626,2,0,L|149:229,1,56.25,8|2,0:3|0:0,0:0:0:0:
301,343,75788,2,0,L|209:335,1,56.25,10|2,3:2|0:0,0:0:0:0:
323,322,75949,2,2,L|261:310,1,56.25
72,353,76110,6,0,P|52:295|146:243,1,168.75,2|0,3:1|0:0,0:0:0:0:
193,231,76433,1,10,3:2:0:0:
436,130,76594,2,0,L|290:115,1,112.5,2|0,0:1|3:0,0:0:0:0:
294,79,76836,1,2,0:0:0:0:
324,118,76917,1,2,0:0:0:0:
387,129,76997,1,2,0:0:0:0:
197,169,77078,1,10,3:2:0:0:
448,278,77239,6,0,L|457:162,1,112.5,2|0,0:1|3:0,0:0:0:0:
206,326,77562,1,2,0:1:0:0:
346,346,77723,1,10,3:2:0:0:
206,326,77884,2,2,L|148:322,1,56.25
352,237,78046,6,0,L|254:233,2,56.25,2|8|2,3:1|0:3|0:0,0:0:0:0:
121,187,78368,1,10,3:2:0:0:
352,237,78530,2,0,L|420:231,1,56.25,0|0,3:0|3:0,3:0:0:0:
200,243,78691,6,0,P|178:172|261:121,1,168.75,2|0,3:1|0:0,0:0:0:0:
311,117,79013,1,10,3:2:0:0:
170,74,79175,1,2,0:1:0:0:
423,45,79336,6,0,L|437:178,1,112.5,2|2,3:1|0:0,0:0:0:0:
375,191,79578,1,2,0:0:0:0:
306,218,79659,2,0,L|385:237,1,56.25,10|2,3:2|0:0,0:0:0:0:
192,321,79820,2,2,L|110:341,1,56.25
342,369,79981,6,0,P|361:314|275:240,1,168.75,2|0,3:1|0:0,0:0:0:0:
228,241,80304,1,10,3:2:0:0:
358,150,80465,2,2,L|279:154,1,56.25
98,161,80626,6,0,L|37:154,2,56.25,2|8|2,3:1|0:3|0:0,0:0:0:0:
276,124,80868,2,0,L|276:53,1,56.25,2|10,0:1|3:2,0:0:0:0:
206,53,81030,1,2,0:0:0:0:
388,29,81110,2,0,L|458:21,1,56.25,2|2,0:1|0:0,0:0:0:0:
273,171,81271,6,0,L|262:308,1,112.5,2|0,3:1|0:0,0:0:0:0:
90,342,81513,2,0,L|32:274,2,56.25,2|10|2,0:1|3:2|0:0,0:0:0:0:
274,375,81755,2,0,L|348:384,1,56.25,2|2,0:1|0:0,0:0:0:0:
112,384,81917,6,0,P|98:304|195:277,1,168.75,2|2,3:1|0:0,0:0:0:0:
230,268,82239,1,10,3:2:0:0:
85,222,82401,1,2,0:1:0:0:
338,202,82562,5,6,3:2:0:0:
199,144,82724,1,2,3:2:0:0:
345,112,82884,1,10,3:2:0:0:
409,117,82965,2,2,L|437:54,2,56.25
206,182,83207,6,2,L|210:266,1,56.25,2|8,3:1|0:3,0:2:0:0:
278,257,83368,1,2,0:2:0:0:
82,322,83449,2,2,L|11:310,2,56.25,2|8|2,3:1|0:3|0:2,0:2:0:0:
278,353,83691,6,2,L|211:359,1,56.25,2|8,0:1|0:3,0:2:0:0:
281,338,83852,2,0,L|410:313,1,112.5,2|0,0:0|3:0,0:0:0:0:
248,248,84094,1,0,3:0:0:0:
98,226,84175,5,6,3:2:0:0:
227,165,84336,2,0,L|348:154,1,112.5,2|2,0:1|3:2,0:0:0:0:
278,117,84578,1,2,0:0:0:0:
209,106,84659,1,2,0:0:0:0:
439,51,84820,1,10,3:2:0:0:
186,28,84981,6,0,L|173:151,1,112.5,2|0,0:1|3:2,0:0:0:0:
431,187,85304,2,0,L|450:305,1,112.5,2|10,0:1|3:2,0:0:0:0:
195,361,85626,1,2,0:1:0:0:
325,307,85788,6,0,L|252:291,1,56.25,8|8,3:0|0:3,0:0:0:0:
82,250,85949,2,0,L|74:176,1,56.25,8|0,0:3|0:0,0:0:0:0:
239,149,86110,2,0,L|161:147,1,56.25,2|0,3:1|3:0,3:0:0:0:
350,102,86271,2,0,L|417:87,1,56.25,2|0,3:1|3:0,3:0:0:0:
205,27,86433,6,0,L|199:184,1,112.5,2|2,3:2|0:0,0:0:0:0:
268,160,86675,1,2,0:0:0:0:
67,273,86755,5,6,3:1:0:0:
195,339,86917,2,0,L|315:327,1,112.5,2|2,0:1|3:2,0:0:0:0:
246,291,87159,1,2,0:0:0:0:
176,279,87239,1,2,0:0:0:0:
402,253,87401,1,10,3:2:0:0:
157,192,87562,6,0,L|144:65,1,112.5,2|0,0:1|3:0,0:0:0:0:
387,55,87884,1,2,3:1:0:0:
245,37,88046,1,10,3:2:0:0:
387,55,88207,2,0,L|459:46,1,56.25,2|0,3:1|3:0,3:0:0:0:
268,160,88368,5,0,3:0:0:0:
209,162,88449,1,8,0:3:0:0:
268,160,88530,1,2,3:1:0:0:
37,255,88691,1,10,3:2:0:0:
274,260,88852,2,2,L|202:285,1,56.25,2|2,3:2|3:2,3:2:0:0:
33,353,89013,6,0,P|31:289|137:247,1,168.75,6|0,3:2|0:0,0:0:0:0:
294,256,89336,2,0,L|310:187,1,56.25,10|0,3:2|0:0,0:0:0:0:
216,194,89497,2,0,L|197:121,1,56.25,0|0,3:0|0:0,0:0:0:0:
387,104,89659,6,0,L|263:93,1,112.5,6|0,3:2|0:0,0:0:0:0:
468,64,89901,2,0,L|476:138,1,56.25,2|10,3:1|0:2,0:0:0:0:
415,150,90062,1,2,0:0:0:0:
254,244,90142,2,0,L|310:249,1,56.25,2|0,3:1|0:0,0:0:0:0:
144,332,90304,6,0,L|21:337,1,112.5,6|8,3:2|0:3,0:0:0:0:
274,248,90626,2,0,L|210:228,1,56.25,10|0,3:2|0:0,0:0:0:0:
143,186,90788,2,0,L|203:168,1,56.25,0|0,3:0|0:0,0:0:0:0:
387,137,90949,6,0,L|459:127,2,56.25,6|8|0,3:2|0:3|0:0,0:0:0:0:
202,63,91191,2,0,L|263:23,1,56.25,2|8,3:1|0:3,0:0:0:0:
322,27,91352,1,2,0:0:0:0:
126,108,91433,2,0,L|57:104,1,56.25,2|8,3:1|0:3,0:0:0:0:
277,247,91594,6,0,L|279:380,1,112.5,6|2,3:2|3:2,0:0:0:0:
217,357,91836,1,2,0:0:0:0:
52,356,91917,2,2,L|72:257,1,56.25,2|2,3:2|3:2,3:2:0:0:
245,205,92078,2,2,L|268:130,1,56.25,2|2,3:2|3:2,3:2:0:0:
445,93,92239,5,6,3:2:0:0:
214,71,92401,2,0,L|192:46,2,28.125,0|0|0,3:0|3:0|3:0,3:0:0:0:
389,203,92562,5,6,3:2:0:0:
159,181,92724,2,0,L|137:156,2,28.125,0|0|0,3:0|3:0|3:0,3:0:0:0:
332,318,92884,5,6,3:2:0:0:
105,283,93046,2,0,L|71:233,2,56.25,2|2|8,3:1|0:0|0:2,0:0:0:0:
166,294,93288,1,2,0:0:0:0:
365,300,93368,2,0,L|412:304,2,28.125,8|0|8,1:0|1:0|1:0,1:0:0:0:
184,347,93530,5,2,3:3:0:0:
166,294,93610,1,0,3:3:0:0:
187,242,93691,1,2,3:2:0:0:
244,212,93771,1,2,3:2:0:0:
313,180,93852,2,0,L|246:172,1,56.25,10|4,3:2|0:3,0:0:0:0:
76,47,94013,2,4,L|6:51,1,56.25,4|4,0:3|0:3,0:3:0:0:
211,33,94175,6,0,L|221:100,3,56.25,6|2|2|2,3:2|0:0|0:0|0:0,0:0:0:0:
22,231,94497,6,0,L|92:236,1,56.25,4|2,3:1|0:0,0:0:0:0:
265,365,94659,1,2,0:2:0:0:
283,312,94739,1,2,0:2:0:0:
262,260,94820,1,2,3:2:0:0:
205,230,94900,1,2,0:2:0:0:
144,196,94981,2,2,L|211:188,1,56.25,2|2,0:2|0:2,0:2:0:0:
369,146,95142,5,10,3:2:0:0:
312,139,95223,1,2,0:2:0:0:
284,98,95304,1,2,0:2:0:0:
312,139,95384,1,2,0:2:0:0:
387,70,95465,6,2,L|310:51,1,56.25,2|2,3:2|0:2,0:2:0:0:
406,49,95626,2,2,L|331:32,1,56.25,2|2,0:2|0:2,0:2:0:0:
426,39,95788,1,10,3:2:0:0:
454,100,95868,1,2,0:2:0:0:
426,39,95949,1,2,0:2:0:0:
361,106,96030,1,2,0:2:0:0:
165,220,96110,6,2,L|215:264,1,56.25,2|2,3:2|0:2,0:2:0:0:
280,288,96271,2,2,L|222:313,1,56.25,2|2,0:2|0:2,0:2:0:0:
155,330,96433,1,10,3:2:0:0:
125,266,96513,1,2,0:2:0:0:
155,330,96594,1,2,0:2:0:0:
223,349,96675,1,2,0:2:0:0:
42,355,96755,6,2,L|28:274,1,56.25,2|2,3:2|0:2,0:2:0:0:
110,282,96917,2,2,L|114:191,1,56.25,2|2,0:2|0:2,0:2:0:0:
196,213,97078,2,2,L|138:175,1,56.25,10|2,3:2|0:2,0:2:0:0:
67,147,97239,2,2,L|139:128,1,56.25,2|2,0:2|0:2,0:2:0:0:
304,162,97401,6,2,L|307:94,1,56.25,2|2,3:2|0:2,0:2:0:0:
218,91,97562,2,2,L|284:70,1,56.25,2|2,0:2|0:2,0:2:0:0:
456,167,97723,2,2,L|488:115,2,56.25,10|2|2,3:2|0:2|0:2,0:2:0:0:
391,179,97965,1,2,0:2:0:0:
316,231,98046,6,2,L|377:255,1,56.25,2|2,3:2|0:2,0:2:0:0:
297,304,98207,2,2,L|239:318,1,56.25,2|2,0:2|0:2,0:2:0:0:
163,334,98368,2,2,L|225:349,1,56.25,10|2,3:2|0:2,0:2:0:0:
135,364,98530,2,2,L|69:361,1,56.25,2|2,0:2|0:2,0:2:0:0:
268,353,98691,6,2,L|326:353,2,56.25,2|2|2,3:2|0:2|0:2,0:2:0:0:
77,264,98933,2,2,L|128:224,1,56.25,2|10,3:2|0:2,0:2:0:0:
187,218,99094,1,2,0:2:0:0:
391,258,99175,6,2,L|394:181,1,56.25,2|2,3:2|0:2,0:2:0:0:
310,180,99336,2,0,L|277:131,2,56.25,2|2|2,0:0|0:0|3:2,0:0:0:0:
459,217,99578,1,2,3:2:0:0:
314,267,99659,6,0,L|239:283,1,56.25,6|2,3:2|0:0,0:0:0:0:
334,318,99820,2,2,L|365:264,2,56.25,2|2|2,0:2|0:2|3:2,0:2:0:0:
274,328,100062,1,2,0:2:0:0:
203,287,100142,2,2,L|283:274,1,56.25,2|2,0:2|0:2,0:2:0:0:
326,219,100304,2,2,L|258:206,1,56.25,10|2,3:2|0:2,0:2:0:0:
94,210,100465,2,2,L|80:130,1,56.25,2|2,0:2|0:2,0:2:0:0:
263,115,100626,6,2,L|330:105,2,56.25,2|2|2,0:2|0:2|0:2,0:2:0:0:
76,164,100868,1,2,0:2:0:0:
43,107,100948,1,10,3:2:0:0:
72,42,101029,1,2,0:2:0:0:
151,36,101110,2,2,L|78:36,1,56.25,2|2,0:2|0:2,0:2:0:0:
270,141,101271,6,2,L|347:141,1,56.25,2|2,3:2|0:2,0:2:0:0:
250,213,101433,2,2,L|183:224,1,56.25,2|2,3:2|0:2,0:2:0:0:
381,261,101594,2,2,L|454:272,1,56.25,10|2,3:2|0:2,0:2:0:0:
259,362,101755,2,2,L|250:292,1,56.25,2|2,3:2|0:2,0:2:0:0:
442,328,101917,6,0,L|453:208,1,112.5,2|2,3:0|0:0,0:0:0:0:
439,177,102159,1,2,0:0:0:0:
242,144,102239,5,6,3:2:0:0:
354,80,102401,2,2,L|284:78,1,56.25,2|2,0:2|0:2,0:2:0:0:
117,217,102562,2,2,L|73:148,2,56.25,2|2|2,3:2|0:2|0:2,0:2:0:0:
183,229,102804,1,2,0:2:0:0:
119,78,102884,2,2,L|34:67,1,56.25,10|2,3:2|0:2,0:2:0:0:
137,58,103046,2,2,L|59:52,1,56.25,2|2,0:2|0:2,0:2:0:0:
260,246,103207,6,2,L|329:234,1,56.25,6|2,3:2|0:2,0:2:0:0:
122,346,103368,1,2,3:2:0:0:
197,346,103449,2,2,L|229:280,2,56.25,2|10|2,0:2|3:2|0:2,0:2:0:0:
118,294,103691,2,2,L|202:285,1,56.25,2|2,0:2|0:2,0:2:0:0:
369,208,103852,6,8,L|434:203,2,56.25,8|8|8,3:3|0:3|0:3,0:3:0:0:
156,168,104094,2,8,L|109:111,2,56.25,8|8|8,3:3|0:3|0:3,0:3:0:0:
364,44,104336,2,8,L|265:41,1,56.25,8|8,3:3|0:3,0:3:0:0:
151,37,104497,5,8,3:2:0:0:
306,129,104578,2,0,L|389:127,1,56.25,0|2,3:0|0:0,0:0:0:0:
211,234,104739,1,0,3:0:0:0:
58,292,104820,6,0,L|150:305,1,56.25,4|2,3:1|0:0,0:0:0:0:
186,317,104981,1,2,0:2:0:0:
132,312,105061,1,2,0:2:0:0:
105,265,105142,5,2,3:2:0:0:
129,216,105222,1,2,0:2:0:0:
192,209,105303,1,2,0:2:0:0:
121,188,105384,1,0,0:0:0:0:
308,142,105465,2,2,L|229:132,1,56.25,10|2,3:2|0:2,0:2:0:0:
180,79,105626,2,2,L|248:70,1,56.25,2|2,0:2|0:2,0:2:0:0:
443,112,105788,6,2,L|458:254,1,112.5,2|2,3:2|0:2,0:2:0:0:
393,242,106030,1,2,0:2:0:0:
208,185,106110,2,2,L|276:175,1,56.25,10|2,0:2|0:2,0:2:0:0:
341,175,106271,2,2,L|349:103,1,56.25,2|2,0:2|0:2,0:2:0:0:
141,40,106433,6,2,L|9:61,1,112.5,2|2,3:2|0:2,0:2:0:0:
215,183,106675,2,2,L|304:190,1,56.25,2|10,3:2|3:2,0:2:0:0:
47,280,106917,1,2,3:2:0:0:
294,318,107078,6,2,L|203:317,1,56.25,2|2,3:2|0:2,0:2:0:0:
304,342,107239,2,2,L|378:335,1,56.25,2|2,3:2|0:2,0:2:0:0:
154,355,107401,5,14,3:2:0:0:
278,273,107562,2,2,L|215:271,1,56.25,2|2,0:2|0:2,0:2:0:0:
154,215,107723,2,2,L|234:192,1,56.25,2|2,3:2|0:2,0:2:0:0:
287,118,107884,2,2,L|211:121,1,56.25,2|2,0:2|0:2,0:2:0:0:
317,168,108046,6,2,L|349:106,2,56.25,10|2|2,3:2|0:2|0:2,0:2:0:0:
255,177,108288,1,2,0:2:0:0:
77,241,108368,2,2,L|117:288,1,56.25,2|2,3:2|0:2,0:2:0:0:
186,302,108530,2,2,L|269:312,1,56.25,2|2,0:2|0:2,0:2:0:0:
49,378,108691,6,2,L|34:248,1,112.5,10|2,3:2|0:2,0:2:0:0:
103,246,108933,1,2,3:2:0:0:
286,198,109013,2,2,L|218:168,1,56.25,2|2,3:2|0:2,0:2:0:0:
158,153,109175,2,2,L|219:131,1,56.25,2|2,3:2|0:2,0:2:0:0:
394,98,109336,2,2,L|319:83,1,56.25,10|2,3:2|0:2,0:2:0:0:
161,34,109497,2,2,L|228:17,1,56.25,2|2,3:2|0:2,0:2:0:0:
445,204,109659,5,6,3:2:0:0:
318,281,109820,1,2,3:2:0:0:
179,297,109981,1,10,3:2:0:0:
334,333,110142,1,2,3:2:0:0:
59,91,110304,5,2,3:2:0:0:
191,161,110465,1,2,3:2:0:0:
329,189,110626,1,10,3:2:0:0:
172,217,110787,1,2,3:2:0:0:
436,271,110949,6,2,L|468:218,2,56.25,6|2|2,3:2|0:2|3:2,0:2:0:0:
356,292,111191,2,2,L|438:291,2,56.25,2|10|2,0:2|3:2|0:2,0:2:0:0:
280,242,111433,2,2,L|348:230,1,56.25,2|2,3:2|0:2,0:2:0:0:
160,182,111594,6,2,L|90:177,1,56.25,2|2,3:2|3:2,3:2:0:0:
265,132,111755,2,2,L|337:121,1,56.25,2|2,3:2|3:2,3:2:0:0:
124,97,111917,2,2,L|62:94,1,56.25,10|2,3:2|3:2,3:2:0:0:
275,48,112078,2,2,L|362:33,1,56.25,2|2,3:2|3:2,3:2:0:0:
90,13,112239,6,2,L|8:12,1,56.25,6|2,3:2|0:2,0:2:0:0:
131,95,112401,2,2,L|146:158,1,56.25,10|2,0:2|0:2,0:2:0:0:
246,174,112562,2,2,L|268:237,1,56.25,10|2,0:2|0:2,0:2:0:0:
83,272,112723,6,2,L|139:311,1,56.25,6|2,3:2|3:2,3:2:0:0:
329,328,112884,2,2,L|269:354,1,56.25,10|2,3:2|3:2,3:2:0:0:
63,356,113046,2,2,L|134:384,1,56.25,10|2,3:2|3:2,3:2:0:0:
317,350,113207,2,2,L|269:305,1,56.25,10|2,3:2|3:2,3:2:0:0:
195,285,113368,2,2,L|273:281,1,56.25,10|2,3:2|3:2,3:2:0:0:
455,279,113530,6,2,L|492:224,2,56.25,14|2|2,3:2|3:2|3:2,3:2:0:0:
384,294,113771,1,2,3:2:0:0:
310,237,113852,2,2,L|385:223,1,56.25,2|2,3:2|3:2,3:2:0:0:
186,182,114013,2,2,L|165:149,2,28.125,10|2|2,3:2|3:2|3:2,3:2:0:0:
399,143,114175,6,2,L|457:142,1,56.25,10|2,3:2|3:2,3:2:0:0:
264,136,114336,2,2,L|252:75,1,56.25,10|2,3:2|3:2,3:2:0:0:
57,75,114497,2,2,L|113:21,1,56.25,10|2,3:2|3:2,3:2:0:0:
313,15,114658,2,2,L|401:15,1,56.25,10|2,3:2|3:2,3:2:0:0:
96,269,114820,5,6,3:0:0:0:
256,192,119981,12,0,123046,0:0:0:0:
235,64,123207,5,8,0:3:0:0:
256,116,123287,1,8,0:3:0:0:
235,64,123368,1,8,0:3:0:0:
189,33,123448,1,8,0:3:0:0:
134,33,123530,2,8,L|226:17,1,56.25,8|8,0:3|0:3,0:3:0:0:
257,79,123691,2,8,L|337:80,1,56.25,8|8,0:3|0:3,0:3:0:0:
137,286,123852,6,0,L|66:295,1,56.25,6|8,3:2|0:3,0:0:0:0:
245,361,124013,1,6,3:2:0:0:
191,353,124093,1,8,0:3:0:0:
165,305,124174,1,8,0:3:0:0:
188,256,124254,1,8,0:3:0:0:
241,245,124336,2,8,L|336:240,1,56.25,8|8,0:3|0:3,0:3:0:0:
221,222,124497,6,8,L|297:208,1,56.25,8|8,0:3|0:3,0:3:0:0:
349,178,124659,2,8,L|282:165,1,56.25,8|8,0:3|0:3,0:3:0:0:
455,101,124820,6,8,L|516:99,1,56.25,8|8,0:1|0:3,0:3:0:0:
343,72,124982,2,8,L|288:62,1,56.25,8|8,0:3|0:3,0:3:0:0:
378,20,125142,6,0,P|386:102|293:149,1,168.75,2|0,0:3|0:0,0:0:0:0:
113,314,125465,5,6,3:2:0:0:
345,365,125626,2,0,P|345:300|232:260,1,168.75,2|0,0:1|0:0,0:0:0:0:
55,226,125949,1,2,3:1:0:0:
284,155,126110,1,2,0:1:0:0:
32,124,126271,6,0,P|43:62|163:29,1,168.75,6|0,3:2|0:0,0:0:0:0:
314,132,126594,2,0,L|178:164,1,112.5,2|0,3:1|0:0,0:0:0:0:
387,223,126836,6,0,L|523:235,1,112.5,6|0,3:2|0:0,0:0:0:0:
294,360,127078,2,0,L|279:229,1,112.5,2|0,3:1|0:0,0:0:0:0:
69,221,127320,6,0,L|196:201,1,112.5,6|0,3:2|3:0,0:0:0:0:
352,139,127562,1,2,3:1:0:0:
182,105,127642,1,2,3:1:0:0:
105,101,127723,6,0,L|92:224,1,112.5,2|0,0:3|3:0,0:0:0:0:
252,255,127965,1,0,3:0:0:0:
411,262,128046,5,6,3:1:0:0:
280,354,128207,2,0,L|141:352,1,112.5,2|0,0:1|3:0,0:0:0:0:
309,319,128530,2,0,L|391:297,1,56.25,2|2,0:1|0:0,0:0:0:0:
166,259,128691,1,10,3:2:0:0:
408,240,128852,2,0,L|416:108,1,112.5,2|0,0:1|3:0,0:0:0:0:
172,97,129175,6,0,L|246:64,1,56.25,6|0,3:2|0:0,0:0:0:0:
393,57,129336,1,10,0:2:0:0:
223,74,129417,2,0,L|97:73,1,112.5,2|0,3:1|0:0,0:0:0:0:
296,177,129659,6,0,L|422:182,1,112.5,6|0,3:2|0:0,0:0:0:0:
204,281,129901,2,0,L|157:283,2,28.125,2|0|0,3:1|3:0|3:0,3:0:0:0:
373,350,130062,1,0,3:0:0:0:
204,281,130142,5,6,3:2:0:0:
336,240,130304,2,0,L|254:232,1,56.25,8|2,0:3|0:0,0:0:0:0:
88,359,130465,2,0,L|79:285,1,56.25,0|0,3:0|0:0,0:0:0:0:
286,206,130626,6,0,L|210:217,1,56.25,14|2,3:2|0:0,0:0:0:0:
51,216,130788,1,2,3:2:0:0:
109,202,130868,1,2,0:2:0:0:
133,152,130949,1,10,3:2:0:0:
104,104,131029,1,2,0:2:0:0:
40,84,131110,2,2,L|121:74,1,56.25,2|2,3:2|0:2,0:2:0:0:
264,53,131271,2,2,L|184:52,1,56.25,10|2,3:2|0:2,0:2:0:0:
380,32,131433,2,2,L|449:20,1,56.25,2|2,3:2|0:2,0:2:0:0:
261,143,131594,6,2,L|250:228,1,56.25,10|2,3:2|0:2,0:2:0:0:
345,215,131755,2,2,L|356:296,1,56.25,2|2,3:2|0:2,0:2:0:0:
168,332,131917,2,0,L|117:337,2,28.125,8|0|0,3:2|3:0|3:0,3:0:0:0:
361,368,132078,2,0,L|410:368,2,28.125,0|0|0,3:0|3:0|3:0,3:0:0:0:
173,366,132239,6,0,L|295:349,1,112.5,6|0,3:2|0:0,0:0:0:0:
77,274,132481,2,0,L|61:121,1,112.5,2|0,3:1|0:0,0:0:0:0:
275,129,132723,2,0,L|350:119,1,56.25,2|0,3:1|0:0,0:0:0:0:
95,54,132884,6,0,L|184:42,1,56.25,6|0,3:2|3:0,0:0:0:0:
332,247,133046,2,0,L|258:241,1,56.25,0|0,3:0|3:0,3:0:0:0:
352,221,133207,2,0,L|296:228,1,56.25,0|0,3:0|3:0,3:0:0:0:
99,189,133368,2,0,L|155:190,1,56.25,0|0,3:0|3:0,3:0:0:0:
359,361,133530,6,0,L|302:366,1,56.25,2|0,3:1|3:0,3:0:0:0:
114,330,133691,2,0,L|83:299,2,28.125,2|0|0,3:1|3:0|3:0,3:0:0:0:
297,284,133852,2,0,L|193:267,1,56.25,2|0,3:1|3:0,3:0:0:0:
425,240,134013,2,0,L|456:209,2,28.125,2|0|0,3:1|3:0|3:0,3:0:0:0:
234,152,134175,6,0,L|364:134,1,112.5,6|0,3:2|0:0,0:0:0:0:
139,83,134417,2,0,L|-10:61,1,112.5,2|0,3:1|0:0,0:0:0:0:
231,23,134659,1,2,3:1:0:0:
236,49,134699,1,0,3:0:0:0:
243,76,134739,1,0,3:0:0:0:
447,146,134820,5,8,3:0:0:0:
478,212,134901,1,8,3:0:0:0:
447,146,134981,1,8,3:0:0:0:
379,141,135062,1,8,3:0:0:0:
175,271,135142,1,8,3:0:0:0:
108,266,135223,1,8,3:0:0:0:
315,335,135304,1,8,3:0:0:0:
383,330,135385,1,8,3:0:0:0:
122,344,135465,5,6,3:2:0:0:
31,246,135626,2,4,L|81:180,1,56.25,4|4,0:3|0:3,0:3:0:0:
131,179,135788,2,4,L|221:165,1,56.25,4|4,0:3|0:3,0:3:0:0:
126,150,135949,2,4,L|57:138,1,56.25,4|4,0:3|0:3,0:3:0:0:
288,135,136110,6,0,L|326:82,2,56.25,6|2|2,3:2|0:2|0:2,0:0:0:0:
147,152,136433,1,8,3:3:0:0:
457,131,136594,6,0,P|477:202|367:228,1,168.75,6|0,3:2|0:0,0:0:0:0:
165,358,136917,6,0,L|304:324,1,134.999995880127,6|0,3:2|0:0,0:0:0:0:
498,104,137159,2,0,L|357:89,1,134.999995880127,6|0,3:2|0:0,0:0:0:0:
171,79,137401,6,0,L|488:21,1,286.874996169806,6|0,3:2|0:0,0:0:0:0:
289,209,137642,2,0,L|7:144,1,286.874996169806,6|0,3:2|0:0,0:0:0:0:
254,329,137884,5,6,3:2:0:0:
