osu file format v14

[General]
AudioFilename: audio.ogg
AudioLeadIn: 0
PreviewTime: 73449
Countdown: 0
SampleSet: Soft
StackLeniency: 0.7
Mode: 2
LetterboxInBreaks: 0
WidescreenStoryboard: 1

[Editor]
Bookmarks: 11662,23275,42630,52952,63275,73920,86823,94565,104888,114888,114969,115049,115210,115291,115372,115614,115694,115775,115856,115936,116017,116098,116178,116259,116339,116501,116662,116823,116904,116985,117065,117146,117227,117307,117388,117549,117710,117872,117952,118033,118194,118275,118356,118436,118598,118759,118920,119001,119081,119243,119404,119485,119565,119646,119727,119807,119969,120049,125614,128114,134243,137952
DistanceSpacing: 0.5
BeatDivisor: 4
GridSize: 32
TimelineZoom: 3.299999

[Metadata]
Title:ARTEMiS
TitleUnicode:ARTEMiS
Artist:BlackY
ArtistUnicode:BlackY
Creator:Jemzuu
Version:CUP
Source:WACCA Lily
Tags:cwc osu!catch world cup 2022 cwc2022 qf nm2 quarterfinals no mod 2 ajamez bighzonda bigh syamu -rustyy instrumental video game piano electronic hard renaissance syamu
BeatmapID:3678511
BeatmapSetID:1779436

[Difficulty]
HPDrainRate:2
CircleSize:2.5
OverallDifficulty:6
ApproachRate:6
SliderMultiplier:1.35
SliderTickRate:0.5

[Events]
//Background and Video events
0,0,"artemis.jpg",0,0
//Break Periods
2,115020,118931
//Storyboard Layer 0 (Background)
//Storyboard Layer 1 (Fail)
//Storyboard Layer 2 (Pass)
//Storyboard Layer 3 (Foreground)
//Storyboard Layer 4 (Overlay)
//Storyboard Sound Samples

[TimingPoints]
1272,322.58064516129,4,2,1,60,1,0
2401,-100,4,2,2,60,0,0
2481,-100,4,2,1,50,0,0
7562,-100,4,2,2,60,0,0
7642,-100,4,2,1,50,0,0
10949,-100,4,2,1,40,0,0
11110,-100,4,2,1,50,0,0
11271,-100,4,2,1,60,0,0
11433,-100,4,2,1,70,0,0
11594,-100,4,2,1,80,0,0
11675,-100,4,2,1,60,0,0
23207,-100,4,2,2,70,0,0
23288,-100,4,2,1,70,0,0
26917,-100,4,2,2,70,0,0
26997,-100,4,2,1,70,0,0
31594,-100,4,2,1,50,0,0
31755,-100,4,2,1,60,0,0
31917,-100,4,2,1,75,0,0
32078,-100,4,2,1,80,0,0
32239,-100,4,2,2,70,0,1
32320,-100,4,2,1,70,0,1
40626,-100,4,2,1,50,0,1
40788,-100,4,2,1,65,0,1
40949,-100,4,2,1,75,0,1
41110,-100,4,2,1,80,0,1
41271,-100,4,2,2,60,0,0
41917,-100,4,2,2,70,0,0
41957,-100,4,2,1,60,0,0
42239,-100,4,2,3,60,0,0
42562,-100,4,2,2,70,0,0
43046,-100,4,2,1,50,0,0
52562,-100,4,2,3,60,0,0
52884,-100,4,2,1,60,0,0
61271,-100,4,2,1,55,0,0
61433,-100,4,2,1,65,0,0
61594,-100,4,2,1,75,0,0
61755,-100,4,2,1,85,0,0
61917,-100,4,2,1,70,0,0
62562,-100,4,2,1,60,0,0
62884,-100,4,2,2,75,0,0
63207,-100,4,2,1,60,0,0
68046,-100,4,2,2,60,0,0
68126,-100,4,2,1,60,0,0
68207,-100,4,2,3,60,0,0
68368,-100,4,2,1,60,0,0
68852,-100,4,2,3,60,0,0
69013,-100,4,2,1,60,0,0
72884,-100,4,2,2,60,0,0
72924,-100,4,2,3,60,0,0
73530,-100,4,2,1,75,0,0
73852,-100,4,2,4,80,0,1
74013,-100,4,2,1,80,0,1
83852,-100,4,2,1,80,0,0
84175,-100,4,2,1,80,0,1
86433,-100,4,2,1,80,0,0
86755,-100,4,2,1,80,0,1
94175,-100,4,2,1,70,0,0
94497,-100,4,2,4,70,0,0
94578,-100,4,2,1,70,0,0
104820,-100,4,2,2,70,0,0
104901,-100,4,2,1,60,0,0
114820,-100,4,2,2,85,0,0
119981,-100,4,2,1,30,0,0
123207,-100,4,2,1,40,0,0
123852,-100,4,2,1,70,0,0
124094,-100,4,2,1,40,0,0
124820,-100,4,2,2,60,0,0
124901,-100,4,2,1,40,0,0
125142,-100,4,2,1,80,0,0
125465,-100,4,2,2,80,0,0
125546,-100,4,2,1,80,0,0
128046,-100,4,2,2,80,0,1
128126,-100,4,2,1,80,0,1
135465,-100,4,2,1,80,0,0
136917,-100,4,2,1,80,0,0
137401,-100,4,2,1,80,0,0
137884,-100,4,2,2,80,0,1
137965,-100,4,2,1,80,0,0

[Colours]
Combo1 : 192,192,192
Combo2 : 138,138,255
Combo3 : 255,157,206
Combo4 : 232,0,232

[HitObjects]
253,198,1272,5,6,3:2:0:0:
79,200,1917,1,6,3:2:0:0:
274,138,2401,6,0,L|296:302,1,135,6|4,3:2|0:3,0:0:0:0:
352,300,2884,1,8,0:1:0:0:
420,311,3046,1,4,0:3:0:0:
284,372,3368,2,0,L|266:231,1,135,4|8,0:3|0:1,0:0:0:0:
202,220,3852,5,4,0:3:0:0:
62,118,4175,1,8,0:1:0:0:
124,71,4336,2,0,L|274:56,1,135,2|4,0:0|0:3,0:0:0:0:
288,122,4820,1,4,0:3:0:0:
256,57,4981,2,0,L|113:72,1,135,8|4,0:1|0:3,0:0:0:0:
263,122,5626,6,0,L|277:265,1,135,2|4,0:0|0:3,0:0:0:0:
339,291,6110,1,4,0:3:0:0:
413,304,6271,1,8,0:1:0:0:
339,332,6433,5,6,3:2:0:0:
111,313,7078,1,6,3:2:0:0:
311,306,7562,6,0,L|319:146,1,135,6|4,3:2|0:3,0:0:0:0:
178,132,8207,2,0,L|32:168,1,135,4|4,0:3|0:3,0:0:0:0:
182,231,8852,1,4,0:3:0:0:
249,246,9013,5,4,0:3:0:0:
109,331,9336,1,8,0:1:0:0:
43,278,9497,2,0,L|188:244,1,135,2|4,0:0|0:3,0:0:0:0:
208,204,9981,1,0,1:0:0:0:
174,247,10142,2,0,L|36:279,1,135,8|4,0:1|0:3,0:0:0:0:
193,348,10788,6,0,L|209:207,1,135,4|8,0:3|3:1,0:0:0:0:
276,182,11271,1,8,3:1:0:0:
346,179,11433,1,8,3:1:0:0:
272,145,11594,6,0,L|132:111,1,135,6|8,3:2|3:1,0:0:0:0:
278,70,12239,2,0,L|348:178,2,101.25,0|0|0,3:0|3:0|3:0,0:0:0:0:
206,77,12884,6,0,L|199:237,1,135,0|8,3:0|3:1,0:0:0:0:
332,274,13530,2,0,L|447:321,2,101.25,0|0|2,3:0|3:0|3:2,0:0:0:0:
255,247,14175,6,0,L|375:164,1,135,6|8,3:2|3:1,0:0:0:0:
492,175,14820,1,0,3:0:0:0:
419,78,15062,1,0,3:0:0:0:
309,58,15304,1,0,3:0:0:0:
239,68,15465,6,0,L|234:216,1,135,0|8,3:0|3:1,0:0:0:0:
121,264,16110,2,0,L|28:328,2,101.25,0|0|2,3:0|3:0|3:2,0:0:0:0:
207,271,16755,6,0,L|212:149,2,101.25,6|0|0,3:2|3:0|3:0,0:0:0:0:
285,297,17401,2,0,L|356:208,2,101.25,6|0|0,3:2|3:0|3:0,0:0:0:0:
208,309,18046,6,0,L|137:205,2,101.25,6|0|0,3:2|3:0|3:0,0:0:0:0:
276,335,18691,1,6,3:2:0:0:
375,347,18933,1,0,3:0:0:0:
477,340,19175,1,0,3:0:0:0:
405,283,19336,6,0,L|272:248,1,135,6|8,3:2|3:2,0:0:0:0:
141,168,19981,2,0,L|285:102,1,135,6|8,3:2|3:2,0:0:0:0:
408,115,20626,2,0,L|422:258,1,135,0|0,3:0|3:2,0:0:0:0:
290,219,21271,2,0,L|272:359,1,135,0|0,3:0|1:0,0:0:0:0:
122,364,21917,5,6,3:2:0:0:
259,359,22239,2,0,L|326:222,2,135,2|2|2,1:0|1:0|0:1,0:0:0:0:
199,371,23046,1,2,0:1:0:0:
126,362,23207,6,0,L|111:204,1,135,6|10,3:2|3:2,0:0:0:0:
238,228,23852,2,0,L|257:88,1,135,0|10,3:0|3:2,0:0:0:0:
386,118,24497,6,0,L|253:170,1,135,2|8,3:1|3:1,0:0:0:0:
195,171,24981,1,2,0:1:0:0:
130,169,25142,2,0,L|110:318,1,135,0|8,3:0|3:1,0:0:0:0:
248,331,25788,6,0,L|276:185,1,135,2|8,3:2|3:1,0:0:0:0:
394,163,26433,2,0,L|280:125,2,101.25,2|2|10,3:1|3:1|3:1,0:0:0:0:
465,173,27078,5,6,3:2:0:0:
332,268,27401,2,0,L|173:220,1,135,10|2,3:2|3:2,0:0:0:0:
337,327,28046,2,0,L|357:171,1,135,10|2,3:2|3:2,0:0:0:0:
215,133,28691,2,0,L|77:107,1,135,10|0,3:2|3:0,0:0:0:0:
224,68,29336,1,10,3:2:0:0:
79,67,29659,6,0,L|73:209,1,135,2|8,3:1|3:1,0:0:0:0:
137,234,30142,1,2,0:1:0:0:
202,242,30304,2,0,L|345:181,1,135,2|8,3:2|3:1,0:0:0:0:
187,140,30949,6,0,L|180:283,1,135,0|6,3:0|3:2,0:0:0:0:
246,289,31433,1,2,0:1:0:0:
312,302,31594,2,0,L|382:209,2,101.25,10|10|10,3:1|3:1|3:1,0:0:0:0:
243,309,32239,5,4,3:1:0:0:
376,364,32562,2,0,L|455:355,1,67.5,2|6,1:0|3:2,0:0:0:0:
308,316,33046,2,0,L|294:228,1,67.5,0|6,1:3|3:2,0:0:0:0:
160,195,33530,6,0,L|247:175,1,67.5,2|6,1:0|3:2,0:0:0:0:
352,87,34013,2,0,L|273:84,1,67.5,2|6,1:2|3:2,0:0:0:0:
144,109,34497,1,6,3:2:0:0:
290,183,34820,6,0,L|430:212,1,135,6|8,3:2|0:1,0:0:0:0:
352,255,35304,1,6,3:2:0:0:
215,315,35626,2,0,L|206:236,1,67.5,2|6,0:1|3:2,0:0:0:0:
68,191,36110,6,0,L|148:133,1,67.5,2|6,0:0|3:2,0:0:0:0:
192,145,36433,1,8,0:1:0:0:
334,142,36755,2,0,L|426:82,2,101.25,6|2|2,3:2|3:1|3:1,0:0:0:0:
258,144,37401,6,0,L|254:284,1,135,6|8,3:2|3:1,0:0:0:0:
391,304,38046,2,0,L|443:235,2,67.5,0|0|8,3:0|3:0|3:1,0:0:0:0:
250,336,38691,6,0,L|110:296,1,135,6|8,3:2|3:1,0:0:0:0:
263,255,39336,2,0,L|307:189,2,67.5,0|2|8,3:0|3:1|3:1,0:0:0:0:
116,238,39981,6,0,L|21:134,2,135,6|8|8,3:2|3:1|3:1,0:0:0:0:
170,266,40788,1,8,3:1:0:0:
235,274,40949,1,8,3:1:0:0:
166,340,41110,1,8,3:1:0:0:
88,355,41271,5,4,3:3:0:0:
71,239,41917,2,0,L|141:197,1,67.5,8|2,3:1|0:0,0:0:0:0:
200,192,42239,1,2,3:2:0:0:
361,260,42562,6,0,P|369:211|234:129,1,202.5,6|2,3:2|0:0,0:0:0:0:
141,70,43368,2,0,L|203:131,1,67.5,2|2,0:0|0:0,0:0:0:0:
256,140,43691,2,0,L|388:209,1,135,2|2,0:0|0:0,0:0:0:0:
238,295,44336,6,0,P|237:235|357:157,1,202.5,2|2,0:0|0:0,0:0:0:0:
477,171,45142,6,0,P|461:221|334:286,2,202.5,0|2|2,0:0|0:0|0:0,0:0:0:0:
356,139,46433,1,2,0:0:0:0:
200,199,47078,2,0,L|123:293,2,101.25,2|2|2,0:0|0:0|0:0,0:0:0:0:
282,209,47723,6,0,P|308:153|211:61,1,202.5,2|2,0:0|0:0,0:0:0:0:
81,97,48530,2,0,L|73:228,1,101.25,2|2,0:0|0:0,0:0:0:0:
183,250,49013,6,0,L|332:100,2,202.5,2|2|2,0:0|0:0|0:0,0:0:0:0:
45,345,50304,6,0,L|179:275,1,135,2|2,0:0|0:0,0:0:0:0:
294,293,50949,2,0,L|305:158,1,135,2|2,0:0|0:0,0:0:0:0:
438,129,51594,6,0,L|457:271,1,135,2|2,0:0|0:0,0:0:0:0:
332,343,52239,1,2,0:0:0:0:
190,250,52562,2,0,L|268:224,1,67.5,2|2,3:2|3:2,0:0:0:0:
326,225,52884,6,0,P|334:175|201:104,1,202.5,6|6,3:2|3:2,0:0:0:0:
57,186,54013,2,0,L|118:238,1,67.5,4|8,0:3|3:1,0:0:0:0:
183,247,54336,6,0,P|274:188|256:96,1,202.5,6|6,3:2|3:2,0:0:0:0:
196,89,54981,1,0,3:0:0:0:
127,63,55142,2,0,L|213:89,1,67.5,6|0,3:2|3:0,0:0:0:0:
263,105,55465,5,8,3:1:0:0:
415,259,55949,1,6,3:2:0:0:
223,345,56433,2,0,L|301:358,1,67.5,6|0,3:2|3:0,0:0:0:0:
435,363,56917,6,0,P|446:291|330:232,1,202.5,6|6,3:2|3:2,0:0:0:0:
244,203,57642,2,6,L|349:166,1,101.25
411,176,58046,1,0,3:0:0:0:
274,92,58368,6,0,L|261:241,1,135,6|0,3:2|3:0,0:0:0:0:
195,251,58852,2,0,L|58:293,1,135,6|0,3:2|3:0,0:0:0:0:
129,324,59336,5,6,3:2:0:0:
233,351,59578,1,2,3:1:0:0:
338,336,59820,1,2,3:1:0:0:
232,299,60062,2,0,L|230:171,1,101.25,2|0,3:1|3:0,0:0:0:0:
377,195,60626,6,0,L|428:120,2,67.5,6|8|8,3:2|3:1|3:1,0:0:0:0:
232,198,61271,2,0,L|165:156,1,67.5,8|8,3:0|3:0,0:0:0:0:
241,142,61594,2,0,L|323:122,1,67.5,8|8,3:0|3:0,0:0:0:0:
226,93,61917,5,6,3:2:0:0:
54,126,62562,2,0,L|52:278,1,135,4|8,0:3|3:1,0:0:0:0:
194,284,63207,6,0,L|312:197,2,135,6|8|8,3:2|0:1|0:3,0:0:0:0:
98,318,64094,1,2,0:0:0:0:
189,364,64336,1,8,0:3:0:0:
257,366,64497,6,0,L|277:220,1,135,8|8,0:3|0:1,0:0:0:0:
409,229,65142,2,0,L|469:141,2,101.25,8|2|8,0:3|0:0|0:3,0:0:0:0:
339,224,65788,6,0,L|209:162,1,135,8|8,0:3|0:1,0:0:0:0:
348,135,66433,2,0,L|444:78,2,101.25,8|8|8,0:3|0:3|0:3,0:0:0:0:
283,142,67078,6,0,L|272:284,1,135,8|8,0:3|0:1,0:0:0:0:
156,339,67723,1,8,0:3:0:0:
33,235,68046,2,0,L|109:206,1,67.5,8|2,0:1|3:2,0:0:0:0:
172,209,68368,6,0,L|188:63,1,135,6|8,3:2|0:1,0:0:0:0:
314,105,69013,2,0,L|219:153,2,101.25,6|2|2,3:2|3:1|3:1,0:0:0:0:
389,118,69659,6,0,L|399:264,1,135,6|8,3:2|0:1,0:0:0:0:
261,322,70304,2,0,L|168:271,2,101.25,6|2|2,3:2|3:1|3:1,0:0:0:0:
332,338,70949,6,0,L|454:282,1,135,6|0,3:2|3:0,0:0:0:0:
313,244,71594,2,0,L|271:184,2,67.5,0|2|2,3:0|3:2|3:2,0:0:0:0:
459,161,72239,6,0,L|372:143,1,67.5,6|2,3:2|0:1,0:0:0:0:
265,149,72723,2,0,L|256:68,1,67.5,2|8,0:1|3:1,0:0:0:0:
395,74,73207,2,0,L|468:98,2,67.5,2|2|2,3:2|3:2|3:0,0:0:0:0:
232,158,73852,5,4,3:1:0:0:
166,201,74013,2,0,L|281:281,1,135,2|2,0:1|0:0,0:0:0:0:
316,324,74497,1,10,3:2:0:0:
279,282,74659,5,2,0:1:0:0:
164,335,74981,1,2,0:1:0:0:
42,245,75304,2,0,L|177:160,1,135,2|8,0:1|0:3,0:0:0:0:
195,137,75788,1,10,3:2:0:0:
156,172,75949,1,2,0:0:0:0:
90,185,76110,1,2,3:1:0:0:
222,257,76433,5,10,3:2:0:0:
283,269,76594,2,0,L|292:128,1,135,2|2,0:1|0:0,0:0:0:0:
227,106,77078,1,10,3:2:0:0:
158,93,77239,1,2,0:1:0:0:
283,40,77562,1,2,0:1:0:0:
424,73,77884,6,0,L|435:212,1,135,2|2,0:0|0:0,0:0:0:0:
372,242,78368,1,10,3:2:0:0:
303,256,78530,1,0,3:0:0:0:
372,293,78691,6,0,L|492:205,1,135,2|10,3:1|3:2,0:0:0:0:
342,200,79336,2,0,L|326:46,1,135,2|10,3:1|3:2,0:0:0:0:
267,48,79820,1,2,0:0:0:0:
198,83,79981,6,0,L|63:148,1,135,2|10,3:1|3:2,0:0:0:0:
214,219,80626,2,0,L|279:123,2,101.25,2|2|2,3:1|0:1|0:1,0:0:0:0:
140,237,81271,2,0,L|75:153,2,101.25,2|2|2,3:1|0:1|0:1,0:0:0:0:
202,255,81917,1,2,3:1:0:0:
330,300,82239,1,10,3:2:0:0:
466,318,82562,6,0,L|470:174,1,135,6|10,3:2|3:2,0:0:0:0:
345,146,83207,2,0,L|439:102,2,101.25,2|2|2,3:1|3:1|0:1,0:0:0:0:
286,149,83852,1,2,0:0:0:0:
132,248,84175,5,6,3:2:0:0:
141,297,84336,2,0,L|303:320,1,135,2|2,0:1|0:0,0:0:0:0:
312,270,84820,1,10,3:2:0:0:
275,317,84981,1,2,0:1:0:0:
144,351,85304,1,2,0:1:0:0:
279,361,85626,2,0,L|296:224,1,135,2|8,0:1|0:3,0:0:0:0:
358,206,86110,1,2,3:1:0:0:
426,201,86271,1,2,3:1:0:0:
430,166,86433,1,2,3:2:0:0:
271,129,86755,5,6,3:1:0:0:
205,113,86917,2,0,L|338:69,1,135,2|2,0:1|0:0,0:0:0:0:
284,35,87401,1,10,3:2:0:0:
214,28,87562,5,2,0:1:0:0:
75,126,87884,1,2,3:1:0:0:
214,164,88207,2,0,L|237:307,1,135,2|2,3:1|3:1,0:0:0:0:
301,311,88691,1,10,3:2:0:0:
233,298,88852,1,2,3:2:0:0:
163,304,89013,6,0,L|158:154,1,135,6|10,3:2|3:2,0:0:0:0:
290,151,89659,2,0,L|380:86,2,101.25,6|2|2,3:2|3:1|3:1,0:0:0:0:
218,142,90304,6,0,L|74:111,1,135,6|10,3:2|3:2,0:0:0:0:
230,251,90949,2,0,L|283:150,2,101.25,6|2|2,3:2|3:1|3:1,0:0:0:0:
161,291,91594,6,0,L|293:353,1,135,6|2,3:2|3:2,0:0:0:0:
422,340,92239,2,0,L|475:247,2,101.25,6|0|0,3:2|3:0|3:0,0:0:0:0:
344,351,92884,6,0,L|332:261,1,67.5,6|2,3:2|3:1,0:0:0:0:
194,218,93368,2,0,L|262:193,1,67.5,8|2,1:0|3:3,0:0:0:0:
401,195,93852,2,0,L|454:119,2,67.5,10|4|6,3:2|0:3|3:2,0:0:0:0:
245,129,94497,5,4,3:1:0:0:
183,103,94659,2,0,L|319:51,1,135,2|2,0:2|0:2,0:0:0:0:
379,62,95142,1,10,3:2:0:0:
243,250,95465,6,0,L|228:112,1,135,2|10,3:2|3:2,0:0:0:0:
91,90,96110,2,0,L|71:253,1,135,2|10,3:2|3:2,0:0:0:0:
202,304,96755,6,0,L|337:249,1,135,2|10,3:2|3:2,0:0:0:0:
180,209,97401,2,0,L|135:138,2,67.5,2|2|10,3:2|0:2|3:2,0:0:0:0:
325,238,98046,6,0,L|467:295,1,135,2|10,3:2|3:2,0:0:0:0:
308,360,98691,2,0,L|243:268,2,101.25,2|2|2,3:2|3:2|3:2,0:0:0:0:
378,364,99336,1,2,0:0:0:0:
233,342,99659,5,6,3:2:0:0:
170,348,99820,2,0,L|152:207,1,135,2|2,0:2|0:2,0:0:0:0:
221,177,100304,1,10,3:2:0:0:
355,168,100626,6,0,L|419:73,2,101.25,2|2|2,0:2|0:2|0:2,0:0:0:0:
292,202,101271,5,2,3:2:0:0:
192,238,101513,1,2,0:2:0:0:
85,261,101755,1,2,3:2:0:0:
84,322,101917,1,2,3:0:0:0:
232,349,102239,5,6,3:2:0:0:
268,297,102401,1,2,0:2:0:0:
232,349,102562,1,2,3:2:0:0:
101,358,102884,1,10,3:2:0:0:
234,280,103207,6,0,L|308:258,1,67.5,6|2,3:2|3:2,0:0:0:0:
485,236,103852,2,0,L|468:118,1,101.25,8|8,3:3|3:3,0:0:0:0:
364,115,104336,1,8,3:3:0:0:
298,109,104497,1,8,3:2:0:0:
452,48,104820,5,4,3:1:0:0:
457,122,104981,2,0,L|315:162,1,135,2|2,0:2|0:2,0:0:0:0:
261,167,105465,1,10,3:2:0:0:
125,243,105788,6,0,L|263:303,1,135,2|10,3:2|0:2,0:0:0:0:
109,360,106433,2,0,L|52:272,2,101.25,2|2|2,3:2|3:2|3:2,0:0:0:0:
179,356,107078,1,2,3:2:0:0:
215,300,107239,1,2,3:2:0:0:
179,356,107401,5,14,3:2:0:0:
43,225,107723,1,2,3:2:0:0:
177,188,108046,1,10,3:2:0:0:
317,198,108368,6,0,L|326:52,1,135,2|10,3:2|3:2,0:0:0:0:
189,59,109013,2,0,L|124:86,2,67.5,2|2|10,3:2|3:2|3:2,0:0:0:0:
341,89,109659,6,0,L|354:241,1,135,6|10,3:2|3:2,0:0:0:0:
484,284,110304,2,0,L|352:360,1,135,2|10,3:2|3:2,0:0:0:0:
210,358,110949,6,0,L|159:293,2,67.5,6|2|10,3:2|3:2|3:2,0:0:0:0:
354,350,111594,1,2,3:2:0:0:
219,307,111917,1,10,3:2:0:0:
74,325,112239,6,0,L|68:172,1,135,6|10,3:2|0:2,0:0:0:0:
141,154,112723,2,0,L|292:120,1,135,6|10,3:2|3:2,0:0:0:0:
341,118,113207,1,10,3:2:0:0:
190,58,113530,6,0,P|174:130|281:203,1,202.5,14|10,3:2|3:2,0:0:0:0:
334,210,114175,1,10,3:2:0:0:
378,280,114336,1,10,3:2:0:0:
334,210,114497,1,10,3:2:0:0:
168,269,114820,5,6,3:0:0:0:
256,192,119981,12,8,123530,0:3:0:0:
257,189,123852,6,0,L|245:102,1,67.5,6|6,3:2|3:2,0:0:0:0:
82,76,124497,6,0,L|75:226,1,135,8|8,0:3|0:1,0:0:0:0:
140,246,124981,1,8,0:3:0:0:
206,261,125142,1,2,0:3:0:0:
368,335,125465,5,6,3:2:0:0:
431,301,125626,2,0,L|288:271,1,135,2|2,0:1|3:1,0:0:0:0:
265,204,126110,1,2,0:1:0:0:
298,275,126271,1,6,3:2:0:0:
426,324,126594,5,2,3:1:0:0:
322,352,126836,2,0,L|294:238,1,101.25,6|2,3:2|3:1,0:0:0:0:
194,199,127320,2,0,L|81:174,1,101.25,6|2,3:2|3:1,0:0:0:0:
109,130,127723,1,2,0:3:0:0:
262,90,128046,5,6,3:1:0:0:
329,93,128207,2,0,L|346:240,1,135,2|2,0:1|0:1,0:0:0:0:
280,263,128691,1,10,3:2:0:0:
215,271,128852,1,2,0:1:0:0:
366,338,129175,6,0,L|483:293,1,101.25,6|2,3:2|3:1,0:0:0:0:
349,234,129659,2,0,L|238:209,2,101.25,6|2|6,3:2|3:1|3:2,0:0:0:0:
416,236,130304,1,8,0:3:0:0:
260,340,130626,5,14,3:2:0:0:
198,351,130788,2,0,L|179:209,1,135,2|2,3:2|3:2,0:0:0:0:
246,192,131271,1,10,3:2:0:0:
388,190,131594,6,0,L|428:126,2,67.5,10|2|8,3:2|3:2|3:2,0:0:0:0:
250,262,132239,2,0,L|361:324,2,101.25,6|2|2,3:2|3:1|3:1,0:0:0:0:
181,256,132884,5,6,3:2:0:0:
53,138,133207,2,0,L|137:108,1,67.5,0|0,3:0|3:0,0:0:0:0:
185,133,133530,2,0,L|272:217,2,101.25,2|0|2,3:1|3:0|3:1,0:0:0:0:
109,127,134175,6,0,L|99:256,1,101.25,6|2,3:2|3:1,0:0:0:0:
217,291,134659,2,0,P|285:290|206:131,1,337.5,2|6,3:1|3:2,0:0:0:0:
413,83,136110,5,6,3:2:0:0:
223,244,136594,1,6,3:2:0:0:
352,300,136917,6,0,L|468:326,1,101.25,6|6,3:2|3:2,0:0:0:0:
336,367,137401,2,0,L|221:339,1,101.25,6|6,3:2|3:2,0:0:0:0:
360,262,137884,5,6,3:2:0:0:
