osu file format v14

[General]
AudioFilename: audio.mp3
AudioLeadIn: 0
PreviewTime: 37297
Countdown: 1
SampleSet: None
StackLeniency: 0.7
Mode: 0
LetterboxInBreaks: 0
WidescreenStoryboard: 1

[Editor]
Bookmarks: 88787
DistanceSpacing: 0.9
BeatDivisor: 4
GridSize: 8
TimelineZoom: 2.1

[Metadata]
Title:AO
TitleUnicode:AΩ
Artist:BlackY
ArtistUnicode:BlackY
Creator:Necroluttah
Version:Necroh 9.5
Source:SOUND VOLTEX III GRAVITY WARS
Tags:necroh lahphnya arles yoshimaro yoshi olutta shitmap lol
BeatmapID:1113730
BeatmapSetID:522893

[Difficulty]
HPDrainRate:5
CircleSize:4
OverallDifficulty:8
ApproachRate:9.5
SliderMultiplier:2.2
SliderTickRate:1

[Events]
//Background and Video events
0,0,"28680466_p0.jpg",0,0
//Break Periods
2,62737,67220
//Storyboard Layer 0 (Background)
//Storyboard Layer 1 (Fail)
//Storyboard Layer 2 (Pass)
//Storyboard Layer 3 (Foreground)
//Storyboard Sound Samples

[TimingPoints]
230,288.461538461538,4,1,0,60,1,0
806,-181.818181818182,4,1,0,5,0,0
1383,-181.818181818182,4,1,0,60,0,0
10326,-181.818181818182,4,1,0,5,0,0
10614,-133.333333333333,4,1,0,60,0,0
15229,-100,4,1,0,60,0,0
16960,-133.333333333333,4,1,0,60,0,0
18835,-181.818181818182,4,1,0,60,0,0
19845,-100,4,1,0,60,0,0
26479,-80,4,1,0,60,0,0
26768,-100,4,1,0,60,0,0
28210,-80,4,1,0,60,0,0
29653,-100,4,1,0,60,0,0
31095,-80,4,1,0,60,0,0
31383,-100,4,1,0,60,0,0
38306,-66.6666666666667,4,1,0,60,0,1
40037,-100,4,1,0,60,0,1
40614,-66.6666666666667,4,1,0,60,0,1
46960,-57.1428571428571,4,1,0,60,0,1
47537,-80,4,1,0,60,0,0
49268,-133.333333333333,4,1,0,60,0,0
49845,-80,4,1,0,60,0,0
52153,-80,4,1,0,60,0,1
53595,-66.6666666666667,4,1,0,60,0,1
53883,-57.1428571428571,4,1,0,60,0,1
56768,-66.6666666666667,4,1,0,60,0,1
59076,-66.6666666666667,4,1,0,60,0,0
62537,-100,4,1,0,5,0,0
67729,-100,4,1,0,30,0,0
68306,-66.6666666666667,4,1,0,60,0,0
76383,-133.333333333333,4,1,0,60,0,0
77537,-66.6666666666667,4,1,0,60,0,1
93763,-100,4,1,0,60,0,1
97153,-133.333333333333,4,1,0,60,0,0
104076,-80,4,1,0,60,0,0
104869,-66.6666666666667,4,1,0,60,0,0
106383,-100,4,1,0,60,0,0
108691,-66.6666666666667,4,1,0,60,0,0
110999,-100,4,1,0,60,0,0
112153,-66.6666666666667,4,1,0,60,0,0
117922,-181.818181818182,4,1,0,60,0,0
124845,-181.818181818182,4,1,0,5,0,0

[HitObjects]
144,304,806,6,0,B|320:273|320:273|270:255,1,211.750006462097
256,192,1383,1,0,0:0:0:0:
256,192,1672,12,0,10326,0:0:0:0:
448,64,10614,6,0,L|268:57,1,165.000006294251
16,144,11191,6,0,L|180:150,1,165.000006294251
448,328,11768,6,0,P|458:254|433:159,1,165.000006294251
224,336,12345,6,0,B|140:347|140:347|31:314,1,165.000006294251
288,40,12922,6,0,L|299:204,1,165.000006294251
72,312,13499,6,0,L|60:147,1,165.000006294251
296,192,14076,2,0,B|376:176|376:176|473:182,1,165.000006294251
176,232,14653,5,0,0:0:0:0:
240,336,14797,1,0,0:0:0:0:
256,16,15085,5,0,0:0:0:0:
184,240,15229,2,0,L|177:88,1,110
456,160,15518,5,0,0:0:0:0:
312,200,15662,1,0,0:0:0:0:
440,16,15806,2,0,L|445:125,1,110
448,160,16023,1,0,0:0:0:0:
448,160,16095,1,0,0:0:0:0:
288,96,16239,1,0,0:0:0:0:
304,336,16383,6,0,L|298:226,2,110
296,160,16816,1,0,0:0:0:0:
128,120,16961,5,0,0:0:0:0:
135,123,17032,1,0,0:0:0:0:
142,127,17104,1,0,0:0:0:0:
149,131,17177,1,0,0:0:0:0:
156,134,17249,1,0,0:0:0:0:
232,296,17393,1,0,0:0:0:0:
309,94,17537,5,0,0:0:0:0:
309,94,17609,1,0,0:0:0:0:
309,94,17681,2,0,L|236:87,1,41.2500015735627
72,128,17826,6,0,L|113:131,1,41.2500015735627
248,312,17970,5,0,0:0:0:0:
248,312,18042,1,0,0:0:0:0:
248,312,18114,2,0,L|244:244,1,41.2500015735627
384,144,18258,6,0,L|386:185,1,41.2500015735627
176,216,18403,5,0,0:0:0:0:
212,222,18475,1,0,0:0:0:0:
248,228,18547,1,0,0:0:0:0:
284,235,18619,1,0,0:0:0:0:
320,241,18691,1,0,0:0:0:0:
488,112,18835,5,0,0:0:0:0:
488,112,18979,2,0,L|410:100,1,60.5000018463135
184,336,19268,6,0,L|225:346,3,30.2500009231568
320,312,19556,2,0,L|290:304,3,30.2500009231568
208,144,19845,6,0,L|335:126,1,110
213,343,20133,2,0,L|104:358,1,110
448,96,20422,2,0,P|464:168|455:233,1,110
240,32,20710,2,0,B|180:32|180:32|132:47,1,110
336,360,20999,6,0,L|344:246,1,110
112,64,21287,2,0,L|119:173,1,110
488,192,21576,2,0,B|434:207|434:207|342:194,1,110
64,240,21864,2,0,L|207:261,1,110
416,64,22153,6,0,L|307:48,1,110
48,240,22441,2,0,L|39:104,1,110
440,280,22729,2,0,P|358:288|303:275,1,110
168,32,23018,6,0,B|162:89|162:89|175:141,1,110
200,264,23306,1,0,0:0:0:0:
312,112,23451,1,0,0:0:0:0:
456,216,23595,2,0,B|399:207|399:207|322:224,2,110
320,224,24028,1,0,0:0:0:0:
192,336,24172,1,0,0:0:0:0:
327,312,24316,1,0,0:0:0:0:
56,112,24460,6,0,B|40:169|40:169|50:242,1,110
408,80,24749,2,0,P|335:69|290:79,1,110
192,352,25037,2,0,L|344:346,1,110
416,272,25254,1,0,0:0:0:0:
416,272,25326,2,0,L|306:276,1,110
48,184,25614,6,0,L|157:179,1,110
208,176,25830,1,0,0:0:0:0:
208,176,25903,1,0,0:0:0:0:
368,104,26047,1,0,0:0:0:0:
368,104,26119,1,0,0:0:0:0:
368,104,26191,1,0,0:0:0:0:
424,344,26335,1,0,0:0:0:0:
464,160,26479,2,0,B|299:192|299:192|349:145,1,206.25
272,320,26768,6,0,L|119:314,1,110
464,152,27056,2,0,L|311:146,1,110
48,120,27345,2,0,B|34:178|34:178|46:238,1,110
376,352,27633,2,0,L|372:220,1,110
360,32,27922,5,0,0:0:0:0:
272,216,28066,1,0,0:0:0:0:
272,216,28138,1,0,0:0:0:0:
272,216,28210,2,0,L|90:210,1,137.5
48,120,28427,1,0,0:0:0:0:
48,120,28499,2,0,L|155:122,1,68.75
160,32,28643,1,0,0:0:0:0:
200,320,28787,1,0,0:0:0:0:
320,152,28931,1,0,0:0:0:0:
488,320,29076,6,0,L|419:312,1,68.75
272,296,29220,2,0,L|203:303,1,68.75
6,216,29364,6,0,B|90:207|90:207|179:220|179:220|144:184,1,206.25
360,96,29653,2,0,L|228:91,1,110
280,288,29941,1,0,0:0:0:0:
336,176,30085,1,0,0:0:0:0:
96,320,30229,6,0,L|150:310,3,55
24,208,30518,1,0,0:0:0:0:
280,288,30662,1,0,0:0:0:0:
280,288,30734,1,0,0:0:0:0:
280,288,30806,1,0,0:0:0:0:
8,200,30951,1,0,0:0:0:0:
336,112,31095,2,0,B|323:142|323:142|326:163|326:163|312:192|319:271|319:271|298:227,1,206.25
128,344,31383,6,0,P|116:282|125:229,1,110
184,40,31672,2,0,P|195:93|189:147,1,110
408,184,31960,1,0,0:0:0:0:
200,224,32104,1,0,0:0:0:0:
448,104,32249,1,0,0:0:0:0:
512,328,32393,1,0,0:0:0:0:
256,144,32537,5,0,0:0:0:0:
256,144,32609,1,0,0:0:0:0:
128,288,32754,5,0,0:0:0:0:
128,288,32826,1,0,0:0:0:0:
368,160,32970,5,0,0:0:0:0:
160,192,33114,1,0,0:0:0:0:
440,232,33258,1,0,0:0:0:0:
256,64,33403,1,0,0:0:0:0:
224,264,33547,1,0,0:0:0:0:
464,40,33691,5,0,0:0:0:0:
376,144,33835,1,0,0:0:0:0:
280,112,33979,1,0,0:0:0:0:
208,184,34124,1,0,0:0:0:0:
64,120,34268,2,0,B|58:289|58:289|99:224,1,220
416,288,34845,5,0,0:0:0:0:
304,256,34989,1,0,0:0:0:0:
128,352,35133,1,0,0:0:0:0:
184,200,35278,1,0,0:0:0:0:
216,296,35422,1,0,0:0:0:0:
144,72,35566,1,0,0:0:0:0:
448,168,35710,5,0,0:0:0:0:
448,168,35782,1,0,0:0:0:0:
448,168,35854,1,0,0:0:0:0:
448,168,35927,1,0,0:0:0:0:
448,168,35999,6,0,L|372:151,3,55
224,192,36287,6,0,L|277:204,3,55
360,24,36576,6,0,L|306:36,3,55
144,72,36864,5,0,0:0:0:0:
150,109,36936,1,0,0:0:0:0:
157,147,37008,1,0,0:0:0:0:
164,185,37080,1,0,0:0:0:0:
171,223,37152,1,0,0:0:0:0:
392,296,37297,6,0,P|399:207|385:177,2,110
72,312,37729,1,0,0:0:0:0:
248,248,37874,1,0,0:0:0:0:
448,288,38018,1,0,0:0:0:0:
240,256,38162,1,0,0:0:0:0:
448,40,38306,5,0,0:0:0:0:
464,248,38451,1,0,0:0:0:0:
168,256,38595,1,0,0:0:0:0:
360,192,38739,1,0,0:0:0:0:
248,376,38883,2,0,L|219:189,1,165.000006294251
464,144,39172,1,0,0:0:0:0:
104,96,39316,1,0,0:0:0:0:
368,288,39460,6,0,B|377:209|377:209|339:109,1,165.000006294251
16,272,39749,1,0,0:0:0:0:
264,144,39893,1,0,0:0:0:0:
88,312,40037,6,0,L|155:304,1,55
320,344,40181,2,0,L|387:336,1,55
32,120,40326,2,0,L|49:223,1,55
232,360,40470,2,0,L|223:305,1,55
155,182,40614,6,0,L|334:196,1,165.000006294251
512,32,40903,2,0,L|347:19,1,165.000006294251
136,272,41191,2,0,P|112:162|145:80,2,165.000006294251
200,24,41624,1,0,0:0:0:0:
208,184,41768,5,0,0:0:0:0:
40,104,41912,1,0,0:0:0:0:
201,103,42056,1,0,0:0:0:0:
464,104,42201,5,0,0:0:0:0:
464,104,42273,1,0,0:0:0:0:
464,104,42345,2,0,B|417:103|417:103|326:75,1,82.5000031471254
440,200,42489,2,0,B|406:189|406:189|359:188,1,82.5000031471254
416,296,42633,2,0,B|369:295|369:295|335:284,1,82.5000031471254
104,168,42778,2,0,B|137:157|137:157|184:156,1,82.5000031471254
280,64,42922,5,0,0:0:0:0:
288,80,42994,1,0,0:0:0:0:
296,96,43066,1,0,0:0:0:0:
218,351,43210,2,0,B|197:233|197:233|230:108,1,247.500009441376
488,256,43499,2,0,B|448:249|448:249|406:258,1,82.5000031471254
160,128,43643,2,0,L|263:136,1,82.5000031471254
498,88,43787,6,0,B|420:68|420:68|288:71,2,165.000006294251
168,120,44220,1,0,0:0:0:0:
312,304,44364,1,0,0:0:0:0:
384,152,44508,1,0,0:0:0:0:
152,352,44653,5,0,0:0:0:0:
512,144,44797,1,0,0:0:0:0:
224,192,44941,2,0,B|181:208|181:208|123:201,1,82.5000031471254
288,80,45085,2,0,L|390:75,1,82.5000031471254
480,280,45229,1,0,0:0:0:0:
80,160,45374,5,0,0:0:0:0:
40,320,45518,2,0,L|230:298,1,165.000006294251
168,120,45806,6,0,B|255:100|255:100|337:115,1,165.000006294251
512,152,46023,6,0,P|411:158|305:115,1,165.000006294251
288,192,46239,2,0,B|208:188|208:188|120:216|120:216|45:210,1,247.500009441376
408,248,46528,1,0,0:0:0:0:
224,336,46672,1,0,0:0:0:0:
152,72,46816,5,0,0:0:0:0:
152,88,46888,1,0,0:0:0:0:
152,104,46960,2,0,B|200:91|200:91|302:94,1,96.2500009179115
392,112,47104,2,0,B|438:113|438:113|486:100,1,96.2500009179115
312,280,47249,2,0,L|295:171,1,96.2500009179115
72,96,47393,2,0,L|86:191,1,96.2500009179115
56,352,47537,6,0,L|240:318,1,137.5
472,240,47826,1,0,0:0:0:0:
352,312,47970,1,0,0:0:0:0:
488,240,48114,2,0,B|423:230|423:230|292:249,1,137.5
240,272,48403,1,0,0:0:0:0:
0,320,48547,2,0,B|70:330|70:330|135:320,2,137.5
352,240,48979,1,0,0:0:0:0:
72,240,49124,1,0,0:0:0:0:
170,152,49268,6,0,L|176:112,1,41.2500015735627
280,40,49412,2,0,L|285:80,1,41.2500015735627
392,152,49556,2,0,L|397:111,1,41.2500015735627
496,24,49701,2,0,L|488:80,1,41.2500015735627
464,296,49845,6,0,P|326:277|246:295,1,206.25
198,311,50133,2,0,P|131:303|208:250,1,206.25
392,176,50422,2,0,B|354:180|354:180|284:158,1,68.75
64,112,50566,2,0,B|144:96|144:96|205:108|205:108|288:96,1,206.25
488,80,50854,6,0,P|415:62|273:84,1,206.25
56,104,51143,6,0,L|74:355,1,206.25
256,352,51431,6,0,B|417:319|417:319|314:304,1,206.25
256,192,51720,2,0,B|223:201|223:201|163:193,1,68.75
288,40,51864,2,0,B|321:31|321:31|355:35,1,68.75
496,144,52008,2,0,L|399:146,1,68.75
152,320,52153,6,0,L|137:114,1,206.25
224,16,52441,2,0,B|236:52|236:52|236:82,1,68.75
32,208,52585,2,0,B|20:172|20:172|20:141,1,68.75
192,191,52729,6,0,L|409:170,1,206.25
480,80,53018,2,0,P|448:69|405:72,1,68.75
352,296,53162,2,0,P|384:307|427:304,1,68.75
496,192,53306,6,0,L|290:211,1,206.25
368,224,53595,2,0,L|117:250,1,247.500009441376
32,232,53883,2,0,L|278:206,1,247.500009441376
464,128,54172,2,0,B|359:109|359:109|246:131|246:131|363:142,1,288.750002753735
64,96,54460,5,0,0:0:0:0:
104,304,54604,1,0,0:0:0:0:
56,32,54749,2,0,L|34:157,1,96.2500009179115
200,280,54893,2,0,L|212:158,1,96.2500009179115
352,40,55037,5,0,0:0:0:0:
357,58,55109,1,0,0:0:0:0:
363,76,55181,2,0,L|388:203,1,96.2500009179115
416,336,55326,5,0,0:0:0:0:
416,336,55398,1,0,0:0:0:0:
416,336,55470,2,0,B|370:326|370:326|297:342,1,96.2500009179115
88,288,55614,6,0,B|134:297|134:297|207:282,1,96.2500009179115
384,168,55758,2,0,L|280:171,1,96.2500009179115
32,112,55903,6,0,B|84:102|84:102|128:109,1,96.2500009179115
384,80,56047,1,0,0:0:0:0:
384,80,56119,1,0,0:0:0:0:
384,80,56191,2,0,L|276:74,1,96.2500009179115
298,291,56335,5,0,0:0:0:0:
298,291,56407,1,0,0:0:0:0:
298,291,56479,2,0,B|352:298|352:298|446:289,1,96.2500009179115
168,88,56624,2,0,B|118:77|118:77|71:83,1,96.2500009179115
496,168,56768,5,0,0:0:0:0:
440,151,56840,1,0,0:0:0:0:
383,150,56912,1,0,0:0:0:0:
327,164,56984,1,0,0:0:0:0:
277,193,57056,1,0,0:0:0:0:
234,216,57128,1,0,0:0:0:0:
184,217,57200,1,0,0:0:0:0:
139,198,57272,1,0,0:0:0:0:
94,166,57345,5,0,0:0:0:0:
91,223,57417,1,0,0:0:0:0:
111,277,57489,1,0,0:0:0:0:
150,319,57561,1,0,0:0:0:0:
201,344,57633,1,0,0:0:0:0:
259,348,57705,1,0,0:0:0:0:
313,330,57777,1,0,0:0:0:0:
357,292,57849,1,0,0:0:0:0:
344,272,57921,5,0,0:0:0:0:
396,296,57994,1,0,0:0:0:0:
452,287,58066,1,0,0:0:0:0:
494,248,58138,1,0,0:0:0:0:
507,192,58210,1,0,0:0:0:0:
472,119,58282,1,0,0:0:0:0:
403,77,58354,1,0,0:0:0:0:
321,79,58426,1,0,0:0:0:0:
255,126,58498,5,0,0:0:0:0:
192,176,58571,1,0,0:0:0:0:
123,138,58643,1,0,0:0:0:0:
126,60,58715,1,0,0:0:0:0:
200,35,58787,2,0,L|304:19,1,82.5000031471254
392,219,58931,2,0,L|310:231,1,82.5000031471254
144,256,59076,5,0,0:0:0:0:
256,192,59220,12,0,62537,0:0:0:0:
464,112,67729,5,0,0:0:0:0:
437,120,67801,1,0,0:0:0:0:
411,126,67873,1,0,0:0:0:0:
383,128,67945,1,0,0:0:0:0:
356,127,68017,1,0,0:0:0:0:
329,122,68089,1,0,0:0:0:0:
302,114,68161,1,0,0:0:0:0:
277,102,68233,1,0,0:0:0:0:
240,96,68306,6,0,B|183:93|183:93|99:114,1,110.000004196167
120,264,68499,1,0,0:0:0:0:
160,272,68595,2,0,B|211:284|211:284|268:281,1,110.000004196167
496,216,68787,1,0,0:0:0:0:
464,224,68883,2,0,L|287:225,1,110.000004196167
184,128,69076,1,0,0:0:0:0:
206,99,69172,2,0,L|348:104,1,110.000004196167
320,272,69364,1,0,0:0:0:0:
300,260,69460,6,0,B|240:272|240:272|132:257,2,110.000004196167
422,81,69749,1,0,0:0:0:0:
422,81,69845,1,0,0:0:0:0:
305,114,69941,1,0,0:0:0:0:
190,149,70037,2,0,B|167:99|167:99|178:25,2,110.000004196167
322,235,70326,2,0,B|345:285|345:285|336:339,2,110.000004196167
176,376,70614,6,0,L|32:360,1,110.000004196167
138,266,70806,1,0,0:0:0:0:
108,147,70903,1,0,0:0:0:0:
167,41,70999,1,0,0:0:0:0:
228,145,71095,1,0,0:0:0:0:
299,47,71191,2,0,B|354:33|354:33|478:42,1,110.000004196167
368,151,71383,1,0,0:0:0:0:
418,260,71479,2,0,B|364:263|364:263|309:249,1,110.000004196167
190,223,71672,1,0,0:0:0:0:
73,253,71768,6,0,B|23:278|23:278|-58:285,1,110.000004196167
3,144,71960,1,0,0:0:0:0:
115,99,72056,1,0,0:0:0:0:
231,134,72153,1,0,0:0:0:0:
346,98,72249,1,0,0:0:0:0:
449,159,72345,2,0,B|394:175|394:175|314:169,2,110.000004196167
280,248,72633,2,0,B|227:244|227:244|172:260,2,110.000004196167
48,96,72922,6,0,L|207:63,1,110.000004196167
408,184,73114,1,0,0:0:0:0:
408,184,73210,2,0,L|300:206,1,110.000004196167
72,344,73403,1,0,0:0:0:0:
72,344,73499,2,0,B|50:289|50:289|53:226,1,110.000004196167
176,24,73691,1,0,0:0:0:0:
176,24,73787,2,0,B|178:74|178:74|156:129,1,110.000004196167
207,239,73979,1,0,0:0:0:0:
318,188,74076,6,0,B|382:197|382:197|481:170,2,110.000004196167
128,152,74364,2,0,B|69:142|69:142|-35:170,2,110.000004196167
216,312,74653,1,0,0:0:0:0:
195,193,74749,1,0,0:0:0:0:
173,74,74845,1,0,0:0:0:0:
275,137,74941,2,0,L|414:135,1,110.000004196167
438,243,75133,1,0,0:0:0:0:
489,352,75229,6,0,L|379:353,1,110.000004196167
276,287,75422,1,0,0:0:0:0:
158,313,75518,2,0,B|96:304|96:304|14:315,1,110.000004196167
248,192,75710,2,0,B|201:198|201:198|139:189,1,110.000004196167
48,64,75903,2,0,B|110:55|110:55|156:61,1,110.000004196167
344,120,76095,2,0,B|406:129|406:129|452:122,1,110.000004196167
256,272,76287,1,0,0:0:0:0:
200,104,76383,6,0,L|119:110,2,55.0000020980836
48,224,76672,6,0,L|102:219,2,55.0000020980836
344,184,76960,6,0,B|313:176|313:176|274:181,2,55.0000020980836
192,304,77249,5,0,0:0:0:0:
160,144,77345,1,0,0:0:0:0:
288,328,77441,1,0,0:0:0:0:
136,232,77537,5,0,0:0:0:0:
230,203,77633,1,0,0:0:0:0:
326,223,77729,1,0,0:0:0:0:
420,190,77826,2,0,L|414:56,1,110.000004196167
496,280,78018,1,0,0:0:0:0:
320,120,78114,5,0,0:0:0:0:
229,159,78210,1,0,0:0:0:0:
149,100,78306,1,0,0:0:0:0:
64,264,78403,2,0,B|50:212|50:212|55:145,1,110.000004196167
256,368,78595,1,0,0:0:0:0:
304,176,78691,6,0,B|298:235|298:235|315:301,1,110.000004196167
432,280,78883,1,0,0:0:0:0:
432,48,78979,2,0,B|444:97|444:97|438:156,1,110.000004196167
408,344,79172,1,0,0:0:0:0:
352,256,79268,1,0,0:0:0:0:
184,344,79364,5,0,0:0:0:0:
165,246,79460,1,0,0:0:0:0:
272,296,79556,1,0,0:0:0:0:
261,196,79653,1,0,0:0:0:0:
250,97,79749,5,0,0:0:0:0:
250,97,79845,2,0,L|384:109,2,110.000004196167
160,240,80133,2,0,L|50:249,2,110.000004196167
272,312,80422,5,0,0:0:0:0:
367,287,80518,1,0,0:0:0:0:
461,258,80614,1,0,0:0:0:0:
461,258,80710,2,0,B|477:202|477:202|466:118,1,110.000004196167
408,16,80903,1,0,0:0:0:0:
408,16,80999,6,0,B|392:64|392:64|400:160,1,110.000004196167
320,208,81191,1,0,0:0:0:0:
240,56,81287,1,0,0:0:0:0:
184,192,81383,1,0,0:0:0:0:
320,200,81479,1,0,0:0:0:0:
248,56,81576,1,0,0:0:0:0:
256,288,81672,1,0,0:0:0:0:
432,160,81768,1,0,0:0:0:0:
256,296,81864,2,0,L|139:297,2,110.000004196167
344,88,82153,6,0,B|397:72|397:72|475:85,2,110.000004196167
168,200,82441,2,0,L|26:200,2,110.000004196167
400,240,82729,1,0,0:0:0:0:
376,336,82826,2,0,L|370:212,1,110.000004196167
224,144,83018,1,0,0:0:0:0:
200,48,83115,2,0,L|194:157,1,110.000004196167
64,288,83306,5,0,0:0:0:0:
304,256,83403,2,0,B|248:240|248:240|179:249,2,110.000004196167
388,118,83691,2,0,B|444:134|444:134|496:128,2,110.000004196167
456,288,83979,1,0,0:0:0:0:
356,292,84076,1,0,0:0:0:0:
257,301,84172,2,0,L|237:164,2,110.000004196167
216,104,84460,5,0,0:0:0:0:
24,328,84556,2,0,B|81:345|81:345|168:328,1,110.000004196167
16,96,84749,1,0,0:0:0:0:
16,96,84845,2,0,B|65:86|65:86|122:103,1,110.000004196167
296,240,85037,6,0,B|352:248|352:248|433:228,1,110.000004196167
488,32,85229,2,0,L|365:45,2,110.000004196167
264,64,85518,1,0,0:0:0:0:
488,224,85614,5,0,0:0:0:0:
394,190,85710,1,0,0:0:0:0:
302,227,85806,1,0,0:0:0:0:
168,160,85903,1,0,0:0:0:0:
80,288,85999,1,0,0:0:0:0:
8,80,86095,1,0,0:0:0:0:
48,208,86191,2,0,B|106:196|106:196|177:204,2,110.000004196167
360,304,86479,2,0,B|410:309|410:309|468:297,2,110.000004196167
480,64,86768,5,0,0:0:0:0:
455,67,86840,1,0,0:0:0:0:
431,71,86912,1,0,0:0:0:0:
406,74,86984,1,0,0:0:0:0:
360,112,87056,5,0,0:0:0:0:
335,115,87128,1,0,0:0:0:0:
311,119,87200,1,0,0:0:0:0:
286,122,87272,1,0,0:0:0:0:
216,104,87345,2,0,L|86:99,1,82.5000031471254
32,208,87489,2,0,L|114:211,1,82.5000031471254
272,352,87633,2,0,B|284:306|284:306|275:233,1,82.5000031471254
416,56,87778,2,0,B|404:102|404:102|408:136,1,82.5000031471254
480,296,87922,5,0,0:0:0:0:
411,267,87994,1,0,0:0:0:0:
336,270,88066,1,0,0:0:0:0:
265,294,88138,1,0,0:0:0:0:
205,337,88210,6,0,B|160:344|160:344|72:312,1,82.5000031471254
8,160,88354,2,0,B|48:148|48:148|110:157,1,82.5000031471254
248,24,88499,6,0,L|261:137,1,82.5000031471254
360,24,88643,2,0,L|350:105,1,82.5000031471254
472,104,88787,6,0,L|462:22,1,82.5000031471254
496,240,88931,1,0,0:0:0:0:
420,238,89004,1,0,0:0:0:0:
345,236,89076,2,0,L|248:232,1,82.5000031471254
16,328,89220,6,0,L|98:331,1,82.5000031471254
160,64,89364,2,0,L|160:180,1,82.5000031471254
272,368,89508,6,0,B|263:323|263:323|272:285,1,82.5000031471254
400,56,89653,2,0,L|399:173,1,82.5000031471254
504,320,89797,6,0,B|452:326|452:326|372:300,1,82.5000031471254
88,256,89941,1,0,0:0:0:0:
88,256,90013,1,0,0:0:0:0:
88,256,90085,2,0,L|243:242,1,82.5000031471254
408,224,90229,5,0,0:0:0:0:
368,233,90301,1,0,0:0:0:0:
331,217,90373,1,0,0:0:0:0:
310,182,90445,1,0,0:0:0:0:
315,142,90518,2,0,B|336:104|336:104|336:51,3,82.5000031471254
176,208,90806,6,0,B|155:246|155:246|155:285,3,82.5000031471254
32,136,91095,1,0,0:0:0:0:
32,136,91167,1,0,0:0:0:0:
32,136,91239,1,0,0:0:0:0:
331,217,91383,6,0,B|350:129|350:129|326:45,1,165.000006294251
176,352,91600,2,0,L|190:164,1,165.000006294251
160,64,91816,5,0,0:0:0:0:
8,144,91960,5,0,0:0:0:0:
312,272,92104,1,0,0:0:0:0:
296,320,92177,2,0,L|481:307,1,165.000006294251
511,142,92393,2,0,B|471:136|471:136|369:146,1,82.5000031471254
280,200,92537,6,0,P|146:226|27:182,2,247.500009441376
440,16,93114,6,0,P|463:102|432:202,1,165.000006294251
400,360,93330,6,0,L|380:186,1,165.000006294251
312,48,93547,6,0,L|332:269,1,165.000006294251
128,272,93763,6,0,L|266:280,1,110
48,136,93979,6,0,L|172:142,1,110
464,248,94196,6,0,L|354:242,1,110
384,112,94412,6,0,L|183:98,1,165
56,232,94845,5,0,0:0:0:0:
82,259,94917,1,0,0:0:0:0:
116,277,94989,1,0,0:0:0:0:
154,282,95061,1,0,0:0:0:0:
192,272,95133,1,0,0:0:0:0:
231,234,95205,1,0,0:0:0:0:
282,217,95277,1,0,0:0:0:0:
337,224,95349,1,0,0:0:0:0:
382,254,95421,1,0,0:0:0:0:
425,221,95494,1,0,0:0:0:0:
444,171,95566,1,0,0:0:0:0:
431,118,95638,1,0,0:0:0:0:
384,80,95710,1,0,0:0:0:0:
334,103,95782,1,0,0:0:0:0:
280,116,95854,1,0,0:0:0:0:
226,119,95926,1,0,0:0:0:0:
171,112,95999,5,0,0:0:0:0:
144,109,96071,1,0,0:0:0:0:
117,114,96143,1,0,0:0:0:0:
93,127,96215,1,0,0:0:0:0:
74,147,96287,5,0,0:0:0:0:
83,178,96359,1,0,0:0:0:0:
83,211,96431,1,0,0:0:0:0:
75,243,96503,1,0,0:0:0:0:
59,272,96576,5,0,0:0:0:0:
108,296,96648,1,0,0:0:0:0:
163,298,96720,1,0,0:0:0:0:
213,276,96792,1,0,0:0:0:0:
249,235,96864,1,0,0:0:0:0:
298,213,96936,1,0,0:0:0:0:
351,224,97008,1,0,0:0:0:0:
389,263,97080,1,0,0:0:0:0:
392,312,97152,5,0,0:0:0:0:
440,80,97297,1,0,0:0:0:0:
320,136,97441,2,0,L|226:137,1,82.5000031471254
88,200,97729,6,0,L|170:200,1,82.5000031471254
272,72,98162,1,0,0:0:0:0:
272,72,98451,1,0,0:0:0:0:
464,176,98739,1,0,0:0:0:0:
448,264,98883,2,0,B|414:249|414:249|344:248,1,82.5000031471254
272,304,99172,1,0,0:0:0:0:
176,280,99316,1,0,0:0:0:0:
0,304,99460,6,0,L|100:329,1,82.5000031471254
264,200,99749,2,0,L|183:179,1,82.5000031471254
408,112,100037,1,0,0:0:0:0:
352,232,100181,1,0,0:0:0:0:
64,176,100470,6,0,L|246:169,1,165.000006294251
448,80,101047,5,0,0:0:0:0:
448,80,101119,1,0,0:0:0:0:
448,80,101191,2,0,L|395:71,3,41.2500015735627
424,208,101479,2,0,L|464:214,3,41.2500015735627
208,136,101768,6,0,B|197:184|197:184|210:255,1,82.5000031471254
400,336,102056,1,0,0:0:0:0:
88,344,102201,1,0,0:0:0:0:
96,352,102273,1,0,0:0:0:0:
96,352,102345,2,0,L|178:347,1,82.5000031471254
48,176,102633,5,0,0:0:0:0:
48,176,102778,2,0,L|154:174,1,82.5000031471254
368,96,103066,2,0,L|285:97,1,82.5000031471254
328,272,103354,1,0,0:0:0:0:
216,208,103499,1,0,0:0:0:0:
208,328,103643,1,0,0:0:0:0:
336,152,103787,1,0,0:0:0:0:
336,280,103931,1,0,0:0:0:0:
88,136,104076,5,0,0:0:0:0:
200,360,104220,6,0,L|211:201,1,137.5
176,80,104436,2,0,L|185:217,1,137.5
448,208,104653,6,0,L|289:222,1,137.5
512,176,104869,2,0,L|338:192,1,165.000006294251
40,256,105085,6,0,P|145:273|229:244,1,165.000006294251
417,314,105302,2,0,B|334:329|334:329|189:308,1,165.000006294251
256,104,105518,6,0,L|91:119,1,165.000006294251
16,128,105734,1,0,0:0:0:0:
16,128,105806,2,0,L|123:95,1,82.5000031471254
304,304,105951,1,0,0:0:0:0:
304,304,106023,1,0,0:0:0:0:
304,304,106095,2,0,B|265:333|265:333|192:349,1,82.5000031471254
8,272,106239,2,0,L|122:238,1,82.5000031471254
268,222,106383,6,0,L|392:216,1,110
304,48,106672,1,0,0:0:0:0:
496,192,106816,2,0,L|386:197,2,110
336,312,107249,1,0,0:0:0:0:
184,88,107393,1,0,0:0:0:0:
176,280,107537,6,0,L|175:142,1,110
272,320,107826,1,0,0:0:0:0:
32,200,107970,1,0,0:0:0:0:
176,352,108114,1,0,0:0:0:0:
176,88,108258,1,0,0:0:0:0:
416,248,108403,2,0,L|337:246,1,55
176,192,108547,2,0,L|230:190,1,55
464,80,108691,5,0,0:0:0:0:
272,112,108835,1,0,0:0:0:0:
456,328,108979,2,0,L|457:121,1,165.000006294251
304,272,109196,1,0,0:0:0:0:
304,272,109268,2,0,P|221:290|109:258,1,165.000006294251
0,64,109556,6,0,P|79:46|160:60,2,165.000006294251
392,56,109989,1,0,0:0:0:0:
264,144,110133,1,0,0:0:0:0:
456,304,110278,1,0,0:0:0:0:
296,72,110422,1,0,0:0:0:0:
224,280,110566,5,0,0:0:0:0:
224,280,110638,1,0,0:0:0:0:
224,280,110710,1,0,0:0:0:0:
258,257,110782,1,0,0:0:0:0:
296,241,110854,1,0,0:0:0:0:
336,233,110926,1,0,0:0:0:0:
384,224,110999,2,0,L|450:224,3,55
480,96,111287,5,0,0:0:0:0:
442,119,111359,1,0,0:0:0:0:
400,130,111431,1,0,0:0:0:0:
356,129,111503,1,0,0:0:0:0:
315,115,111576,2,0,L|224:112,3,55
120,120,111864,5,0,0:0:0:0:
102,160,111936,1,0,0:0:0:0:
103,203,112008,1,0,0:0:0:0:
123,242,112080,1,0,0:0:0:0:
160,272,112153,6,0,B|243:255|243:255|384:272,1,165.000006294251
483,29,112441,2,0,L|307:29,1,165.000006294251
32,168,112729,6,0,B|215:156|215:156|131:131,1,247.500009441376
480,240,113018,2,0,L|272:252,1,165.000006294251
104,344,113306,5,0,0:0:0:0:
288,128,113451,5,0,0:0:0:0:
296,136,113523,1,0,0:0:0:0:
296,136,113595,1,0,0:0:0:0:
331,155,113667,1,0,0:0:0:0:
371,150,113739,1,0,0:0:0:0:
402,123,113811,1,0,0:0:0:0:
411,84,113883,1,0,0:0:0:0:
395,46,113955,1,0,0:0:0:0:
361,25,114027,1,0,0:0:0:0:
320,27,114099,1,0,0:0:0:0:
288,56,114172,1,0,0:0:0:0:
247,84,114244,1,0,0:0:0:0:
200,100,114316,1,0,0:0:0:0:
151,102,114388,1,0,0:0:0:0:
103,91,114460,5,0,0:0:0:0:
91,147,114532,1,0,0:0:0:0:
106,203,114604,1,0,0:0:0:0:
145,244,114676,1,0,0:0:0:0:
199,264,114749,1,0,0:0:0:0:
281,270,114821,1,0,0:0:0:0:
354,235,114893,1,0,0:0:0:0:
400,168,114965,1,0,0:0:0:0:
400,80,115037,5,0,0:0:0:0:
439,121,115109,1,0,0:0:0:0:
459,175,115181,1,0,0:0:0:0:
455,232,115253,1,0,0:0:0:0:
429,283,115325,1,0,0:0:0:0:
355,319,115398,1,0,0:0:0:0:
272,320,115470,1,0,0:0:0:0:
200,282,115542,1,0,0:0:0:0:
151,217,115614,5,0,0:0:0:0:
184,193,115686,1,0,0:0:0:0:
222,176,115758,1,0,0:0:0:0:
262,166,115830,1,0,0:0:0:0:
304,168,115903,1,0,0:0:0:0:
344,162,115975,1,0,0:0:0:0:
379,141,116047,1,0,0:0:0:0:
403,108,116119,1,0,0:0:0:0:
413,68,116191,5,0,0:0:0:0:
358,52,116263,1,0,0:0:0:0:
300,47,116335,1,0,0:0:0:0:
243,55,116407,1,0,0:0:0:0:
192,72,116479,1,0,0:0:0:0:
141,99,116551,1,0,0:0:0:0:
103,142,116623,1,0,0:0:0:0:
82,195,116695,1,0,0:0:0:0:
80,252,116767,5,0,0:0:0:0:
136,265,116840,1,0,0:0:0:0:
194,259,116912,1,0,0:0:0:0:
247,238,116984,1,0,0:0:0:0:
293,204,117056,1,0,0:0:0:0:
348,146,117128,1,0,0:0:0:0:
428,148,117200,1,0,0:0:0:0:
480,209,117272,1,0,0:0:0:0:
469,288,117345,5,0,0:0:0:0:
400,331,117417,1,0,0:0:0:0:
319,330,117489,1,0,0:0:0:0:
252,283,117561,1,0,0:0:0:0:
223,208,117633,1,0,0:0:0:0:
241,128,117705,1,0,0:0:0:0:
300,72,117777,1,0,0:0:0:0:
380,59,117849,1,0,0:0:0:0:
384,64,117922,6,0,B|411:96|415:224|350:253|259:220|286:136|304:82|345:66|446:114|443:194|315:218|325:287|425:302|471:297|483:236|439:201,1,484.000014770508
256,320,119220,1,0,0:0:0:0:
256,320,119292,1,0,0:0:0:0:
256,320,119364,1,0,0:0:0:0:
0,168,119508,2,0,L|56:160,1,30.2500009231568
48,328,119653,2,0,L|104:320,1,30.2500009231568
288,128,119797,1,0,0:0:0:0:
160,32,119941,5,0,0:0:0:0:
208,248,120085,1,0,0:0:0:0:
448,160,120229,5,0,0:0:0:0:
256,192,120374,12,0,124845,0:0:0:0:
