osu file format v14

[General]
AudioFilename: audio.mp3
AudioLeadIn: 0
PreviewTime: 37297
Countdown: 1
SampleSet: Normal
StackLeniency: 0.7
Mode: 0
LetterboxInBreaks: 0
WidescreenStoryboard: 1

[Editor]
Bookmarks: 88787
DistanceSpacing: 0.4
BeatDivisor: 3
GridSize: 4
TimelineZoom: 1.6

[Metadata]
Title:AO
TitleUnicode:AΩ
Artist:BlackY
ArtistUnicode:BlackY
Creator:Necroluttah
Version:Arles 9.5
Source:SOUND VOLTEX III GRAVITY WARS
Tags:necroh lahphnya arles yoshimaro yoshi olutta shitmap lol
BeatmapID:1111514
BeatmapSetID:522893

[Difficulty]
HPDrainRate:4
CircleSize:4
OverallDifficulty:8
ApproachRate:9.5
SliderMultiplier:2.2
SliderTickRate:1

[Events]
//Background and Video events
0,0,"28680466_p0.jpg",0,0
//Break Periods
2,59276,67781
//Storyboard Layer 0 (Background)
//Storyboard Layer 1 (Fail)
//Storyboard Layer 2 (Pass)
//Storyboard Layer 3 (Foreground)
//Storyboard Sound Samples

[TimingPoints]
230,288.461538461538,4,1,0,60,1,0
18691,-133.333333333333,4,1,0,60,0,0
19845,-90.9090909090909,4,1,0,60,0,0
26479,-66.6666666666667,4,1,0,60,0,0
33691,-100,4,1,0,60,0,0
37297,-66.6666666666667,4,1,0,60,0,0
69749,-76.9230769230769,4,1,0,60,0,0
70037,-100,4,1,0,60,0,0
71479,-83.3333333333333,4,1,0,60,0,0
85903,-76.9230769230769,4,1,0,60,0,0
86191,-71.4285714285714,4,1,0,60,0,0
97153,-133.333333333333,4,1,0,60,0,0
104220,-66.6666666666667,4,1,0,60,0,0
109701,-58.8235294117647,4,1,0,60,0,0
117922,-200,4,1,0,60,0,0
119941,-66.6666666666667,4,1,0,60,0,0

[HitObjects]
140,276,1383,6,0,P|204:260|276:280,1,110,2|0,0:0|0:0,0:0:0:0:
384,212,1672,2,0,P|448:248|480:296,1,110,2|0,0:0|0:0,0:0:0:0:
360,56,1960,1,10,0:0:0:0:
216,152,2104,1,2,0:0:0:0:
232,16,2249,1,2,0:0:0:0:
388,212,2393,1,0,0:0:0:0:
148,244,2537,6,0,P|140:184|124:128,1,110,2|0,0:0|0:0,0:0:0:0:
172,340,2826,2,0,P|112:360|60:316,1,110,2|0,0:0|0:0,0:0:0:0:
28,352,3114,2,0,P|72:312|72:248,1,110,10|2,0:0|0:0,0:0:0:0:
88,28,3403,2,0,L|112:144,1,110,2|0,0:0|0:0,0:0:0:0:
276,292,3691,6,0,P|280:220|308:160,1,110,2|0,0:0|0:0,0:0:0:0:
400,84,3979,1,2,0:0:0:0:
376,344,4124,1,4,0:0:0:0:
376,344,4196,1,0,0:0:0:0:
376,344,4268,2,0,P|312:344|256:352,1,110,8|2,0:0|0:0,0:0:0:0:
32,256,4556,2,0,L|164:232,1,110,2|2,0:0|0:0,0:0:0:0:
344,196,4845,6,0,B|368:144|356:100|356:100|352:160,1,110,2|0,0:0|0:0,0:0:0:0:
324,32,5133,2,0,B|352:80|396:96|396:96|392:56,1,110,2|0,0:0|0:0,0:0:0:0:
448,104,5422,2,0,B|404:120|388:164|388:164|416:164,1,110,10|0,0:0|0:0,0:0:0:0:
452,292,5710,1,2,0:0:0:0:
328,256,5854,1,0,0:0:0:0:
104,360,5999,6,0,L|112:224,1,110,2|0,0:0|0:0,0:0:0:0:
108,148,6287,2,0,P|180:152|220:192,1,110,2|0,0:0|0:0,0:0:0:0:
428,60,6576,1,10,0:0:0:0:
484,216,6720,1,2,0:0:0:0:
208,136,6864,2,0,L|196:264,1,110,2|0,0:0|0:0,0:0:0:0:
64,72,7153,6,0,P|76:140|72:192,1,110,2|0,0:0|0:0,0:0:0:0:
24,280,7441,1,2,0:0:0:0:
220,120,7585,1,2,0:0:0:0:
124,32,7729,2,0,L|16:56,1,110,10|0,0:0|0:0,0:0:0:0:
400,136,8018,2,0,L|516:104,1,110,2|0,0:0|0:0,0:0:0:0:
376,260,8306,6,0,P|308:264|280:232,1,110,2|0,0:0|0:0,0:0:0:0:
248,80,8595,2,0,P|272:16|328:0,1,110,2|0,0:0|0:0,0:0:0:0:
412,344,8883,2,0,P|344:372|280:352,1,110,10|2,0:0|0:0,0:0:0:0:
124,168,9172,2,0,P|108:108|136:40,1,110,2|0,0:0|0:0,0:0:0:0:
40,16,9460,5,2,0:0:0:0:
244,128,9604,1,2,0:0:0:0:
68,244,9749,1,2,0:0:0:0:
356,152,9893,1,2,0:0:0:0:
224,344,10037,1,10,0:0:0:0:
464,148,10181,1,2,0:0:0:0:
376,52,10326,1,2,0:0:0:0:
380,248,10470,1,0,0:0:0:0:
284,24,10614,6,0,L|296:172,1,110,2|0,0:0|0:0,0:0:0:0:
192,108,10903,2,0,L|200:236,1,110,2|0,0:0|0:0,0:0:0:0:
104,176,11191,1,10,0:0:0:0:
116,292,11335,1,2,0:0:0:0:
32,96,11479,1,2,0:0:0:0:
12,232,11624,1,0,0:0:0:0:
204,52,11768,6,0,L|68:32,1,110,2|0,0:0|0:0,0:0:0:0:
280,172,12056,2,0,L|152:152,1,110
356,296,12345,1,8,0:0:0:0:
224,280,12489,1,0,0:0:0:0:
460,188,12633,1,0,0:0:0:0:
420,364,12778,1,0,0:0:0:0:
288,208,12922,6,0,P|296:136|356:96,1,110
160,92,13210,1,0,0:0:0:0:
280,32,13354,1,0,0:0:0:0:
24,32,13499,1,8,0:0:0:0:
60,128,13643,1,0,0:0:0:0:
128,44,13787,1,0,0:0:0:0:
96,208,13931,1,0,0:0:0:0:
272,192,14076,6,0,P|204:196|152:224,1,110
348,20,14364,2,0,P|304:72|300:112,1,110
416,324,14653,1,8,0:0:0:0:
472,184,14797,2,0,B|376:216|284:168|284:168|340:124,1,220
280,48,15229,5,0,0:0:0:0:
164,108,15374,1,0,0:0:0:0:
40,80,15518,1,8,0:0:0:0:
236,344,15662,1,0,0:0:0:0:
248,344,15734,1,0,0:0:0:0:
260,340,15806,1,0,0:0:0:0:
364,168,15951,1,0,0:0:0:0:
492,372,16095,1,8,0:0:0:0:
212,32,16239,1,0,0:0:0:0:
204,36,16311,1,0,0:0:0:0:
196,36,16383,5,0,0:0:0:0:
120,312,16528,1,0,0:0:0:0:
8,32,16672,1,8,0:0:0:0:
468,200,16816,1,0,0:0:0:0:
468,200,16888,1,0,0:0:0:0:
468,200,16960,2,0,P|428:208|392:224,1,55
324,144,17104,2,0,P|292:176|276:196,1,55
156,344,17249,2,0,P|160:312|180:260,1,55,8|0,0:0|0:0,0:0:0:0:
32,144,17393,2,0,L|112:152,1,55,8|0,0:0|0:0,0:0:0:0:
200,48,17537,5,0,0:0:0:0:
244,72,17609,1,0,0:0:0:0:
292,76,17681,1,0,0:0:0:0:
340,64,17754,1,0,0:0:0:0:
376,28,17826,1,0,0:0:0:0:
424,44,17898,1,0,0:0:0:0:
456,80,17970,1,0,0:0:0:0:
460,128,18042,1,0,0:0:0:0:
444,176,18114,1,8,0:0:0:0:
384,168,18186,1,0,0:0:0:0:
328,192,18258,1,8,0:0:0:0:
300,244,18330,1,0,0:0:0:0:
300,304,18403,1,8,0:0:0:0:
336,352,18475,1,0,0:0:0:0:
396,344,18547,1,8,0:0:0:0:
416,292,18619,1,0,0:0:0:0:
384,240,18691,6,0,P|312:240|292:264,1,82.5000031471254
184,248,18979,2,0,L|200:340,1,82.5000031471254
80,196,19268,2,0,L|72:260,1,41.2500015735627
64,132,19412,2,0,L|80:188,1,41.2500015735627
80,64,19556,2,0,L|68:120,1,41.2500015735627
56,4,19701,2,0,L|80:68,1,41.2500015735627
76,284,19845,6,0,P|140:272|216:284,1,121.000003692627
316,168,20133,2,0,P|396:160|448:92,1,121.000003692627
448,36,20422,1,8,0:0:0:0:
248,248,20566,1,0,0:0:0:0:
184,80,20710,1,0,0:0:0:0:
124,352,20854,1,0,0:0:0:0:
116,344,20927,1,0,0:0:0:0:
112,336,20999,5,0,0:0:0:0:
296,124,21143,6,0,L|276:268,1,121.000003692627
308,372,21431,1,0,0:0:0:0:
160,144,21576,2,0,P|200:156|256:136,1,60.5000018463135,8|0,0:0|0:0,0:0:0:0:
96,248,21720,2,0,P|132:240|160:216,1,60.5000018463135
40,88,21864,2,0,L|48:176,1,60.5000018463135
112,28,22008,2,0,L|124:184,1,121.000003692627
136,352,22297,5,0,0:0:0:0:
136,340,22369,1,0,0:0:0:0:
144,344,22441,1,0,0:0:0:0:
460,124,22585,1,0,0:0:0:0:
360,32,22729,5,8,0:0:0:0:
280,336,22874,2,0,P|212:344|160:296,1,121.000003692627
308,148,23162,2,0,P|380:152|424:208,1,121.000003692627
428,300,23451,5,0,0:0:0:0:
196,240,23595,1,0,0:0:0:0:
324,48,23739,1,0,0:0:0:0:
212,352,23883,1,8,0:0:0:0:
100,244,24028,1,0,0:0:0:0:
348,240,24172,1,0,0:0:0:0:
188,224,24316,1,0,0:0:0:0:
436,132,24460,6,0,L|468:304,1,121.000003692627
384,32,24749,2,0,L|352:168,1,121.000003692627
272,336,25037,1,8,0:0:0:0:
136,280,25181,1,0,0:0:0:0:
176,152,25326,1,0,0:0:0:0:
184,164,25398,1,0,0:0:0:0:
188,180,25470,1,0,0:0:0:0:
304,24,25614,5,0,0:0:0:0:
176,96,25758,2,0,L|32:76,1,121.000003692627
292,280,26047,1,0,0:0:0:0:
292,280,26119,1,0,0:0:0:0:
292,280,26191,2,0,L|216:272,1,60.5000018463135,8|0,0:0|0:0,0:0:0:0:
128,264,26335,1,0,0:0:0:0:
416,116,26479,2,0,B|448:224|408:296|408:296|376:208,1,247.500009441376
256,116,26768,5,0,0:0:0:0:
256,100,26840,1,0,0:0:0:0:
264,88,26912,1,0,0:0:0:0:
408,32,27056,1,0,0:0:0:0:
188,148,27201,1,0,0:0:0:0:
264,12,27345,1,8,0:0:0:0:
260,276,27489,1,0,0:0:0:0:
32,144,27633,1,0,0:0:0:0:
296,180,27778,2,0,P|300:136|372:80,1,82.5000031471254
440,64,27922,6,0,B|376:80|332:64|332:64|308:84|268:100,1,165.000006294251
148,220,28138,1,0,0:0:0:0:
64,188,28210,2,0,L|80:292,1,82.5000031471254
192,288,28354,2,0,L|168:384,1,82.5000031471254
304,40,28499,1,8,0:0:0:0:
292,112,28571,1,0,0:0:0:0:
244,168,28643,1,0,0:0:0:0:
172,192,28715,1,0,0:0:0:0:
100,168,28787,2,0,P|132:224|184:244,1,82.5000031471254,8|0,0:0|0:0,0:0:0:0:
324,256,28931,2,0,P|376:240|412:192,1,82.5000031471254
492,88,29076,6,0,L|496:264,1,165.000006294251
424,24,29364,1,0,0:0:0:0:
172,260,29508,1,0,0:0:0:0:
272,16,29653,1,8,0:0:0:0:
316,304,29797,1,0,0:0:0:0:
124,80,29941,1,0,0:0:0:0:
392,216,30085,1,0,0:0:0:0:
232,0,30229,6,0,P|264:92|240:152,1,165.000006294251
88,304,30518,2,0,B|72:252|80:188|80:188|112:248,1,165.000006294251
184,364,30734,1,0,0:0:0:0:
192,360,30806,2,0,P|224:348|264:292,1,82.5000031471254,8|0,0:0|0:0,0:0:0:0:
312,156,30951,2,0,P|320:96|288:32,1,82.5000031471254
224,12,31095,1,0,0:0:0:0:
216,12,31167,1,0,0:0:0:0:
208,16,31239,1,0,0:0:0:0:
196,152,31383,5,0,0:0:0:0:
488,36,31528,2,0,B|424:48|360:24|360:24|352:108,1,165.000006294251
324,236,31816,1,0,0:0:0:0:
128,164,31960,2,0,P|120:112|172:64,1,82.5000031471254,8|0,0:0|0:0,0:0:0:0:
168,48,32104,2,0,B|112:40|52:76|52:76|116:108,1,165.000006294251
328,160,32393,1,0,0:0:0:0:
280,296,32537,5,0,0:0:0:0:
352,72,32681,1,0,0:0:0:0:
416,316,32826,1,0,0:0:0:0:
112,240,32970,1,0,0:0:0:0:
104,232,33042,1,0,0:0:0:0:
100,220,33114,1,8,0:0:0:0:
100,208,33186,1,0,0:0:0:0:
100,200,33258,1,0,0:0:0:0:
304,32,33403,2,0,B|328:96|328:96|300:156|300:156|344:208|328:284,1,247.500009441376
252,336,33691,6,0,P|172:328|124:344,1,110
144,228,33979,2,0,P|72:264|48:320,1,110
220,80,34268,2,0,P|240:168|276:212,1,110
480,44,34556,2,0,L|360:28,1,110
56,8,34845,5,0,0:0:0:0:
304,188,34989,1,0,0:0:0:0:
84,212,35133,1,0,0:0:0:0:
248,16,35278,1,0,0:0:0:0:
152,360,35422,1,0,0:0:0:0:
184,216,35566,1,0,0:0:0:0:
464,232,35710,1,0,0:0:0:0:
328,112,35854,1,0,0:0:0:0:
308,160,35927,1,0,0:0:0:0:
268,188,35999,5,0,0:0:0:0:
296,228,36071,1,0,0:0:0:0:
288,276,36143,1,0,0:0:0:0:
256,312,36215,1,0,0:0:0:0:
208,324,36287,1,0,0:0:0:0:
160,308,36359,1,0,0:0:0:0:
136,264,36431,1,0,0:0:0:0:
136,212,36504,1,0,0:0:0:0:
168,176,36576,1,8,0:0:0:0:
228,188,36648,1,0,0:0:0:0:
288,172,36720,1,0,0:0:0:0:
336,136,36792,1,0,0:0:0:0:
352,76,36864,1,0,0:0:0:0:
392,136,36936,1,0,0:0:0:0:
464,132,37008,1,0,0:0:0:0:
496,68,37080,1,0,0:0:0:0:
464,4,37153,5,0,0:0:0:0:
448,208,37297,2,0,P|376:212|328:252,1,82.5000031471254
120,308,37441,2,0,P|124:260|80:160,1,82.5000031471254
40,104,37585,2,0,P|56:64|56:12,1,82.5000031471254
472,72,37729,1,0,0:0:0:0:
208,36,37874,1,0,0:0:0:0:
484,256,38018,1,0,0:0:0:0:
272,140,38162,1,0,0:0:0:0:
264,356,38306,6,0,P|152:336|72:364,1,165.000006294251,8|0,0:0|0:0,0:0:0:0:
456,44,38595,2,0,L|424:224,1,165.000006294251,8|0,0:0|0:0,0:0:0:0:
112,100,38883,1,8,0:0:0:0:
296,296,39028,1,0,0:0:0:0:
256,0,39172,1,8,0:0:0:0:
216,368,39316,2,0,P|136:348|56:372,1,165.000006294251,0|8,0:0|0:0,0:0:0:0:
408,228,39604,2,0,P|296:248|208:220,1,165.000006294251,0|8,0:0|0:0,0:0:0:0:
472,80,39893,1,0,0:0:0:0:
108,352,40037,2,0,P|104:316|100:224,1,82.5000031471254,8|0,0:0|0:0,0:0:0:0:
272,136,40181,2,0,L|280:240,1,82.5000031471254
88,364,40326,2,0,L|80:272,1,82.5000031471254,8|0,0:0|0:0,0:0:0:0:
292,120,40470,2,0,L|304:232,1,82.5000031471254
424,308,40614,6,0,B|436:256|420:204|420:204|432:164|416:104,1,165.000006294251,8|0,0:0|0:0,0:0:0:0:
136,48,40903,2,0,P|220:88|312:0,1,165.000006294251,8|0,0:0|0:0,0:0:0:0:
448,44,41191,1,8,0:0:0:0:
204,212,41335,1,0,0:0:0:0:
204,228,41407,1,0,0:0:0:0:
208,240,41479,1,8,0:0:0:0:
288,32,41624,1,0,0:0:0:0:
416,212,41768,5,8,0:0:0:0:
96,124,41912,1,0,0:0:0:0:
480,56,42056,1,8,0:0:0:0:
164,12,42201,1,0,0:0:0:0:
112,76,42273,1,0,0:0:0:0:
40,112,42345,1,8,0:0:0:0:
48,132,42417,1,0,0:0:0:0:
52,148,42489,1,0,0:0:0:0:
52,164,42561,1,0,0:0:0:0:
36,248,42633,2,0,P|104:240|164:248,1,82.5000031471254,8|0,0:0|0:0,0:0:0:0:
296,160,42778,2,0,P|384:172|416:196,1,82.5000031471254
492,260,42922,6,0,P|460:180|464:44,1,165.000006294251,8|0,0:0|0:0,0:0:0:0:
508,16,43210,2,0,P|404:60|312:44,1,165.000006294251,8|0,0:0|0:0,0:0:0:0:
124,352,43499,1,8,0:0:0:0:
120,184,43643,1,0,0:0:0:0:
400,312,43787,1,8,0:0:0:0:
164,264,43931,1,0,0:0:0:0:
460,76,44076,5,8,0:0:0:0:
240,188,44220,1,0,0:0:0:0:
268,4,44364,1,8,0:0:0:0:
240,344,44508,1,0,0:0:0:0:
240,344,44580,1,0,0:0:0:0:
240,344,44653,2,0,P|292:324|368:328,1,82.5000031471254,8|0,0:0|0:0,0:0:0:0:
452,264,44797,2,0,P|412:256|352:208,1,82.5000031471254
236,200,44941,2,0,P|208:168|208:108,1,82.5000031471254,8|0,0:0|0:0,0:0:0:0:
448,88,45085,2,0,P|480:76|516:32,1,82.5000031471254
500,32,45374,6,0,B|396:16|292:48|292:48|344:96|352:180,1,330.000012588501,8|0,0:0|0:0,0:0:0:0:
188,288,45806,2,0,B|108:312|76:260|76:260|92:248|124:272,1,165.000006294251,8|0,0:0|0:0,0:0:0:0:
372,184,46023,2,0,B|428:184|472:140|472:140|432:128|408:156,1,165.000006294251,8|0,0:0|0:0,0:0:0:0:
232,44,46239,2,0,P|248:152|260:244,1,165.000006294251,8|0,0:0|0:0,0:0:0:0:
396,56,46528,5,0,0:0:0:0:
308,348,46672,1,8,0:0:0:0:
128,232,46816,1,0,0:0:0:0:
140,248,46888,1,0,0:0:0:0:
148,272,46960,1,8,0:0:0:0:
212,224,47032,1,0,0:0:0:0:
296,216,47104,1,0,0:0:0:0:
372,248,47177,1,0,0:0:0:0:
452,224,47249,1,0,0:0:0:0:
484,148,47321,1,0,0:0:0:0:
464,68,47393,1,0,0:0:0:0:
392,28,47465,1,0,0:0:0:0:
312,52,47537,6,0,B|296:84|284:104|284:104|320:248,1,165.000006294251,8|0,0:0|0:0,0:0:0:0:
352,40,47826,2,0,L|208:16,1,82.5000031471254,8|0,0:0|0:0,0:0:0:0:
160,128,47970,2,0,P|112:136|40:128,1,82.5000031471254,8|0,0:0|0:0,0:0:0:0:
4,72,48114,1,0,0:0:0:0:
304,264,48258,2,0,B|328:200|304:124|304:124|292:200,1,165.000006294251,0|8,0:0|0:0,0:0:0:0:
452,360,48547,2,0,P|484:280|440:140,1,165.000006294251
60,360,48835,6,0,P|28:280|72:140,1,165.000006294251,0|8,0:0|0:0,0:0:0:0:
380,256,49124,1,0,0:0:0:0:
124,152,49268,2,0,P|176:160|232:140,1,82.5000031471254,8|0,0:0|0:0,0:0:0:0:
412,72,49412,2,0,P|384:88|300:64,1,82.5000031471254
80,16,49556,2,0,P|128:32|196:24,1,82.5000031471254
460,16,49701,2,0,P|416:80|356:96,1,82.5000031471254
156,156,49845,5,0,0:0:0:0:
244,344,49989,2,0,L|436:324,1,165.000006294251,8|0,0:0|0:0,0:0:0:0:
2,202,50278,2,0,B|24:208|48:172|48:172|116:176|152:200,1,165.000006294251,0|8,0:0|0:0,0:0:0:0:
32,340,50566,1,0,0:0:0:0:
292,152,50710,1,0,0:0:0:0:
152,56,50854,2,0,P|228:68|328:16,1,165.000006294251,8|0,0:0|0:0,0:0:0:0:
460,248,51143,6,0,B|492:148|456:64|456:64|444:152,1,247.500009441376
384,208,51431,2,0,B|304:256|208:216|208:216|220:264|180:312,1,247.500009441376,8|0,0:0|0:0,0:0:0:0:
76,344,51720,1,8,0:0:0:0:
36,272,51792,1,0,0:0:0:0:
64,196,51864,1,8,0:0:0:0:
144,176,51936,1,0,0:0:0:0:
224,192,52008,1,0,0:0:0:0:
304,168,52080,1,0,0:0:0:0:
356,104,52153,6,0,P|336:48|216:48,1,165.000006294251
468,344,52441,1,8,0:0:0:0:
480,328,52513,1,0,0:0:0:0:
484,312,52585,1,0,0:0:0:0:
484,296,52657,1,0,0:0:0:0:
480,284,52729,2,0,B|452:256|384:240|384:240|408:280|404:328,1,165.000006294251
52,60,53018,1,8,0:0:0:0:
48,72,53090,1,0,0:0:0:0:
56,80,53162,1,0,0:0:0:0:
64,80,53234,1,0,0:0:0:0:
72,72,53306,6,0,P|140:64|248:104,1,165.000006294251
332,40,53595,2,0,P|388:96|412:184,1,165.000006294251,8|0,0:0|0:0,0:0:0:0:
500,232,53883,2,0,P|472:344|416:372,1,165.000006294251
80,164,54172,2,0,B|164:104|280:120|280:120|267:138|216:208,1,247.500009441376,8|0,0:0|0:0,0:0:0:0:
68,336,54460,6,0,P|68:288|56:236,1,82.5000031471254
212,224,54604,2,0,P|224:284|256:336,1,82.5000031471254
448,280,54749,1,8,0:0:0:0:
488,208,54821,1,0,0:0:0:0:
480,128,54893,1,0,0:0:0:0:
428,64,54965,1,0,0:0:0:0:
348,48,55037,2,0,P|280:72|232:68,1,82.5000031471254
288,336,55181,2,0,P|348:332|424:360,1,82.5000031471254
168,24,55326,1,8,0:0:0:0:
144,16,55398,1,0,0:0:0:0:
120,16,55470,1,0,0:0:0:0:
92,24,55542,1,0,0:0:0:0:
68,40,55614,6,0,L|100:144,1,82.5000031471254
128,264,55758,2,0,L|96:360,1,82.5000031471254
264,16,55903,2,0,L|288:116,1,82.5000031471254,8|0,0:0|0:0,0:0:0:0:
336,264,56047,2,0,L|312:360,1,82.5000031471254
496,72,56191,2,0,P|452:112|380:124,1,82.5000031471254
168,80,56335,2,0,L|56:48,1,82.5000031471254
112,340,56479,1,8,0:0:0:0:
136,260,56552,1,0,0:0:0:0:
208,220,56624,1,0,0:0:0:0:
292,216,56696,1,0,0:0:0:0:
364,256,56768,5,0,0:0:0:0:
352,184,56840,1,0,0:0:0:0:
372,112,56912,1,0,0:0:0:0:
428,64,56984,1,0,0:0:0:0:
500,48,57056,1,8,0:0:0:0:
428,76,57129,1,0,0:0:0:0:
356,80,57201,1,0,0:0:0:0:
292,44,57273,1,0,0:0:0:0:
280,116,57345,1,0,0:0:0:0:
228,168,57417,1,0,0:0:0:0:
156,188,57489,1,0,0:0:0:0:
84,168,57561,1,0,0:0:0:0:
44,104,57633,1,8,0:0:0:0:
56,152,57705,1,0,0:0:0:0:
56,196,57778,1,0,0:0:0:0:
40,244,57850,1,0,0:0:0:0:
16,268,57922,5,8,0:0:0:0:
76,308,57994,1,0,0:0:0:0:
148,300,58066,1,0,0:0:0:0:
200,248,58138,1,0,0:0:0:0:
212,176,58210,1,0,0:0:0:0:
188,104,58282,1,0,0:0:0:0:
128,56,58354,1,8,0:0:0:0:
52,64,58427,1,0,0:0:0:0:
4,120,58499,1,0,0:0:0:0:
64,164,58571,1,0,0:0:0:0:
140,160,58643,1,0,0:0:0:0:
208,128,58715,1,0,0:0:0:0:
256,72,58787,1,8,0:0:0:0:
304,128,58859,1,0,0:0:0:0:
376,144,58931,1,0,0:0:0:0:
452,140,59004,1,0,0:0:0:0:
508,92,59076,5,4,0:0:0:0:
396,68,68306,5,0,0:0:0:0:
344,152,68403,1,0,0:0:0:0:
360,248,68499,1,0,0:0:0:0:
444,304,68595,2,0,P|368:304|308:320,1,110.000004196167
160,360,68787,1,0,0:0:0:0:
216,280,68883,1,0,0:0:0:0:
200,184,68979,1,0,0:0:0:0:
112,136,69076,1,0,0:0:0:0:
136,40,69172,1,0,0:0:0:0:
232,64,69268,1,0,0:0:0:0:
132,68,69364,1,0,0:0:0:0:
224,36,69460,6,0,P|296:24|360:48,1,110.000004196167
412,112,69653,1,0,0:0:0:0:
184,164,69749,2,0,P|248:136|308:152,1,95.3333289693199
384,172,69941,1,0,0:0:0:0:
176,300,70037,2,0,P|216:268|284:256,1,73.3333333333333
356,220,70229,1,0,0:0:0:0:
252,344,70326,1,0,0:0:0:0:
452,256,70422,1,0,0:0:0:0:
404,384,70518,1,0,0:0:0:0:
268,152,70614,6,0,P|272:216|272:260,2,73.3333333333333
320,32,70903,2,0,P|344:68|360:120,2,73.3333333333333
140,244,71191,2,0,P|104:256|60:248,2,73.3333333333333
304,224,71479,2,0,P|368:224|408:200,2,87.9999973144532
128,44,71768,5,0,0:0:0:0:
160,116,71864,1,0,0:0:0:0:
232,148,71960,1,0,0:0:0:0:
312,144,72056,1,0,0:0:0:0:
388,116,72153,1,0,0:0:0:0:
424,48,72249,1,0,0:0:0:0:
304,20,72345,1,0,0:0:0:0:
337,66,72441,1,0,0:0:0:0:
348,116,72537,1,0,0:0:0:0:
349,164,72633,1,0,0:0:0:0:
335,208,72729,1,0,0:0:0:0:
301,239,72826,1,0,0:0:0:0:
112,312,72922,6,0,P|104:276|72:200,1,87.9999973144532
24,128,73114,1,0,0:0:0:0:
120,172,73210,2,0,P|164:160|232:164,1,87.9999973144532
272,44,73403,1,0,0:0:0:0:
352,116,73499,2,0,P|400:100|468:100,1,87.9999973144532
432,304,73691,1,0,0:0:0:0:
328,256,73787,1,0,0:0:0:0:
456,272,73883,1,0,0:0:0:0:
308,284,73979,1,0,0:0:0:0:
424,176,74076,6,0,L|280:152,1,87.9999973144532
212,288,74268,1,0,0:0:0:0:
136,216,74364,2,0,P|92:224|24:216,1,87.9999973144532
232,56,74556,1,0,0:0:0:0:
284,160,74653,1,0,0:0:0:0:
296,28,74749,1,0,0:0:0:0:
304,168,74845,1,0,0:0:0:0:
364,32,74941,1,0,0:0:0:0:
320,184,75037,1,0,0:0:0:0:
424,64,75133,1,0,0:0:0:0:
328,208,75229,6,0,P|264:208|220:252,1,87.9999973144532
192,316,75422,1,0,0:0:0:0:
192,316,75518,2,0,P|248:324|296:360,1,87.9999973144532
400,372,75710,1,0,0:0:0:0:
456,316,75806,1,0,0:0:0:0:
448,236,75903,1,0,0:0:0:0:
392,180,75999,1,0,0:0:0:0:
308,116,76095,1,0,0:0:0:0:
320,36,76191,1,0,0:0:0:0:
396,16,76287,1,0,0:0:0:0:
456,68,76383,6,0,L|448:156,1,87.9999973144532
340,156,76576,1,0,0:0:0:0:
352,164,76672,2,0,P|360:220|372:256,1,87.9999973144532
184,196,76864,1,0,0:0:0:0:
216,208,76960,2,0,P|248:256|304:296,1,87.9999973144532
44,260,77153,1,0,0:0:0:0:
100,196,77249,2,0,P|152:192|212:176,2,87.9999973144532
24,52,77537,5,0,0:0:0:0:
56,52,77609,1,0,0:0:0:0:
88,56,77681,1,0,0:0:0:0:
120,68,77754,1,0,0:0:0:0:
152,60,77826,1,0,0:0:0:0:
180,76,77898,1,0,0:0:0:0:
200,100,77970,1,0,0:0:0:0:
208,132,78042,1,0,0:0:0:0:
232,168,78114,2,0,P|208:228|172:248,1,87.9999973144532
328,336,78306,1,0,0:0:0:0:
380,256,78403,2,0,P|432:252|504:228,1,87.9999973144532
344,84,78595,1,0,0:0:0:0:
396,152,78691,5,0,0:0:0:0:
392,168,78787,1,0,0:0:0:0:
380,160,78883,1,0,0:0:0:0:
216,284,78979,1,0,0:0:0:0:
216,264,79076,1,0,0:0:0:0:
232,280,79172,1,0,0:0:0:0:
144,116,79268,1,0,0:0:0:0:
120,128,79364,1,0,0:0:0:0:
120,96,79460,1,0,0:0:0:0:
344,72,79556,1,0,0:0:0:0:
224,60,79653,1,0,0:0:0:0:
348,52,79749,1,0,0:0:0:0:
160,20,79845,5,0,0:0:0:0:
192,84,79941,1,0,0:0:0:0:
196,156,80037,1,0,0:0:0:0:
176,224,80133,1,0,0:0:0:0:
244,208,80229,1,0,0:0:0:0:
312,228,80326,1,0,0:0:0:0:
356,284,80422,1,0,0:0:0:0:
288,276,80518,1,0,0:0:0:0:
224,304,80614,1,0,0:0:0:0:
184,360,80710,1,0,0:0:0:0:
176,352,80806,1,0,0:0:0:0:
188,348,80903,1,0,0:0:0:0:
300,316,80999,6,0,P|292:264|300:208,1,87.9999973144532
328,88,81191,1,0,0:0:0:0:
428,256,81287,2,0,P|432:216|464:144,1,87.9999973144532
500,28,81479,1,0,0:0:0:0:
352,108,81576,2,0,L|212:92,1,87.9999973144532
32,80,81768,1,0,0:0:0:0:
116,88,81864,1,0,0:0:0:0:
64,160,81960,1,0,0:0:0:0:
80,12,82056,1,0,0:0:0:0:
136,224,82153,5,0,0:0:0:0:
188,180,82249,1,0,0:0:0:0:
256,168,82345,1,0,0:0:0:0:
324,176,82441,1,0,0:0:0:0:
388,208,82537,1,0,0:0:0:0:
436,260,82633,1,0,0:0:0:0:
352,336,82729,1,0,0:0:0:0:
372,286,82826,1,0,0:0:0:0:
382,234,82922,1,0,0:0:0:0:
373,181,83018,1,0,0:0:0:0:
351,133,83114,1,0,0:0:0:0:
307,103,83210,1,0,0:0:0:0:
136,180,83306,5,0,0:0:0:0:
163,157,83403,1,0,0:0:0:0:
194,142,83499,1,0,0:0:0:0:
228,133,83595,1,0,0:0:0:0:
263,130,83691,1,0,0:0:0:0:
298,130,83787,1,0,0:0:0:0:
384,40,83883,5,0,0:0:0:0:
344,128,83979,1,0,0:0:0:0:
344,224,84076,1,0,0:0:0:0:
408,296,84172,1,0,0:0:0:0:
320,256,84268,1,0,0:0:0:0:
416,256,84364,1,0,0:0:0:0:
504,160,84460,6,0,L|392:140,1,87.9999973144532
208,212,84653,1,0,0:0:0:0:
280,136,84749,2,0,L|160:128,1,87.9999973144532
44,40,84941,1,0,0:0:0:0:
64,152,85037,1,0,0:0:0:0:
180,76,85133,1,0,0:0:0:0:
68,188,85229,1,0,0:0:0:0:
96,0,85325,1,0,0:0:0:0:
280,168,85421,1,0,0:0:0:0:
272,36,85518,1,0,0:0:0:0:
260,236,85614,6,0,P|208:248|176:276,1,87.9999973144532
88,292,85806,1,0,0:0:0:0:
320,128,85903,2,0,P|260:124|176:152,1,95.3333289693199
100,208,86095,1,0,0:0:0:0:
424,44,86191,2,0,P|344:24|264:36,1,102.666663533529
140,120,86383,1,0,0:0:0:0:
56,80,86479,6,0,P|48:44|80:4,3,76.9999976501466
192,28,86768,5,0,0:0:0:0:
228,80,86840,1,0,0:0:0:0:
236,140,86912,1,0,0:0:0:0:
216,200,86984,1,0,0:0:0:0:
164,232,87056,1,0,0:0:0:0:
100,228,87129,1,0,0:0:0:0:
56,184,87201,1,0,0:0:0:0:
48,124,87273,1,0,0:0:0:0:
80,72,87345,1,0,0:0:0:0:
140,56,87417,1,0,0:0:0:0:
200,64,87489,1,0,0:0:0:0:
248,104,87561,1,0,0:0:0:0:
308,120,87633,1,0,0:0:0:0:
368,108,87705,1,0,0:0:0:0:
328,156,87778,1,0,0:0:0:0:
324,216,87850,1,0,0:0:0:0:
340,276,87922,5,0,0:0:0:0:
392,308,87994,1,0,0:0:0:0:
452,312,88066,1,0,0:0:0:0:
492,268,88138,1,0,0:0:0:0:
500,208,88210,1,0,0:0:0:0:
464,156,88282,1,0,0:0:0:0:
404,140,88354,1,0,0:0:0:0:
344,160,88427,1,0,0:0:0:0:
308,208,88499,1,0,0:0:0:0:
248,228,88571,1,0,0:0:0:0:
188,228,88643,1,0,0:0:0:0:
140,188,88715,1,0,0:0:0:0:
124,128,88787,1,0,0:0:0:0:
148,72,88859,1,0,0:0:0:0:
204,48,88931,1,0,0:0:0:0:
268,56,89004,1,0,0:0:0:0:
312,100,89076,5,0,0:0:0:0:
320,160,89148,1,0,0:0:0:0:
300,216,89220,1,0,0:0:0:0:
252,256,89292,1,0,0:0:0:0:
192,268,89364,1,0,0:0:0:0:
132,252,89436,1,0,0:0:0:0:
88,208,89508,1,0,0:0:0:0:
60,152,89580,1,0,0:0:0:0:
68,92,89653,1,0,0:0:0:0:
40,148,89725,1,0,0:0:0:0:
40,208,89797,1,0,0:0:0:0:
60,264,89869,1,0,0:0:0:0:
96,312,89941,1,0,0:0:0:0:
148,344,90013,1,0,0:0:0:0:
208,348,90085,1,0,0:0:0:0:
268,344,90157,1,0,0:0:0:0:
316,304,90229,6,0,P|348:280|424:272,1,76.9999976501466
408,72,90374,2,0,P|464:84|528:136,1,76.9999976501466
80,64,90518,1,0,0:0:0:0:
76,56,90590,1,0,0:0:0:0:
72,52,90662,1,0,0:0:0:0:
68,48,90734,1,0,0:0:0:0:
64,44,90806,2,0,P|72:108|72:148,1,76.9999976501466
140,332,90951,2,0,P|144:284|156:264,2,51.3333317667644
60,344,91095,2,0,P|100:332|180:336,1,76.9999976501466
316,212,91239,2,0,P|376:224|440:260,1,76.9999976501466
484,324,91383,5,0,0:0:0:0:
232,40,91528,1,0,0:0:0:0:
228,48,91600,1,0,0:0:0:0:
160,288,91744,1,0,0:0:0:0:
160,228,91816,1,0,0:0:0:0:
128,176,91888,1,0,0:0:0:0:
72,148,91960,1,0,0:0:0:0:
320,108,92104,1,0,0:0:0:0:
308,140,92177,1,0,0:0:0:0:
444,32,92321,1,0,0:0:0:0:
484,104,92393,2,0,L|464:192,1,76.9999976501466
476,260,92537,5,0,0:0:0:0:
240,192,92681,1,0,0:0:0:0:
260,188,92754,1,0,0:0:0:0:
64,84,92898,1,0,0:0:0:0:
120,108,92970,1,0,0:0:0:0:
180,108,93042,1,0,0:0:0:0:
240,88,93114,1,0,0:0:0:0:
192,328,93258,1,0,0:0:0:0:
208,296,93330,1,0,0:0:0:0:
464,120,93475,1,0,0:0:0:0:
392,64,93547,2,0,B|324:48|280:60|280:60|332:116,1,153.999995300293
232,180,93763,6,0,P|200:188|240:160,1,153.999995300293
208,296,93979,2,0,B|164:272|164:272|120:300|60:288|60:272,1,153.999995300293
296,28,94196,2,0,B|328:68|324:112|324:112|340:136|340:192,1,153.999995300293
348,300,94412,2,0,P|416:236|504:240,1,153.999995300293
228,120,94629,2,0,L|84:92,1,76.9999976501466
60,80,94845,5,0,0:0:0:0:
100,152,94941,1,0,0:0:0:0:
104,232,95037,1,0,0:0:0:0:
84,312,95133,1,0,0:0:0:0:
164,292,95229,1,0,0:0:0:0:
244,304,95326,1,0,0:0:0:0:
400,348,95422,1,0,0:0:0:0:
392,336,95518,1,0,0:0:0:0:
392,324,95614,1,0,0:0:0:0:
432,256,95710,1,0,0:0:0:0:
432,244,95806,1,0,0:0:0:0:
428,232,95903,1,0,0:0:0:0:
376,112,95999,5,0,0:0:0:0:
324,144,96071,1,0,0:0:0:0:
264,152,96143,1,0,0:0:0:0:
208,128,96215,1,0,0:0:0:0:
172,76,96287,1,0,0:0:0:0:
112,56,96359,1,0,0:0:0:0:
52,64,96431,1,0,0:0:0:0:
12,112,96504,1,0,0:0:0:0:
12,172,96576,1,0,0:0:0:0:
36,228,96648,1,0,0:0:0:0:
96,248,96720,1,0,0:0:0:0:
144,284,96792,1,0,0:0:0:0:
148,344,96864,1,0,0:0:0:0:
152,284,96936,1,0,0:0:0:0:
200,244,97008,1,0,0:0:0:0:
260,240,97080,1,0,0:0:0:0:
316,264,97153,6,0,L|432:276,1,82.5000031471254
212,160,97441,1,0,0:0:0:0:
308,16,97585,1,0,0:0:0:0:
312,24,97657,1,0,0:0:0:0:
312,32,97729,1,0,0:0:0:0:
300,128,97874,2,0,L|204:116,1,82.5000031471254
176,236,98162,2,0,L|68:256,1,82.5000031471254
312,112,98451,6,0,L|428:136,1,82.5000031471254
200,68,98739,1,0,0:0:0:0:
248,164,98883,1,0,0:0:0:0:
128,28,99028,1,0,0:0:0:0:
112,192,99172,1,0,0:0:0:0:
360,64,99316,1,0,0:0:0:0:
340,264,99460,6,0,P|292:272|252:248,1,82.5000031471254
448,240,99749,2,0,P|416:308|380:332,1,82.5000031471254
352,56,100037,1,0,0:0:0:0:
416,136,100181,1,0,0:0:0:0:
120,112,100470,1,0,0:0:0:0:
120,112,100758,5,0,0:0:0:0:
120,112,101047,5,0,0:0:0:0:
144,148,101119,1,0,0:0:0:0:
152,192,101191,1,0,0:0:0:0:
148,236,101263,1,0,0:0:0:0:
128,276,101335,1,0,0:0:0:0:
132,320,101407,1,0,0:0:0:0:
168,348,101479,1,0,0:0:0:0:
212,352,101552,1,0,0:0:0:0:
252,336,101624,1,0,0:0:0:0:
276,296,101696,1,0,0:0:0:0:
264,252,101768,6,0,P|296:208|332:204,1,82.5000031471254
484,224,102056,1,0,0:0:0:0:
236,92,102201,1,0,0:0:0:0:
344,204,102345,1,0,0:0:0:0:
448,132,102489,2,0,L|468:24,1,82.5000031471254
364,284,102778,2,0,P|360:224|344:176,1,82.5000031471254
292,92,103066,5,0,0:0:0:0:
96,344,103354,1,0,0:0:0:0:
160,280,103499,1,0,0:0:0:0:
248,272,103643,1,0,0:0:0:0:
328,304,103787,1,0,0:0:0:0:
488,56,103931,1,0,0:0:0:0:
480,32,104220,6,0,B|448:28|404:16|404:16|360:80|272:92|272:92|296:128,1,247.500009441376
132,68,104508,2,0,P|84:68|24:24,1,82.5000031471254
24,32,104653,2,0,P|56:156|48:220,1,165.000006294251
152,220,104869,2,0,P|96:284|-8:280,1,165.000006294251
352,336,105085,2,0,P|352:312|424:380,1,247.500009441376
184,360,105374,2,0,P|172:300|208:256,1,82.5000031471254
272,80,105518,2,0,P|320:60|396:72,1,82.5000031471254
488,32,105662,1,0,0:0:0:0:
492,52,105734,1,0,0:0:0:0:
492,72,105806,1,0,0:0:0:0:
408,60,105879,1,0,0:0:0:0:
332,88,105951,1,0,0:0:0:0:
292,160,106023,1,0,0:0:0:0:
284,244,106095,1,0,0:0:0:0:
216,196,106167,1,0,0:0:0:0:
136,208,106239,1,0,0:0:0:0:
64,248,106311,1,0,0:0:0:0:
32,324,106383,6,0,P|28:216|4:140,1,165.000006294251
248,68,106672,1,0,0:0:0:0:
52,32,106816,1,0,0:0:0:0:
52,40,106888,1,0,0:0:0:0:
56,48,106960,1,0,0:0:0:0:
372,28,107104,1,0,0:0:0:0:
152,204,107249,1,0,0:0:0:0:
200,24,107393,1,0,0:0:0:0:
336,312,107537,5,0,0:0:0:0:
480,164,107681,1,0,0:0:0:0:
472,168,107754,1,0,0:0:0:0:
464,168,107826,1,0,0:0:0:0:
80,124,107970,1,0,0:0:0:0:
340,0,108114,2,0,B|344:44|324:72|324:72|328:28,1,82.5000031471254
224,224,108258,2,0,B|192:244|156:236|156:236|168:228,1,82.5000031471254
8,92,108403,2,0,B|44:84|72:96|72:96|56:100,1,82.5000031471254
224,200,108547,2,0,B|244:236|240:264|240:264|232:248,1,82.5000031471254
196,344,108691,5,0,0:0:0:0:
436,44,108835,1,0,0:0:0:0:
432,56,108907,1,0,0:0:0:0:
432,68,108979,1,0,0:0:0:0:
144,32,109124,1,0,0:0:0:0:
384,320,109268,1,0,0:0:0:0:
500,136,109412,1,0,0:0:0:0:
488,144,109484,1,0,0:0:0:0:
476,148,109556,1,0,0:0:0:0:
48,32,109701,6,0,P|80:136|52:240,1,187.000003566742
208,240,109989,2,0,B|184:336|128:360|128:360|120:292,1,187.000003566742
488,336,110278,2,0,B|460:276|388:260|388:260|440:256|472:192|420:136,1,280.500005350113
256,32,110566,1,0,0:0:0:0:
188,84,110638,1,0,0:0:0:0:
168,164,110710,1,0,0:0:0:0:
204,240,110782,1,0,0:0:0:0:
280,276,110854,1,0,0:0:0:0:
364,272,110927,1,0,0:0:0:0:
416,208,110999,6,0,B|460:272|424:336|424:336|404:268,1,187.000003566742
80,324,111287,1,0,0:0:0:0:
76,312,111359,1,0,0:0:0:0:
84,304,111431,1,0,0:0:0:0:
96,308,111504,1,0,0:0:0:0:
96,320,111576,2,0,B|64:240|112:192|112:192|96:260,1,187.000003566742
440,48,111864,1,0,0:0:0:0:
400,72,111936,1,0,0:0:0:0:
356,80,112008,1,0,0:0:0:0:
316,64,112080,1,0,0:0:0:0:
288,24,112153,6,0,B|356:36|400:20|400:20|440:36|492:20,1,187.000003566742
248,224,112441,2,0,B|312:192|364:184|364:184|384:152|440:124,1,187.000003566742
104,376,112729,2,0,P|120:268|96:136,1,187.000003566742
376,8,113018,2,0,P|368:72|380:124,1,93.500001783371
180,236,113162,2,0,P|204:300|196:364,1,93.500001783371
348,352,113306,6,0,P|312:340|204:356,1,93.500001783371
488,148,113451,2,0,P|424:164|344:216,1,93.500001783371
160,300,113595,1,0,0:0:0:0:
116,240,113667,1,0,0:0:0:0:
120,164,113739,1,0,0:0:0:0:
180,120,113811,1,0,0:0:0:0:
256,120,113883,1,0,0:0:0:0:
328,144,113955,1,0,0:0:0:0:
404,140,114028,1,0,0:0:0:0:
456,88,114100,1,0,0:0:0:0:
444,16,114172,6,0,P|388:4|328:16,1,93.500001783371
216,224,114316,2,0,P|172:228|112:212,1,93.500001783371
40,24,114460,5,0,0:0:0:0:
36,100,114532,1,0,0:0:0:0:
84,156,114604,1,0,0:0:0:0:
160,156,114677,1,0,0:0:0:0:
216,104,114749,1,0,0:0:0:0:
176,168,114821,1,0,0:0:0:0:
188,240,114893,1,0,0:0:0:0:
240,296,114965,1,0,0:0:0:0:
312,308,115037,1,0,0:0:0:0:
380,272,115109,1,0,0:0:0:0:
452,288,115181,1,0,0:0:0:0:
500,348,115254,1,0,0:0:0:0:
424,344,115326,1,0,0:0:0:0:
372,288,115398,1,0,0:0:0:0:
360,216,115470,1,0,0:0:0:0:
400,152,115542,1,0,0:0:0:0:
472,132,115614,6,0,P|380:144|320:116,1,93.500001783371
220,48,115758,1,0,0:0:0:0:
144,112,115830,2,0,P|80:128|24:100,1,93.500001783371
20,20,115975,1,0,0:0:0:0:
16,8,116047,2,0,L|36:116,1,93.500001783371
172,360,116191,5,0,0:0:0:0:
156,288,116263,1,0,0:0:0:0:
200,228,116335,1,0,0:0:0:0:
272,216,116407,1,0,0:0:0:0:
348,220,116479,1,0,0:0:0:0:
420,192,116552,1,0,0:0:0:0:
440,120,116624,1,0,0:0:0:0:
424,48,116696,1,0,0:0:0:0:
360,8,116768,5,0,0:0:0:0:
284,8,116840,1,0,0:0:0:0:
236,64,116912,1,0,0:0:0:0:
228,140,116984,1,0,0:0:0:0:
276,200,117056,1,0,0:0:0:0:
348,216,117129,1,0,0:0:0:0:
420,200,117201,1,0,0:0:0:0:
480,240,117273,1,0,0:0:0:0:
476,316,117345,1,0,0:0:0:0:
420,368,117417,1,0,0:0:0:0:
344,360,117489,1,0,0:0:0:0:
304,296,117561,1,0,0:0:0:0:
312,220,117633,1,0,0:0:0:0:
260,272,117705,1,0,0:0:0:0:
184,280,117778,1,0,0:0:0:0:
116,248,117850,1,0,0:0:0:0:
88,180,117922,6,0,B|88:112|148:56|148:56|196:92|248:72|248:72|272:112|248:172|200:152|192:108|208:104,1,385
484,48,119076,5,0,0:0:0:0:
384,132,119220,1,0,0:0:0:0:
396,132,119292,1,0,0:0:0:0:
404,128,119364,1,0,0:0:0:0:
268,328,119508,1,0,0:0:0:0:
268,308,119580,1,0,0:0:0:0:
264,288,119653,1,0,0:0:0:0:
256,268,119725,1,0,0:0:0:0:
244,248,119797,1,0,0:0:0:0:
228,232,119869,1,0,0:0:0:0:
208,220,119941,2,0,P|160:132|272:160,1,247.500009441376
264,152,120229,5,0,0:0:0:0:
