osu file format v14

[General]
AudioFilename: audio.mp3
AudioLeadIn: 0
PreviewTime: -1
Countdown: 1
SampleSet: None
StackLeniency: 0.2
Mode: 0
LetterboxInBreaks: 0
WidescreenStoryboard: 1

[Editor]
Bookmarks: 150825
DistanceSpacing: 0.1
BeatDivisor: 4
GridSize: 4
TimelineZoom: 1.9

[Metadata]
Title:AO (Evolutionary Extended ver.)
TitleUnicode:AΩ (Evolutionary Extended ver.)
Artist:BlackY
ArtistUnicode:BlackY
Creator:ZenoXLTU
Version:no start
Source:SOUND VOLTEX III
Tags:
BeatmapID:3230800
BeatmapSetID:758647

[Difficulty]
HPDrainRate:6
CircleSize:4
OverallDifficulty:9.5
ApproachRate:9.6
SliderMultiplier:2.4
SliderTickRate:1

[Events]
//Background and Video events
//Break Periods
//Storyboard Layer 0 (Background)
//Storyboard Layer 1 (Fail)
//Storyboard Layer 2 (Pass)
//Storyboard Layer 3 (Foreground)
//Storyboard Layer 4 (Overlay)
//Storyboard Sound Samples

[TimingPoints]
707,387.096774193548,4,1,0,100,1,0
707,-200,4,1,0,100,0,0
79287,288.461538461538,4,1,0,100,1,0
79287,-133.333333333333,4,1,0,69,0,0
93133,-100,4,1,0,69,0,0
108565,-66.6666666666667,4,1,0,69,0,0
110440,-100,4,1,0,69,0,0
113325,-166.666666666667,4,1,0,69,0,0
113902,-125,4,1,0,69,0,0
114479,-100,4,1,0,69,0,0
116210,-200,4,1,0,69,0,0
136979,-133.333333333333,4,1,0,69,0,0
146210,-100,4,1,0,69,0,0
162363,-133.333333333333,4,1,0,69,0,0
166402,-100,4,1,0,69,0,0
172748,-100,4,1,0,69,0,0
183277,-66.6666666666667,4,1,0,69,0,0
185440,-100,4,1,0,69,0,0
201594,-133.333333333333,4,1,0,69,0,0
233902,-100,4,1,0,69,0,0
247748,-66.6666666666667,4,1,0,69,0,0
251786,-100,4,1,0,69,0,0
253517,-133.333333333333,4,1,0,69,0,0
274286,-100,4,1,0,69,0,0
281210,-66.6666666666667,4,1,0,69,0,0
283517,-100,4,1,0,69,0,0
292748,-66.6666666666667,4,1,0,69,0,0
296210,-66.6666666666667,4,1,0,69,0,0
299383,-80,4,1,0,69,0,0

[HitObjects]
185,40,79287,5,0,0:0:0:0:
131,103,79431,1,0,0:0:0:0:
115,184,79575,1,0,0:0:0:0:
141,262,79719,1,0,0:0:0:0:
202,316,79863,2,0,P|248:308|283:279,1,90.0000034332277
364,332,80152,2,0,P|380:288|372:243,1,90.0000034332277
448,178,80440,5,0,0:0:0:0:
403,263,80585,1,0,0:0:0:0:
321,314,80729,1,0,0:0:0:0:
224,317,80873,1,0,0:0:0:0:
138,271,81017,2,0,P|155:228|182:187,1,90.0000034332277
79,197,81306,2,0,P|96:154|123:113,1,90.0000034332277
213,32,81594,5,0,0:0:0:0:
199,152,81738,1,0,0:0:0:0:
292,53,81883,1,0,0:0:0:0:
284,149,82027,1,0,0:0:0:0:
373,77,82171,1,0,0:0:0:0:
369,146,82315,1,0,0:0:0:0:
461,51,82460,1,0,0:0:0:0:
454,184,82604,1,0,0:0:0:0:
270,99,82748,5,0,0:0:0:0:
436,85,82892,1,0,0:0:0:0:
296,176,83037,1,0,0:0:0:0:
430,161,83181,1,0,0:0:0:0:
321,252,83325,1,0,0:0:0:0:
418,242,83469,1,0,0:0:0:0:
329,332,83613,1,0,0:0:0:0:
429,324,83758,1,0,0:0:0:0:
459,128,83902,6,0,L|463:228,1,90.0000034332277
354,314,84190,2,0,L|362:215,1,90.0000034332277
255,108,84479,2,0,L|254:213,1,90.0000034332277
156,290,84767,1,0,0:0:0:0:
142,57,84911,1,0,0:0:0:0:
70,272,85056,6,0,P|130:293|167:286,1,90.0000034332277
298,124,85344,2,0,P|249:116|198:131,1,90.0000034332277
315,277,85633,2,0,P|365:289|413:274,1,90.0000034332277
485,114,85921,1,0,0:0:0:0:
252,147,86065,1,0,0:0:0:0:
412,327,86210,6,0,L|406:231,1,90.0000034332277
331,91,86498,2,0,L|322:191,1,90.0000034332277
238,322,86786,2,0,L|244:219,1,90.0000034332277
142,80,87075,1,0,0:0:0:0:
151,284,87219,1,0,0:0:0:0:
231,81,87363,6,0,P|186:75|127:84,1,90.0000034332277
352,141,87652,2,0,P|397:135|456:144,1,90.0000034332277
210,199,87940,2,0,P|165:193|106:202,1,90.0000034332277
352,270,88229,2,0,P|397:264|456:273,1,90.0000034332277
207,280,88517,5,0,0:0:0:0:
304,103,88806,1,0,0:0:0:0:
159,249,89094,5,0,0:0:0:0:
352,134,89383,1,0,0:0:0:0:
132,194,89671,5,0,0:0:0:0:
379,189,89960,1,0,0:0:0:0:
137,126,90248,5,0,0:0:0:0:
374,257,90537,1,0,0:0:0:0:
193,87,90825,5,0,0:0:0:0:
318,296,91114,1,0,0:0:0:0:
253,57,91402,5,0,0:0:0:0:
258,326,91691,1,0,0:0:0:0:
327,62,91979,5,0,0:0:0:0:
184,321,92268,1,0,0:0:0:0:
394,108,92556,6,0,L|337:143,1,45.0000017166138
117,275,92700,1,0,0:0:0:0:
117,275,92988,1,0,0:0:0:0:
353,183,93133,5,0,0:0:0:0:
203,128,93277,1,0,0:0:0:0:
347,298,93421,2,0,P|407:286|454:235,1,120
306,82,93710,1,0,0:0:0:0:
273,295,93854,1,0,0:0:0:0:
267,321,93926,1,0,0:0:0:0:
260,351,93998,1,0,0:0:0:0:
228,149,94142,1,0,0:0:0:0:
419,220,94286,6,0,P|417:290|391:347,1,120
347,102,94575,2,0,B|432:47|432:47|432:72,1,120
351,283,94863,1,0,0:0:0:0:
334,258,94935,1,0,0:0:0:0:
326,229,95007,1,0,0:0:0:0:
327,199,95079,1,0,0:0:0:0:
338,171,95151,1,0,0:0:0:0:
189,92,95296,1,0,0:0:0:0:
161,289,95440,5,0,0:0:0:0:
192,278,95512,1,0,0:0:0:0:
225,274,95584,1,0,0:0:0:0:
259,278,95656,1,0,0:0:0:0:
292,288,95728,1,0,0:0:0:0:
324,293,95800,1,0,0:0:0:0:
359,291,95872,1,0,0:0:0:0:
389,277,95944,1,0,0:0:0:0:
417,253,96017,5,0,0:0:0:0:
382,229,96089,1,0,0:0:0:0:
358,195,96161,1,0,0:0:0:0:
347,155,96233,1,0,0:0:0:0:
352,113,96305,1,0,0:0:0:0:
370,76,96377,1,0,0:0:0:0:
401,47,96449,1,0,0:0:0:0:
440,32,96521,1,0,0:0:0:0:
479,29,96594,5,0,0:0:0:0:
470,112,96738,1,0,0:0:0:0:
461,195,96883,1,0,0:0:0:0:
452,278,97027,1,0,0:0:0:0:
237,272,97171,5,0,0:0:0:0:
319,260,97315,1,0,0:0:0:0:
402,249,97460,1,0,0:0:0:0:
485,237,97604,1,0,0:0:0:0:
287,108,97748,6,0,L|275:168,3,60
206,64,98036,2,0,L|207:125,3,60
117,51,98325,1,0,0:0:0:0:
117,51,98397,1,0,0:0:0:0:
117,51,98469,2,0,P|127:84|129:114,1,60
108,296,98613,1,0,0:0:0:0:
108,296,98686,1,0,0:0:0:0:
108,296,98758,2,0,P|122:263|124:224,1,60
41,158,98902,5,0,0:0:0:0:
70,162,98974,1,0,0:0:0:0:
100,166,99046,1,0,0:0:0:0:
130,171,99118,1,0,0:0:0:0:
182,213,99190,5,0,0:0:0:0:
210,207,99262,1,0,0:0:0:0:
240,202,99334,1,0,0:0:0:0:
270,197,99406,1,0,0:0:0:0:
348,143,99479,6,0,P|364:171|371:211,1,60
314,346,99623,2,0,P|309:316|309:285,1,60
248,108,99767,2,0,P|264:136|271:176,1,60
214,311,99911,2,0,P|209:281|209:250,1,60
148,94,100056,6,0,L|144:34,3,60
117,211,100344,2,0,L|111:279,3,60
67,87,100633,1,0,0:0:0:0:
67,87,100705,1,0,0:0:0:0:
67,87,100777,2,0,P|63:53|65:15,1,60
93,212,100921,1,0,0:0:0:0:
93,212,100993,1,0,0:0:0:0:
93,212,101065,2,0,P|97:246|95:284,1,60
157,108,101210,5,0,0:0:0:0:
185,100,101282,1,0,0:0:0:0:
215,99,101354,1,0,0:0:0:0:
244,107,101426,1,0,0:0:0:0:
273,122,101498,2,0,P|298:149|308:179,1,60
235,319,101642,2,0,P|245:283|266:260,1,60
433,253,101786,2,0,P|397:261|366:254,1,60
273,122,101931,6,0,L|277:57,1,60
265,252,102075,2,0,L|269:187,1,60
257,382,102219,2,0,L|261:317,1,60
198,175,102363,6,0,L|120:174,3,60
183,256,102652,2,0,L|102:255,3,60
171,337,102940,6,0,L|246:341,1,60
323,344,103085,2,0,L|391:346,1,60
481,352,103229,5,0,0:0:0:0:
481,352,103301,1,0,0:0:0:0:
481,352,103373,2,0,P|480:310|473:284,1,60
401,87,103517,1,0,0:0:0:0:
401,87,103589,1,0,0:0:0:0:
401,87,103661,2,0,P|394:119|394:159,1,60
321,328,103806,1,0,0:0:0:0:
321,328,103878,1,0,0:0:0:0:
321,328,103950,2,0,P|328:296|326:262,1,60
304,78,104094,1,0,0:0:0:0:
118,147,104238,1,0,0:0:0:0:
353,131,104383,2,0,L|372:129,12,15
412,124,104671,5,0,0:0:0:0:
418,153,104743,1,0,0:0:0:0:
418,183,104815,1,0,0:0:0:0:
413,212,104887,1,0,0:0:0:0:
367,244,104960,5,0,0:0:0:0:
360,273,105032,1,0,0:0:0:0:
359,303,105104,1,0,0:0:0:0:
366,332,105176,1,0,0:0:0:0:
414,363,105248,6,0,L|474:356,3,60
282,312,105536,2,0,L|214:307,3,60
429,260,105825,5,0,0:0:0:0:
303,82,105969,1,0,0:0:0:0:
299,111,106041,1,0,0:0:0:0:
295,141,106113,1,0,0:0:0:0:
434,321,106258,1,0,0:0:0:0:
431,291,106330,1,0,0:0:0:0:
428,261,106402,1,0,0:0:0:0:
426,231,106474,1,0,0:0:0:0:
423,201,106546,1,0,0:0:0:0:
257,343,106690,2,0,P|267:315|271:280,1,60
226,53,106835,2,0,P|219:81|221:117,1,60
185,293,106979,5,0,0:0:0:0:
101,280,107123,1,0,0:0:0:0:
21,265,107267,6,0,L|16:206,3,60
91,197,107556,2,0,L|106:139,3,60
180,171,107844,2,0,L|214:122,3,60
280,177,108133,5,0,0:0:0:0:
280,177,108205,1,0,0:0:0:0:
280,177,108277,2,0,P|311:168|342:168,1,60
257,332,108421,1,0,0:0:0:0:
257,332,108493,1,0,0:0:0:0:
257,332,108565,2,0,P|208:340|157:328,1,90.0000034332277
29,283,108710,1,0,0:0:0:0:
300,254,108854,1,0,0:0:0:0:
300,254,109286,5,0,0:0:0:0:
294,224,109358,1,0,0:0:0:0:
293,194,109430,1,0,0:0:0:0:
297,165,109502,1,0,0:0:0:0:
348,136,109575,5,0,0:0:0:0:
354,106,109647,1,0,0:0:0:0:
355,76,109719,1,0,0:0:0:0:
351,47,109791,1,0,0:0:0:0:
305,13,109863,5,0,0:0:0:0:
52,120,110008,1,0,0:0:0:0:
94,264,110152,1,0,0:0:0:0:
140,17,110296,1,0,0:0:0:0:
32,343,110440,6,0,P|92:361|150:342,1,120
184,304,110657,6,0,P|244:289|306:308,1,120
334,346,110873,6,0,P|394:364|452:345,1,120
481,303,111089,6,0,L|469:180,1,120
388,30,111306,2,0,L|387:98,1,60
334,283,111450,2,0,L|328:212,1,60
256,37,111594,6,0,L|253:107,7,60
173,43,112171,2,0,L|170:108,7,60
89,49,112748,5,0,0:0:0:0:
88,68,112820,1,0,0:0:0:0:
87,87,112892,1,0,0:0:0:0:
86,106,112964,1,0,0:0:0:0:
85,125,113036,1,0,0:0:0:0:
84,144,113109,1,0,0:0:0:0:
83,163,113181,1,0,0:0:0:0:
82,182,113253,1,0,0:0:0:0:
81,208,113325,5,0,0:0:0:0:
113,193,113397,1,0,0:0:0:0:
149,189,113469,1,0,0:0:0:0:
184,195,113541,1,0,0:0:0:0:
216,211,113613,1,0,0:0:0:0:
242,236,113685,1,0,0:0:0:0:
260,267,113757,1,0,0:0:0:0:
267,302,113829,1,0,0:0:0:0:
272,343,113902,5,0,0:0:0:0:
319,349,113974,1,0,0:0:0:0:
364,335,114046,1,0,0:0:0:0:
400,304,114118,1,0,0:0:0:0:
420,260,114190,1,0,0:0:0:0:
420,213,114262,1,0,0:0:0:0:
400,169,114334,1,0,0:0:0:0:
364,138,114406,1,0,0:0:0:0:
319,127,114479,5,0,0:0:0:0:
259,128,114551,1,0,0:0:0:0:
205,153,114623,1,0,0:0:0:0:
155,186,114695,1,0,0:0:0:0:
97,200,114767,1,0,0:0:0:0:
43,177,114839,1,0,0:0:0:0:
15,126,114911,1,0,0:0:0:0:
23,67,114983,1,0,0:0:0:0:
69,28,115056,5,0,0:0:0:0:
353,149,115200,2,0,L|280:152,1,60
111,111,115344,2,0,L|186:104,1,60
349,65,115488,1,0,0:0:0:0:
169,268,115633,1,0,0:0:0:0:
243,65,115777,1,0,0:0:0:0:
243,65,115849,1,0,0:0:0:0:
243,65,115921,1,0,0:0:0:0:
440,236,116065,1,0,0:0:0:0:
56,176,116210,1,0,0:0:0:0:
392,69,118517,5,0,0:0:0:0:
384,152,118661,1,0,0:0:0:0:
376,235,118806,1,0,0:0:0:0:
368,318,118950,1,0,0:0:0:0:
368,318,119671,1,0,0:0:0:0:
368,318,120248,1,0,0:0:0:0:
96,276,120825,5,0,0:0:0:0:
206,268,120969,1,0,0:0:0:0:
316,260,121113,1,0,0:0:0:0:
426,252,121258,1,0,0:0:0:0:
96,276,121690,1,0,0:0:0:0:
139,65,123133,5,0,0:0:0:0:
126,152,123277,1,0,0:0:0:0:
113,239,123421,1,0,0:0:0:0:
100,326,123565,1,0,0:0:0:0:
100,326,124286,1,0,0:0:0:0:
100,326,124863,1,0,0:0:0:0:
383,116,125440,6,0,P|327:98|253:116,2,120
417,231,126306,2,0,L|410:301,1,60
283,290,126594,2,0,L|278:155,2,120
143,220,127460,1,0,0:0:0:0:
128,135,127605,1,0,0:0:0:0:
116,48,127748,6,0,P|181:31|247:52,1,120
391,57,128325,1,0,0:0:0:0:
354,281,128613,1,0,0:0:0:0:
341,190,128758,1,0,0:0:0:0:
396,113,128902,2,0,P|431:172|418:238,2,120
193,119,129767,1,0,0:0:0:0:
210,332,130056,6,0,L|223:204,2,120
193,119,130921,2,0,L|196:52,1,60
269,218,131210,2,0,P|190:241|132:229,1,120
302,76,131786,2,0,P|366:67|423:81,2,120
256,192,132508,12,0,136835,0:0:0:0:
166,65,136979,6,0,L|157:165,1,90.0000034332277
244,320,137267,2,0,L|233:216,1,90.0000034332277
63,122,137556,2,0,P|50:191|56:226,2,90.0000034332277
248,98,137988,1,0,0:0:0:0:
248,98,138277,1,0,0:0:0:0:
248,98,138565,1,0,0:0:0:0:
125,264,138710,1,0,0:0:0:0:
226,283,138854,1,0,0:0:0:0:
105,125,138998,2,0,P|56:139|20:172,1,90.0000034332277
247,206,139286,6,0,P|273:116|231:24,2,180.000006866455
107,222,140008,1,0,0:0:0:0:
107,222,140296,1,0,0:0:0:0:
107,222,140585,1,0,0:0:0:0:
107,222,140873,2,0,P|109:188|131:165,1,45.0000017166138
270,256,141017,2,0,P|265:281|252:300,1,45.0000017166138
109,323,141161,1,0,0:0:0:0:
78,318,141233,1,0,0:0:0:0:
55,307,141305,1,0,0:0:0:0:
37,292,141377,1,0,0:0:0:0:
21,271,141449,1,0,0:0:0:0:
13,253,141521,1,0,0:0:0:0:
11,239,141594,5,0,0:0:0:0:
147,166,141738,1,0,0:0:0:0:
0,328,141883,2,0,L|11:239,1,90.0000034332277
138,76,142171,2,0,L|147:175,1,90.0000034332277
30,27,142460,1,0,0:0:0:0:
247,198,142604,2,0,P|185:265|90:258,2,180.000006866455
249,25,143325,1,0,0:0:0:0:
238,52,143397,1,0,0:0:0:0:
236,82,143469,1,0,0:0:0:0:
244,111,143541,1,0,0:0:0:0:
261,136,143613,2,0,P|274:153|299:168,1,45.0000017166138
463,155,143758,1,0,0:0:0:0:
463,155,144046,6,0,L|434:289,1,135.000005149841
389,327,144335,2,0,L|384:278,1,45.0000017166138
313,104,144479,2,0,P|376:82|450:115,2,135.000005149841
313,104,145200,1,0,0:0:0:0:
313,104,145488,1,0,0:0:0:0:
290,103,145561,1,0,0:0:0:0:
265,94,145633,1,0,0:0:0:0:
236,76,145705,1,0,0:0:0:0:
197,56,145777,1,0,0:0:0:0:
153,57,145849,1,0,0:0:0:0:
120,78,145921,1,0,0:0:0:0:
104,109,145993,1,0,0:0:0:0:
105,137,146065,1,0,0:0:0:0:
115,159,146137,1,0,0:0:0:0:
133,175,146210,6,0,P|188:188|236:149,1,120
33,207,146498,2,0,P|84:267|137:287,1,120
303,256,146786,2,0,L|267:193,1,60
190,56,146931,1,0,0:0:0:0:
200,294,147075,2,0,L|214:172,1,120
236,13,147363,5,0,0:0:0:0:
137,202,147508,1,0,0:0:0:0:
131,38,147652,1,0,0:0:0:0:
219,241,147796,1,0,0:0:0:0:
60,106,147940,2,0,L|63:168,1,60
68,342,148085,1,0,0:0:0:0:
169,334,148229,1,0,0:0:0:0:
270,326,148373,1,0,0:0:0:0:
371,318,148517,6,0,P|389:259|374:199,1,120
126,201,148806,2,0,P|172:242|234:253,1,120
420,108,149094,2,0,P|392:100|353:103,1,60
220,144,149238,1,0,0:0:0:0:
288,324,149383,1,0,0:0:0:0:
338,64,149527,6,0,B|271:36|213:63|213:63|251:104,1,180
326,152,149815,2,0,P|273:188|304:294,1,180
341,227,150104,2,0,L|219:229,1,120
39,224,150392,1,0,0:0:0:0:
50,234,150464,1,0,0:0:0:0:
74,240,150536,1,0,0:0:0:0:
106,234,150609,1,0,0:0:0:0:
135,202,150681,1,0,0:0:0:0:
121,154,150753,1,0,0:0:0:0:
64,146,150825,5,0,0:0:0:0:
160,346,150969,1,0,0:0:0:0:
243,76,151113,1,0,0:0:0:0:
203,55,151185,1,0,0:0:0:0:
159,47,151257,1,0,0:0:0:0:
114,52,151329,1,0,0:0:0:0:
73,70,151401,1,0,0:0:0:0:
279,288,151546,1,0,0:0:0:0:
359,110,151690,1,0,0:0:0:0:
315,101,151762,1,0,0:0:0:0:
272,112,151834,1,0,0:0:0:0:
238,141,151906,1,0,0:0:0:0:
220,182,151978,5,0,0:0:0:0:
416,108,152123,1,0,0:0:0:0:
161,107,152267,5,0,0:0:0:0:
387,207,152411,1,0,0:0:0:0:
113,200,152556,5,0,0:0:0:0:
331,74,152700,1,0,0:0:0:0:
44,113,152844,5,0,0:0:0:0:
299,215,152988,1,0,0:0:0:0:
0,217,153133,6,0,L|9:281,3,60
70,138,153421,2,0,L|77:76,3,60
105,248,153710,1,0,0:0:0:0:
105,248,153782,1,0,0:0:0:0:
105,248,153854,2,0,P|142:257|172:251,1,60
333,210,153998,1,0,0:0:0:0:
333,210,154070,1,0,0:0:0:0:
333,210,154142,2,0,P|299:205|267:209,1,60
380,298,154286,5,0,0:0:0:0:
414,269,154358,1,0,0:0:0:0:
433,228,154430,1,0,0:0:0:0:
433,184,154502,1,0,0:0:0:0:
415,143,154574,1,0,0:0:0:0:
381,114,154646,1,0,0:0:0:0:
338,101,154718,1,0,0:0:0:0:
294,107,154790,1,0,0:0:0:0:
258,130,154863,5,0,0:0:0:0:
219,108,154935,1,0,0:0:0:0:
202,68,155007,1,0,0:0:0:0:
216,26,155079,1,0,0:0:0:0:
252,2,155151,1,0,0:0:0:0:
296,7,155223,1,0,0:0:0:0:
327,38,155295,1,0,0:0:0:0:
330,82,155367,1,0,0:0:0:0:
312,121,155440,5,0,0:0:0:0:
28,153,155585,1,0,0:0:0:0:
260,39,155729,1,0,0:0:0:0:
288,323,155873,1,0,0:0:0:0:
42,235,156017,5,0,0:0:0:0:
35,175,156089,1,0,0:0:0:0:
50,117,156161,1,0,0:0:0:0:
84,69,156233,1,0,0:0:0:0:
134,35,156305,1,0,0:0:0:0:
192,21,156377,1,0,0:0:0:0:
251,28,156449,1,0,0:0:0:0:
304,55,156521,1,0,0:0:0:0:
337,108,156594,5,0,0:0:0:0:
337,108,156666,1,0,0:0:0:0:
337,108,156738,2,0,P|328:148|331:181,1,60
430,276,156883,2,0,P|438:245|435:211,1,60
268,324,157027,1,0,0:0:0:0:
268,324,157099,1,0,0:0:0:0:
268,324,157171,2,0,P|277:295|276:257,1,60
223,80,157315,2,0,P|210:116|209:155,1,60
368,278,157460,1,0,0:0:0:0:
374,236,157532,1,0,0:0:0:0:
367,194,157604,1,0,0:0:0:0:
344,160,157676,1,0,0:0:0:0:
311,142,157748,1,0,0:0:0:0:
256,192,157820,12,0,162219,0:0:0:0:
77,166,162363,5,0,0:0:0:0:
77,166,162436,1,0,0:0:0:0:
77,166,162508,2,0,L|73:212,1,45.0000017166138
155,167,162652,1,0,0:0:0:0:
155,167,162725,1,0,0:0:0:0:
155,167,162797,2,0,L|158:121,1,45.0000017166138
232,170,162940,1,0,0:0:0:0:
232,170,163013,1,0,0:0:0:0:
232,170,163085,2,0,L|228:221,1,45.0000017166138
310,175,163229,1,0,0:0:0:0:
310,175,163302,1,0,0:0:0:0:
310,175,163374,2,0,L|311:127,1,45.0000017166138
364,227,163517,6,0,L|355:282,3,45.0000017166138
408,148,163806,2,0,L|404:98,3,45.0000017166138
439,225,164094,2,0,L|434:279,3,45.0000017166138
485,141,164383,2,0,L|481:94,3,45.0000017166138
394,142,164671,5,0,0:0:0:0:
394,142,164743,1,0,0:0:0:0:
394,142,164815,2,0,L|343:150,1,45.0000017166138
183,174,164960,1,0,0:0:0:0:
183,174,165032,1,0,0:0:0:0:
183,174,165104,2,0,L|236:179,1,45.0000017166138
394,215,165248,1,0,0:0:0:0:
394,215,165320,1,0,0:0:0:0:
394,215,165392,2,0,L|334:224,1,45.0000017166138
184,248,165536,1,0,0:0:0:0:
184,248,165608,1,0,0:0:0:0:
184,248,165680,2,0,L|237:253,1,45.0000017166138
347,298,165825,6,0,L|414:286,3,45.0000017166138
193,319,166113,1,0,0:0:0:0:
224,119,166258,1,0,0:0:0:0:
394,226,166402,6,0,P|337:243|275:226,1,120
253,187,166618,2,0,P|199:172|135:186,1,120
110,227,166835,2,0,L|116:162,1,60
123,62,166979,6,0,L|128:1,3,60
194,73,167267,2,0,L|199:12,3,60
265,84,167556,2,0,L|270:23,3,60
336,95,167844,2,0,L|341:34,3,60
408,107,168133,5,0,0:0:0:0:
408,107,168205,1,0,0:0:0:0:
408,107,168277,2,0,P|415:137|414:179,1,60
339,322,168421,1,0,0:0:0:0:
339,322,168493,1,0,0:0:0:0:
339,322,168565,2,0,P|367:295|380:273,1,60
402,138,168710,5,0,0:0:0:0:
402,138,168782,1,0,0:0:0:0:
402,138,168854,2,0,P|402:168|391:209,1,60
286,331,168998,1,0,0:0:0:0:
286,331,169070,1,0,0:0:0:0:
286,331,169142,2,0,P|319:310|336:292,1,60
373,185,169286,5,0,0:0:0:0:
362,157,169358,1,0,0:0:0:0:
343,134,169430,1,0,0:0:0:0:
317,118,169502,1,0,0:0:0:0:
288,112,169574,1,0,0:0:0:0:
258,117,169646,1,0,0:0:0:0:
232,130,169718,1,0,0:0:0:0:
211,152,169790,1,0,0:0:0:0:
202,183,169863,1,0,0:0:0:0:
186,208,169935,1,0,0:0:0:0:
163,227,170007,1,0,0:0:0:0:
135,238,170079,1,0,0:0:0:0:
105,238,170151,1,0,0:0:0:0:
77,229,170223,1,0,0:0:0:0:
53,211,170295,1,0,0:0:0:0:
37,186,170367,1,0,0:0:0:0:
32,157,170440,5,0,0:0:0:0:
56,139,170512,1,0,0:0:0:0:
83,126,170584,1,0,0:0:0:0:
111,117,170656,1,0,0:0:0:0:
141,115,170728,1,0,0:0:0:0:
171,119,170800,1,0,0:0:0:0:
198,130,170872,1,0,0:0:0:0:
224,146,170944,1,0,0:0:0:0:
248,163,171016,1,0,0:0:0:0:
274,180,171089,1,0,0:0:0:0:
301,192,171161,1,0,0:0:0:0:
330,199,171233,1,0,0:0:0:0:
360,200,171305,1,0,0:0:0:0:
389,195,171377,1,0,0:0:0:0:
418,182,171450,2,0,P|436:161|443:130,1,60
297,28,171594,5,0,0:0:0:0:
254,15,171666,1,0,0:0:0:0:
210,24,171738,1,0,0:0:0:0:
177,55,171810,1,0,0:0:0:0:
163,97,171882,1,0,0:0:0:0:
173,141,171954,1,0,0:0:0:0:
202,174,172026,1,0,0:0:0:0:
244,187,172098,1,0,0:0:0:0:
289,186,172171,1,0,0:0:0:0:
328,206,172243,1,0,0:0:0:0:
354,242,172315,1,0,0:0:0:0:
361,285,172387,1,0,0:0:0:0:
346,328,172459,1,0,0:0:0:0:
314,358,172531,1,0,0:0:0:0:
273,365,172604,2,0,P|241:364|199:343,1,60
192,81,172748,5,0,0:0:0:0:
245,55,172820,1,0,0:0:0:0:
305,51,172892,1,0,0:0:0:0:
362,69,172964,1,0,0:0:0:0:
408,107,173036,1,0,0:0:0:0:
437,159,173108,1,0,0:0:0:0:
446,218,173180,1,0,0:0:0:0:
432,276,173252,1,0,0:0:0:0:
398,325,173324,1,0,0:0:0:0:
348,358,173397,1,0,0:0:0:0:
290,370,173469,1,0,0:0:0:0:
231,361,173541,1,0,0:0:0:0:
180,330,173613,1,0,0:0:0:0:
143,283,173685,1,0,0:0:0:0:
130,227,173758,2,0,P|129:192|137:152,1,60
256,26,173902,5,0,0:0:0:0:
262,83,173974,1,0,0:0:0:0:
262,139,174046,2,0,P|259:176|252:205,1,60
107,323,174190,5,0,0:0:0:0:
59,296,174262,1,0,0:0:0:0:
40,244,174335,2,0,P|36:207|37:170,1,60
182,61,174479,5,0,0:0:0:0:
235,48,174551,1,0,0:0:0:0:
290,50,174623,2,0,P|324:55|352:68,1,60
456,249,174767,5,0,0:0:0:0:
402,259,174839,1,0,0:0:0:0:
347,254,174911,2,0,P|310:244|286:230,1,60
174,93,175056,5,0,0:0:0:0:
365,142,175200,1,0,0:0:0:0:
338,148,175272,1,0,0:0:0:0:
311,154,175344,2,0,L|245:171,1,60
30,173,175488,2,0,L|109:158,1,60
226,43,175633,6,0,L|221:103,1,60
259,257,175777,2,0,L|265:331,1,60
226,43,175921,2,0,L|155:55,1,60
259,257,176065,2,0,L|326:263,1,60
428,65,176210,6,0,P|386:113|386:166,1,120
173,73,176498,2,0,L|55:89,1,120
357,281,176786,2,0,P|398:231|387:167,2,120
136,221,177219,6,0,L|207:227,1,60
425,252,177363,1,0,0:0:0:0:
108,114,177508,2,0,L|170:119,1,60
473,144,177652,1,0,0:0:0:0:
340,368,177796,2,0,L|346:305,1,60
370,70,177940,1,0,0:0:0:0:
282,70,178084,1,0,0:0:0:0:
194,70,178229,1,0,0:0:0:0:
105,70,178373,1,0,0:0:0:0:
16,70,178517,6,0,L|3:195,1,120
236,351,178806,2,0,L|220:220,1,120
91,39,179094,2,0,L|88:105,1,60
78,307,179238,2,0,P|164:301|103:208,2,240
101,89,179960,6,0,P|114:122|118:151,1,60
12,337,180104,1,0,0:0:0:0:
27,301,180176,1,0,0:0:0:0:
61,275,180248,1,0,0:0:0:0:
104,267,180320,1,0,0:0:0:0:
147,276,180392,2,0,L|158:243,1,30
181,299,180464,2,0,L|194:263,1,30
226,309,180537,1,0,0:0:0:0:
228,299,180609,1,0,0:0:0:0:
230,289,180681,1,0,0:0:0:0:
232,279,180753,1,0,0:0:0:0:
234,269,180825,6,0,P|296:246|356:266,1,120
123,334,181113,2,0,P|61:351|0:333,1,120
117,25,181402,1,0,0:0:0:0:
63,240,181546,2,0,P|50:175|68:123,1,120
267,48,181835,6,0,L|258:121,1,60
229,322,181979,1,0,0:0:0:0:
195,24,182123,2,0,L|200:98,1,60
218,311,182267,1,0,0:0:0:0:
434,183,182411,2,0,L|365:175,1,60
149,145,182556,1,0,0:0:0:0:
257,122,182700,1,0,0:0:0:0:
341,103,182844,1,0,0:0:0:0:
314,110,182916,1,0,0:0:0:0:
285,116,182988,1,0,0:0:0:0:
285,116,183277,6,0,P|249:203|384:176,1,270.000010299683
314,179,183565,2,0,L|303:281,1,90.0000034332277
224,142,183710,2,0,B|228:178|209:206|209:206|231:240|223:282|190:310,1,180.000006866455
144,247,183926,2,0,B|185:249|185:249|224:263|224:263|254:252|281:266|281:266|335:267,1,180.000006866455
390,298,184142,2,0,P|312:343|359:201,2,360.000013732911
376,78,184863,5,0,0:0:0:0:
322,73,184935,1,0,0:0:0:0:
276,83,185007,1,0,0:0:0:0:
240,107,185079,1,0,0:0:0:0:
205,124,185152,1,0,0:0:0:0:
171,119,185224,1,0,0:0:0:0:
151,97,185296,1,0,0:0:0:0:
151,76,185368,1,0,0:0:0:0:
157,66,185440,6,0,P|196:148|181:243,1,180
120,301,185729,1,0,0:0:0:0:
61,98,185873,2,0,B|153:89|153:89|235:121,1,180
311,154,186161,1,0,0:0:0:0:
168,296,186306,2,0,B|199:266|246:249|290:256|290:256|260:264|247:292,1,180
223,353,186594,1,0,0:0:0:0:
187,157,186738,2,0,P|225:92|257:160,1,180
224,137,187027,2,0,L|184:130,3,30
261,145,187171,2,0,L|332:159,1,60
447,200,187315,2,0,L|487:193,3,30
419,206,187459,2,0,L|348:220,1,60
260,261,187604,2,0,L|220:254,3,30
295,268,187748,5,0,0:0:0:0:
319,54,187892,2,0,P|318:132|390:58,2,240
319,54,188758,2,0,P|273:95|151:99,1,180
133,194,189046,2,0,P|191:213|255:316,1,180
350,281,189335,2,0,P|337:220|395:113,1,180
333,47,189623,2,0,L|310:21,2,30
304,70,189767,1,0,0:0:0:0:
266,81,189839,1,0,0:0:0:0:
226,79,189911,1,0,0:0:0:0:
190,63,189984,1,0,0:0:0:0:
165,33,190056,5,0,0:0:0:0:
92,227,190200,1,0,0:0:0:0:
294,164,190344,1,0,0:0:0:0:
257,149,190416,1,0,0:0:0:0:
217,145,190488,1,0,0:0:0:0:
179,156,190561,1,0,0:0:0:0:
150,185,190633,1,0,0:0:0:0:
350,281,190777,1,0,0:0:0:0:
230,88,190921,1,0,0:0:0:0:
224,126,190993,1,0,0:0:0:0:
218,164,191065,1,0,0:0:0:0:
212,202,191137,1,0,0:0:0:0:
206,240,191210,6,0,P|267:264|341:245,1,120
144,72,191498,2,0,P|84:57|21:75,1,120
318,177,191786,2,0,L|333:52,1,120
135,218,192075,2,0,L|148:350,1,120
294,104,192363,5,0,0:0:0:0:
294,104,192436,1,0,0:0:0:0:
294,104,192508,2,0,P|300:71|297:38,1,60
229,281,192652,1,0,0:0:0:0:
229,281,192724,1,0,0:0:0:0:
229,281,192796,2,0,P|232:321|244:351,1,60
148,153,192940,1,0,0:0:0:0:
148,153,193012,1,0,0:0:0:0:
148,153,193085,2,0,L|79:152,1,60
362,217,193229,1,0,0:0:0:0:
362,217,193301,1,0,0:0:0:0:
362,217,193373,2,0,L|438:214,1,60
166,223,193517,5,0,0:0:0:0:
138,257,193589,1,0,0:0:0:0:
133,301,193661,1,0,0:0:0:0:
154,341,193733,1,0,0:0:0:0:
192,362,193805,1,0,0:0:0:0:
237,360,193877,1,0,0:0:0:0:
272,333,193949,1,0,0:0:0:0:
287,292,194021,1,0,0:0:0:0:
280,248,194094,1,0,0:0:0:0:
281,203,194166,1,0,0:0:0:0:
305,166,194238,1,0,0:0:0:0:
345,147,194310,1,0,0:0:0:0:
389,152,194382,1,0,0:0:0:0:
424,180,194454,1,0,0:0:0:0:
439,222,194526,1,0,0:0:0:0:
430,265,194598,1,0,0:0:0:0:
402,298,194671,5,0,0:0:0:0:
191,320,194815,1,0,0:0:0:0:
169,109,194960,1,0,0:0:0:0:
380,87,195104,1,0,0:0:0:0:
426,327,195248,5,0,0:0:0:0:
309,35,195392,1,0,0:0:0:0:
97,226,195536,1,0,0:0:0:0:
446,148,195681,1,0,0:0:0:0:
190,128,195825,5,0,0:0:0:0:
191,128,195897,1,0,0:0:0:0:
191,128,195969,2,0,P|186:156|191:196,1,60
363,301,196113,2,0,P|360:265|349:237,1,60
288,68,196258,1,0,0:0:0:0:
288,68,196330,1,0,0:0:0:0:
288,68,196402,2,0,P|279:109|278:138,1,60
455,249,196546,2,0,P|452:213|441:185,1,60
391,30,196690,1,0,0:0:0:0:
389,82,196762,1,0,0:0:0:0:
387,134,196835,1,0,0:0:0:0:
385,186,196907,1,0,0:0:0:0:
383,238,196979,1,0,0:0:0:0:
256,192,197051,12,0,201450,0:0:0:0:
381,272,201594,5,0,0:0:0:0:
317,327,201738,1,0,0:0:0:0:
234,339,201883,1,0,0:0:0:0:
158,304,202027,1,0,0:0:0:0:
112,233,202171,1,0,0:0:0:0:
112,149,202315,1,0,0:0:0:0:
158,79,202460,1,0,0:0:0:0:
234,44,202604,1,0,0:0:0:0:
316,48,202748,6,0,P|363:59|401:92,1,90.0000034332277
380,280,203036,2,0,P|332:265|303:232,1,90.0000034332277
187,93,203325,2,0,P|230:82|276:93,1,90.0000034332277
219,271,203613,2,0,P|171:284|126:270,1,90.0000034332277
66,136,203902,5,0,0:0:0:0:
48,248,204046,1,0,0:0:0:0:
160,266,204190,1,0,0:0:0:0:
178,154,204335,1,0,0:0:0:0:
73,109,204479,5,0,0:0:0:0:
199,163,204623,1,0,0:0:0:0:
145,290,204767,1,0,0:0:0:0:
19,236,204912,1,0,0:0:0:0:
132,80,205056,6,0,P|141:131|129:185,1,90.0000034332277
211,328,205344,2,0,P|203:277|214:234,1,90.0000034332277
303,57,205633,2,0,P|312:108|300:162,1,90.0000034332277
391,352,205921,2,0,P|383:301|394:258,1,90.0000034332277
444,95,206210,5,0,0:0:0:0:
68,289,206786,1,0,0:0:0:0:
467,201,207363,5,0,0:0:0:0:
44,182,207939,1,0,0:0:0:0:
434,306,208517,5,0,0:0:0:0:
77,77,209093,1,0,0:0:0:0:
353,380,209671,5,0,0:0:0:0:
159,4,210247,1,0,0:0:0:0:
159,4,210536,2,0,P|173:63|160:129,1,120.000004577637
100,199,210825,5,0,0:0:0:0:
332,173,211113,1,0,0:0:0:0:
160,276,211402,5,0,0:0:0:0:
301,82,211690,1,0,0:0:0:0:
277,313,211979,5,0,0:0:0:0:
211,52,212267,1,0,0:0:0:0:
380,281,212556,5,0,0:0:0:0:
115,75,212844,1,0,0:0:0:0:
84,269,213036,2,0,P|116:275|147:270,1,60.0000022888184
257,126,213325,2,0,P|225:120|194:125,1,60.0000022888184
343,304,213613,1,0,0:0:0:0:
394,210,213710,5,0,0:0:0:0:
350,123,213806,1,0,0:0:0:0:
298,207,213902,1,0,0:0:0:0:
384,201,213998,5,0,0:0:0:0:
340,114,214094,1,0,0:0:0:0:
288,198,214190,1,0,0:0:0:0:
228,291,214286,2,0,P|221:330|228:364,2,60.0000022888184
165,221,214575,2,0,P|141:266|138:290,2,60.0000022888184
147,130,214863,2,0,P|115:143|86:169,2,60.0000022888184
178,39,215152,2,0,P|133:37|101:50,2,60.0000022888184
303,41,215440,5,0,0:0:0:0:
359,59,215536,1,0,0:0:0:0:
404,98,215632,1,0,0:0:0:0:
429,152,215728,1,0,0:0:0:0:
430,212,215824,1,0,0:0:0:0:
408,267,215920,1,0,0:0:0:0:
365,309,216016,1,0,0:0:0:0:
309,330,216113,1,0,0:0:0:0:
250,327,216209,1,0,0:0:0:0:
197,300,216305,1,0,0:0:0:0:
158,254,216401,1,0,0:0:0:0:
141,197,216497,1,0,0:0:0:0:
148,140,216594,6,0,P|158:103|174:71,2,60.0000022888184
210,243,216883,2,0,P|211:282|220:316,2,60.0000022888184
271,138,217171,2,0,P|275:103|286:72,2,60.0000022888184
322,249,217460,2,0,P|326:290|338:323,2,60.0000022888184
400,142,217748,5,0,0:0:0:0:
374,89,217844,1,0,0:0:0:0:
320,65,217940,1,0,0:0:0:0:
264,82,218036,1,0,0:0:0:0:
233,132,218132,1,0,0:0:0:0:
242,190,218228,1,0,0:0:0:0:
286,229,218325,1,0,0:0:0:0:
309,282,218421,1,0,0:0:0:0:
291,337,218517,1,0,0:0:0:0:
239,365,218613,1,0,0:0:0:0:
182,351,218709,1,0,0:0:0:0:
151,302,218805,1,0,0:0:0:0:
165,246,218902,5,0,0:0:0:0:
188,219,218998,2,0,L|196:288,1,60.0000022888184
95,132,219190,1,0,0:0:0:0:
77,105,219286,2,0,L|83:40,1,60.0000022888184
306,32,219479,1,0,0:0:0:0:
338,45,219575,2,0,L|343:110,1,60.0000022888184
358,234,219767,1,0,0:0:0:0:
311,316,219863,1,0,0:0:0:0:
263,234,219960,1,0,0:0:0:0:
358,234,220056,5,0,0:0:0:0:
409,259,220152,1,0,0:0:0:0:
421,316,220248,1,0,0:0:0:0:
384,361,220344,1,0,0:0:0:0:
326,359,220440,1,0,0:0:0:0:
292,312,220536,1,0,0:0:0:0:
307,257,220633,1,0,0:0:0:0:
329,202,220729,1,0,0:0:0:0:
313,146,220825,1,0,0:0:0:0:
264,113,220921,1,0,0:0:0:0:
205,119,221017,1,0,0:0:0:0:
164,161,221113,1,0,0:0:0:0:
165,219,221210,6,0,P|166:257|155:294,2,60.0000022888184
223,142,221498,2,0,P|217:105|222:75,2,60.0000022888184
269,242,221786,2,0,P|279:274|280:317,2,60.0000022888184
319,134,222075,2,0,P|332:103|358:74,2,60.0000022888184
362,256,222363,6,0,P|336:289|312:303,1,60.0000022888184
160,320,222556,1,0,0:0:0:0:
113,285,222652,1,0,0:0:0:0:
108,227,222748,1,0,0:0:0:0:
149,185,222844,1,0,0:0:0:0:
207,190,222940,2,0,P|243:201|263:227,1,60.0000022888184
356,340,223133,2,0,P|390:357|424:355,1,60.0000022888184
404,191,223325,2,0,P|365:185|339:192,1,60.0000022888184
169,291,223516,5,0,0:0:0:0:
148,321,223613,2,0,L|78:330,1,60.0000022888184
224,142,223805,1,0,0:0:0:0:
241,115,223901,2,0,L|307:119,1,60.0000022888184
420,313,224093,1,0,0:0:0:0:
434,351,224189,2,0,L|363:326,1,60.0000022888184
434,147,224382,1,0,0:0:0:0:
451,108,224478,2,0,L|504:75,1,60.0000022888184
348,286,224671,5,0,0:0:0:0:
302,325,224767,1,0,0:0:0:0:
246,343,224863,1,0,0:0:0:0:
186,337,224959,1,0,0:0:0:0:
134,308,225055,1,0,0:0:0:0:
98,261,225151,1,0,0:0:0:0:
83,203,225247,1,0,0:0:0:0:
92,144,225344,1,0,0:0:0:0:
124,94,225440,1,0,0:0:0:0:
173,60,225536,1,0,0:0:0:0:
232,49,225632,1,0,0:0:0:0:
290,61,225728,1,0,0:0:0:0:
343,153,225825,5,0,0:0:0:0:
400,165,225921,1,0,0:0:0:0:
449,133,226017,1,0,0:0:0:0:
461,76,226113,1,0,0:0:0:0:
428,27,226209,1,0,0:0:0:0:
371,16,226305,1,0,0:0:0:0:
326,53,226402,1,0,0:0:0:0:
365,97,226498,1,0,0:0:0:0:
376,155,226594,1,0,0:0:0:0:
357,211,226690,1,0,0:0:0:0:
313,250,226786,1,0,0:0:0:0:
255,262,226882,1,0,0:0:0:0:
125,233,226979,6,0,L|62:225,2,60.0000022888184
283,200,227267,2,0,L|351:193,2,60.0000022888184
115,141,227556,2,0,L|52:127,2,60.0000022888184
290,98,227844,2,0,L|356:82,2,60.0000022888184
151,24,228133,5,0,0:0:0:0:
135,81,228229,1,0,0:0:0:0:
146,139,228325,1,0,0:0:0:0:
217,175,228421,1,0,0:0:0:0:
232,232,228517,1,0,0:0:0:0:
221,290,228613,1,0,0:0:0:0:
146,328,228710,1,0,0:0:0:0:
102,353,228806,2,0,L|110:279,1,60.0000022888184
130,152,228998,1,0,0:0:0:0:
204,89,229094,1,0,0:0:0:0:
221,184,229190,1,0,0:0:0:0:
130,152,229286,5,0,0:0:0:0:
126,93,229382,1,0,0:0:0:0:
159,44,229478,1,0,0:0:0:0:
216,28,229574,1,0,0:0:0:0:
270,50,229670,1,0,0:0:0:0:
298,102,229766,1,0,0:0:0:0:
285,159,229863,1,0,0:0:0:0:
283,218,229959,1,0,0:0:0:0:
315,267,230055,1,0,0:0:0:0:
370,289,230151,1,0,0:0:0:0:
428,275,230247,1,0,0:0:0:0:
467,232,230343,1,0,0:0:0:0:
475,125,230440,5,0,0:0:0:0:
417,109,230536,1,0,0:0:0:0:
358,116,230632,1,0,0:0:0:0:
302,137,230728,1,0,0:0:0:0:
243,132,230824,1,0,0:0:0:0:
188,108,230920,1,0,0:0:0:0:
150,64,231017,1,0,0:0:0:0:
101,32,231113,1,0,0:0:0:0:
45,47,231209,1,0,0:0:0:0:
19,99,231305,1,0,0:0:0:0:
41,153,231401,1,0,0:0:0:0:
96,172,231497,1,0,0:0:0:0:
236,147,231594,6,0,P|271:132|292:109,1,60.0000022888184
134,89,231786,1,0,0:0:0:0:
96,107,231883,2,0,L|85:168,1,60.0000022888184
65,260,232075,1,0,0:0:0:0:
146,324,232171,2,0,P|177:328|213:322,1,60.0000022888184
336,187,232363,1,0,0:0:0:0:
352,163,232460,2,0,P|320:157|290:162,1,60.0000022888184
368,303,232652,1,0,0:0:0:0:
446,258,232748,5,0,0:0:0:0:
438,198,232844,1,0,0:0:0:0:
431,138,232940,1,0,0:0:0:0:
339,106,233036,1,0,0:0:0:0:
345,165,233132,1,0,0:0:0:0:
352,225,233228,1,0,0:0:0:0:
258,188,233325,1,0,0:0:0:0:
251,128,233421,1,0,0:0:0:0:
245,68,233517,1,0,0:0:0:0:
177,17,233613,1,0,0:0:0:0:
117,9,233709,1,0,0:0:0:0:
60,24,233805,1,0,0:0:0:0:
27,117,233902,6,0,L|33:241,1,120
316,179,234190,2,0,P|260:158|183:172,1,120
421,326,234479,1,0,0:0:0:0:
378,120,234623,1,0,0:0:0:0:
260,318,234767,1,0,0:0:0:0:
474,195,234911,1,0,0:0:0:0:
304,33,235056,5,0,0:0:0:0:
273,65,235128,1,0,0:0:0:0:
261,108,235200,1,0,0:0:0:0:
268,152,235272,1,0,0:0:0:0:
294,188,235344,5,0,0:0:0:0:
316,224,235416,1,0,0:0:0:0:
300,265,235488,1,0,0:0:0:0:
258,276,235560,1,0,0:0:0:0:
221,256,235633,6,0,P|288:247|251:316,2,180
429,322,236210,5,0,0:0:0:0:
351,51,236354,1,0,0:0:0:0:
286,341,236498,2,0,L|314:213,1,120
414,83,236786,5,0,0:0:0:0:
238,295,236931,1,0,0:0:0:0:
270,18,237075,2,0,L|253:167,1,120
371,365,237363,6,0,L|357:241,1,120
183,175,237652,1,0,0:0:0:0:
505,89,237796,1,0,0:0:0:0:
505,89,238085,1,0,0:0:0:0:
466,322,238229,2,0,P|441:328|404:323,1,60
273,121,238373,2,0,P|309:115|340:129,1,60
173,323,238517,5,0,0:0:0:0:
157,53,238661,1,0,0:0:0:0:
278,285,238806,2,0,P|227:323|153:313,1,120
301,53,239094,5,0,0:0:0:0:
431,326,239238,1,0,0:0:0:0:
271,169,239383,2,0,L|302:46,1,120
352,299,239671,5,0,0:0:0:0:
412,88,239815,1,0,0:0:0:0:
354,323,239960,1,0,0:0:0:0:
312,32,240104,1,0,0:0:0:0:
236,253,240248,6,0,B|182:255|154:219|154:219|128:256|73:259,2,180
454,206,240825,5,0,0:0:0:0:
412,49,240969,1,0,0:0:0:0:
299,259,241113,1,0,0:0:0:0:
287,28,241258,1,0,0:0:0:0:
133,177,241402,6,0,P|101:91|150:14,1,180
202,104,241690,2,0,P|263:88|329:117,1,120
339,171,241907,1,0,0:0:0:0:
342,185,241979,6,0,L|355:57,1,120
150,189,242267,2,0,L|170:327,1,120
227,346,242484,1,0,0:0:0:0:
237,355,242556,2,0,L|238:288,1,60
242,104,242700,2,0,L|240:179,1,60
134,314,242844,1,0,0:0:0:0:
135,154,242988,1,0,0:0:0:0:
18,245,243133,5,0,0:0:0:0:
166,312,243277,1,0,0:0:0:0:
320,152,243421,1,0,0:0:0:0:
149,201,243565,1,0,0:0:0:0:
336,326,243710,1,0,0:0:0:0:
433,115,243854,1,0,0:0:0:0:
313,329,243998,1,0,0:0:0:0:
324,48,244142,1,0,0:0:0:0:
59,190,244286,5,0,0:0:0:0:
357,171,244431,1,0,0:0:0:0:
68,194,244575,1,0,0:0:0:0:
383,289,244719,1,0,0:0:0:0:
80,190,244863,1,0,0:0:0:0:
447,130,245008,1,0,0:0:0:0:
89,197,245152,1,0,0:0:0:0:
477,354,245296,1,0,0:0:0:0:
477,354,245368,1,0,0:0:0:0:
477,354,245440,5,0,0:0:0:0:
402,33,245585,1,0,0:0:0:0:
173,248,245729,1,0,0:0:0:0:
510,231,245873,1,0,0:0:0:0:
281,67,246017,1,0,0:0:0:0:
280,360,246161,1,0,0:0:0:0:
442,162,246306,1,0,0:0:0:0:
78,164,246450,1,0,0:0:0:0:
380,293,246594,5,0,0:0:0:0:
62,264,246738,1,0,0:0:0:0:
362,36,246883,1,0,0:0:0:0:
316,377,247027,1,0,0:0:0:0:
202,31,247171,2,0,B|237:27|237:27|266:32,1,60
261,31,247387,2,0,B|234:36|234:36|202:29,1,60
204,307,247604,1,0,0:0:0:0:
351,85,247748,6,0,P|380:177|311:172,1,180.000006866455
350,137,247964,2,0,L|377:322,1,180.000006866455
317,283,248181,2,0,L|302:177,1,90.0000034332277
274,45,248325,6,0,B|228:52|208:43|208:43|196:53|196:53|176:44|176:44|143:34|99:44,1,180.000006866455
61,78,248541,2,0,P|152:65|133:-5,1,180.000006866455
103,40,248758,2,0,L|88:134,1,90.0000034332277
54,315,248902,6,0,P|144:300|44:253,2,270.000010299683
345,76,249479,6,0,B|305:161|354:265|354:265|277:212,2,270.000010299683
131,16,250128,6,0,L|109:198,1,180.000006866455
170,313,250344,2,0,L|191:130,1,180.000006866455
272,80,250561,2,0,L|251:258,1,180.000006866455
312,377,250777,2,0,L|333:194,1,180.000006866455
413,142,250993,2,0,L|392:320,1,180.000006866455
476,363,251210,6,0,P|477:300|453:248,2,120.000004577637
391,320,251498,2,0,P|347:274|293:254,2,120.000004577637
198,316,251786,6,0,P|178:272|180:230,2,80
86,228,252075,2,0,P|102:182|134:154,2,80
263,132,252363,5,0,0:0:0:0:
296,117,252460,2,0,L|310:30,1,80
121,144,252652,1,0,0:0:0:0:
91,162,252748,2,0,L|72:255,1,80
221,355,252940,1,0,0:0:0:0:
254,375,253036,2,0,L|253:280,1,80
194,106,253229,1,0,0:0:0:0:
146,88,253325,1,0,0:0:0:0:
95,98,253421,1,0,0:0:0:0:
30,174,253517,5,0,0:0:0:0:
30,174,253806,2,0,P|21:219|26:265,1,90.0000034332277
201,241,254094,2,0,P|210:196|205:150,2,90.0000034332277
201,241,254527,1,0,0:0:0:0:
201,241,254815,1,0,0:0:0:0:
201,241,255104,1,0,0:0:0:0:
342,102,255248,2,0,L|354:200,1,90.0000034332277
228,292,255536,2,0,L|239:186,1,90.0000034332277
357,344,255825,5,0,0:0:0:0:
357,344,256113,1,0,0:0:0:0:
296,236,256258,1,0,0:0:0:0:
466,287,256402,2,0,P|480:341|475:382,1,90.0000034332277
476,374,256835,1,0,0:0:0:0:
476,374,257123,1,0,0:0:0:0:
476,374,257411,2,0,P|454:370|426:345,1,45.0000017166138
445,218,257555,2,0,P|468:229|485:250,1,45.0000017166138
356,324,257700,1,0,0:0:0:0:
323,349,257772,1,0,0:0:0:0:
285,357,257844,1,0,0:0:0:0:
253,349,257916,1,0,0:0:0:0:
232,333,257988,1,0,0:0:0:0:
226,317,258061,1,0,0:0:0:0:
227,304,258133,6,0,P|241:262|277:231,1,90.0000034332277
201,79,258421,2,0,P|209:127|198:177,1,90.0000034332277
190,187,258637,1,0,0:0:0:0:
175,201,258710,1,0,0:0:0:0:
108,121,258854,1,0,0:0:0:0:
65,271,258998,1,0,0:0:0:0:
98,110,259142,1,0,0:0:0:0:
76,279,259286,2,0,P|122:292|175:292,1,90.0000034332277
73,293,259575,2,0,P|119:306|172:306,1,90.0000034332277
288,292,259863,1,0,0:0:0:0:
297,217,260008,1,0,0:0:0:0:
306,142,260152,1,0,0:0:0:0:
315,67,260296,1,0,0:0:0:0:
315,67,260585,5,0,0:0:0:0:
315,67,260873,1,0,0:0:0:0:
109,66,261017,2,0,L|247:92,2,135.000005149841
109,66,261738,1,0,0:0:0:0:
109,66,262027,1,0,0:0:0:0:
105,78,262099,1,0,0:0:0:0:
108,103,262171,1,0,0:0:0:0:
126,121,262243,1,0,0:0:0:0:
161,130,262315,1,0,0:0:0:0:
201,153,262387,1,0,0:0:0:0:
216,197,262460,1,0,0:0:0:0:
210,234,262532,1,0,0:0:0:0:
183,250,262604,1,0,0:0:0:0:
151,248,262676,1,0,0:0:0:0:
134,236,262748,6,0,B|138:194|116:148|116:148|141:107|147:48,2,180.000006866455
364,246,263613,1,0,0:0:0:0:
330,52,263902,6,0,B|233:22|256:82|148:44,2,180.000006866455
134,159,264767,1,0,0:0:0:0:
339,159,265056,6,0,B|354:176|362:203|362:203|372:127|344:51,2,180.000006866455
68,218,265921,1,0,0:0:0:0:
318,104,266210,6,0,P|389:135|336:193,2,180.000006866455
239,328,267075,1,0,0:0:0:0:
219,39,267363,6,0,L|201:135,1,90.0000034332277
177,265,267652,1,0,0:0:0:0:
175,275,267796,1,0,0:0:0:0:
304,45,267940,6,0,L|304:142,1,90.0000034332277
305,274,268229,1,0,0:0:0:0:
305,285,268373,1,0,0:0:0:0:
413,89,268517,6,0,P|364:82|311:98,1,90.0000034332277
372,299,268806,2,0,P|423:311|468:301,1,90.0000034332277
206,144,269094,2,0,P|160:139|114:154,1,90.0000034332277
162,344,269383,2,0,P|208:355|255:349,1,90.0000034332277
71,107,269671,5,0,0:0:0:0:
49,194,269815,1,0,0:0:0:0:
136,216,269960,1,0,0:0:0:0:
158,128,270104,1,0,0:0:0:0:
76,87,270248,5,0,0:0:0:0:
177,133,270392,1,0,0:0:0:0:
130,235,270537,1,0,0:0:0:0:
29,188,270681,1,0,0:0:0:0:
83,66,270825,5,0,0:0:0:0:
262,57,270969,1,0,0:0:0:0:
319,251,271113,5,0,0:0:0:0:
135,211,271258,1,0,0:0:0:0:
341,71,271402,5,0,0:0:0:0:
362,302,271546,1,0,0:0:0:0:
202,53,271690,5,0,0:0:0:0:
225,335,271835,1,0,0:0:0:0:
256,192,271979,12,0,274142,0:0:0:0:
272,45,274286,6,0,P|227:109|264:198,1,180
305,220,274575,2,0,L|242:227,1,60
62,251,274719,6,0,P|2:205|72:178,1,180
44,211,275008,2,0,L|59:147,1,60
86,25,275152,6,0,B|147:46|204:15|204:15|256:42|322:16|322:16|350:22|350:54|324:65,2,300
19,75,275945,1,0,0:0:0:0:
19,75,276017,1,0,0:0:0:0:
91,282,276161,1,0,0:0:0:0:
184,57,276306,1,0,0:0:0:0:
102,312,276450,1,0,0:0:0:0:
102,312,276522,1,0,0:0:0:0:
101,312,276594,5,0,0:0:0:0:
378,252,276738,2,0,P|441:194|376:167,1,180
347,188,277027,2,0,P|306:117|267:177,1,180
285,218,277315,2,0,L|204:214,1,60
39,208,277460,2,0,B|32:161|76:113|125:114|125:114|162:134|203:115|203:115|239:135|276:117,1,300
312,70,277892,2,0,B|301:162|301:162|334:256,1,180
374,313,278181,6,0,P|396:288|409:260,1,60
312,70,278325,2,0,P|301:100|302:135,1,60
441,171,278469,1,0,0:0:0:0:
476,132,278541,1,0,0:0:0:0:
479,85,278613,1,0,0:0:0:0:
456,51,278686,1,0,0:0:0:0:
420,40,278758,1,0,0:0:0:0:
395,52,278830,1,0,0:0:0:0:
389,77,278902,6,0,L|389:96,12,15
389,173,279190,2,0,P|330:188|266:173,1,120
119,26,279479,2,0,P|129:82|114:146,2,120
35,229,279911,6,0,L|99:234,1,60
345,249,280056,1,0,0:0:0:0:
270,27,280200,2,0,L|251:98,1,60
188,327,280344,1,0,0:0:0:0:
119,26,280488,6,0,L|134:91,1,60
416,46,280633,2,0,L|399:110,1,60
145,169,280777,2,0,P|151:200|147:227,1,60
389,183,280921,1,0,0:0:0:0:
385,217,280993,1,0,0:0:0:0:
392,249,281065,1,0,0:0:0:0:
392,249,281354,6,0,P|270:210|342:150,1,270.000010299683
336,215,281642,2,0,L|319:114,1,90.0000034332277
247,239,281786,2,0,B|259:218|243:193|243:193|238:157|238:157|216:133|215:97|233:69,1,180.000006866455
293,110,282003,2,0,L|114:122,1,180.000006866455
162,181,282219,2,0,P|37:136|174:75,2,360.000013732911
343,58,282940,5,0,0:0:0:0:
307,96,283012,1,0,0:0:0:0:
309,143,283085,1,0,0:0:0:0:
336,176,283157,1,0,0:0:0:0:
347,212,283229,1,0,0:0:0:0:
343,242,283301,1,0,0:0:0:0:
327,261,283373,1,0,0:0:0:0:
310,268,283445,1,0,0:0:0:0:
295,271,283517,6,0,B|261:191|282:142|282:142|281:175|291:198,1,180
379,251,283806,1,0,0:0:0:0:
446,159,283950,2,0,B|480:79|459:30|459:30|462:58|450:86,1,180
367,135,284238,1,0,0:0:0:0:
266,62,284383,2,0,P|241:142|284:226,1,180
371,258,284671,1,0,0:0:0:0:
87,353,284815,2,0,P|140:294|242:264,1,180
310,267,285104,6,0,L|304:230,2,30
292,170,285248,2,0,L|280:103,1,60
235,31,285392,2,0,L|229:68,2,30
217,128,285536,2,0,L|205:195,1,60
157,269,285681,2,0,L|151:232,2,30
139,172,285825,6,0,L|127:105,1,60
101,64,285969,2,0,P|180:95|84:153,2,240
101,64,286835,6,0,P|186:37|277:89,1,180
133,276,287123,2,0,P|67:215|66:111,1,180
297,140,287411,2,0,P|277:227|187:279,1,180
177,156,287700,5,0,0:0:0:0:
194,145,287772,1,0,0:0:0:0:
223,141,287844,1,0,0:0:0:0:
257,149,287916,1,0,0:0:0:0:
293,168,287988,1,0,0:0:0:0:
341,171,288061,1,0,0:0:0:0:
392,148,288133,5,0,0:0:0:0:
223,30,288277,1,0,0:0:0:0:
232,262,288421,1,0,0:0:0:0:
269,281,288493,1,0,0:0:0:0:
310,288,288565,1,0,0:0:0:0:
351,283,288637,1,0,0:0:0:0:
389,265,288709,1,0,0:0:0:0:
254,93,288854,1,0,0:0:0:0:
75,160,288998,1,0,0:0:0:0:
77,201,289070,1,0,0:0:0:0:
79,243,289142,1,0,0:0:0:0:
81,285,289214,1,0,0:0:0:0:
83,327,289286,5,0,0:0:0:0:
341,346,289431,1,0,0:0:0:0:
406,142,289575,5,0,0:0:0:0:
193,180,289719,1,0,0:0:0:0:
403,278,289863,5,0,0:0:0:0:
418,94,290008,1,0,0:0:0:0:
325,254,290152,5,0,0:0:0:0:
335,103,290296,1,0,0:0:0:0:
248,227,290440,5,0,0:0:0:0:
255,75,290585,1,0,0:0:0:0:
81,249,290729,1,0,0:0:0:0:
299,292,290873,1,0,0:0:0:0:
379,68,291017,5,0,0:0:0:0:
132,110,291161,1,0,0:0:0:0:
396,62,291306,1,0,0:0:0:0:
105,34,291450,1,0,0:0:0:0:
105,34,291522,1,0,0:0:0:0:
105,34,291594,5,0,0:0:0:0:
227,286,291738,1,0,0:0:0:0:
259,33,291883,1,0,0:0:0:0:
100,320,292027,1,0,0:0:0:0:
383,321,292171,5,0,0:0:0:0:
424,281,292243,1,0,0:0:0:0:
411,225,292315,1,0,0:0:0:0:
357,207,292387,1,0,0:0:0:0:
314,245,292459,1,0,0:0:0:0:
350,22,292604,1,0,0:0:0:0:
350,22,292892,6,0,L|323:202,1,180.000006866455
397,249,293109,2,0,L|424:65,1,180.000006866455
255,135,293325,2,0,L|404:254,1,180.000006866455
423,70,293541,2,0,L|237:143,1,180.000006866455
147,258,293758,2,0,L|338:194,1,180.000006866455
429,167,293974,5,0,0:0:0:0:
430,225,294046,2,0,L|431:323,1,90.0000034332277
428,14,294190,2,0,L|428:125,1,90.0000034332277
318,151,294335,5,0,0:0:0:0:
318,209,294407,1,0,0:0:0:0:
318,268,294479,2,0,L|319:361,1,90.0000034332277
316,2,294623,2,0,L|316:103,1,90.0000034332277
203,134,294767,5,0,0:0:0:0:
204,191,294839,1,0,0:0:0:0:
205,248,294911,1,0,0:0:0:0:
206,305,294984,1,0,0:0:0:0:
207,362,295056,1,0,0:0:0:0:
135,141,295633,5,0,0:0:0:0:
135,141,295705,1,0,0:0:0:0:
135,141,295777,1,0,0:0:0:0:
135,141,295849,1,0,0:0:0:0:
135,141,295921,1,0,0:0:0:0:
135,141,295993,1,0,0:0:0:0:
135,141,296065,1,0,0:0:0:0:
135,141,296137,1,0,0:0:0:0:
135,141,296210,5,0,0:0:0:0:
148,147,296282,1,0,0:0:0:0:
162,151,296354,1,0,0:0:0:0:
177,154,296426,1,0,0:0:0:0:
192,155,296498,1,0,0:0:0:0:
207,154,296570,1,0,0:0:0:0:
222,151,296642,1,0,0:0:0:0:
236,147,296714,1,0,0:0:0:0:
250,140,296786,5,0,0:0:0:0:
279,133,296858,1,0,0:0:0:0:
307,140,296930,1,0,0:0:0:0:
330,160,297002,1,0,0:0:0:0:
341,188,297074,1,0,0:0:0:0:
338,217,297146,1,0,0:0:0:0:
323,242,297218,1,0,0:0:0:0:
297,258,297290,1,0,0:0:0:0:
268,265,297363,5,0,0:0:0:0:
250,223,297435,1,0,0:0:0:0:
247,178,297507,1,0,0:0:0:0:
258,135,297579,1,0,0:0:0:0:
283,98,297651,1,0,0:0:0:0:
318,70,297723,1,0,0:0:0:0:
360,55,297795,1,0,0:0:0:0:
405,54,297867,1,0,0:0:0:0:
450,65,297940,5,0,0:0:0:0:
457,123,298012,1,0,0:0:0:0:
435,178,298084,1,0,0:0:0:0:
389,215,298156,1,0,0:0:0:0:
331,222,298229,1,0,0:0:0:0:
281,251,298301,1,0,0:0:0:0:
269,308,298373,1,0,0:0:0:0:
304,355,298445,1,0,0:0:0:0:
362,363,298517,5,0,0:0:0:0:
372,289,298589,1,0,0:0:0:0:
347,219,298661,1,0,0:0:0:0:
293,168,298733,1,0,0:0:0:0:
221,149,298805,1,0,0:0:0:0:
148,165,298877,1,0,0:0:0:0:
92,213,298949,1,0,0:0:0:0:
63,281,299021,1,0,0:0:0:0:
64,355,299094,6,0,L|163:334,1,90.0000034332277
277,147,299238,2,0,L|183:126,1,90.0000034332277
388,345,299383,1,0,0:0:0:0:
394,270,299455,1,0,0:0:0:0:
400,195,299527,1,0,0:0:0:0:
406,120,299599,1,0,0:0:0:0:
412,45,299671,1,0,0:0:0:0:
256,192,299743,12,0,304286,0:0:0:0:
