osu file format v14

[General]
AudioFilename: audio.mp3
AudioLeadIn: 0
PreviewTime: 20923
Countdown: 0
SampleSet: Normal
StackLeniency: 0.7
Mode: 1
LetterboxInBreaks: 0
WidescreenStoryboard: 1

[Editor]
DistanceSpacing: 1.3
BeatDivisor: 4
GridSize: 32
TimelineZoom: 2.999999

[Metadata]
Title:05 Dawn of a Dark Day (Prolix Remix)
TitleUnicode:05 Dawn of a Dark Day (Prolix Remix)
Artist:Black Sun Empire
ArtistUnicode:Black Sun Empire
Creator:Soner Wolf
Version:Inner Oni
Source:
Tags:
BeatmapID:1004547
BeatmapSetID:469774

[Difficulty]
HPDrainRate:5
CircleSize:5
OverallDifficulty:6
ApproachRate:5
SliderMultiplier:1.6
SliderTickRate:1

[Events]
//Background and Video events
0,0,"541138-albums-black-black-sun-empire-dark-fortress-shadows-trees.jpg",0,0
//Break Periods
//Storyboard Layer 0 (Background)
//Storyboard Layer 1 (Fail)
//Storyboard Layer 2 (Pass)
//Storyboard Layer 3 (Foreground)
//Storyboard Sound Samples

[TimingPoints]
1388,348.837209302326,4,1,0,100,1,0
20922,-100,4,1,0,100,0,1
23713,348.837209302326,4,1,0,100,1,0

[HitObjects]
160,160,20922,5,2,0:0:0:0:
160,160,21010,1,2,0:0:0:0:
160,160,21097,1,0,0:0:0:0:
160,160,21184,1,0,0:0:0:0:
160,160,21271,1,0,0:0:0:0:
160,160,21358,1,0,0:0:0:0:
160,160,21446,1,2,0:0:0:0:
160,160,21533,1,0,0:0:0:0:
160,160,21620,1,2,0:0:0:0:
160,160,21707,1,2,0:0:0:0:
160,160,21794,1,0,0:0:0:0:
160,160,21882,1,0,0:0:0:0:
160,160,21969,1,0,0:0:0:0:
160,160,22056,1,0,0:0:0:0:
160,160,22143,1,2,0:0:0:0:
160,160,22231,1,2,0:0:0:0:
160,160,22318,1,0,0:0:0:0:
160,160,22405,1,2,0:0:0:0:
160,160,22492,1,2,0:0:0:0:
160,160,22579,1,2,0:0:0:0:
160,160,22667,1,0,0:0:0:0:
160,160,22754,1,0,0:0:0:0:
160,160,22841,1,2,0:0:0:0:
160,160,22928,1,2,0:0:0:0:
160,160,23015,1,2,0:0:0:0:
160,160,23103,1,2,0:0:0:0:
160,160,23190,1,2,0:0:0:0:
160,160,23277,1,2,0:0:0:0:
160,160,23364,1,0,0:0:0:0:
160,160,23422,1,0,0:0:0:0:
160,160,23481,1,0,0:0:0:0:
160,160,23539,1,0,0:0:0:0:
160,160,23597,1,0,0:0:0:0:
160,160,23655,1,0,0:0:0:0:
160,160,23713,1,2,0:0:0:0:
256,160,24236,1,0,0:0:0:0:
256,160,24410,1,6,0:0:0:0:
256,160,24585,1,0,0:0:0:0:
256,160,24672,1,2,0:0:0:0:
256,160,24846,1,0,0:0:0:0:
256,160,25021,1,2,0:0:0:0:
256,160,25108,1,0,0:0:0:0:
256,160,25282,1,2,0:0:0:0:
256,160,25457,1,0,0:0:0:0:
256,160,25631,1,0,0:0:0:0:
256,160,25718,1,0,0:0:0:0:
256,160,25806,1,6,0:0:0:0:
256,160,25980,1,0,0:0:0:0:
256,160,26067,1,2,0:0:0:0:
224,96,26154,1,0,0:0:0:0:
160,160,26329,1,0,0:0:0:0:
160,160,26503,1,0,0:0:0:0:
224,160,26590,1,2,0:0:0:0:
224,160,26678,1,2,0:0:0:0:
224,160,26765,1,0,0:0:0:0:
224,160,26852,1,0,0:0:0:0:
160,160,26939,1,2,0:0:0:0:
96,128,27026,1,0,0:0:0:0:
160,128,27114,1,0,0:0:0:0:
224,128,27201,1,4,0:0:0:0:
224,128,27375,1,2,0:0:0:0:
224,128,27550,1,2,0:0:0:0:
224,128,27637,1,0,0:0:0:0:
224,128,27724,1,2,0:0:0:0:
96,128,27899,1,0,0:0:0:0:
224,128,28073,1,2,0:0:0:0:
224,128,28160,1,0,0:0:0:0:
224,128,28247,1,2,0:0:0:0:
224,128,28335,1,2,0:0:0:0:
224,128,28422,1,0,0:0:0:0:
224,128,28509,1,0,0:0:0:0:
224,128,28596,1,6,0:0:0:0:
128,128,28771,1,0,0:0:0:0:
160,128,28829,1,0,0:0:0:0:
160,128,28887,1,0,0:0:0:0:
160,128,28945,1,2,0:0:0:0:
256,128,29119,1,2,0:0:0:0:
224,128,29178,1,2,0:0:0:0:
192,128,29236,1,2,0:0:0:0:
256,128,29294,1,0,0:0:0:0:
160,96,29468,1,0,0:0:0:0:
192,160,29556,1,2,0:0:0:0:
160,96,29643,1,0,0:0:0:0:
96,64,29730,1,2,0:0:0:0:
128,96,29817,1,2,0:0:0:0:
128,160,29904,1,0,0:0:0:0:
128,160,29992,1,6,0:0:0:0:
224,96,30166,1,0,0:0:0:0:
224,192,30253,1,2,0:0:0:0:
224,192,30340,1,0,0:0:0:0:
128,160,30515,1,0,0:0:0:0:
192,192,30689,1,0,0:0:0:0:
192,192,30864,1,2,0:0:0:0:
192,192,30951,1,0,0:0:0:0:
192,192,31038,1,2,0:0:0:0:
224,128,31154,1,2,0:0:0:0:
224,128,31271,1,0,0:0:0:0:
224,128,31387,1,6,0:0:0:0:
224,32,31561,1,0,0:0:0:0:
224,128,31736,1,2,0:0:0:0:
256,64,31910,1,2,0:0:0:0:
288,288,32259,1,6,0:0:0:0:
128,128,32608,1,6,0:0:0:0:
224,160,32782,1,0,0:0:0:0:
224,160,32840,1,0,0:0:0:0:
224,160,32899,1,0,0:0:0:0:
224,160,32957,1,2,0:0:0:0:
224,96,33131,1,0,0:0:0:0:
256,128,33306,1,0,0:0:0:0:
32,128,33654,1,6,0:0:0:0:
256,160,34003,1,6,0:0:0:0:
192,224,34178,1,2,0:0:0:0:
224,192,34265,1,0,0:0:0:0:
224,192,34352,1,2,0:0:0:0:
224,192,34439,1,0,0:0:0:0:
160,160,34526,1,2,0:0:0:0:
96,160,34614,1,2,0:0:0:0:
160,160,34701,1,2,0:0:0:0:
96,160,34788,1,2,0:0:0:0:
160,160,34875,1,0,0:0:0:0:
224,96,35050,1,0,0:0:0:0:
128,128,35224,1,0,0:0:0:0:
192,96,35340,1,0,0:0:0:0:
128,128,35457,1,0,0:0:0:0:
192,96,35573,1,6,0:0:0:0:
256,160,35747,1,0,0:0:0:0:
192,96,35922,1,6,0:0:0:0:
256,160,36096,1,0,0:0:0:0:
224,128,36154,1,0,0:0:0:0:
192,96,36213,1,0,0:0:0:0:
192,96,36271,1,2,0:0:0:0:
64,160,36445,1,0,0:0:0:0:
96,128,36532,1,0,0:0:0:0:
160,160,36619,1,2,0:0:0:0:
288,96,36881,1,0,0:0:0:0:
224,160,36968,1,2,0:0:0:0:
160,64,37317,1,2,0:0:0:0:
256,128,37492,1,0,0:0:0:0:
160,128,37666,1,0,0:0:0:0:
192,160,37753,1,2,0:0:0:0:
160,128,37840,1,0,0:0:0:0:
192,160,37928,1,0,0:0:0:0:
160,128,38015,1,2,0:0:0:0:
0,64,38276,1,2,0:0:0:0:
64,96,38364,1,0,0:0:0:0:
224,96,38538,1,0,0:0:0:0:
192,96,38625,1,0,0:0:0:0:
224,96,38713,1,2,0:0:0:0:
160,192,38887,1,0,0:0:0:0:
224,96,38945,1,0,0:0:0:0:
224,128,39003,1,0,0:0:0:0:
224,128,39061,1,2,0:0:0:0:
128,96,39236,1,2,0:0:0:0:
160,128,39323,1,0,0:0:0:0:
32,160,39410,1,2,0:0:0:0:
160,128,39497,1,2,0:0:0:0:
128,128,39585,1,0,0:0:0:0:
192,96,39759,1,6,0:0:0:0:
192,96,39933,1,2,0:0:0:0:
192,96,40021,1,2,0:0:0:0:
192,96,40108,1,0,0:0:0:0:
192,96,40282,1,2,0:0:0:0:
192,96,40369,1,0,0:0:0:0:
224,128,40457,1,0,0:0:0:0:
128,64,40631,1,2,0:0:0:0:
160,96,40718,1,0,0:0:0:0:
160,160,40806,1,2,0:0:0:0:
192,128,40893,1,2,0:0:0:0:
128,160,40980,1,2,0:0:0:0:
160,128,41067,1,2,0:0:0:0:
160,128,41154,1,0,0:0:0:0:
256,192,41329,1,2,0:0:0:0:
160,128,41416,1,0,0:0:0:0:
224,160,41503,1,2,0:0:0:0:
224,160,41590,1,2,0:0:0:0:
224,160,41678,1,0,0:0:0:0:
160,96,41852,1,2,0:0:0:0:
160,128,41939,1,2,0:0:0:0:
160,128,42026,1,0,0:0:0:0:
64,192,42201,1,0,0:0:0:0:
160,128,42375,1,2,0:0:0:0:
96,160,42463,1,2,0:0:0:0:
128,128,42550,1,0,0:0:0:0:
192,128,42608,1,0,0:0:0:0:
160,96,42666,1,0,0:0:0:0:
192,128,42724,1,2,0:0:0:0:
128,192,42899,1,4,0:0:0:0:
128,160,43247,1,0,0:0:0:0:
192,160,43335,1,2,0:0:0:0:
256,160,43422,1,0,0:0:0:0:
192,192,43509,1,0,0:0:0:0:
224,160,43596,1,2,0:0:0:0:
224,160,43683,1,0,0:0:0:0:
224,160,43771,1,0,0:0:0:0:
224,160,43858,1,0,0:0:0:0:
224,160,43945,1,6,0:0:0:0:
224,96,44294,1,6,0:0:0:0:
256,192,44468,1,4,0:0:0:0:
64,96,44817,1,2,0:0:0:0:
128,128,44904,1,0,0:0:0:0:
128,128,44992,1,2,0:0:0:0:
128,128,45079,1,0,0:0:0:0:
128,128,45166,1,0,0:0:0:0:
128,128,45253,1,2,0:0:0:0:
128,128,45340,1,2,0:0:0:0:
128,128,45428,1,0,0:0:0:0:
128,128,45515,1,0,0:0:0:0:
128,128,45602,1,2,0:0:0:0:
128,64,45689,1,2,0:0:0:0:
192,160,45864,1,2,0:0:0:0:
192,160,46038,1,2,0:0:0:0:
128,160,46125,1,0,0:0:0:0:
192,160,46213,1,0,0:0:0:0:
224,0,46300,1,2,0:0:0:0:
192,64,46387,1,0,0:0:0:0:
192,128,46474,1,0,0:0:0:0:
224,160,46561,1,2,0:0:0:0:
192,128,46649,1,2,0:0:0:0:
160,160,46736,1,0,0:0:0:0:
160,160,46823,1,2,0:0:0:0:
192,128,46910,1,2,0:0:0:0:
160,160,46997,1,0,0:0:0:0:
160,160,47085,1,2,0:0:0:0:
160,160,47172,1,2,0:0:0:0:
192,128,47259,1,0,0:0:0:0:
128,128,47346,1,0,0:0:0:0:
192,96,47433,1,2,0:0:0:0:
160,128,47521,1,0,0:0:0:0:
128,96,47608,1,0,0:0:0:0:
128,96,47695,1,2,0:0:0:0:
128,96,47782,1,0,0:0:0:0:
128,96,47869,1,0,0:0:0:0:
128,96,47957,1,2,0:0:0:0:
128,96,48044,1,0,0:0:0:0:
128,96,48131,1,2,0:0:0:0:
128,96,48218,1,0,0:0:0:0:
128,96,48306,1,2,0:0:0:0:
128,96,48393,1,0,0:0:0:0:
128,96,48480,1,2,0:0:0:0:
128,96,48567,1,0,0:0:0:0:
128,96,48654,1,2,0:0:0:0:
224,160,48829,1,0,0:0:0:0:
160,96,49003,1,2,0:0:0:0:
192,128,49061,1,2,0:0:0:0:
192,128,49119,1,2,0:0:0:0:
192,128,49178,1,0,0:0:0:0:
192,128,49352,1,0,0:0:0:0:
192,128,49410,1,0,0:0:0:0:
192,128,49468,1,0,0:0:0:0:
192,128,49526,1,2,0:0:0:0:
160,96,49875,1,2,0:0:0:0:
192,160,49963,1,0,0:0:0:0:
160,96,50050,1,2,0:0:0:0:
96,64,50137,1,0,0:0:0:0:
128,96,50224,1,2,0:0:0:0:
128,160,50399,1,0,0:0:0:0:
128,160,50486,1,2,0:0:0:0:
224,96,50573,1,0,0:0:0:0:
224,192,50660,1,2,0:0:0:0:
128,96,50835,1,0,0:0:0:0:
160,96,50922,1,2,0:0:0:0:
160,96,51096,1,0,0:0:0:0:
160,96,51271,1,2,0:0:0:0:
160,96,51358,1,2,0:0:0:0:
160,96,51445,1,0,0:0:0:0:
192,64,51532,1,2,0:0:0:0:
224,96,51619,1,0,0:0:0:0:
128,128,51794,1,0,0:0:0:0:
128,192,51881,1,2,0:0:0:0:
128,128,51968,1,0,0:0:0:0:
128,224,52143,1,0,0:0:0:0:
128,160,52230,1,0,0:0:0:0:
128,160,52317,1,2,0:0:0:0:
128,160,52492,1,0,0:0:0:0:
128,160,52579,1,2,0:0:0:0:
128,160,52753,1,0,0:0:0:0:
128,160,52840,1,2,0:0:0:0:
128,160,53015,1,2,0:0:0:0:
128,160,53189,1,0,0:0:0:0:
128,160,53364,1,2,0:0:0:0:
128,160,53538,1,0,0:0:0:0:
32,96,53713,1,0,0:0:0:0:
128,128,53887,1,6,0:0:0:0:
32,96,54061,1,0,0:0:0:0:
128,128,54236,1,6,0:0:0:0:
