osu file format v14

[General]
AudioFilename: audio.mp3
AudioLeadIn: 0
PreviewTime: -1
Countdown: 0
SampleSet: None
StackLeniency: 0.7
Mode: 0
LetterboxInBreaks: 0
WidescreenStoryboard: 0

[Editor]
DistanceSpacing: 0.8
BeatDivisor: 4
GridSize: 32
TimelineZoom: 1.5

[Metadata]
Title:Desert Sand
TitleUnicode:Desert Sand
Artist:Black Sun Empire & Pythius
ArtistUnicode:Black Sun Empire & Pythius
Creator:onyhr
Version:Beat
Source:
Tags:
BeatmapID:1364072
BeatmapSetID:643516

[Difficulty]
HPDrainRate:5
CircleSize:5
OverallDifficulty:6
ApproachRate:5
SliderMultiplier:1.2
SliderTickRate:2

[Events]
//Background and Video events
//Break Periods
2,88390,93622
//Storyboard Layer 0 (Background)
//Storyboard Layer 1 (Fail)
//Storyboard Layer 2 (Pass)
//Storyboard Layer 3 (Foreground)
//Storyboard Sound Samples

[TimingPoints]
3874.82608695652,631.578947368421,4,2,0,100,1,0

[Colours]
Combo1 : 255,0,0
Combo2 : 255,255,128
Combo3 : 235,205,37
Combo4 : 255,128,0

[HitObjects]
256,192,12085,12,0,18559,2:2:0:0:
160,288,19348,5,0,2:2:0:0:
96,192,19980,1,0,2:2:0:0:
160,96,20611,1,0,2:2:0:0:
480,224,22032,5,0,2:2:0:0:
416,160,22348,2,0,P|384:160|352:192,1,60
224,64,23453,6,0,P|224:96|256:128,1,60
288,32,24085,1,0,2:2:0:0:
288,224,24874,5,0,2:2:0:0:
352,288,25190,2,0,P|384:288|416:256,1,60
32,32,26295,5,0,2:2:0:0:
96,96,26611,2,0,P|96:128|64:160,1,60
480,160,27559,5,0,2:2:0:0:
416,96,27874,2,0,P|416:64|448:32,1,60
192,224,28980,6,0,P|160:224|128:256,1,60
64,192,29611,1,0,1:1:0:0:
352,96,30401,5,0,2:2:0:0:
384,192,30716,1,0,2:2:0:0:
256,96,31032,1,0,1:1:0:0:
224,352,31664,6,0,P|224:320|192:288,1,60
288,224,32295,1,0,1:1:0:0:
160,96,33085,5,0,2:2:0:0:
480,160,34506,5,0,2:2:0:0:
384,128,34822,2,0,P|352:160|352:192,1,60
32,224,35927,6,0,P|64:224|96:256,1,60
32,224,36559,1,0,2:2:0:0:
480,64,37190,5,0,2:2:0:0:
480,64,37506,2,0,P|448:96|448:128,1,60
288,32,38611,6,0,B|224:96|192:96|192:96|192:128|224:160,1,180
352,192,40032,2,0,P|288:256|256:256,1,120
256,160,41453,2,0,P|288:64|320:32,1,120
288,224,42716,5,0,2:2:0:0:
352,160,43032,1,0,2:2:0:0:
288,224,43348,1,0,2:2:0:0:
224,96,44137,6,0,P|192:128|160:128,1,60
352,160,44769,1,0,2:2:0:0:
224,288,45559,5,0,2:2:0:0:
128,256,45874,2,0,P|128:224|96:192,1,60
352,256,46822,5,0,2:2:0:0:
448,128,47611,1,0,2:2:0:0:
64,96,48243,6,0,P|96:128|96:160,1,60
192,128,48874,1,0,2:2:0:0:
288,320,49664,5,0,2:2:0:0:
192,288,49980,1,0,2:2:0:0:
64,320,50295,1,0,2:2:0:0:
480,160,51085,6,0,P|448:128|416:128,1,60
384,256,51716,1,4,2:2:0:0:
96,128,52506,5,0,0:0:0:0:
128,224,52822,2,0,P|160:224|192:256,1,60
320,96,53769,6,0,P|288:128|256:128,1,60
192,96,54401,1,0,2:2:0:0:
288,288,55190,5,0,2:2:0:0:
224,224,55506,2,0,P|192:256|192:288,1,60
96,160,56611,6,0,P|128:192|128:224,1,60
256,96,57243,1,0,2:2:0:0:
64,320,57874,5,0,2:2:0:0:
64,224,58190,2,0,P|64:256|96:288,1,60
320,256,59295,6,0,P|352:224|352:192,1,60
384,320,59927,1,0,0:0:0:0:
96,96,60716,5,0,2:2:0:0:
224,320,61032,1,0,2:2:0:0:
352,160,61348,1,0,2:2:0:0:
224,32,62137,5,0,2:2:0:0:
288,352,62769,1,0,2:2:0:0:
32,160,63401,6,0,P|64:192|96:192,1,60
480,320,64032,1,0,2:2:0:0:
192,128,64822,1,0,2:2:0:0:
128,160,64980,6,0,L|160:192,1,30
224,192,65295,2,0,L|256:160,1,30
256,96,65611,1,0,2:2:0:0:
288,64,65769,1,0,2:2:0:0:
320,64,65927,1,0,2:2:0:0:
384,320,66243,1,0,2:2:0:0:
32,32,70822,5,0,2:2:0:0:
96,64,71137,2,0,L|64:128,1,60
96,192,71769,2,0,L|128:128,1,60
192,128,72401,2,0,L|160:192,1,60
192,256,73032,2,0,L|224:192,1,60
288,192,73664,2,0,L|256:256,1,60
352,256,74295,1,0,2:2:0:0:
224,64,74611,5,0,2:2:0:0:
256,160,74927,1,0,2:2:0:0:
320,96,75243,1,0,2:2:0:0:
224,64,75559,1,0,2:2:0:0:
320,96,75874,1,0,2:2:0:0:
384,160,76190,2,0,P|352:192|288:192,1,90
224,160,76980,2,0,P|224:224|256:256,1,90
224,320,77769,6,0,P|160:288|160:256,1,90
160,192,78559,2,0,P|96:224|64:256,1,90
32,160,79348,2,0,P|96:128|128:128,1,90
192,128,80137,2,0,P|256:96|288:64,1,90
480,192,80927,6,0,P|416:224|416:256,1,90
480,256,81716,2,0,P|448:320|384:288,1,150
416,224,82822,2,0,P|352:224|320:256,1,90
288,288,83611,2,0,L|256:256,1,30
32,224,84085,6,0,L|64:256,1,30
128,256,84559,2,0,L|128:224,1,30
160,160,85032,2,0,L|192:192,1,30
256,192,85506,2,0,L|256:160,1,30
320,128,85980,2,0,L|288:96,1,30
384,128,86453,2,0,L|384:96,1,30
416,160,86927,2,0,L|448:160,1,30
352,160,87243,6,0,L|320:192,1,30
256,160,87559,1,0,2:2:0:0:
352,160,87716,1,0,2:2:0:0:
320,224,87874,1,0,2:2:0:0:
160,96,88190,1,0,2:2:0:0:
96,128,94822,6,0,L|64:160,1,30
288,288,96085,2,0,L|320:256,1,30
288,64,97348,2,0,L|256:96,1,30
416,192,98611,2,0,L|384:224,1,30
96,160,99243,5,0,0:0:0:0:
224,224,99874,1,0,0:0:0:0:
320,128,100506,1,0,0:0:0:0:
352,320,101137,1,0,0:0:0:0:
182,99,102085,1,0,2:2:0:0:
179,136,102401,1,0,2:2:0:0:
200,166,102716,1,0,2:2:0:0:
233,183,103032,1,0,2:2:0:0:
270,181,103348,5,0,2:2:0:0:
304,166,103664,1,0,2:2:0:0:
334,157,103980,1,0,2:2:0:0:
370,162,104295,1,0,2:2:0:0:
361,232,104611,5,0,2:2:0:0:
339,228,104769,5,0,2:2:0:0:
317,235,104927,1,0,2:2:0:0:
294,242,105085,1,0,2:2:0:0:
270,248,105243,1,0,2:2:0:0:
242,253,105401,1,0,2:2:0:0:
214,248,105559,1,0,2:2:0:0:
188,238,105716,1,0,2:2:0:0:
165,220,105874,1,0,2:2:0:0:
144,202,106032,5,0,2:2:0:0:
129,181,106190,1,0,2:2:0:0:
123,160,106348,1,0,2:2:0:0:
124,139,106506,1,0,2:2:0:0:
133,117,106664,1,0,2:2:0:0:
147,102,106822,1,0,2:2:0:0:
171,92,106980,1,0,2:2:0:0:
196,93,107137,1,0,2:2:0:0:
224,224,107453,5,0,2:2:0:0:
241,232,107611,1,0,2:2:0:0:
225,248,107769,1,0,2:2:0:0:
256,245,107927,1,0,2:2:0:0:
241,265,108085,1,0,2:2:0:0:
272,258,108243,1,0,2:2:0:0:
255,282,108401,1,0,2:2:0:0:
290,279,108559,1,0,2:2:0:0:
275,305,108716,1,0,2:2:0:0:
364,329,108874,1,0,2:2:0:0:
