osu file format v14

[General]
AudioFilename: audio.mp3
AudioLeadIn: 0
PreviewTime: 72315
Countdown: 0
SampleSet: Soft
StackLeniency: 0.5
Mode: 0
LetterboxInBreaks: 0
WidescreenStoryboard: 0

[Editor]
DistanceSpacing: 1
BeatDivisor: 4
GridSize: 16
TimelineZoom: 1.8

[Metadata]
Title:Drizzle
TitleUnicode:Drizzle
Artist:Black Sun Empire & Audio
ArtistUnicode:Black Sun Empire & Audio
Creator:Justus
Version:Dark
Source:
Tags:
BeatmapID:1854827
BeatmapSetID:887298

[Difficulty]
HPDrainRate:5
CircleSize:4
OverallDifficulty:7
ApproachRate:9.2
SliderMultiplier:2
SliderTickRate:1

[Events]
//Background and Video events
0,0,"8047202979_b1141b08ff_o.jpg",0,0
//Break Periods
2,57143,60246
2,94929,104040
//Storyboard Layer 0 (Background)
//Storyboard Layer 1 (Fail)
//Storyboard Layer 2 (Pass)
//Storyboard Layer 3 (Foreground)
//Storyboard Sound Samples

[TimingPoints]
6109,344.827586206897,4,2,1,50,1,0
6109,-100,4,2,1,40,0,0
9212,-66.6666666666667,4,2,1,40,0,0
9557,-100,4,2,1,40,0,0
11626,-166.666666666667,4,2,1,40,0,0
11971,-66.6666666666667,4,2,1,40,0,0
12315,-83.3333333333333,4,2,1,40,0,0
14384,-166.666666666667,4,2,1,40,0,0
14729,-66.6666666666667,4,2,1,40,0,0
15074,-100,4,2,1,40,0,0
17488,-66.6666666666667,4,2,1,40,0,0
17833,-100,4,2,1,40,0,0
19902,-166.666666666667,4,2,1,40,0,0
20246,-66.6666666666667,4,2,1,40,0,0
20591,-83.3333333333333,4,2,1,40,0,0
23005,-66.6666666666667,4,2,1,40,0,0
23350,-83.3333333333333,4,2,1,40,0,0
25419,-166.666666666667,4,2,1,40,0,0
25764,-66.6666666666667,4,2,1,40,0,0
26109,-83.3333333333333,4,2,1,40,0,0
28177,-166.666666666667,4,2,1,40,0,0
28522,-125,4,2,1,40,0,0
28867,-83.3333333333333,4,2,1,40,0,0
30936,-166.666666666667,4,2,1,40,0,0
31281,-83.3333333333333,4,2,1,40,0,0
31971,-100,4,2,1,40,0,0
32315,-83.3333333333333,4,2,1,40,0,0
38695,-125,4,2,1,40,0,0
39902,-83.3333333333333,4,2,1,40,0,0
49902,-166.666666666667,4,2,1,40,0,0
50246,-83.3333333333333,4,2,1,40,0,0
50333,-83.3333333333333,4,2,1,5,0,0
61281,-71.4285714285714,4,2,1,40,0,0
66798,-100,4,2,1,40,0,0
72315,-66.6666666666667,4,2,1,40,0,1
94384,-76.9230769230769,4,2,1,40,0,0
105419,-100,4,2,1,40,0,0
116453,-66.6666666666667,4,2,1,40,0,0
137143,-66.6666666666667,4,2,1,40,0,0

[Colours]
Combo1 : 224,224,224
Combo2 : 128,128,128

[HitObjects]
99,109,6109,5,0,0:0:0:0:
121,196,6282,1,0,0:0:0:0:
278,131,6453,2,0,B|229:118|229:118|181:131,1,100,4|0,0:0|0:0,0:0:0:0:
232,209,6798,1,0,0:0:0:0:
357,115,6971,1,0,0:0:0:0:
285,280,7143,6,0,B|324:237|314:189|314:189|333:204|340:230,1,150,0|0,0:0|0:0,0:0:0:0:
290,301,7488,2,0,B|251:258|261:210|261:210|242:225|234:251,1,150,0|0,0:0|0:0,0:0:0:0:
203,325,7833,5,0,0:0:0:0:
143,220,8005,1,0,0:0:0:0:
89,291,8177,1,0,0:0:0:0:
234,251,8350,1,0,0:0:0:0:
138,118,8522,1,0,0:0:0:0:
135,205,8695,1,0,0:0:0:0:
355,103,8867,5,0,0:0:0:0:
236,161,9212,6,0,B|273:169|273:169|339:143|339:143|356:103,1,150.000005722046,6|0,0:0|0:0,0:0:0:0:
355,27,9557,6,0,B|302:26|277:77|277:77|253:54|235:47,1,150,0|0,0:0|0:0,0:0:0:0:
91,83,9902,2,0,B|93:105|120:129|120:129|159:92|160:46,1,150,0|0,0:0|0:0,0:0:0:0:
84,0,10246,5,0,0:0:0:0:
1,73,10419,1,0,0:0:0:0:
42,174,10591,1,0,0:0:0:0:
151,163,10764,1,0,0:0:0:0:
19,78,10936,1,0,0:0:0:0:
51,162,11109,1,0,0:0:0:0:
138,142,11281,1,0,0:0:0:0:
41,83,11453,1,0,0:0:0:0:
143,229,11626,5,0,0:0:0:0:
25,303,11971,6,0,B|33:272|33:272|153:226,1,150.000005722046,6|0,0:0|0:0,0:0:0:0:
406,298,12315,5,0,0:0:0:0:
303,333,12488,1,0,0:0:0:0:
379,220,12660,2,0,B|425:212|464:231|481:270|481:270|488:235|475:201,1,179.999994506836,0|0,0:0|0:0,0:0:0:0:
406,298,13005,2,0,B|360:306|321:287|304:248|304:248|297:283|310:317,1,179.999994506836
340,370,13350,5,0,0:0:0:0:
379,220,13522,1,0,0:0:0:0:
406,298,13695,1,0,0:0:0:0:
310,165,13867,1,0,0:0:0:0:
479,213,14040,1,0,0:0:0:0:
305,304,14212,1,0,0:0:0:0:
372,247,14384,5,0,0:0:0:0:
469,348,14729,6,0,B|436:333|436:333|418:279|418:279|364:241,1,150.000005722046,6|0,0:0|0:0,0:0:0:0:
275,138,15074,1,0,0:0:0:0:
275,138,15246,1,0,0:0:0:0:
250,56,15419,2,0,P|207:81|189:127,1,100,0|0,0:0|0:0,0:0:0:0:
127,56,15764,6,0,P|169:80|188:126,1,100
77,244,16109,1,0,0:0:0:0:
105,136,16281,1,0,0:0:0:0:
168,317,16453,1,0,0:0:0:0:
54,245,16626,1,0,0:0:0:0:
269,268,16798,1,0,0:0:0:0:
166,333,16971,1,0,0:0:0:0:
243,153,17143,1,0,0:0:0:0:
282,273,17315,1,0,0:0:0:0:
161,132,17488,6,0,B|172:98|172:98|287:84,1,150.000005722046,6|0,0:0|0:0,0:0:0:0:
356,231,17833,1,0,0:0:0:0:
286,85,18005,1,0,0:0:0:0:
206,223,18177,1,0,0:0:0:0:
352,144,18350,6,0,P|366:123|372:98,1,50
240,10,18522,6,0,B|252:58|288:84|288:84|253:84|229:94,1,150
356,231,18867,5,0,0:0:0:0:
269,163,19040,1,0,0:0:0:0:
195,244,19212,1,0,0:0:0:0:
340,238,19384,1,0,0:0:0:0:
273,190,19557,1,0,0:0:0:0:
208,258,19729,1,0,0:0:0:0:
392,337,19902,5,0,0:0:0:0:
444,205,20246,6,0,B|453:240|453:240|390:339,1,150.000005722046
165,360,20591,1,0,0:0:0:0:
190,251,20764,1,0,0:0:0:0:
309,352,20936,1,0,0:0:0:0:
110,273,21109,2,0,B|100:237|128:196|128:196|110:195|94:211,1,119.999996337891
63,343,21453,5,0,0:0:0:0:
190,251,21626,1,0,0:0:0:0:
58,360,21798,1,0,0:0:0:0:
31,152,21971,5,0,0:0:0:0:
110,273,22143,1,0,0:0:0:0:
30,168,22315,1,0,0:0:0:0:
150,114,22488,5,0,0:0:0:0:
99,198,22660,1,0,0:0:0:0:
64,71,23005,6,0,B|48:144|48:144|99:198,1,150.000005722046
246,140,23350,1,0,0:0:0:0:
101,200,23522,1,0,0:0:0:0:
252,222,23695,6,0,B|298:215|330:180|328:136|328:136|353:160|351:182,1,179.999994506836
322,226,24040,2,0,B|276:219|244:184|246:140|246:140|221:164|222:186,1,179.999994506836
222,186,24384,5,0,0:0:0:0:
282,55,24557,1,0,0:0:0:0:
139,69,24726,1,0,0:0:0:0:
229,223,24902,5,0,0:0:0:0:
215,79,25075,1,0,0:0:0:0:
98,163,25244,1,0,0:0:0:0:
231,253,25419,5,0,0:0:0:0:
103,311,25764,6,0,B|124:276|124:276|238:250,1,150.000005722046
393,291,26109,1,0,0:0:0:0:
307,349,26281,1,0,0:0:0:0:
337,228,26453,2,0,B|366:206|400:206|400:206|368:185|328:182|294:198,1,179.999994506836
210,180,26798,5,0,0:0:0:0:
261,71,26971,1,0,0:0:0:0:
380,68,27143,1,0,0:0:0:0:
436,173,27315,1,0,0:0:0:0:
233,189,27488,5,0,0:0:0:0:
270,93,27661,1,0,0:0:0:0:
371,91,27833,1,0,0:0:0:0:
256,201,28005,5,0,0:0:0:0:
380,68,28177,1,0,0:0:0:0:
399,301,28350,1,0,0:0:0:0:
399,301,28522,6,0,L|407:346,3,40
321,277,28867,1,0,0:0:0:0:
291,279,28953,1,0,0:0:0:0:
261,282,29039,1,0,0:0:0:0:
231,284,29125,1,0,0:0:0:0:
185,289,29212,6,0,B|143:311|96:301|96:301|100:285|112:278,1,119.999996337891
311,218,29557,2,0,B|312:242|323:264|320:277,2,59.9999981689454
198,83,29902,5,0,0:0:0:0:
157,211,30074,1,0,0:0:0:0:
270,120,30246,1,0,0:0:0:0:
278,91,30332,1,0,0:0:0:0:
275,61,30418,1,0,0:0:0:0:
261,35,30504,1,0,0:0:0:0:
238,16,30590,1,0,0:0:0:0:
121,33,30764,1,0,0:0:0:0:
118,129,30936,6,0,L|147:122,1,29.9999990844727
57,85,31109,2,0,L|27:78,1,29.9999990844727
44,170,31281,6,0,B|95:203|95:203|118:257,1,119.999996337891
44,345,31626,1,0,0:0:0:0:
53,316,31712,1,0,0:0:0:0:
69,291,31798,1,0,0:0:0:0:
92,272,31884,1,0,0:0:0:0:
119,258,31971,6,0,P|143:259|168:263,1,50
283,318,32143,2,0,P|259:319|234:323,1,50
135,343,32315,5,0,0:0:0:0:
255,237,32488,1,0,0:0:0:0:
148,152,32660,1,0,0:0:0:0:
215,57,32833,1,0,0:0:0:0:
314,178,33005,5,0,0:0:0:0:
343,180,33091,1,0,0:0:0:0:
373,183,33177,1,0,0:0:0:0:
403,186,33263,1,0,0:0:0:0:
433,189,33349,1,0,0:0:0:0:
381,90,33522,1,0,0:0:0:0:
369,282,33695,5,0,0:0:0:0:
381,74,33867,1,0,0:0:0:0:
353,278,34040,2,0,B|354:219|354:219|310:175,1,119.999996337891
188,237,34384,1,0,0:0:0:0:
178,265,34470,1,0,0:0:0:0:
179,295,34556,1,0,0:0:0:0:
192,322,34642,1,0,0:0:0:0:
226,343,34729,6,0,P|256:340|286:334,2,59.9999981689454
104,313,34988,1,0,0:0:0:0:
272,253,35074,6,0,B|316:251|350:280|350:280|356:263|341:247,2,119.999996337891
226,343,35591,1,0,0:0:0:0:
148,212,35764,6,0,L|90:223,1,59.9999981689454
141,128,35936,2,0,L|199:139,1,59.9999981689454
181,223,36109,2,0,L|63:245,1,119.999996337891
52,145,36453,5,0,0:0:0:0:
260,195,36626,1,0,0:0:0:0:
126,30,36798,1,0,0:0:0:0:
148,212,36971,1,0,0:0:0:0:
208,109,37143,5,0,0:0:0:0:
235,99,37229,1,0,0:0:0:0:
265,97,37315,1,0,0:0:0:0:
294,104,37401,1,0,0:0:0:0:
331,121,37488,6,0,B|357:146|369:170|369:170|378:141|397:120,1,119.999996337891
482,40,37833,1,0,0:0:0:0:
359,45,38005,1,0,0:0:0:0:
464,181,38177,1,0,0:0:0:0:
367,56,38350,1,0,0:0:0:0:
283,188,38522,5,0,0:0:0:0:
279,215,38609,1,0,0:0:0:0:
276,241,38695,2,0,L|270:280,1,40
192,144,38867,2,0,L|197:183,1,40
258,353,39040,1,0,0:0:0:0:
510,272,39212,5,0,0:0:0:0:
395,238,39384,1,0,0:0:0:0:
476,361,39557,1,0,0:0:0:0:
401,225,39729,1,0,0:0:0:0:
337,327,39902,5,0,0:0:0:0:
308,337,39988,1,0,0:0:0:0:
279,341,40074,1,0,0:0:0:0:
249,337,40160,1,0,0:0:0:0:
205,318,40246,6,0,B|174:265|207:202|207:202|205:232|220:261,1,179.999994506836
147,276,40591,2,0,B|178:223|145:160|145:160|147:190|131:219,1,179.999994506836
73,260,40936,1,0,0:0:0:0:
63,171,41109,1,0,0:0:0:0:
207,202,41281,5,0,0:0:0:0:
236,206,41367,1,0,0:0:0:0:
266,206,41453,1,0,0:0:0:0:
295,199,41539,1,0,0:0:0:0:
323,187,41625,1,0,0:0:0:0:
334,54,41798,1,0,0:0:0:0:
255,116,41971,1,0,0:0:0:0:
322,30,42143,1,0,0:0:0:0:
437,193,42315,6,0,B|403:174|403:174|322:187,1,119.999996337891
276,296,42660,5,0,0:0:0:0:
305,300,42746,1,0,0:0:0:0:
334,294,42832,1,0,0:0:0:0:
358,276,42918,1,0,0:0:0:0:
375,248,43005,6,0,B|369:259|375:281|375:281|421:272|462:308,1,119.999996337891
391,370,43350,2,0,P|332:369|284:336,1,119.999996337891
261,162,43695,1,0,0:0:0:0:
375,248,43867,1,0,0:0:0:0:
188,237,44040,5,0,0:0:0:0:
170,212,44126,1,0,0:0:0:0:
160,184,44212,1,0,0:0:0:0:
157,155,44298,1,0,0:0:0:0:
163,125,44384,1,0,0:0:0:0:
291,68,44557,1,0,0:0:0:0:
121,29,44729,1,0,0:0:0:0:
261,162,44902,1,0,0:0:0:0:
71,126,45074,6,0,B|54:148|54:148|76:237,1,119.999996337891
188,237,45419,5,0,0:0:0:0:
217,238,45505,1,0,0:0:0:0:
247,240,45591,1,0,0:0:0:0:
277,241,45677,1,0,0:0:0:0:
322,243,45764,6,0,B|360:261|387:325|387:325|398:293|431:267,1,179.999994506836
450,209,46109,2,0,B|412:227|385:291|385:291|374:259|341:233,1,179.999994506836
239,166,46453,1,0,0:0:0:0:
364,125,46626,1,0,0:0:0:0:
214,88,46798,5,0,0:0:0:0:
187,100,46884,1,0,0:0:0:0:
167,123,46970,1,0,0:0:0:0:
157,151,47056,1,0,0:0:0:0:
159,180,47142,1,0,0:0:0:0:
254,289,47315,1,0,0:0:0:0:
364,125,47488,5,0,0:0:0:0:
168,267,47660,1,0,0:0:0:0:
270,136,47833,1,0,0:0:0:0:
341,233,48005,1,0,0:0:0:0:
303,62,48177,5,0,0:0:0:0:
328,46,48263,1,0,0:0:0:0:
357,39,48349,1,0,0:0:0:0:
387,42,48435,1,0,0:0:0:0:
423,64,48522,6,0,B|464:117|436:177|436:177|466:160|473:132,1,179.999994506836
510,69,48867,5,0,0:0:0:0:
362,123,49040,1,0,0:0:0:0:
496,239,49212,1,0,0:0:0:0:
510,69,49384,1,0,0:0:0:0:
373,206,49557,5,0,0:0:0:0:
343,205,49643,1,0,0:0:0:0:
304,207,49729,2,0,B|275:204|275:204|249:186,1,59.9999981689454
159,302,49902,2,0,B|188:299|188:299|214:282,1,59.9999981689454
214,282,50246,5,0,0:0:0:0:
256,192,50333,12,0,55764,0:0:0:0:
129,106,61281,6,0,B|125:263|125:263|154:309,1,209.999993591309,8|0,0:0|0:0,0:0:0:0:
242,315,61626,2,0,L|242:245,1,69.9999978637696,8|0,0:0|0:0,0:0:0:0:
243,111,61798,1,0,0:0:0:0:
311,260,61971,1,0,0:0:0:0:
136,28,62143,6,0,L|211:28,1,69.9999978637696,8|0,0:0|0:0,0:0:0:0:
365,31,62315,1,0,0:0:0:0:
129,106,62488,1,0,0:0:0:0:
450,109,62660,6,0,B|295:109|295:109|244:131,1,209.999993591309,8|0,0:0|0:0,0:0:0:0:
311,260,63005,2,0,L|310:190,1,69.9999978637696,8|0,0:0|0:0,0:0:0:0:
315,31,63177,1,0,0:0:0:0:
192,210,63350,1,0,0:0:0:0:
125,81,63523,6,0,L|125:150,1,69.9999978637696,8|0,0:0|0:0,0:0:0:0:
121,310,63695,1,0,0:0:0:0:
244,130,63868,1,0,0:0:0:0:
325,328,64040,6,0,B|156:330|156:330|120:309,1,209.999993591309,8|0,0:0|0:0,0:0:0:0:
192,237,64384,2,0,L|271:237,1,69.9999978637696,8|0,0:0|0:0,0:0:0:0:
367,241,64557,1,0,0:0:0:0:
367,241,64643,1,0,0:0:0:0:
367,241,64729,1,0,0:0:0:0:
149,143,64902,6,0,L|228:143,1,69.9999978637696,8|0,0:0|0:0,0:0:0:0:
324,147,65075,1,0,0:0:0:0:
324,147,65161,1,0,0:0:0:0:
324,147,65247,1,0,0:0:0:0:
143,35,65419,6,0,B|152:206|152:206|133:240,1,209.999993591309,8|0,0:0|0:0,0:0:0:0:
3,186,65764,2,0,L|85:193,1,69.9999978637696,8|0,0:0|0:0,0:0:0:0:
215,257,65936,1,0,0:0:0:0:
88,305,66109,1,0,0:0:0:0:
225,98,66281,6,0,L|229:167,1,69.9999978637696,8|0,0:0|0:0,0:0:0:0:
171,329,66453,1,0,0:0:0:0:
72,191,66626,1,0,0:0:0:0:
215,257,66798,6,0,B|266:263|266:263|319:246,1,100,8|0,0:0|0:0,0:0:0:0:
353,152,67143,2,0,B|302:146|302:146|249:163,1,100,8|0,0:0|0:0,0:0:0:0:
437,182,67488,6,0,L|432:132,2,50,8|0|0,0:0|0:0|0:0,0:0:0:0:
333,257,67833,2,0,L|328:306,2,50,8|0|0,0:0|0:0|0:0,0:0:0:0:
255,160,68177,2,0,L|250:110,2,50,8|0|0,0:0|0:0|0:0,0:0:0:0:
182,255,68522,6,0,B|171:306|171:306|136:350,1,100,8|0,0:0|0:0,0:0:0:0:
128,171,68867,2,0,B|89:135|89:135|68:83,1,100,8|0,0:0|0:0,0:0:0:0:
227,166,69212,2,0,B|276:150|276:150|332:158,1,100,8|0,0:0|0:0,0:0:0:0:
182,255,69557,5,8,0:0:0:0:
128,171,69729,1,8,0:0:0:0:
227,166,69902,1,8,0:0:0:0:
89,244,70074,5,8,0:0:0:0:
182,96,70246,1,8,0:0:0:0:
263,249,70419,1,8,0:0:0:0:
62,109,70591,5,8,0:0:0:0:
311,141,70763,1,8,0:0:0:0:
160,340,70936,1,0,0:0:0:0:
132,380,71281,5,0,0:0:0:0:
343,147,71626,1,0,0:0:0:0:
35,80,71971,1,0,0:0:0:0:
322,299,72315,6,0,P|319:261|335:228,1,75.0000028610231,8|0,0:0|0:0,0:0:0:0:
406,348,72488,2,0,B|343:387|343:387|261:369,1,150.000005722046
393,169,72833,1,0,0:0:0:0:
224,241,73005,2,0,P|216:277|222:314,1,75.0000028610231
250,70,73177,5,0,0:0:0:0:
322,59,73263,1,0,0:0:0:0:
385,97,73350,2,0,P|397:132|394:169,1,75.0000028610231,8|0,0:0|0:0,0:0:0:0:
169,95,73522,2,0,P|165:57|177:22,1,75.0000028610231,8|0,0:0|0:0,0:0:0:0:
303,158,73695,6,0,B|298:202|319:244|376:258|376:258|353:295|288:278,1,225.000008583069
208,231,74040,2,0,P|198:266|200:303,1,75.0000028610231
393,169,74212,2,0,P|395:131|384:96,1,75.0000028610231
213,135,74384,2,0,L|139:148,1,75.0000028610231
296,280,74557,2,0,L|369:293,1,75.0000028610231
116,283,74729,1,0,0:0:0:0:
303,158,74902,1,0,0:0:0:0:
46,58,75074,6,0,B|71:58|90:66|90:66|60:91|42:119|50:157,1,150.000005722046
204,262,75419,2,0,P|188:229|159:206,1,75.0000028610231
33,305,75591,2,0,P|49:338|78:361,1,75.0000028610231
184,355,75764,1,0,0:0:0:0:
327,145,75936,5,0,0:0:0:0:
332,219,76022,1,0,0:0:0:0:
337,294,76109,2,0,L|392:356,1,75.0000028610231
327,145,76281,2,0,L|277:88,1,75.0000028610231
159,206,76453,6,0,B|175:167|175:167|174:277|246:326,1,225.000008583069
336,294,76798,2,0,P|371:279|408:279,1,75.0000028610231
468,198,76971,2,0,P|433:183|396:183,1,75.0000028610231
164,294,77143,2,0,P|186:264|218:245,1,75.0000028610231
327,145,77316,2,0,P|290:137|253:142,1,75.0000028610231
62,308,77488,2,0,P|66:271|84:238,1,75.0000028610231
257,62,77661,2,0,P|220:66|187:84,1,75.0000028610231
247,333,77833,5,0,0:0:0:0:
342,236,78005,2,0,L|320:385,2,150.000005722046
355,232,78522,1,0,0:0:0:0:
212,90,78695,5,0,0:0:0:0:
138,82,78781,1,0,0:0:0:0:
68,108,78867,2,0,P|43:136|33:182,1,75.0000028610231
212,90,79040,2,0,P|241:112|260:144,1,75.0000028610231
122,271,79212,6,0,B|168:326|168:326|150:173,1,225.000008583069
140,52,79557,6,0,P|177:55|211:70,1,75.0000028610231
297,208,79729,2,0,P|283:173|259:144,1,75.0000028610231
256,5,79902,2,0,P|282:31|298:65,1,75.0000028610231
368,264,80074,2,0,P|380:228|380:191,1,75.0000028610231
402,2,80246,2,0,P|398:39|383:73,1,75.0000028610231
233,245,80418,2,0,P|267:231|296:207,1,75.0000028610231
497,129,80591,6,0,B|479:83|479:83|447:133|447:133|482:243,1,225.000008583069
495,261,80936,2,0,L|346:272,1,150.000005722046
428,358,81281,1,0,0:0:0:0:
183,117,81453,5,0,0:0:0:0:
198,190,81539,1,0,0:0:0:0:
199,265,81626,2,0,B|186:288|179:312|179:312|166:292,1,75.0000028610231
183,117,81798,2,0,B|196:94|202:69|202:69|216:90,1,75.0000028610231
58,188,81971,6,0,B|135:208|135:208|197:189|197:189|275:209,1,225.000008583069
286,230,82315,1,0,0:0:0:0:
214,42,82488,1,0,0:0:0:0:
398,137,82660,1,0,0:0:0:0:
398,137,82746,1,0,0:0:0:0:
398,137,82833,2,0,B|437:164|437:164|409:169,1,75.0000028610231
286,230,83005,2,0,B|258:235|258:235|297:262,1,75.0000028610231
448,304,83177,1,0,0:0:0:0:
404,79,83350,5,0,0:0:0:0:
394,236,83522,2,0,B|368:192|368:192|370:168,1,75.0000028610231
488,151,83695,6,0,P|491:185|458:182,1,75.0000028610231,2|0,0:0|0:0,0:0:0:0:
326,95,83867,2,0,P|292:97|295:64,1,75.0000028610231,2|0,0:0|0:0,0:0:0:0:
477,41,84040,1,0,0:0:0:0:
245,222,84212,5,0,0:0:0:0:
319,229,84298,1,0,0:0:0:0:
394,236,84384,2,0,P|423:250|403:276,1,75.0000028610231,2|0,0:0|0:0,0:0:0:0:
229,295,84557,2,0,P|200:309|219:335,1,75.0000028610231,2|0,0:0|0:0,0:0:0:0:
323,86,84729,6,0,B|341:191|341:191|316:232,1,150.000005722046,8|0,0:0|0:0,0:0:0:0:
123,104,85074,2,0,P|119:70|152:70,1,75.0000028610231,2|0,0:0|0:0,0:0:0:0:
389,54,85246,2,0,P|392:20|359:20,1,75.0000028610231,2|0,0:0|0:0,0:0:0:0:
239,181,85419,1,0,0:0:0:0:
0,177,85591,5,0,0:0:0:0:
74,188,85677,1,0,0:0:0:0:
147,199,85764,2,0,B|188:231|200:273|200:273|170:279|151:252,1,150.000005722046,2|0,0:0|0:0,0:0:0:0:
231,35,86109,6,0,B|222:154|222:154|238:180,1,150.000005722046,8|0,0:0|0:0,0:0:0:0:
336,109,86453,2,0,B|358:84|358:84|316:83,1,75.0000028610231,2|0,0:0|0:0,0:0:0:0:
139,78,86626,2,0,B|97:78|97:78|119:103,1,75.0000028610231,2|0,0:0|0:0,0:0:0:0:
216,258,86798,1,0,0:0:0:0:
466,80,86971,5,0,0:0:0:0:
391,81,87057,1,0,0:0:0:0:
316,83,87143,2,0,B|281:92|281:92|291:131,1,75.0000028610231,2|0,0:0|0:0,0:0:0:0:
429,196,87315,2,0,B|464:187|464:187|454:149,1,75.0000028610231,2|0,0:0|0:0,0:0:0:0:
369,1,87488,6,0,B|394:91|394:91|371:143,1,150.000005722046,8|0,0:0|0:0,0:0:0:0:
217,286,87833,1,0,0:0:0:0:
194,67,88005,1,0,0:0:0:0:
384,230,88177,1,0,0:0:0:0:
135,252,88350,5,0,0:0:0:0:
316,23,88522,1,0,0:0:0:0:
307,264,88695,1,0,0:0:0:0:
64,187,88867,6,0,P|131:158|201:181,2,150.000005722046,8|0|0,0:0|0:0|0:0,0:0:0:0:
225,265,89384,1,0,0:0:0:0:
225,265,89557,1,0,0:0:0:0:
133,117,89729,6,0,L|138:42,1,75.0000028610231,2|0,0:0|0:0,0:0:0:0:
63,186,89902,2,0,L|56:273,1,75.0000028610231,2|0,0:0|0:0,0:0:0:0:
219,92,90074,2,0,L|224:17,1,75.0000028610231,2|0,0:0|0:0,0:0:0:0:
146,231,90246,6,0,B|173:194|173:194|276:181,1,150.000005722046,8|0,0:0|0:0,0:0:0:0:
427,225,90591,6,0,P|433:261|445:297,1,75.0000028610231,2|0,0:0|0:0,0:0:0:0:
352,146,90764,2,0,P|363:110|370:73,1,75.0000028610231,2|0,0:0|0:0,0:0:0:0:
306,290,90936,1,0,0:0:0:0:
96,141,91109,5,0,0:0:0:0:
170,153,91195,1,0,0:0:0:0:
244,165,91281,2,0,P|278:182|302:210,1,75.0000028610231,2|0,0:0|0:0,0:0:0:0:
145,75,91453,2,0,P|124:43|117:7,1,75.0000028610231,2|0,0:0|0:0,0:0:0:0:
108,236,91626,6,0,B|52:270|52:270|210:282,1,225.000008583069
233,287,91971,1,0,0:0:0:0:
233,287,92143,1,0,0:0:0:0:
275,180,92315,6,0,B|301:92|270:21|270:21|275:60|269:83,1,225.000008583069,8|0,0:0|0:0,0:0:0:0:
247,90,92660,1,0,0:0:0:0:
247,90,92832,1,0,0:0:0:0:
447,56,93005,6,0,B|404:89|410:156|410:156|401:155|401:155|404:222|370:252,1,225.000008583069,8|0,0:0|0:0,0:0:0:0:
438,210,93350,2,0,P|375:173|308:199,1,150.000005722046
212,257,93695,5,0,0:0:0:0:
130,242,93781,1,0,0:0:0:0:
47,275,93867,2,0,P|26:243|22:206,1,75.0000028610231
50,54,94040,2,0,L|38:203,1,150.000005722046
206,220,94384,6,0,L|203:142,1,64.9999970245363
250,88,94557,2,0,L|226:215,1,129.999994049073
408,224,105419,6,0,B|389:239|389:239|363:236,1,50
220,143,105591,2,0,L|269:135,1,50
380,72,105764,1,0,0:0:0:0:
249,243,105936,2,0,P|263:224|284:210,1,50
367,156,106109,1,0,0:0:0:0:
197,57,106281,1,0,0:0:0:0:
197,57,106367,1,0,0:0:0:0:
197,57,106453,2,0,B|148:39|148:39|103:55,1,100
18,173,106798,6,0,L|67:166,1,50
125,247,106971,2,0,L|174:253,1,50
268,135,107143,2,0,L|218:141,1,50
109,279,107315,1,0,0:0:0:0:
157,288,107402,1,0,0:0:0:0:
203,268,107488,1,0,0:0:0:0:
247,246,107574,1,0,0:0:0:0:
305,225,107660,1,0,0:0:0:0:
305,225,107746,1,0,0:0:0:0:
305,225,107833,6,0,L|301:274,1,50
388,264,108005,2,0,L|391:313,1,50
485,191,108177,6,0,B|433:166|433:166|392:178,1,100
288,123,108522,1,0,0:0:0:0:
418,66,108695,2,0,P|388:83|371:102,1,50
302,206,108867,1,0,0:0:0:0:
392,178,109040,1,0,0:0:0:0:
390,202,109126,1,0,0:0:0:0:
388,227,109212,6,0,L|380:304,1,50
208,165,109384,2,0,L|216:242,1,50
276,305,109557,1,0,0:0:0:0:
78,202,109729,6,0,L|127:197,1,50
303,181,109902,1,0,0:0:0:0:
204,66,110074,1,0,0:0:0:0:
155,76,110160,1,0,0:0:0:0:
178,119,110246,1,0,0:0:0:0:
201,163,110333,1,0,0:0:0:0:
224,206,110419,1,0,0:0:0:0:
248,249,110505,1,0,0:0:0:0:
273,291,110591,2,0,L|223:297,1,50
89,230,110764,2,0,L|138:236,1,50
329,177,110936,6,0,L|321:226,1,50
134,361,111109,2,0,L|141:311,1,50
355,292,111281,2,0,P|348:325|330:352,1,50
236,360,111453,1,0,0:0:0:0:
236,360,111540,2,0,B|260:288|260:288|236:291,1,100
83,213,111798,6,0,L|132:208,1,50
308,105,111971,2,0,L|258:100,1,50
84,201,112143,2,0,L|133:196,1,50
209,23,112315,5,0,0:0:0:0:
217,220,112488,2,0,B|213:191|213:191|223:173,1,50
390,129,112660,1,0,0:0:0:0:
313,254,112833,1,0,0:0:0:0:
295,271,112919,1,0,0:0:0:0:
301,222,113005,1,0,0:0:0:0:
306,172,113091,1,0,0:0:0:0:
312,122,113177,1,0,0:0:0:0:
316,71,113264,1,0,0:0:0:0:
295,90,113350,6,0,L|245:95,1,50
338,239,113522,2,0,L|387:244,1,50
267,354,113695,6,0,B|216:335|207:269|207:269|197:307,1,150
204,315,114040,2,0,P|154:310|105:318,1,100
105,318,114298,1,0,0:0:0:0:
105,318,114384,2,0,L|115:218,1,100
60,153,114729,2,0,P|82:143|106:137,1,50
159,77,114902,2,0,P|136:66|112:60,1,50
178,159,115074,1,0,0:0:0:0:
226,222,115246,5,0,0:0:0:0:
250,224,115332,1,0,0:0:0:0:
275,227,115418,1,0,0:0:0:0:
300,230,115504,1,0,0:0:0:0:
343,208,115591,5,0,0:0:0:0:
230,303,115764,1,0,0:0:0:0:
254,305,115850,1,0,0:0:0:0:
279,308,115936,1,0,0:0:0:0:
304,311,116022,1,0,0:0:0:0:
349,291,116109,5,0,0:0:0:0:
283,156,116281,1,0,0:0:0:0:
283,156,116367,1,0,0:0:0:0:
283,156,116453,6,0,P|302:123|331:100,1,75.0000028610231
187,38,116626,2,0,P|199:73|201:110,1,75.0000028610231
33,197,116798,6,0,P|32:229|64:221,1,75.0000028610231
188,197,116971,2,0,P|188:229|156:221,1,75.0000028610231
113,126,117143,1,0,0:0:0:0:
320,96,117315,1,0,0:0:0:0:
310,170,117401,1,0,0:0:0:0:
300,244,117488,2,0,P|314:272|331:246,1,75.0000028610231
320,96,117660,2,0,P|305:68|288:94,1,75.0000028610231
116,221,117833,6,0,B|164:153|164:153|230:162,1,150.000005722046
227,266,118177,2,0,B|219:296|219:296|200:247,1,75.0000028610231
54,127,118350,2,0,B|62:97|62:97|81:146,1,75.0000028610231
318,187,118522,5,0,0:0:0:0:
156,152,118695,1,0,0:0:0:0:
185,83,118781,1,0,0:0:0:0:
216,13,118867,2,0,L|229:162,1,150.000005722046
266,306,119212,6,0,B|251:330|227:351|227:351|226:297|272:250|335:249,1,225.000008583069
420,296,119557,2,0,B|431:317|450:327|450:327|449:306|439:297,1,75.0000028610231
346,131,119729,2,0,B|335:110|316:100|316:100|317:121|326:129,1,75.0000028610231
428,197,119902,1,0,0:0:0:0:
121,192,120074,5,0,0:0:0:0:
195,188,120160,1,0,0:0:0:0:
270,184,120246,2,0,B|293:189|307:204|307:204|287:209|276:202,1,75.0000028610231
121,192,120419,2,0,B|97:186|83:171|83:171|103:166|114:173,1,75.0000028610231
289,288,120591,6,0,B|253:299|205:291|205:291|189:256|194:227,1,150.000005722046
352,59,120936,6,0,B|365:34|352:9|352:9|334:27|338:45,1,75.0000028610231
270,184,121109,2,0,B|257:209|270:234|270:234|288:216|284:198,1,75.0000028610231
390,137,121281,1,0,0:0:0:0:
173,54,121453,6,0,L|263:87,1,75.0000028610231
412,148,121626,2,0,L|337:147,1,75.0000028610231
189,142,121798,1,0,0:0:0:0:
476,45,121971,6,0,B|449:40|426:47|426:47|487:75|517:129|495:189,1,225.000008583069
456,243,122315,2,0,B|471:258|471:258|417:253,1,75.0000028610231
227,266,122488,2,0,B|212:281|212:281|265:276,1,75.0000028610231
365,183,122660,1,0,0:0:0:0:
151,66,122833,5,0,0:0:0:0:
148,140,122919,1,0,0:0:0:0:
146,215,123004,2,0,B|131:230|131:230|135:176,1,75.0000028610231
162,35,123177,2,0,B|177:20|177:20|172:73,1,75.0000028610231
38,253,123350,6,0,B|65:323|65:323|139:313,1,150.000005722046
326,199,123695,2,0,B|341:184|341:184|287:188,1,75.0000028610231
146,215,123868,2,0,B|131:230|131:230|184:225,1,75.0000028610231
313,112,124040,1,0,0:0:0:0:
234,350,124212,5,0,0:0:0:0:
221,275,124298,1,0,0:0:0:0:
207,199,124384,2,0,B|190:158|209:96|209:96|228:109|240:128,1,150.000005722046
424,228,124729,6,0,B|457:229|482:215|482:215|438:180|372:180|324:198,1,225.000008583069
194,285,125074,2,0,B|184:299|164:303|164:303|168:281|188:274,1,75.0000028610231
349,295,125246,2,0,B|369:301|373:323|373:323|353:319|343:305,1,75.0000028610231
127,201,125419,1,0,0:0:0:0:
347,50,125591,5,0,0:0:0:0:
335,124,125677,1,0,0:0:0:0:
324,198,125764,2,0,P|313:230|280:221,1,75.0000028610231
347,50,125936,2,0,P|380:40|391:73,1,75.0000028610231
237,149,126109,6,0,B|260:41|260:41|224:56,1,150.000005722046
85,209,126453,2,0,P|101:246|139:271,1,75.0000028610231
373,147,126626,2,0,P|377:187|357:227,1,75.0000028610231
258,310,126798,1,0,0:0:0:0:
258,310,126884,1,0,0:0:0:0:
258,310,126971,6,0,L|247:235,1,75.0000028610231
193,50,127143,2,0,L|171:198,1,150.000005722046
69,329,127488,6,0,B|34:334|34:334|106:264|127:357|210:311,1,225.000008583069
333,253,127833,2,0,P|356:270|327:271,1,75.0000028610231
170,198,128005,2,0,P|146:180|175:179,1,75.0000028610231
353,167,128177,1,0,0:0:0:0:
120,58,128350,5,0,0:0:0:0:
194,64,128436,1,0,0:0:0:0:
269,68,128522,2,0,P|294:55|266:50,1,75.0000028610231
120,58,128695,2,0,P|94:70|122:75,1,75.0000028610231
318,144,128867,6,0,P|365:87|360:14,1,150.000005722046
65,162,129212,2,0,B|41:169|41:169|90:178,1,75.0000028610231
284,252,129384,2,0,B|308:259|308:259|258:268,1,75.0000028610231
30,316,129557,2,0,P|67:308|99:289,1,75.0000028610231
240,142,129729,2,0,P|203:149|171:168,1,75.0000028610231
141,367,129902,2,0,P|168:342|187:309,1,75.0000028610231
130,89,130074,2,0,P|102:113|83:146,1,75.0000028610231
263,341,130246,6,0,B|283:183|283:183|243:235,1,225.000008583069
243,235,130591,2,0,B|321:188|347:254|393:227,1,150.000005722046
477,116,130936,1,0,0:0:0:0:
229,61,131109,5,0,0:0:0:0:
235,135,131195,1,0,0:0:0:0:
241,210,131281,2,0,B|230:231|235:251|235:251|219:237|218:222,1,75.0000028610231
229,61,131453,2,0,B|240:40|235:20|235:20|251:34|251:48,1,75.0000028610231
332,235,131626,2,0,B|341:193|311:130|253:125|253:125|294:130|325:116,1,225.000008583069
354,96,131971,5,0,0:0:0:0:
215,265,132143,1,0,0:0:0:0:
348,245,132315,1,0,0:0:0:0:
121,172,132488,1,0,0:0:0:0:
209,283,132660,1,0,0:0:0:0:
220,48,132833,1,0,0:0:0:0:
89,170,133005,6,0,B|162:196|162:196|213:151|213:151|291:140,1,225.000008583069
440,114,133350,2,0,B|465:109|465:109|446:154,1,75.0000028610231
338,271,133522,2,0,B|313:276|313:276|331:230,1,75.0000028610231
385,50,133695,1,0,0:0:0:0:
487,275,133867,5,0,0:0:0:0:
412,272,133953,1,0,0:0:0:0:
337,270,134040,2,0,B|300:271|282:281|282:281|299:286,1,75.0000028610231
457,197,134212,2,0,B|494:196|512:186|512:186|494:180,1,75.0000028610231
288,91,134384,6,0,B|255:37|255:37|270:216,1,225.000008583069
268,198,134729,2,0,B|366:153|366:153|354:193,1,150.000005722046
251,340,135074,2,0,P|214:332|182:313,1,75.0000028610231
93,93,135246,2,0,P|94:130|103:166,1,75.0000028610231
127,382,135419,2,0,P|106:350|96:314,1,75.0000028610231
158,83,135591,2,0,P|132:110|112:142,1,75.0000028610231
27,362,135764,6,0,B|8:226|8:226|94:241,1,225.000008583069
129,247,136109,1,0,0:0:0:0:
129,247,136281,1,0,0:0:0:0:
339,52,136453,6,0,P|383:150|330:245,1,225.000008583069
313,258,136798,1,0,0:0:0:0:
313,258,136971,1,0,0:0:0:0:
214,137,137143,5,0,0:0:0:0:
256,192,137229,12,0,138522,0:0:0:0:
