osu file format v14

[General]
AudioFilename: audio.mp3
AudioLeadIn: 0
PreviewTime: 58479
Countdown: 0
SampleSet: Soft
StackLeniency: 0.7
Mode: 0
LetterboxInBreaks: 0
WidescreenStoryboard: 0

[Editor]
Bookmarks: 21590,43915
DistanceSpacing: 1.46
BeatDivisor: 4
GridSize: 4
TimelineZoom: 1.7

[Metadata]
Title:Secret Survivor (short size)
TitleUnicode:Secret Survivor (short size)
Artist:Black Raison d'etre
ArtistUnicode:Black Raison d'être
Creator:Asuka_-
Version:Insane
Source:小鳥遊六花・改 ~劇場版 中二病でも恋がしたい!~
Tags:takanashi rikka kai gekijouban chuunibyou demo koi ga shitai Uchida maaya Akasaki chinatsu Asakura azumi Uesaka sumire
BeatmapID:1477397
BeatmapSetID:697485

[Difficulty]
HPDrainRate:6
CircleSize:4.2
OverallDifficulty:7
ApproachRate:9
SliderMultiplier:1.7
SliderTickRate:1

[Events]
//Background and Video events
0,0,"bg.jpg",0,0
//Break Periods
//Storyboard Layer 0 (Background)
//Storyboard Layer 1 (Fail)
//Storyboard Layer 2 (Pass)
//Storyboard Layer 3 (Foreground)
//Storyboard Sound Samples

[TimingPoints]
660,348.837209302326,4,2,0,30,1,0
660,-133.333333333333,4,2,0,30,0,0
2055,-125,4,2,0,30,0,0
10427,-72.463768115942,4,2,1,60,0,0
10601,-108.695652173913,4,2,1,60,0,0
11822,-72.463768115942,4,2,1,60,0,0
11997,-108.695652173913,4,2,1,60,0,0
13218,-72.463768115942,4,2,1,60,0,0
13392,-108.695652173913,4,2,1,60,0,0
14613,-83.3333333333333,4,2,1,40,0,0
14875,-90.9090909090909,4,2,1,40,0,0
15136,-100,4,2,1,40,0,0
15398,-111.111111111111,4,2,1,40,0,0
16008,-100,4,2,2,50,0,0
20718,-100,4,2,1,45,0,0
21590,-125,4,2,1,40,0,0
32753,-111.111111111111,4,2,1,45,0,0
43915,-100,4,2,1,50,0,0
59264,-90.9090909090909,4,2,1,60,0,1
69904,-90.9090909090909,4,2,1,40,0,1
70253,-90.9090909090909,4,2,1,60,0,1
86997,-100,4,2,1,40,0,0
89787,-133.333333333333,4,2,1,40,0,0
90834,-100,4,2,1,5,0,0

[Colours]
Combo1 : 255,128,128
Combo2 : 128,255,255
Combo3 : 255,128,255
Combo4 : 255,255,128

[HitObjects]
48,64,660,6,0,P|91:147|185:114,1,191.250007295609
226,36,1357,2,0,P|217:128|201:228,1,191.250007295609
163,322,2055,6,0,P|201:311|242:316,1,68,2|0,0:0|0:0,0:0:0:0:
328,354,2404,1,0,0:0:0:0:
328,354,2578,2,0,P|317:319|322:270,1,68,2|2,0:0|0:3,0:0:0:0:
334,141,2927,1,0,0:0:0:0:
222,211,3101,1,0,0:0:0:0:
254,10,3276,6,0,P|329:20|409:25,1,136,2|0,0:0|0:0,0:0:0:0:
477,101,3799,1,2,0:0:0:0:
334,141,3973,1,0,0:0:0:0:
512,79,4148,2,0,P|508:124|499:171,1,68
429,324,4497,5,0,0:0:0:0:
382,232,4672,1,0,0:0:0:0:
294,370,4846,1,2,0:0:0:0:
232,204,5020,1,2,0:0:0:0:
144,380,5194,1,2,0:0:0:0:
66,171,5369,2,0,L|77:100,1,68,2|2,0:0|0:3,0:0:0:0:
144,380,5892,1,0,0:0:0:0:
144,380,6066,1,0,0:0:0:0:
227,304,6241,6,0,P|262:302|310:312,1,68,2|0,0:0|0:0,0:0:0:0:
158,151,6590,1,0,0:0:0:0:
227,304,6764,2,0,L|234:235,1,68,2|2,0:0|0:3,0:0:0:0:
404,119,7113,2,0,L|417:254,1,136,2|0,0:0|0:0,0:0:0:0:
256,192,7636,12,0,8944,0:0:0:0:
256,192,9032,12,0,10078,0:0:0:0:
391,60,10427,6,0,B|402:87|402:87|392:117,1,58.6500000894928,2|0,0:0|0:0,0:0:0:0:
308,178,10601,2,0,P|364:137|416:144,1,117.299996062317,8|0,0:0|0:0,0:0:0:0:
438,174,10950,2,0,L|424:291,1,117.299996062317,6|0,0:0|0:0,0:0:0:0:
405,339,11299,1,2,0:0:0:0:
229,308,11473,1,0,0:0:0:0:
248,302,11561,1,0,0:0:0:0:
264,299,11648,1,0,0:0:0:0:
281,295,11735,1,0,0:0:0:0:
295,291,11822,6,0,B|301:263|301:263|288:226,1,58.6500000894928,2|0,0:0|0:0,0:0:0:0:
193,162,11997,2,0,P|237:199|307:179,1,117.299996062317,8|0,0:0|0:0,0:0:0:0:
332,163,12346,2,0,L|344:44,1,117.299996062317,6|0,0:0|0:0,0:0:0:0:
306,12,12694,1,8,0:0:0:0:
170,51,12869,1,0,0:0:0:0:
157,48,12956,1,0,0:0:0:0:
143,45,13043,1,0,0:0:0:0:
128,42,13130,1,0,0:0:0:0:
113,38,13218,6,0,B|104:69|104:69|117:100,1,58.6500000894928,2|0,0:0|0:0,0:0:0:0:
207,162,13392,2,0,P|146:120|86:143,1,117.299996062317,8|0,0:0|0:0,0:0:0:0:
75,157,13741,2,0,L|82:283,1,117.299996062317,6|0,0:0|0:0,0:0:0:0:
96,327,14090,1,8,0:0:0:0:
208,269,14264,1,2,0:0:0:0:
306,343,14439,1,2,0:0:0:0:
440,125,14613,6,0,L|431:248,1,101.999996887207,8|0,0:0|0:0,0:0:0:0:
344,243,14875,6,0,L|334:135,1,93.5000028533936,8|0,0:0|0:0,0:0:0:0:
247,128,15136,6,0,L|240:228,1,85,8|0,0:0|0:0,0:0:0:0:
155,236,15398,6,0,L|147:137,1,76.4999976654053,8|0,0:0|0:0,0:0:0:0:
63,132,15660,6,0,L|51:235,1,76.4999976654053,12|0,0:0|0:0,0:0:0:0:
191,311,16008,6,0,L|131:322,1,42.5,2|0,0:0|0:0,0:0:0:0:
33,235,16183,2,0,L|93:244,1,42.5,2|0,0:0|0:0,0:0:0:0:
191,154,16357,2,0,L|116:163,1,42.5,2|0,0:0|0:0,0:0:0:0:
45,46,16532,2,0,L|224:69,1,170,4|0,0:3|0:0,0:0:0:0:
437,58,17055,1,8,0:0:0:0:
452,92,17142,1,8,0:3:0:0:
461,129,17229,1,8,0:3:0:0:
455,166,17316,1,8,0:3:0:0:
434,199,17404,6,0,B|392:208,1,42.5,2|0,0:0|0:0,0:0:0:0:
292,309,17578,2,0,B|366:318,1,42.5,2|0,0:0|0:0,0:0:0:0:
218,157,17753,2,0,B|206:222,1,42.5,2|0,0:0|0:0,0:0:0:0:
107,328,17927,2,0,L|90:139,1,170,4|0,0:3|0:0,0:0:0:0:
275,38,18450,1,8,0:0:0:0:
269,84,18537,1,8,0:3:0:0:
266,128,18625,1,8,0:3:0:0:
262,168,18712,1,8,0:3:0:0:
257,211,18799,6,0,B|307:204,1,42.5,2|0,0:0|0:0,0:0:0:0:
409,128,18973,2,0,B|356:117,1,42.5,2|0,0:0|0:0,0:0:0:0:
384,315,19148,2,0,B|390:263,1,42.5,2|0,0:0|0:0,0:0:0:0:
512,122,19322,2,0,L|492:292,1,170,4|0,0:3|0:0,0:0:0:0:
384,315,19846,1,8,0:0:0:0:
345,313,19933,1,8,0:3:0:0:
306,310,20020,1,8,0:3:0:0:
267,306,20107,1,8,0:3:0:0:
229,301,20194,6,0,L|233:252,1,42.5,2|0,0:0|0:0,0:0:0:0:
58,372,20369,2,0,L|53:321,1,42.5,2|0,0:0|0:0,0:0:0:0:
11,52,20718,5,8,0:0:0:0:
11,52,20805,1,8,0:0:0:0:
11,52,20892,2,0,L|2:-19,1,42.5,2|0,0:0|0:0,0:0:0:0:
92,139,21066,2,0,L|86:185,1,42.5,2|0,0:0|0:0,0:0:0:0:
180,67,21241,1,8,0:0:0:0:
222,61,21328,1,2,0:0:0:0:
264,57,21415,1,2,0:0:0:0:
304,52,21503,1,2,0:0:0:0:
343,48,21590,1,2,0:0:0:0:
458,185,21764,5,2,0:0:0:0:
342,206,21939,2,0,P|345:170|360:126,1,68
236,241,22287,1,2,0:0:0:0:
141,146,22462,2,0,P|129:183|126:225,1,68,2|0,0:0|0:0,0:0:0:0:
138,367,22811,6,0,L|290:348,1,136,2|0,0:0|0:0,0:0:0:0:
418,184,23334,1,2,0:3:0:0:
395,362,23508,1,2,0:0:0:0:
413,377,24032,2,0,P|433:327|420:269,1,102,2|0,0:3|0:0,0:0:0:0:
399,239,24380,6,0,L|323:248,1,68,2|0,0:0|0:0,0:0:0:0:
497,76,24729,1,2,0:0:0:0:
348,152,24904,2,0,L|263:161,1,68,2|0,0:0|0:0,0:0:0:0:
432,4,25253,1,0,0:3:0:0:
468,4,25601,6,0,P|498:61|470:139,1,136,2|0,0:0|0:0,0:0:0:0:
411,200,26125,1,2,0:0:0:0:
291,132,26299,1,2,0:0:0:0:
57,307,26648,2,0,P|117:268|97:324,1,170,6|0,0:0|0:0,0:0:0:0:
86,343,27171,1,2,0:0:0:0:
264,327,27346,5,2,0:0:0:0:
192,201,27520,2,0,P|196:165|216:126,1,68,2|0,0:0|0:0,0:0:0:0:
292,199,27869,1,2,0:0:0:0:
131,82,28044,2,0,P|115:115|108:159,1,68
166,289,28392,6,0,L|321:275,1,136,2|0,0:0|0:0,0:0:0:0:
400,312,28915,1,2,0:3:0:0:
488,129,29090,1,2,0:0:0:0:
480,164,29439,1,2,0:0:0:0:
397,120,29613,1,2,0:0:0:0:
326,171,29787,1,2,0:0:0:0:
213,66,29962,6,0,P|199:97|201:130,1,68,2|0,0:0|0:0,0:0:0:0:
277,6,30311,1,0,0:0:0:0:
118,127,30485,6,0,P|122:160|140:188,1,68,2|0,0:0|0:0,0:0:0:0:
143,43,30834,1,0,0:0:0:0:
68,227,31008,6,0,P|88:253|118:269,1,68,2|0,0:0|0:0,0:0:0:0:
47,141,31357,1,0,0:0:0:0:
77,337,31532,6,0,P|107:349|141:348,1,68,2|0,0:0|0:0,0:0:0:0:
11,285,31881,1,0,0:0:0:0:
210,177,32055,6,0,P|239:176|296:211,1,68,2|4,0:0|0:3,0:0:0:0:
415,305,32404,2,0,P|388:269|411:194,1,102,8|0,0:3|0:0,0:0:0:0:
420,174,32753,1,2,0:0:0:0:
306,296,32927,5,2,0:0:0:0:
274,190,33101,1,2,0:0:0:0:
318,93,33276,1,2,0:0:0:0:
240,210,33450,2,0,P|199:208|161:195,1,76.4999976654053,2|0,0:0|0:0,0:0:0:0:
318,93,33799,1,2,0:0:0:0:
376,265,33973,6,0,L|481:250,1,76.4999976654053,2|0,0:0|0:0,0:0:0:0:
215,136,34322,1,2,0:0:0:0:
204,296,34497,1,8,0:0:0:0:
225,48,34671,1,2,0:0:0:0:
225,48,34758,1,2,0:0:0:0:
225,48,34846,1,2,0:0:0:0:
321,154,35020,5,2,0:0:0:0:
165,197,35194,1,8,0:0:0:0:
32,115,35369,1,2,0:0:0:0:
32,115,35456,1,2,0:0:0:0:
32,115,35543,1,2,0:0:0:0:
67,138,35892,5,2,0:0:0:0:
176,28,36066,2,0,P|181:69|182:109,1,76.4999976654053,2|0,0:0|0:0,0:0:0:0:
182,142,36328,1,2,0:0:0:0:
182,142,36415,1,2,0:0:0:0:
320,75,36590,1,8,0:0:0:0:
335,241,36764,6,0,P|300:245|243:216,1,76.4999976654053,2|0,0:0|0:0,0:0:0:0:
483,180,37113,1,2,0:0:0:0:
417,308,37287,1,8,0:0:0:0:
309,150,37462,2,0,L|320:70,1,76.4999976654053,2|0,0:0|0:0,0:0:0:0:
325,36,37723,1,2,0:0:0:0:
325,36,37811,1,2,0:0:0:0:
192,94,37985,1,2,0:0:0:0:
59,11,38160,1,2,0:0:0:0:
59,11,38247,1,2,0:0:0:0:
59,11,38334,1,2,0:0:0:0:
149,221,38508,5,2,0:0:0:0:
199,136,38683,1,2,0:0:0:0:
181,48,38857,1,2,0:0:0:0:
233,160,39032,2,0,P|275:156|318:147,1,76.4999976654053,2|0,0:0|0:0,0:0:0:0:
82,102,39380,1,8,0:0:0:0:
44,310,39555,5,2,0:0:0:0:
44,310,39642,1,2,0:0:0:0:
44,310,39729,1,2,0:0:0:0:
167,217,39904,1,2,0:0:0:0:
271,330,40078,1,2,0:0:0:0:
426,249,40253,2,0,P|419:294|418:325,1,76.4999976654053,2|0,0:0|0:0,0:0:0:0:
509,184,40601,5,2,0:0:0:0:
381,123,40776,1,2,0:0:0:0:
486,36,40950,1,2,0:0:0:0:
379,149,41125,2,0,P|329:161|278:151,1,76.4999976654053,2|0,0:0|0:0,0:0:0:0:
261,144,41386,1,2,0:0:0:0:
261,144,41473,1,2,0:0:0:0:
277,277,41648,2,0,L|264:357,1,76.4999976654053,2|0,0:0|0:0,0:0:0:0:
153,142,41997,2,0,L|168:236,1,76.4999976654053,2|0,0:0|0:0,0:0:0:0:
74,21,42346,5,2,0:0:0:0:
165,131,42520,2,0,P|200:136|245:137,1,76.4999976654053,2|0,0:0|0:0,0:0:0:0:
220,216,42782,2,0,P|260:211|305:193,1,76.4999976654053,2|0,0:0|0:0,0:0:0:0:
303,275,43043,2,0,P|343:255|374:220,1,76.4999976654053,8|0,0:0|0:0,0:0:0:0:
396,188,43305,5,8,0:0:0:0:
407,136,43392,1,8,0:0:0:0:
417,87,43479,1,8,0:0:0:0:
424,35,43566,1,8,0:0:0:0:
293,7,43741,1,2,0:0:0:0:
197,185,43915,6,0,P|114:199|76:107,1,170,6|8,0:0|0:0,0:0:0:0:
149,132,44439,1,2,0:0:0:0:
48,318,44613,2,0,L|234:297,1,170,2|8,0:0|0:0,0:0:0:0:
293,336,45136,1,2,0:0:0:0:
423,146,45311,6,0,L|411:245,1,85,2|0,0:0|0:0,0:0:0:0:
470,56,45660,1,8,0:0:0:0:
295,118,45834,2,0,L|285:210,1,85,2|0,0:0|0:0,0:0:0:0:
345,16,46183,1,2,0:0:0:0:
166,83,46357,1,8,0:0:0:0:
145,173,46532,1,2,0:0:0:0:
217,1,46706,1,2,0:0:0:0:
135,198,46880,6,0,P|169:217|217:208,1,85,2|8,0:0|0:0,0:0:0:0:
21,92,47229,2,0,L|30:193,1,85,2|0,0:0|0:0,0:0:0:0:
184,320,47578,1,2,0:0:0:0:
90,278,47753,1,8,0:0:0:0:
29,365,47927,1,0,0:0:0:0:
194,285,48101,5,2,0:0:0:0:
137,166,48276,1,2,0:0:0:0:
220,17,48450,1,8,0:0:0:0:
116,204,48625,2,0,P|65:213|19:213,1,85,2|0,0:0|0:0,0:0:0:0:
247,362,48973,2,0,P|296:359|343:369,1,85,2|8,0:0|0:0,0:0:0:0:
402,170,49322,5,0,0:0:0:0:
279,248,49497,1,2,0:0:0:0:
425,87,49671,2,0,P|491:151|461:234,1,170,2|0,0:0|0:0,0:0:0:0:
258,266,50194,2,0,B|250:219|250:219|262:170,1,85,2|0,0:0|0:0,0:0:0:0:
298,105,50543,1,8,0:0:0:0:
106,38,50718,2,0,L|119:142,1,85,2|0,0:0|0:0,0:0:0:0:
56,312,51066,2,0,L|75:218,1,85,2|8,0:0|0:0,0:0:0:0:
258,188,51415,5,2,0:0:0:0:
232,307,51590,1,2,0:0:0:0:
378,137,51764,1,0,0:0:0:0:
173,94,51939,1,8,0:0:0:0:
232,307,52113,1,2,0:0:0:0:
403,161,52287,6,0,L|395:69,1,85,2|0,0:0|0:0,0:0:0:0:
173,94,52636,1,8,0:0:0:0:
322,313,52811,2,0,L|311:207,1,85,2|0,0:0|0:0,0:0:0:0:
57,240,53160,2,0,L|62:324,1,85,2|8,0:0|0:0,0:0:0:0:
173,94,53508,1,0,0:0:0:0:
173,349,53683,6,0,P|66:362|35:289,1,170,2|8,0:0|0:0,0:0:0:0:
238,233,54206,2,0,L|347:224,1,85,2|0,0:0|0:0,0:0:0:0:
135,106,54555,1,2,0:0:0:0:
239,324,54729,1,8,0:0:0:0:
411,205,54904,1,2,0:0:0:0:
411,205,54991,1,2,0:0:0:0:
411,205,55078,5,6,0:0:0:0:
337,132,55253,1,2,0:0:0:0:
238,233,55427,1,8,0:0:0:0:
106,85,55601,2,0,L|95:172,1,85,6|0,0:0|0:0,0:0:0:0:
130,286,55950,5,0,0:0:0:0:
238,233,56125,1,8,0:0:0:0:
399,354,56299,2,0,L|416:245,1,85,6|0,0:0|0:0,0:0:0:0:
443,104,56648,5,2,0:0:0:0:
329,147,56822,1,8,0:0:0:0:
126,37,56997,2,0,L|109:144,1,85,6|0,0:0|0:0,0:0:0:0:
131,319,57346,5,2,0:0:0:0:
236,274,57520,1,8,0:0:0:0:
423,363,57694,2,0,L|439:257,1,85,6|0,0:0|0:0,0:0:0:0:
126,37,58043,2,0,L|115:106,1,42.5,2|0,0:0|0:0,0:0:0:0:
98,164,58218,1,8,0:3:0:0:
127,218,58305,1,8,0:3:0:0:
183,243,58392,1,8,0:3:0:0:
244,240,58478,1,8,0:3:0:0:
292,200,58566,6,0,P|354:191|407:243,1,127.5,4|0,0:3|0:0,0:0:0:0:
413,309,58915,2,0,B|404:284|404:284|410:249,1,42.5,8|8,0:0|0:0,0:0:0:0:
493,41,59090,2,0,B|502:61|502:61|498:83,1,42.5,8|8,0:0|0:0,0:0:0:0:
413,309,59264,6,0,P|361:324|312:304,1,93.5000028533936,6|0,0:0|0:0,0:0:0:0:
193,223,59613,1,8,0:0:0:0:
52,377,59787,2,0,L|38:274,1,93.5000028533936,2|0,0:0|0:0,0:0:0:0:
244,112,60136,1,0,0:0:0:0:
176,336,60311,1,8,0:0:0:0:
127,16,60485,6,0,P|223:28|341:37,1,187.000005706787,2|0,0:0|0:0,0:0:0:0:
462,15,61008,1,8,0:0:0:0:
328,256,61183,2,0,P|349:143|425:136,1,187.000005706787,2|2,0:0|0:0,0:0:0:0:
393,212,61706,1,8,0:0:0:0:
148,101,61880,6,0,L|156:216,1,93.5000028533936,2|0,0:0|0:0,0:0:0:0:
238,306,62229,1,2,0:0:0:0:
280,150,62404,1,8,0:0:0:0:
355,330,62578,1,0,0:0:0:0:
411,96,62753,1,2,0:0:0:0:
470,344,62927,2,0,L|485:236,1,93.5000028533936,2|8,0:0|0:0,0:0:0:0:
450,367,63276,6,0,P|406:362|348:351,1,93.5000028533936,2|0,0:0|0:0,0:0:0:0:
155,291,63625,1,2,0:0:0:0:
353,242,63799,1,8,0:0:0:0:
104,172,63973,1,0,0:0:0:0:
401,110,64148,1,2,0:0:0:0:
72,23,64322,2,0,P|114:29|179:35,1,93.5000028533936,0|8,0:0|0:0,0:0:0:0:
41,11,64671,6,0,P|-10:93|29:189,1,187.000005706787,6|0,0:0|0:0,0:0:0:0:
116,282,65194,1,8,0:0:0:0:
270,88,65369,2,0,L|375:79,1,93.5000028533936,2|0,0:0|0:0,0:0:0:0:
198,142,65718,2,0,P|182:97|204:31,1,93.5000028533936,2|8,0:0|0:0,0:0:0:0:
437,23,66066,6,0,P|457:72|437:131,1,93.5000028533936,2|0,0:0|0:0,0:0:0:0:
386,299,66415,1,2,0:0:0:0:
489,223,66590,1,8,0:0:0:0:
260,357,66764,2,0,P|256:278|243:159,1,187.000005706787,2|0,0:0|0:0,0:0:0:0:
230,70,67287,1,8,0:0:0:0:
134,266,67462,1,8,0:0:0:0:
134,266,67549,1,8,0:0:0:0:
134,266,67636,5,2,0:0:0:0:
350,191,67811,1,2,0:0:0:0:
211,38,67985,1,8,0:0:0:0:
299,339,68160,2,0,P|399:360|468:292,1,187.000005706787,2|0,0:0|0:0,0:0:0:0:
496,184,68683,1,8,0:0:0:0:
206,122,68857,1,8,0:0:0:0:
206,122,68944,1,8,0:0:0:0:
206,122,69032,5,8,0:0:0:0:
369,55,69206,1,8,0:0:0:0:
303,187,69380,1,8,0:0:0:0:
91,22,69555,1,8,0:0:0:0:
72,48,69904,6,0,B|96:38|96:38|118:42,1,46.7500014266968,8|8,0:0|0:0,0:0:0:0:
205,256,70078,2,0,B|180:261|180:261|141:242,1,46.7500014266968,8|0,0:0|0:0,0:0:0:0:
72,48,70253,6,0,L|61:172,1,93.5000028533936,6|0,0:0|0:0,0:0:0:0:
49,294,70601,1,2,0:0:0:0:
227,83,70776,2,0,P|331:83|372:176,1,187.000005706787,8|0,0:0|0:0,0:0:0:0:
345,314,71299,1,2,0:0:0:0:
278,166,71473,1,8,0:0:0:0:
49,294,71648,6,0,L|249:278,1,187.000005706787,6|0,0:0|0:0,0:0:0:0:
445,361,72171,2,0,P|444:315|460:254,1,93.5000028533936,8|0,0:0|0:0,0:0:0:0:
512,160,72520,1,2,0:0:0:0:
296,349,72694,2,0,L|172:360,1,93.5000028533936,2|8,0:0|0:0,0:0:0:0:
47,200,73043,1,0,0:0:0:0:
259,52,73218,6,0,P|299:139|248:209,1,187.000005706787,6|8,0:0|0:0,0:0:0:0:
413,17,73741,2,0,L|514:25,1,93.5000028533936,2|0,0:0|0:0,0:0:0:0:
207,131,74090,1,2,0:0:0:0:
366,228,74264,1,8,0:0:0:0:
259,52,74439,1,2,0:0:0:0:
208,298,74613,1,2,0:0:0:0:
29,66,74787,5,2,0:0:0:0:
207,131,74962,1,8,0:0:0:0:
396,33,75136,2,0,L|387:130,1,93.5000028533936,2|0,0:0|0:0,0:0:0:0:
119,106,75485,2,0,L|135:219,1,93.5000028533936,2|8,0:0|0:0,0:0:0:0:
341,345,75834,1,8,0:0:0:0:
341,345,75921,1,8,0:0:0:0:
341,345,76008,2,0,P|257:290|177:336,1,187.000005706787,6|8,0:0|0:0,0:0:0:0:
452,175,76532,6,0,L|432:282,1,93.5000028533936,2|0,0:0|0:0,0:0:0:0:
304,69,76880,1,2,0:0:0:0:
428,14,77055,1,8,0:0:0:0:
151,182,77229,2,0,P|121:103|194:35,1,187.000005706787,2|2,0:0|0:0,0:0:0:0:
273,255,77753,1,8,0:0:0:0:
126,340,77927,6,0,L|30:323,1,93.5000028533936,2|0,0:0|0:0,0:0:0:0:
381,337,78276,1,2,0:0:0:0:
257,375,78450,1,8,0:0:0:0:
461,106,78625,2,0,L|475:304,1,187.000005706787,6|0,0:0|0:0,0:0:0:0:
323,44,79148,1,8,0:0:0:0:
223,234,79322,6,0,L|24:253,1,187.000005706787,2|2,0:0|0:0,0:0:0:0:
326,180,79846,1,8,0:0:0:0:
264,330,80020,1,0,0:0:0:0:
276,40,80194,6,0,P|385:24|434:100,1,187.000005706787,2|8,0:0|0:0,0:0:0:0:
441,218,80718,1,2,0:0:0:0:
341,103,80892,1,8,0:0:0:0:
264,330,81066,1,2,0:0:0:0:
235,349,81415,6,0,P|241:304|247:253,1,93.5000028533936,6|0,0:0|0:0,0:0:0:0:
29,181,81764,2,0,P|33:233|42:288,1,93.5000028533936,2|8,0:0|0:0,0:0:0:0:
210,54,82113,1,2,0:0:0:0:
225,87,82462,5,2,0:0:0:0:
116,70,82636,1,8,0:0:0:0:
321,20,82811,2,0,P|343:71|329:129,1,93.5000028533936,2|0,0:0|0:0,0:0:0:0:
137,157,83160,2,0,P|113:102|133:35,1,93.5000028533936,2|8,0:0|0:0,0:0:0:0:
321,20,83508,1,2,0:0:0:0:
376,268,83683,5,2,0:0:0:0:
309,198,83857,1,0,0:0:0:0:
374,356,84032,1,8,0:0:0:0:
438,142,84206,1,2,0:0:0:0:
255,310,84380,6,0,L|104:318,1,140.25000428009,6|0,0:0|0:0,0:0:0:0:
73,299,84729,1,8,0:0:0:0:
357,184,84904,2,0,L|182:194,1,140.25000428009,6|0,0:0|0:0,0:0:0:0:
176,176,85253,1,8,0:0:0:0:
470,58,85427,6,0,P|469:153|459:273,1,187.000005706787,6|0,0:0|0:0,0:0:0:0:
405,354,85950,1,2,0:0:0:0:
300,275,86125,1,8,0:0:0:0:
207,362,86299,1,2,0:0:0:0:
81,126,86473,5,8,0:0:0:0:
358,197,86648,1,8,0:0:0:0:
100,352,86997,6,0,P|89:314|98:262,1,85,6|0,0:0|0:0,0:0:0:0:
151,176,87346,1,2,0:0:0:0:
151,176,87520,1,8,0:0:0:0:
244,296,87694,2,0,L|424:278,1,170,2|2,0:0|0:0,0:0:0:0:
491,214,88218,1,8,0:0:0:0:
428,59,88392,6,0,P|333:16|271:63,1,170,2|2,0:0|0:0,0:0:0:0:
215,144,88915,1,8,0:0:0:0:
128,16,89090,5,10,0:0:0:0:
412,166,89439,1,10,0:0:0:0:
118,371,89787,6,0,B|66:355|41:299|68:228|130:222|130:222|181:249|181:249|225:232|225:232|268:248|268:248|299:239,1,382.500014591218,4|0,0:0|0:0,0:0:0:0:
