osu file format v14

[General]
AudioFilename: audio.mp3
AudioLeadIn: 0
PreviewTime: 58479
Countdown: 0
SampleSet: Soft
StackLeniency: 0.7
Mode: 0
LetterboxInBreaks: 0
WidescreenStoryboard: 0

[Editor]
Bookmarks: 21590,43915
DistanceSpacing: 1.4
BeatDivisor: 4
GridSize: 4
TimelineZoom: 1

[Metadata]
Title:Secret Survivor (short size)
TitleUnicode:Secret Survivor (short size)
Artist:Black Raison d'etre
ArtistUnicode:Black Raison d'être
Creator:Asuka_-
Version:Hard
Source:小鳥遊六花・改 ~劇場版 中二病でも恋がしたい!~
Tags:takanashi rikka kai gekijouban chuunibyou demo koi ga shitai Uchida maaya Akasaki chinatsu Asakura azumi Uesaka sumire
BeatmapID:1477396
BeatmapSetID:697485

[Difficulty]
HPDrainRate:5.5
CircleSize:3.8
OverallDifficulty:6
ApproachRate:8
SliderMultiplier:1.4
SliderTickRate:1

[Events]
//Background and Video events
0,0,"bg.jpg",0,0
//Break Periods
//Storyboard Layer 0 (Background)
//Storyboard Layer 1 (Fail)
//Storyboard Layer 2 (Pass)
//Storyboard Layer 3 (Foreground)
//Storyboard Sound Samples

[TimingPoints]
660,348.837209302326,4,2,0,30,1,0
2055,-133.333333333333,4,2,0,30,0,0
10427,-100,4,2,1,60,0,0
14613,-100,4,2,1,40,0,0
16008,-100,4,2,2,50,0,0
20718,-100,4,2,1,45,0,0
21590,-125,4,2,1,40,0,0
32753,-125,4,2,1,45,0,0
43915,-111.111111111111,4,2,1,50,0,0
59264,-100,4,2,1,60,0,1
69904,-100,4,2,1,40,0,1
70253,-100,4,2,1,60,0,1
86997,-100,4,2,1,40,0,0
89787,-133.333333333333,4,2,1,40,0,0
90834,-100,4,2,1,5,0,0

[Colours]
Combo1 : 255,128,128
Combo2 : 128,255,255
Combo3 : 255,128,255
Combo4 : 255,255,128

[HitObjects]
85,316,660,5,0,0:0:0:0:
85,316,1357,1,0,0:0:0:0:
85,316,2055,2,0,P|119:265|103:204,1,105.000004005432,2|0,0:0|0:0,0:0:0:0:
80,158,2578,1,2,0:0:0:0:
153,30,2927,2,0,P|185:29|212:37,1,52.5000020027161,0|0,0:0|0:0,0:0:0:0:
262,80,3276,6,0,P|276:126|250:200,1,105.000004005432,2|0,0:0|0:0,0:0:0:0:
224,242,3799,1,2,0:0:0:0:
224,242,3973,1,0,0:0:0:0:
256,307,4148,2,0,L|328:301,1,52.5000020027161,0|0,0:0|0:0,0:0:0:0:
374,270,4497,6,0,P|380:250|380:218,1,52.5000020027161,2|0,0:0|0:0,0:0:0:0:
368,145,4846,2,0,P|427:120|470:136,1,105.000004005432,2|2,0:0|0:0,0:0:0:0:
501,194,5369,1,2,0:0:0:0:
317,72,5892,2,0,P|287:80|247:81,1,52.5000020027161,0|0,0:0|0:0,0:0:0:0:
204,41,6241,6,0,P|161:23|103:40,1,105.000004005432,2|0,0:0|0:0,0:0:0:0:
71,102,6764,2,0,L|79:226,1,105.000004005432,2|2,0:0|0:0,0:0:0:0:
258,339,7636,6,0,B|358:329|358:329|410:250|410:250|276:264,1,315.000012016297,2|0,0:0|0:0,0:0:0:0:
216,135,9032,6,0,B|116:125|116:125|64:46|64:46|198:60,1,315.000012016297,2|0,0:0|0:0,0:0:0:0:
376,91,10427,6,0,P|352:92|320:84,1,35,2|0,0:0|0:0,0:0:0:0:
311,52,10601,2,0,L|299:140,1,70,8|0,0:0|0:0,0:0:0:0:
272,215,10950,2,0,L|433:208,1,140,6|2,0:0|0:0,0:0:0:0:
496,258,11473,1,0,0:0:0:0:
496,258,11648,1,0,0:0:0:0:
425,326,11822,6,0,P|403:329|381:319,1,35,2|0,0:0|0:0,0:0:0:0:
364,283,11997,2,0,L|352:362,1,70,8|0,0:0|0:0,0:0:0:0:
255,342,12346,2,0,L|278:180,1,140,6|8,0:0|0:0,0:0:0:0:
247,108,12869,1,0,0:0:0:0:
247,108,13043,1,0,0:0:0:0:
168,167,13218,6,0,P|140:175|108:175,1,35,2|0,0:0|0:0,0:0:0:0:
93,147,13392,2,0,L|77:235,1,70,8|0,0:0|0:0,0:0:0:0:
61,312,13741,2,0,L|210:301,1,140,6|8,0:0|0:0,0:0:0:0:
289,258,14264,1,2,0:0:0:0:
289,258,14439,1,2,0:0:0:0:
384,280,14613,6,0,L|368:388,2,105,8|8|8,0:0|0:0|0:0,0:0:0:0:
493,181,15398,2,0,L|475:302,2,105,8|12|0,0:0|0:0|0:0,0:0:0:0:
474,135,16008,6,0,P|442:124|391:145,1,70,2|2,0:0|0:0,0:0:0:0:
313,160,16357,2,0,P|290:165|259:167,1,35,2|0,0:0|0:0,0:0:0:0:
242,132,16532,2,0,L|228:274,1,140,4|0,0:3|0:0,0:0:0:0:
217,369,17055,1,8,0:0:0:0:
217,369,17142,1,8,0:3:0:0:
217,369,17229,1,8,0:3:0:0:
118,365,17404,6,0,P|91:364|50:345,1,70,2|2,0:0|0:0,0:0:0:0:
26,251,17753,2,0,P|29:228|33:201,1,35,2|0,0:0|0:0,0:0:0:0:
18,169,17927,2,0,L|179:189,1,140,4|0,0:3|0:0,0:0:0:0:
254,201,18450,1,8,0:0:0:0:
254,201,18537,1,8,0:3:0:0:
254,201,18625,1,8,0:3:0:0:
341,245,18799,6,0,P|354:207|346:170,1,70,2|2,0:0|0:0,0:0:0:0:
406,98,19148,2,0,P|427:89|454:94,1,35,2|0,0:0|0:0,0:0:0:0:
479,116,19322,2,0,L|465:270,1,140,4|0,0:3|0:0,0:0:0:0:
458,353,19846,1,8,0:0:0:0:
458,353,19933,1,8,0:3:0:0:
458,353,20020,1,8,0:3:0:0:
382,291,20194,6,0,P|337:267|277:285,1,105,2|0,0:0|0:0,0:0:0:0:
243,302,20543,1,0,0:0:0:0:
184,223,20718,2,0,P|151:226|107:230,1,70,8|2,0:0|0:0,0:0:0:0:
69,214,20979,2,0,L|54:168,2,35,0|2|0,0:0|0:0|0:0,0:0:0:0:
38,243,21241,2,0,L|30:278,2,35,8|2|2,0:0|0:0|0:0,0:0:0:0:
58,357,21590,5,2,0:0:0:0:
58,357,21764,1,2,0:0:0:0:
113,293,21939,2,0,P|144:286|185:296,1,56,0|0,0:0|0:0,0:0:0:0:
234,331,22287,1,2,0:0:0:0:
234,331,22462,2,0,P|242:297|241:255,1,56,2|0,0:0|0:0,0:0:0:0:
189,217,22811,2,0,P|239:195|307:231,1,112,2|0,0:0|0:0,0:0:0:0:
337,282,23334,1,2,0:3:0:0:
337,282,23508,1,2,0:0:0:0:
464,75,24032,1,2,0:3:0:0:
330,156,24380,6,0,P|301:170|252:164,1,56,2|0,0:0|0:0,0:0:0:0:
205,139,24729,1,2,0:0:0:0:
205,139,24904,1,2,0:0:0:0:
135,279,25253,1,0,0:3:0:0:
253,380,25601,2,0,L|390:359,1,112,2|0,0:0|0:0,0:0:0:0:
433,326,26125,1,2,0:0:0:0:
367,282,26299,1,2,0:0:0:0:
457,154,26648,1,6,0:0:0:0:
258,27,27171,5,2,0:0:0:0:
258,27,27345,1,2,0:0:0:0:
205,85,27520,2,0,P|202:112|209:139,1,56,2|0,0:0|0:0,0:0:0:0:
263,196,27868,1,2,0:0:0:0:
263,196,28043,2,0,P|289:205|339:203,1,56,0|0,0:0|0:0,0:0:0:0:
381,161,28392,2,0,P|399:204|371:266,1,112,2|0,0:0|0:0,0:0:0:0:
303,291,28915,1,2,0:3:0:0:
303,291,29089,1,2,0:0:0:0:
149,323,29439,1,2,0:0:0:0:
149,323,29613,2,0,L|139:252,1,56,2|2,0:0|0:0,0:0:0:0:
142,188,29962,6,0,P|115:189|92:205,1,56,2|0,0:0|0:0,0:0:0:0:
226,232,30311,1,0,0:0:0:0:
284,180,30485,6,0,P|293:150|287:105,1,56,2|0,0:0|0:0,0:0:0:0:
226,232,30834,1,0,0:0:0:0:
277,290,31008,6,0,P|304:303|340:301,1,56,2|0,0:0|0:0,0:0:0:0:
226,232,31357,1,0,0:0:0:0:
174,291,31532,6,0,P|164:323|178:366,1,56,2|0,0:0|0:0,0:0:0:0:
226,232,31880,1,0,0:0:0:0:
178,169,32055,6,0,P|115:150|64:190,1,112,2|8,0:0|0:3,0:0:0:0:
42,308,32753,5,2,0:0:0:0:
42,308,32927,1,2,0:0:0:0:
97,363,33102,2,0,P|122:371|163:354,1,56,2|2,0:0|0:0,0:0:0:0:
212,316,33450,1,2,0:0:0:0:
212,316,33625,2,0,L|226:239,1,56,0|2,0:0|0:0,0:0:0:0:
168,203,33974,2,0,P|218:181|286:217,1,112,2|2,0:0|0:0,0:0:0:0:
305,268,34497,1,8,0:0:0:0:
305,268,34671,1,2,0:0:0:0:
450,211,35020,2,0,L|442:269,2,56,2|8|2,0:0|0:0|0:0,0:0:0:0:
474,133,35543,6,0,P|447:129|405:149,1,56,2|0,0:0|0:0,0:0:0:0:
366,195,35892,1,2,0:0:0:0:
366,195,36066,2,0,P|311:216|245:205,1,112,2|2,0:0|0:0,0:0:0:0:
183,187,36590,1,8,0:0:0:0:
183,187,36764,2,0,L|194:323,1,112,2|2,0:0|0:0,0:0:0:0:
143,357,37288,1,8,0:0:0:0:
75,317,37462,1,2,0:0:0:0:
25,168,37811,1,2,0:0:0:0:
202,13,38334,5,2,0:0:0:0:
202,13,38508,1,2,0:0:0:0:
247,77,38683,2,0,P|275:84|319:80,1,56,2|2,0:0|0:0,0:0:0:0:
372,48,39031,1,2,0:0:0:0:
372,48,39206,2,0,P|380:82|379:124,1,56,0|8,0:0|0:0,0:0:0:0:
331,165,39555,2,0,P|381:143|449:179,1,112,2|2,0:0|0:0,0:0:0:0:
480,223,40078,1,2,0:0:0:0:
480,223,40252,1,2,0:0:0:0:
376,333,40601,1,2,0:0:0:0:
376,333,40776,2,0,P|343:339|303:331,1,56,2|2,0:0|0:0,0:0:0:0:
248,306,41124,6,0,L|240:245,1,56,2|0,0:0|0:0,0:0:0:0:
283,184,41473,1,2,0:0:0:0:
283,184,41648,2,0,P|221:174|177:206,1,112,2|2,0:0|0:0,0:0:0:0:
46,279,42346,1,2,0:0:0:0:
46,279,42520,2,0,L|61:176,1,84,2|2,0:0|0:0,0:0:0:0:
92,83,43043,2,0,P|123:81|158:94,1,56,8|0,0:0|0:0,0:0:0:0:
170,118,43305,1,8,0:0:0:0:
170,118,43392,2,0,L|163:164,2,28,8|8|8,0:0|0:0|0:0,0:0:0:0:
232,69,43741,1,2,0:0:0:0:
282,134,43915,6,0,P|327:168|402:137,1,125.999996154785,6|8,0:0|0:0,0:0:0:0:
451,95,44439,1,2,0:0:0:0:
508,152,44613,2,0,L|492:297,1,125.999996154785,2|8,0:0|0:0,0:0:0:0:
450,346,45136,1,2,0:0:0:0:
450,346,45311,6,0,P|415:352|379:337,1,62.9999980773926,2|0,0:0|0:0,0:0:0:0:
332,284,45660,1,8,0:0:0:0:
332,284,45834,2,0,P|295:280|264:291,1,62.9999980773926,2|0,0:0|0:0,0:0:0:0:
207,340,46183,1,2,0:0:0:0:
207,340,46357,2,0,P|168:342|124:327,1,62.9999980773926,8|2,0:0|0:0,0:0:0:0:
75,292,46706,1,2,0:0:0:0:
75,292,46880,1,2,0:0:0:0:
125,227,47055,2,0,L|143:84,1,125.999996154785,8|0,0:0|0:0,0:0:0:0:
218,75,47578,2,0,L|229:4,2,62.9999980773926,2|8|0,0:0|0:0|0:0,0:0:0:0:
225,156,48101,5,2,0:0:0:0:
293,201,48276,1,2,0:0:0:0:
374,201,48450,1,8,0:0:0:0:
446,162,48625,2,0,P|457:193|451:234,1,62.9999980773926,2|0,0:0|0:0,0:0:0:0:
395,278,48973,2,0,L|310:285,1,62.9999980773926,2|8,0:0|0:0,0:0:0:0:
251,265,49322,5,0,0:0:0:0:
186,316,49497,1,2,0:0:0:0:
110,284,49671,2,0,L|102:208,1,62.9999980773926,2|8,0:0|0:0,0:0:0:0:
70,145,50020,1,0,0:0:0:0:
70,145,50194,2,0,P|125:173|188:148,1,125.999996154785,2|8,0:0|0:0,0:0:0:0:
261,127,50718,2,0,L|252:206,1,62.9999980773926,2|0,0:0|0:0,0:0:0:0:
338,88,51066,2,0,L|349:154,1,62.9999980773926,2|8,0:0|0:0,0:0:0:0:
387,21,51415,1,2,0:0:0:0:
322,71,51590,1,2,0:0:0:0:
257,21,51764,1,0,0:0:0:0:
190,69,51939,2,0,P|153:67|120:59,1,62.9999980773926,8|2,0:0|0:0,0:0:0:0:
50,35,52287,6,0,L|58:183,1,125.999996154785,2|8,0:0|0:0,0:0:0:0:
79,240,52811,2,0,P|108:254|147:241,1,62.9999980773926,2|0,0:0|0:0,0:0:0:0:
204,200,53160,2,0,P|242:186|276:212,1,62.9999980773926,2|8,0:0|0:0,0:0:0:0:
323,246,53508,1,0,0:0:0:0:
323,246,53683,6,0,P|344:186|299:129,1,125.999996154785,2|8,0:0|0:0,0:0:0:0:
242,94,54206,2,0,P|207:103|158:102,1,62.9999980773926,2|0,0:0|0:0,0:0:0:0:
106,67,54555,1,2,0:0:0:0:
106,67,54729,1,8,0:0:0:0:
36,110,54904,1,2,0:0:0:0:
36,110,54991,1,2,0:0:0:0:
36,110,55078,6,0,L|29:191,1,62.9999980773926,6|2,0:0|0:0,0:0:0:0:
68,245,55427,1,8,0:0:0:0:
129,191,55601,2,0,P|200:175|247:213,1,125.999996154785,6|0,0:0|0:0,0:0:0:0:
309,248,56125,1,8,0:0:0:0:
309,248,56299,2,0,L|318:165,1,62.9999980773926,6|0,0:0|0:0,0:0:0:0:
352,111,56648,1,2,0:0:0:0:
352,111,56822,1,8,0:0:0:0:
409,175,56997,6,0,P|441:127|422:62,1,125.999996154785,6|2,0:0|0:0,0:0:0:0:
344,25,57520,1,8,0:0:0:0:
266,65,57694,1,6,0:0:0:0:
105,17,58043,1,2,0:0:0:0:
68,91,58218,2,0,P|52:87|29:80,3,31.4999990386963,8|8|8|0,0:3|0:3|0:3|0:0,0:0:0:0:
93,129,58566,2,0,P|98:168|99:210,1,62.9999980773926,4|0,0:3|0:0,0:0:0:0:
90,273,58915,2,0,P|95:296|102:313,1,31.4999990386963,8|8,0:0|0:0,0:0:0:0:
126,333,59090,2,0,P|144:338|174:341,1,31.4999990386963,8|8,0:0|0:0,0:0:0:0:
202,339,59264,6,0,P|237:337|284:348,1,70,6|0,0:0|0:0,0:0:0:0:
360,324,59613,1,8,0:0:0:0:
441,283,59787,2,0,P|454:318|451:354,1,70,2|0,0:0|0:0,0:0:0:0:
359,233,60136,1,0,0:0:0:0:
359,233,60311,1,8,0:0:0:0:
397,136,60485,6,0,P|331:146|253:151,1,140,2|0,0:0|0:0,0:0:0:0:
170,123,61008,1,8,0:0:0:0:
122,201,61183,2,0,P|84:148|113:58,1,140,2|2,0:0|0:0,0:0:0:0:
165,19,61706,1,8,0:0:0:0:
247,56,61880,6,0,L|363:60,1,105,2|0,0:0|0:0,0:0:0:0:
394,42,62229,1,2,0:0:0:0:
464,100,62404,1,8,0:0:0:0:
389,152,62578,1,0,0:0:0:0:
460,209,62753,1,2,0:0:0:0:
387,264,62927,2,0,P|352:273|310:269,1,70,2|8,0:0|0:0,0:0:0:0:
232,302,63276,6,0,L|243:185,1,105,2|0,0:0|0:0,0:0:0:0:
222,155,63625,1,2,0:0:0:0:
151,212,63799,1,8,0:0:0:0:
113,130,63973,1,0,0:0:0:0:
45,190,64148,1,2,0:0:0:0:
0,110,64322,2,0,P|1:68|12:34,1,70,0|8,0:0|0:0,0:0:0:0:
94,10,64671,6,0,L|236:20,1,140,6|0,0:0|0:0,0:0:0:0:
323,5,65194,1,8,0:0:0:0:
409,33,65369,2,0,P|413:70|401:118,1,70,2|0,0:0|0:0,0:0:0:0:
362,181,65718,2,0,L|291:176,1,70,2|8,0:0|0:0,0:0:0:0:
384,265,66066,6,0,L|295:261,1,70,2|0,0:0|0:0,0:0:0:0:
246,334,66415,1,2,0:0:0:0:
202,245,66590,1,8,0:0:0:0:
148,326,66764,2,0,P|105:266|130:189,1,140,2|0,0:0|0:0,0:0:0:0:
196,147,67287,1,8,0:0:0:0:
143,63,67462,1,8,0:0:0:0:
207,136,67636,5,2,0:0:0:0:
296,175,67811,1,2,0:0:0:0:
393,171,67985,1,8,0:0:0:0:
482,130,68160,2,0,P|480:196|471:280,1,140,2|0,0:0|0:0,0:0:0:0:
397,332,68683,1,8,0:0:0:0:
487,368,68857,1,8,0:0:0:0:
405,308,69032,5,8,0:0:0:0:
308,268,69206,1,8,0:0:0:0:
208,297,69380,1,8,0:0:0:0:
128,362,69555,1,8,0:0:0:0:
22,226,69904,2,0,L|26:179,1,35,8|8,0:0|0:0,0:0:0:0:
55,152,70078,2,0,L|51:113,1,35,8|0,0:0|0:0,0:0:0:0:
45,68,70253,6,0,P|82:75|124:71,1,70,6|0,0:0|0:0,0:0:0:0:
205,57,70601,1,2,0:0:0:0:
287,22,70776,2,0,L|281:186,1,140,8|0,0:0|0:0,0:0:0:0:
361,205,71299,2,0,L|365:118,1,70,2|8,0:0|0:0,0:0:0:0:
435,235,71648,6,0,P|366:288|306:260,1,140,6|0,0:0|0:0,0:0:0:0:
239,216,72171,2,0,P|228:255|227:296,1,70,8|0,0:0|0:0,0:0:0:0:
168,145,72520,1,2,0:0:0:0:
168,145,72694,2,0,P|155:177|147:220,1,70,2|8,0:0|0:0,0:0:0:0:
107,72,73043,1,0,0:0:0:0:
107,72,73218,6,0,P|168:109|252:84,1,140,6|8,0:0|0:0,0:0:0:0:
306,45,73741,2,0,P|339:35|381:38,1,70,2|0,0:0|0:0,0:0:0:0:
453,85,74090,1,2,0:0:0:0:
507,157,74264,1,8,0:0:0:0:
430,106,74439,1,2,0:0:0:0:
367,172,74613,5,2,0:0:0:0:
284,209,74787,1,2,0:0:0:0:
196,183,74962,1,8,0:0:0:0:
128,122,75136,2,0,P|112:160|118:215,1,70,2|0,0:0|0:0,0:0:0:0:
149,276,75485,2,0,P|190:267|246:259,1,70,2|8,0:0|0:0,0:0:0:0:
302,295,75834,6,0,L|331:149,1,140,8|0,0:0|0:0,0:0:0:0:
404,105,76357,1,8,0:0:0:0:
323,147,76532,2,0,P|285:162|227:151,1,70,2|0,0:0|0:0,0:0:0:0:
179,112,76880,1,2,0:0:0:0:
103,163,77055,1,8,0:0:0:0:
23,119,77229,6,0,L|8:264,1,140,2|2,0:0|0:0,0:0:0:0:
49,340,77753,1,8,0:0:0:0:
118,281,77927,2,0,P|155:273|199:285,1,70,2|0,0:0|0:0,0:0:0:0:
251,342,78276,1,2,0:0:0:0:
325,290,78450,1,8,0:0:0:0:
404,334,78625,6,0,L|421:186,1,140,6|0,0:0|0:0,0:0:0:0:
465,115,79148,1,8,0:0:0:0:
465,115,79322,2,0,P|395:146|314:120,1,140,2|2,0:0|0:0,0:0:0:0:
261,78,79846,1,8,0:0:0:0:
194,140,80020,1,0,0:0:0:0:
194,140,80194,6,0,L|177:293,1,140,2|8,0:0|0:0,0:0:0:0:
247,339,80718,1,2,0:0:0:0:
326,294,80892,1,8,0:0:0:0:
396,351,81066,2,0,P|413:317|412:271,1,70,2|0,0:0|0:0,0:0:0:0:
365,208,81415,5,6,0:0:0:0:
473,61,81764,1,2,0:0:0:0:
473,61,81939,2,0,P|413:99|325:69,1,140,8|0,0:0|0:0,0:0:0:0:
275,32,82462,1,2,0:0:0:0:
275,32,82636,1,8,0:0:0:0:
187,58,82811,2,0,L|174:205,1,140,2|2,0:0|0:0,0:0:0:0:
114,265,83334,1,8,0:0:0:0:
267,363,83683,6,0,L|338:350,1,70,2|0,0:0|0:0,0:0:0:0:
348,259,84032,2,0,L|423:270,1,70,8|2,0:0|0:0,0:0:0:0:
483,331,84380,2,0,P|511:270|471:199,1,140,6|8,0:0|0:0,0:0:0:0:
410,150,84904,2,0,L|265:140,1,140,6|8,0:0|0:0,0:0:0:0:
256,192,85427,12,6,86473,0:0:0:0:
97,279,86997,6,0,P|64:212|95:126,1,140,6|2,0:0|0:0,0:0:0:0:
133,78,87520,1,8,0:0:0:0:
133,78,87694,2,0,P|202:83|281:82,1,140,2|2,0:0|0:0,0:0:0:0:
358,49,88218,1,8,0:0:0:0:
441,84,88392,6,0,P|481:142|443:220,1,140,2|2,0:0|0:0,0:0:0:0:
399,270,88915,1,8,0:0:0:0:
483,292,89090,1,10,0:0:0:0:
291,362,89439,1,10,0:0:0:0:
111,219,89787,6,0,B|143:149|143:149|224:114|272:171|272:171|320:212|361:204,1,315.000012016297,6|0,0:0|0:0,0:0:0:0:
