osu file format v14

[General]
AudioFilename: audio.mp3
AudioLeadIn: 0
PreviewTime: 58479
Countdown: 0
SampleSet: Soft
StackLeniency: 0.7
Mode: 0
LetterboxInBreaks: 0
WidescreenStoryboard: 0

[Editor]
Bookmarks: 21590,43915,58043
DistanceSpacing: 1
BeatDivisor: 2
GridSize: 4
TimelineZoom: 1

[Metadata]
Title:Secret Survivor (short size)
TitleUnicode:Secret Survivor (short size)
Artist:Black Raison d'etre
ArtistUnicode:Black Raison d'être
Creator:Asuka_-
Version:Easy
Source:小鳥遊六花・改 ~劇場版 中二病でも恋がしたい!~
Tags:takanashi rikka kai gekijouban chuunibyou demo koi ga shitai Uchida maaya Akasaki chinatsu Asakura azumi Uesaka sumire
BeatmapID:1477395
BeatmapSetID:697485

[Difficulty]
HPDrainRate:3
CircleSize:3
OverallDifficulty:3
ApproachRate:3
SliderMultiplier:0.8
SliderTickRate:1

[Events]
//Background and Video events
0,0,"bg.jpg",0,0
//Break Periods
//Storyboard Layer 0 (Background)
//Storyboard Layer 1 (Fail)
//Storyboard Layer 2 (Pass)
//Storyboard Layer 3 (Foreground)
//Storyboard Sound Samples

[TimingPoints]
660,348.837209302326,4,2,0,30,1,0
10427,-100,4,2,1,60,0,0
14613,-100,4,2,1,40,0,0
16008,-100,4,2,2,50,0,0
20718,-100,4,2,1,45,0,0
21590,-100,4,2,1,40,0,0
32753,-100,4,2,1,45,0,0
43915,-100,4,2,1,50,0,0
59264,-100,4,2,1,60,0,1
69904,-100,4,2,1,40,0,1
70253,-100,4,2,1,60,0,1
86997,-100,4,2,1,40,0,0
90834,-100,4,2,1,5,0,0

[Colours]
Combo1 : 255,128,128
Combo2 : 128,255,255
Combo3 : 255,128,255
Combo4 : 255,255,128

[HitObjects]
47,269,660,5,0,0:0:0:0:
188,343,1357,1,0,0:0:0:0:
344,310,2055,2,0,P|399:242|375:160,1,160,2|2,0:0|0:3,0:0:0:0:
256,82,3450,2,0,P|168:96|88:96,1,160,2|2,0:0|0:3,0:0:0:0:
15,234,4846,6,0,P|92:235|182:247,1,160,2|2,0:0|0:3,0:0:0:0:
250,271,5892,1,0,0:0:0:0:
327,252,6241,2,0,P|379:171|332:104,1,160,2|2,0:0|0:3,0:0:0:0:
231,19,7636,6,0,P|221:110|210:192,1,160,2|2,0:0|0:3,0:0:0:0:
56,216,9032,2,0,P|62:146|76:54,1,160,2|0,0:0|0:0,0:0:0:0:
231,19,10427,5,2,0:0:0:0:
341,66,10950,2,0,P|364:126|326:195,1,120,6|0,0:0|0:0,0:0:0:0:
287,230,11822,1,2,0:0:0:0:
172,266,12346,2,0,P|134:207|161:136,1,120,6|0,0:0|0:0,0:0:0:0:
190,97,13218,5,2,0:0:0:0:
287,27,13741,2,0,L|410:35,1,120,6|2,0:0|0:0,0:0:0:0:
473,78,14613,2,0,P|494:141|452:216,1,120,8|8,0:0|0:0,0:0:0:0:
393,275,15660,1,12,0:0:0:0:
324,316,16008,6,0,B|249:340|249:340|167:312,1,160,6|0,0:0|0:0,0:0:0:0:
108,265,17055,1,8,0:0:0:0:
47,212,17404,2,0,P|65:118|130:98,1,160,2|0,0:0|0:0,0:0:0:0:
192,122,18450,1,8,0:0:0:0:
262,160,18799,2,0,L|425:179,1,160,2|0,0:0|0:0,0:0:0:0:
497,155,19846,1,8,0:0:0:0:
444,94,20194,1,2,0:0:0:0:
195,295,21590,6,0,P|258:340|354:302,1,160,6|2,0:0|0:0,0:0:0:0:
398,275,22636,1,2,0:3:0:0:
443,209,22985,2,0,P|438:135|423:52,1,120,0|2,0:0|0:0,0:0:0:0:
335,17,24032,1,2,0:3:0:0:
279,73,24380,6,0,P|222:101|149:88,1,120,2|2,0:0|0:0,0:0:0:0:
67,28,25427,1,2,0:3:0:0:
7,81,25776,2,0,L|18:214,1,120,0|2,0:0|0:0,0:0:0:0:
45,275,26648,1,8,0:0:0:0:
135,353,27171,6,0,P|218:348|308:333,1,160,2|0,0:0|0:0,0:0:0:0:
367,304,28217,1,2,0:3:0:0:
439,337,28566,2,0,P|470:260|437:204,1,120,0|2,0:0|0:0,0:0:0:0:
365,153,29613,1,2,0:0:0:0:
297,195,29961,6,0,L|144:184,1,120,2|2,0:0|0:0,0:0:0:0:
119,80,31008,2,0,L|261:93,1,120,2|2,0:0|0:0,0:0:0:0:
340,27,32055,2,0,L|439:37,1,80,2|8,0:0|0:3,0:0:0:0:
484,82,32753,6,0,P|503:159|439:230,1,160,2|2,0:0|0:0,0:0:0:0:
380,208,33799,1,2,0:0:0:0:
309,246,34148,2,0,L|138:229,1,160,0|2,0:0|0:0,0:0:0:0:
84,183,35195,1,8,0:0:0:0:
27,239,35543,6,0,P|2:176|29:125,1,120,2|2,0:0|0:0,0:0:0:0:
123,67,36590,1,8,0:0:0:0:
191,109,36939,2,0,P|257:105|332:96,1,120,0|2,0:0|0:0,0:0:0:0:
381,61,37811,1,2,0:0:0:0:
471,139,38334,6,0,L|487:311,1,160,2|2,0:0|0:0,0:0:0:0:
428,354,39380,1,8,0:0:0:0:
372,296,39729,2,0,P|332:258|224:293,1,160,2|0,0:0|0:0,0:0:0:0:
170,322,40776,1,2,0:0:0:0:
102,280,41124,6,0,L|87:154,1,120,2|2,0:0|0:0,0:0:0:0:
148,57,42171,1,0,0:0:0:0:
208,109,42520,2,0,P|267:120|345:83,1,120,8|8,0:0|0:0,0:0:0:0:
384,50,43392,1,8,0:0:0:0:
478,123,43915,6,0,L|458:304,1,160,6|2,0:0|0:0,0:0:0:0:
401,336,44962,1,8,0:0:0:0:
345,278,45311,2,0,P|310:260|249:268,1,80,2|8,0:0|0:0,0:0:0:0:
208,310,46008,2,0,P|172:327|116:317,1,80,0|8,0:0|0:0,0:0:0:0:
60,288,46706,6,0,L|42:128,1,160,2|0,0:0|0:0,0:0:0:0:
78,57,47753,1,8,0:0:0:0:
145,98,48101,2,0,P|190:102|229:80,1,80,2|8,0:0|0:0,0:0:0:0:
282,36,48799,2,0,P|318:31|358:48,1,80,0|8,0:0|0:0,0:0:0:0:
421,96,49497,6,0,P|418:135|414:176,1,80,2|8,0:0|0:0,0:0:0:0:
349,223,50194,2,0,P|248:226|209:182,1,160,2|0,0:0|0:0,0:0:0:0:
157,128,51241,1,8,0:0:0:0:
94,180,51590,2,0,P|87:211|73:277,1,80,2|8,0:0|0:0,0:0:0:0:
99,334,52287,6,0,P|168:351|295:348,1,160,2|0,0:0|0:0,0:0:0:0:
335,337,53334,1,8,0:0:0:0:
402,294,53683,2,0,L|430:127,1,160,2|0,0:0|0:0,0:0:0:0:
381,71,54729,1,8,0:0:0:0:
324,127,55078,6,0,P|270:152|186:116,1,120,6|6,0:0|0:0,0:0:0:0:
98,26,56299,2,0,P|84:96|81:200,1,160,6|2,0:0|0:0,0:0:0:0:
76,344,57694,2,0,L|180:329,1,80,2|2,0:0|0:0,0:0:0:0:
431,335,59264,6,0,P|443:289|430:197,1,120,6|0,0:0|0:0,0:0:0:0:
383,157,60136,1,0,0:0:0:0:
317,204,60485,2,0,B|260:220|260:220|195:208,1,120,2|8,0:0|0:0,0:0:0:0:
123,187,61357,2,0,L|139:82,1,80,2|8,0:0|0:0,0:0:0:0:
65,68,62055,6,0,P|19:130|38:228,1,160,2|2,0:0|0:0,0:0:0:0:
61,280,63101,1,8,0:0:0:0:
123,329,63450,2,0,P|200:345|285:288,1,160,2|2,0:0|0:0,0:0:0:0:
354,223,64671,6,0,B|378:172|378:172|367:121|320:100,1,120,6|8,0:0|0:0,0:0:0:0:
278,77,65543,2,0,P|238:76|189:94,1,80,2|8,0:0|0:0,0:0:0:0:
130,126,66241,2,0,P|90:222|130:296,1,160,2|2,0:0|0:0,0:0:0:0:
173,314,67287,1,8,0:0:0:0:
244,278,67636,6,0,B|317:252|317:252|415:277,1,160,2|0,0:0|0:0,0:0:0:0:
458,323,68683,1,8,0:0:0:0:
503,257,69032,2,0,B|523:197|523:197|502:119,1,120,8|8,0:0|0:0,0:0:0:0:
462,76,69904,1,8,0:0:0:0:
400,126,70253,6,0,P|343:137|278:97,1,120,6|8,0:0|0:0,0:0:0:0:
200,29,71299,1,2,0:0:0:0:
142,84,71648,2,0,L|153:217,1,120,6|8,0:0|0:0,0:0:0:0:
197,269,72520,2,0,P|225:286|286:275,1,80,2|8,0:0|0:0,0:0:0:0:
330,230,73218,6,0,P|411:197|479:247,1,160,6|0,0:0|0:0,0:0:0:0:
510,300,74264,1,8,0:0:0:0:
456,359,74613,2,0,P|414:369|344:371,1,80,2|8,0:0|0:0,0:0:0:0:
302,344,75311,2,0,P|266:337|217:337,1,80,2|8,0:0|0:0,0:0:0:0:
158,383,76008,6,0,P|143:345|163:286,1,80,6|8,0:0|0:0,0:0:0:0:
183,234,76706,2,0,P|271:223|347:242,1,160,2|2,0:0|0:0,0:0:0:0:
406,283,77753,2,0,P|448:291|503:282,1,80,8|2,0:0|0:0,0:0:0:0:
504,168,78625,6,0,B|514:138|511:108|511:108|479:73|429:85,1,120,6|8,0:0|0:0,0:0:0:0:
386,114,79497,2,0,P|361:124|292:122,1,80,2|8,0:0|0:0,0:0:0:0:
236,90,80194,2,0,P|213:176|211:274,1,160,2|8,0:0|0:0,0:0:0:0:
251,359,81415,6,0,P|327:370|387:347,1,120,6|8,0:0|0:0,0:0:0:0:
402,286,82287,1,0,0:0:0:0:
354,221,82636,2,0,L|341:126,1,80,8|0,0:0|0:0,0:0:0:0:
277,95,83334,1,8,0:0:0:0:
215,146,83683,2,0,P|164:147|125:133,1,80,2|8,0:0|0:0,0:0:0:0:
69,95,84380,5,6,0:0:0:0:
5,197,84904,1,6,0:0:0:0:
69,298,85427,1,6,0:0:0:0:
286,195,86473,5,8,0:0:0:0:
377,272,86997,6,0,P|407:227|374:136,1,120,6|8,0:0|0:0,0:0:0:0:
358,95,87869,2,0,P|318:87|263:85,1,80,0|8,0:0|0:0,0:0:0:0:
215,133,88566,2,0,P|154:153|90:153,1,120,0|10,0:0|0:0,0:0:0:0:
28,115,89439,1,10,0:0:0:0:
2,190,89787,6,0,P|0:268|139:293,1,240,6|0,0:1|0:1,0:0:0:0:
