osu file format v14

[General]
AudioFilename: audio.mp3
AudioLeadIn: 0
PreviewTime: 58479
Countdown: 0
SampleSet: Soft
StackLeniency: 0.7
Mode: 0
LetterboxInBreaks: 0
WidescreenStoryboard: 0

[Editor]
Bookmarks: 21590,43915,58043
DistanceSpacing: 1
BeatDivisor: 2
GridSize: 4
TimelineZoom: 1

[Metadata]
Title:Secret Survivor (short size)
TitleUnicode:Secret Survivor (short size)
Artist:Black Raison d'etre
ArtistUnicode:Black Raison d'être
Creator:Asuka_-
Version:Normal
Source:小鳥遊六花・改 ~劇場版 中二病でも恋がしたい!~
Tags:takanashi rikka kai gekijouban chuunibyou demo koi ga shitai Uchida maaya Akasaki chinatsu Asakura azumi Uesaka sumire
BeatmapID:1477398
BeatmapSetID:697485

[Difficulty]
HPDrainRate:5
CircleSize:3.5
OverallDifficulty:4.5
ApproachRate:5
SliderMultiplier:1.1
SliderTickRate:1

[Events]
//Background and Video events
0,0,"bg.jpg",0,0
//Break Periods
//Storyboard Layer 0 (Background)
//Storyboard Layer 1 (Fail)
//Storyboard Layer 2 (Pass)
//Storyboard Layer 3 (Foreground)
//Storyboard Sound Samples

[TimingPoints]
660,348.837209302326,4,2,0,30,1,0
2055,-100,4,2,0,30,0,0
10427,-100,4,2,1,60,0,0
14613,-100,4,2,1,40,0,0
16008,-100,4,2,2,50,0,0
20718,-100,4,2,1,45,0,0
21590,-100,4,2,1,40,0,0
32753,-100,4,2,1,45,0,0
43915,-100,4,2,1,50,0,0
59264,-100,4,2,1,60,0,1
69904,-100,4,2,1,40,0,1
70253,-100,4,2,1,60,0,1
86997,-100,4,2,1,40,0,0
90834,-100,4,2,1,5,0,0

[Colours]
Combo1 : 255,128,128
Combo2 : 128,255,255
Combo3 : 255,128,255
Combo4 : 255,255,128

[HitObjects]
91,327,660,5,0,0:0:0:0:
293,241,1357,1,0,0:0:0:0:
109,118,2055,2,0,P|152:58|250:68,1,165,2|2,0:0|0:0,0:0:0:0:
314,136,2927,2,0,P|317:170|309:199,1,55,0|0,0:0|0:0,0:0:0:0:
278,233,3276,2,0,P|210:251|131:242,1,110,2|0,0:0|0:0,0:0:0:0:
116,241,3799,2,0,P|109:286|129:366,1,110,2|0,0:0|0:0,0:0:0:0:
230,358,4497,1,0,0:0:0:0:
338,336,4846,6,0,L|360:157,1,165,2|2,0:0|0:0,0:0:0:0:
417,18,5892,1,0,0:0:0:0:
313,63,6241,2,0,P|250:80|175:40,1,110,2|0,0:0|0:0,0:0:0:0:
173,25,6764,2,0,L|166:163,1,110,2|2,0:0|0:0,0:0:0:0:
112,290,7636,5,2,0:0:0:0:
475,41,9032,1,2,0:0:0:0:
35,36,10427,6,0,P|21:69|24:112,1,55,2|8,0:0|0:0,0:0:0:0:
44,194,10950,2,0,L|214:183,1,165,6|0,0:0|0:0,0:0:0:0:
317,202,11822,2,0,P|319:240|310:275,1,55,2|8,0:0|0:0,0:0:0:0:
248,343,12346,2,0,L|61:356,1,165,6|0,0:0|0:0,0:0:0:0:
31,257,13218,6,0,P|18:225|26:173,1,55,2|8,0:0|0:0,0:0:0:0:
58,102,13741,2,0,P|151:71|208:133,1,165,6|2,0:0|0:0,0:0:0:0:
262,195,14613,2,0,L|243:364,2,165,8|8|12,0:0|0:0|0:0,0:0:0:0:
316,99,16008,6,0,P|356:87|440:128,1,110,2|2,0:0|0:0,0:0:0:0:
455,149,16532,2,0,L|434:284,1,110,4|0,0:3|0:0,0:0:0:0:
403,300,17055,1,8,0:0:0:0:
301,341,17404,2,0,P|238:346|167:294,1,110,2|2,0:0|0:0,0:0:0:0:
178,274,17927,2,0,L|197:130,1,110,4|0,0:3|0:0,0:0:0:0:
221,117,18450,1,8,0:0:0:0:
130,54,18799,6,0,P|68:44|20:82,1,110,2|2,0:0|0:0,0:0:0:0:
17,121,19322,2,0,L|22:255,1,110,4|0,0:3|0:0,0:0:0:0:
45,280,19846,1,8,0:0:0:0:
128,208,20194,2,0,P|188:194|243:203,1,110,2|0,0:0|0:0,0:0:0:0:
271,242,20718,2,0,L|292:70,1,165,8|8,0:0|0:0,0:0:0:0:
399,51,21590,5,2,0:0:0:0:
399,51,21764,2,0,P|445:98|430:175,1,110,2|0,0:0|0:0,0:0:0:0:
443,194,22287,2,0,P|432:220|409:248,1,55,2|2,0:0|0:0,0:0:0:0:
327,176,22811,2,0,L|308:320,1,110,2|0,0:0|0:0,0:0:0:0:
275,325,23334,2,0,P|247:339|201:336,1,55,2|2,0:3|0:0,0:0:0:0:
116,215,24032,1,2,0:3:0:0:
30,284,24380,6,0,P|13:262|14:179,1,110,2|2,0:0|0:0,0:0:0:0:
43,137,24904,1,2,0:0:0:0:
149,108,25253,1,0,0:3:0:0:
253,142,25601,2,0,P|305:171|384:153,1,110,2|0,0:0|0:0,0:0:0:0:
406,152,26125,1,2,0:0:0:0:
406,152,26299,2,0,L|423:273,1,110,2|6,0:0|0:0,0:0:0:0:
289,360,27171,5,2,0:0:0:0:
289,360,27346,2,0,P|226:368|158:321,1,110,2|0,0:0|0:0,0:0:0:0:
146,310,27869,2,0,P|136:289|134:251,1,55,2|0,0:0|0:0,0:0:0:0:
222,192,28393,2,0,L|362:184,1,110,2|0,0:0|0:0,0:0:0:0:
386,182,28915,2,0,P|417:181|445:171,1,55,2|2,0:3|0:0,0:0:0:0:
400,70,29439,1,2,0:0:0:0:
400,70,29613,2,0,P|363:77|330:73,1,55,2|2,0:0|0:0,0:0:0:0:
299,46,29962,6,0,P|254:35|194:62,1,110,2|0,0:0|0:0,0:0:0:0:
162,101,30485,2,0,P|154:165|199:220,1,110,2|0,0:0|0:0,0:0:0:0:
220,234,31008,2,0,P|273:244|321:221,1,110,2|0,0:0|0:0,0:0:0:0:
358,180,31532,2,0,P|368:126|344:78,1,110,2|0,0:0|0:0,0:0:0:0:
298,47,32055,1,2,0:0:0:0:
195,86,32404,1,8,0:3:0:0:
89,55,32753,5,2,0:0:0:0:
89,55,32927,2,0,P|68:131|92:179,1,110,2|2,0:0|0:0,0:0:0:0:
116,197,33450,2,0,L|244:183,1,110,2|2,0:0|0:0,0:0:0:0:
276,162,33974,2,0,P|330:225|294:309,1,165,2|8,0:0|0:0,0:0:0:0:
273,339,34671,1,2,0:0:0:0:
165,360,35020,1,2,0:0:0:0:
165,360,35194,2,0,P|133:361|105:350,1,55,8|2,0:0|0:0,0:0:0:0:
65,323,35543,6,0,P|48:301|49:218,1,110,2|2,0:0|0:0,0:0:0:0:
76,175,36066,2,0,L|204:164,1,110,2|2,0:0|0:0,0:0:0:0:
240,159,36590,1,8,0:0:0:0:
240,159,36764,2,0,P|259:115|232:62,1,110,2|2,0:0|0:0,0:0:0:0:
186,32,37288,1,8,0:0:0:0:
186,32,37462,2,0,L|59:40,1,110,2|2,0:0|0:0,0:0:0:0:
1,181,38334,5,2,0:0:0:0:
1,181,38508,2,0,P|55:215|128:179,1,110,2|2,0:0|0:0,0:0:0:0:
144,176,39032,2,0,P|173:165|216:171,1,55,2|0,0:0|0:0,0:0:0:0:
249,178,39380,1,8,0:0:0:0:
249,178,39555,2,0,L|230:355,1,165,2|2,0:0|0:0,0:0:0:0:
272,379,40253,1,2,0:0:0:0:
379,345,40601,1,2,0:0:0:0:
379,345,40776,2,0,P|391:312|398:270,1,55,2|2,0:0|0:0,0:0:0:0:
412,240,41125,6,0,P|372:203|307:224,1,110,2|2,0:0|0:0,0:0:0:0:
279,247,41648,2,0,P|230:277|155:232,1,110,2|2,0:0|0:0,0:0:0:0:
88,206,42346,1,2,0:0:0:0:
88,206,42520,2,0,L|98:95,1,110,2|0,0:0|0:0,0:0:0:0:
113,43,43043,2,0,P|171:24|229:45,1,110,8|8,0:0|0:0,0:0:0:0:
311,92,43741,1,2,0:0:0:0:
311,92,43915,6,0,L|301:229,1,110,6|8,0:0|0:0,0:0:0:0:
278,251,44439,1,2,0:0:0:0:
278,251,44613,2,0,P|218:270|159:214,1,110,2|8,0:0|0:0,0:0:0:0:
134,217,45136,1,2,0:0:0:0:
134,217,45311,1,2,0:0:0:0:
106,110,45660,1,8,0:0:0:0:
106,110,45834,2,0,P|136:80|219:104,1,110,2|2,0:0|0:0,0:0:0:0:
237,124,46357,2,0,P|272:148|349:106,1,110,8|2,0:0|0:0,0:0:0:0:
371,91,46880,5,2,0:0:0:0:
443,298,47578,2,0,P|467:300|499:283,2,55,2|8|0,0:0|0:0|0:0,0:0:0:0:
398,264,48101,2,0,P|355:235|281:249,1,110,2|8,0:0|0:0,0:0:0:0:
260,278,48625,1,2,0:0:0:0:
172,211,48973,1,2,0:0:0:0:
96,291,49322,2,0,L|86:355,2,55,0|2|2,0:0|0:0|0:0,0:0:0:0:
21,143,50194,6,0,P|62:112|137:120,1,110,2|8,0:0|0:0,0:0:0:0:
162,146,50718,2,0,L|279:150,1,110,2|2,0:0|0:0,0:0:0:0:
373,108,51415,1,2,0:0:0:0:
373,108,51590,2,0,P|386:142|378:190,1,55,2|0,0:0|0:0,0:0:0:0:
352,203,51939,2,0,P|338:241|353:285,1,55,8|2,0:0|0:0,0:0:0:0:
375,295,52287,6,0,L|232:307,1,110,2|8,0:0|0:0,0:0:0:0:
213,285,52811,1,2,0:0:0:0:
112,330,53160,1,2,0:0:0:0:
37,249,53508,1,0,0:0:0:0:
37,249,53683,2,0,P|12:193|32:128,1,110,2|8,0:0|0:0,0:0:0:0:
45,97,54206,2,0,L|173:99,1,110,2|2,0:0|0:0,0:0:0:0:
203,124,54729,1,8,0:0:0:0:
310,102,55078,6,0,P|329:157|282:235,1,110,6|8,0:0|0:0,0:0:0:0:
278,246,55601,1,6,0:0:0:0:
171,285,55950,2,0,P|135:295|105:286,1,55,0|8,0:0|0:0,0:0:0:0:
65,276,56299,2,0,L|53:137,1,110,6|2,0:0|0:0,0:0:0:0:
92,125,56822,1,8,0:0:0:0:
92,125,56997,2,0,P|160:109|209:162,1,110,6|2,0:0|0:0,0:0:0:0:
229,168,57520,1,8,0:0:0:0:
229,168,57694,6,0,P|199:197|135:184,1,110,6|2,0:0|0:0,0:0:0:0:
218,329,58566,1,4,0:3:0:0:
314,272,58915,1,8,0:0:0:0:
399,348,59264,6,0,P|430:300|419:231,1,110,6|8,0:0|0:0,0:0:0:0:
399,201,59787,1,2,0:0:0:0:
314,272,60136,2,0,P|282:271|248:264,1,55,0|8,0:0|0:0,0:0:0:0:
215,233,60485,2,0,P|186:177|225:124,1,110,2|0,0:0|0:0,0:0:0:0:
241,97,61008,1,8,0:0:0:0:
241,97,61183,2,0,P|321:94|424:107,1,165,2|8,0:0|0:0,0:0:0:0:
453,129,61880,6,0,P|449:188|438:266,1,110,2|2,0:0|0:0,0:0:0:0:
421,289,62404,2,0,P|388:299|351:296,1,55,8|0,0:0|0:0,0:0:0:0:
319,271,62753,2,0,P|292:263|236:262,1,55,2|2,0:0|0:0,0:0:0:0:
168,311,63276,2,0,L|155:164,1,110,2|2,0:0|0:0,0:0:0:0:
153,146,63799,2,0,P|185:130|225:131,1,55,8|0,0:0|0:0,0:0:0:0:
253,152,64148,2,0,P|288:161|342:157,1,55,2|0,0:0|0:0,0:0:0:0:
402,107,64671,6,0,P|425:166|390:239,1,110,6|0,0:0|0:0,0:0:0:0:
393,260,65194,1,8,0:0:0:0:
393,260,65369,2,0,L|273:252,1,110,2|2,0:0|0:0,0:0:0:0:
175,232,66066,1,2,0:0:0:0:
71,270,66415,2,0,P|61:238|64:209,1,55,2|8,0:0|0:0,0:0:0:0:
75,163,66764,2,0,P|126:112|221:124,1,165,2|8,0:0|0:0,0:0:0:0:
252,157,67462,1,8,0:0:0:0:
252,157,67636,6,0,L|387:144,1,110,2|8,0:0|0:0,0:0:0:0:
413,128,68160,2,0,P|457:198|396:295,1,165,2|8,0:0|0:0,0:0:0:0:
382,293,68857,1,8,0:0:0:0:
382,293,69032,2,0,L|370:361,2,55,8|8|8,0:0|0:0|0:0,0:0:0:0:
335,262,69555,1,8,0:0:0:0:
233,305,69904,2,0,L|148:315,1,55,8|8,0:0|0:0,0:0:0:0:
123,303,70253,6,0,P|92:251|121:172,1,110,6|2,0:0|0:0,0:0:0:0:
121,154,70776,2,0,L|262:143,1,110,8|0,0:0|0:0,0:0:0:0:
315,75,71473,1,8,0:0:0:0:
315,75,71648,6,0,P|232:20|139:63,1,165,6|8,0:0|0:0,0:0:0:0:
74,82,72520,1,2,0:0:0:0:
74,82,72694,2,0,L|61:168,1,55,2|8,0:0|0:0,0:0:0:0:
65,191,73043,1,0,0:0:0:0:
65,191,73218,2,0,P|106:225|234:149,1,220,6|0,0:0|0:0,0:0:0:0:
246,102,74090,5,2,0:0:0:0:
246,102,74264,2,0,P|284:84|322:93,1,55,8|2,0:0|0:0,0:0:0:0:
352,86,74613,2,0,P|385:122|351:205,1,110,2|8,0:0|0:0,0:0:0:0:
358,230,75136,1,2,0:0:0:0:
249,213,75485,1,2,0:0:0:0:
146,254,75834,6,0,L|131:85,1,165,8|8,0:0|0:0,0:0:0:0:
145,36,76532,2,0,P|205:24|267:69,1,110,2|2,0:0|0:0,0:0:0:0:
276,90,77055,1,8,0:0:0:0:
276,90,77229,2,0,P|322:126|427:84,1,165,2|8,0:0|0:0,0:0:0:0:
465,71,77927,6,0,L|450:210,1,110,2|2,0:0|0:0,0:0:0:0:
460,235,78450,1,8,0:0:0:0:
460,235,78625,2,0,P|391:205|314:252,1,165,6|8,0:0|0:0,0:0:0:0:
217,292,79497,1,0,0:0:0:0:
117,244,79846,2,0,L|104:174,1,55,8|0,0:0|0:0,0:0:0:0:
122,137,80194,6,0,P|163:104|254:133,1,110,2|8,0:0|0:0,0:0:0:0:
266,131,80718,1,2,0:0:0:0:
266,131,80892,2,0,P|293:144|325:145,1,55,8|2,0:0|0:0,0:0:0:0:
413,91,81415,5,6,0:0:0:0:
461,189,81764,1,2,0:0:0:0:
302,342,82462,2,0,P|274:351|240:351,1,55,2|8,0:0|0:0,0:0:0:0:
200,324,82811,2,0,L|189:270,1,55,2|0,0:0|0:0,0:0:0:0:
207,217,83160,1,2,0:0:0:0:
115,79,83683,2,0,P|146:93|194:88,1,55,2|0,0:0|0:0,0:0:0:0:
216,71,84032,2,0,P|244:64|300:74,1,55,8|2,0:0|0:0,0:0:0:0:
318,89,84380,6,0,L|302:232,1,110,6|8,0:0|0:0,0:0:0:0:
290,251,84904,2,0,P|240:279|160:254,1,110,6|8,0:0|0:0,0:0:0:0:
146,238,85427,1,6,0:0:0:0:
442,92,86473,2,0,L|432:173,1,55,8|8,0:0|0:0,0:0:0:0:
397,250,86997,6,0,P|313:293|236:253,1,165,6|8,0:0|0:0,0:0:0:0:
217,227,87694,2,0,L|228:109,1,110,2|2,0:0|0:0,0:0:0:0:
209,64,88218,1,8,0:0:0:0:
209,64,88392,2,0,P|93:53|74:104,1,165,2|8,0:0|0:0,0:0:0:0:
65,132,89090,1,10,0:0:0:0:
118,228,89439,1,10,0:0:0:0:
76,329,89787,6,0,B|182:310|182:310|283:336|283:336|425:303,1,330,6|0,0:0|0:0,0:0:0:0:
