osu file format v14

[General]
AudioFilename: audio.mp3
AudioLeadIn: 0
PreviewTime: -1
Countdown: 1
SampleSet: Normal
StackLeniency: 0.2
Mode: 0
LetterboxInBreaks: 0
WidescreenStoryboard: 0

[Editor]
DistanceSpacing: 1.1
BeatDivisor: 4
GridSize: 4
TimelineZoom: 1.9

[Metadata]
Title:Pluto
TitleUnicode:Pluto
Artist:Black Hole
ArtistUnicode:Black Hole
Creator:Duck Wings
Version:EX EX
Source:
Tags:
BeatmapID:2109048
BeatmapSetID:1007703

[Difficulty]
HPDrainRate:2.5
CircleSize:4
OverallDifficulty:7
ApproachRate:9.8
SliderMultiplier:3.59999990463257
SliderTickRate:1

[Events]
//Background and Video events
//Break Periods
2,61056,62731
//Storyboard Layer 0 (Background)
//Storyboard Layer 1 (Fail)
//Storyboard Layer 2 (Pass)
//Storyboard Layer 3 (Foreground)
//Storyboard Sound Samples

[TimingPoints]
104,600,4,2,1,95,1,0
9704,545.454545454546,4,1,2,60,1,0
9704,-23.4192037470726,4,1,2,60,0,0
18431,521.739130434783,4,1,1,70,1,1
18431,-23.4741784037559,4,1,2,60,0,0
26778,500,6,1,1,70,1,0
32778,521.739130434783,6,1,1,70,1,1
39038,600,4,1,1,70,1,0
41438,-200,4,1,1,70,0,0
46238,-57.1428571428571,4,1,1,70,0,0
48638,545.454545454546,4,1,1,70,1,0
58456,600,4,1,1,70,1,0
68056,545.454545454546,4,1,1,80,1,0
69692,-23.4192037470726,4,1,2,60,0,0
82237,500,4,1,2,65,1,0
86237,480,4,1,2,65,1,0
90077,461.538461538462,4,1,1,75,1,1
90077,-23.6406619385343,4,1,2,60,0,1
94000,444.444444444444,4,1,1,80,1,0
94111,-23.696682464455,4,1,2,60,0,1
97111,-16.6666666666667,4,1,2,60,0,1
97555,-117.647058823529,4,1,2,60,0,0
98222,-163.934426229508,4,1,2,60,0,0
99111,-500,4,1,2,60,0,0

[HitObjects]
115,255,104,5,0,0:0:0:0:
256,192,404,1,0,0:0:0:0:
256,192,554,1,0,0:0:0:0:
256,192,854,5,0,0:0:0:0:
256,192,1004,1,0,0:0:0:0:
256,192,1304,5,0,0:0:0:0:
256,192,1454,1,0,0:0:0:0:
256,192,1604,1,0,0:0:0:0:
115,255,1904,5,0,0:0:0:0:
64,144,2204,1,0,0:0:0:0:
256,192,2504,1,0,0:0:0:0:
256,192,2804,5,0,0:0:0:0:
256,192,2954,1,0,0:0:0:0:
256,192,3254,5,0,0:0:0:0:
256,192,3404,1,0,0:0:0:0:
256,192,3704,5,0,0:0:0:0:
256,192,3854,1,0,0:0:0:0:
256,192,4004,1,0,0:0:0:0:
115,255,4304,5,0,0:0:0:0:
64,144,4604,1,0,0:0:0:0:
12,336,4904,1,0,0:0:0:0:
256,192,5204,5,0,0:0:0:0:
256,192,5354,1,0,0:0:0:0:
256,192,5654,5,0,0:0:0:0:
256,192,5804,1,0,0:0:0:0:
256,192,6104,5,0,0:0:0:0:
256,192,6254,1,0,0:0:0:0:
256,192,6404,1,0,0:0:0:0:
115,255,6704,5,0,0:0:0:0:
64,144,7004,1,0,0:0:0:0:
115,255,7304,1,0,0:0:0:0:
256,192,7604,5,0,0:0:0:0:
256,192,7754,1,0,0:0:0:0:
256,192,8054,5,0,0:0:0:0:
256,192,8204,1,0,0:0:0:0:
256,192,8504,5,0,0:0:0:0:
256,192,8654,1,0,0:0:0:0:
256,192,8804,1,0,0:0:0:0:
115,255,8954,1,0,0:0:0:0:
115,255,9104,1,0,0:0:0:0:
256,192,9254,1,0,0:0:0:0:
256,192,9404,1,0,0:0:0:0:
256,0,9704,6,0,L|256:392,1,384.300005285702
63,192,9976,2,0,L|448:192,1,384.300005285702
256,384,10249,1,0,0:0:0:0:
64,192,10522,5,0,0:0:0:0:
64,100,10658,1,0,0:0:0:0:
256,296,10794,1,0,0:0:0:0:
448,192,10931,1,0,0:0:0:0:
448,284,11067,1,0,0:0:0:0:
256,88,11204,1,0,0:0:0:0:
448,192,11476,5,0,0:0:0:0:
448,284,11613,1,0,0:0:0:0:
256,88,11749,1,0,0:0:0:0:
361,29,11885,1,0,0:0:0:0:
478,79,12022,1,0,0:0:0:0:
256,192,12158,1,0,0:0:0:0:
34,79,12294,1,0,0:0:0:0:
151,29,12431,1,0,0:0:0:0:
256,192,12704,5,0,0:0:0:0:
34,79,12840,1,0,0:0:0:0:
151,29,12977,1,0,0:0:0:0:
256,192,13113,1,0,0:0:0:0:
361,29,13249,1,0,0:0:0:0:
478,79,13385,1,0,0:0:0:0:
448,192,13931,6,0,L|63:192,1,384.300005285702
256,0,14203,2,0,L|256:384,1,384.300005285702
63,192,14476,1,0,0:0:0:0:
63,192,14613,1,0,0:0:0:0:
256,192,14749,1,0,0:0:0:0:
449,192,14885,1,0,0:0:0:0:
449,192,15022,1,0,0:0:0:0:
381,304,15158,1,0,0:0:0:0:
346,82,15294,1,0,0:0:0:0:
424,65,15431,1,0,0:0:0:0:
459,287,15567,1,0,0:0:0:0:
346,82,15840,5,0,0:0:0:0:
424,65,15977,1,0,0:0:0:0:
459,287,16113,1,0,0:0:0:0:
381,304,16249,1,0,0:0:0:0:
346,82,16385,1,0,0:0:0:0:
166,82,16522,1,0,0:0:0:0:
131,304,16658,1,0,0:0:0:0:
53,287,16795,1,0,0:0:0:0:
88,65,16931,1,0,0:0:0:0:
192,192,17067,1,0,0:0:0:0:
131,304,17204,1,0,0:0:0:0:
88,65,17340,1,0,0:0:0:0:
320,192,17476,1,0,0:0:0:0:
424,65,17613,1,0,0:0:0:0:
381,304,17749,1,0,0:0:0:0:
448,192,18431,6,0,L|64:192,2,383.399991305924
67,266,18822,1,0,0:0:0:0:
129,111,18952,1,0,0:0:0:0:
256,96,19083,1,0,0:0:0:0:
256,288,19213,1,0,0:0:0:0:
445,266,19344,1,0,0:0:0:0:
383,111,19474,1,0,0:0:0:0:
448,192,19604,1,0,0:0:0:0:
64,192,19735,1,0,0:0:0:0:
64,192,19865,1,0,0:0:0:0:
256,0,19996,2,0,L|256:384,2,383.399991305924
64,192,20517,6,0,L|448:192,2,383.399991305924
256,383,20909,1,0,0:0:0:0:
322,283,21039,1,0,0:0:0:0:
190,283,21170,1,0,0:0:0:0:
190,101,21300,1,0,0:0:0:0:
322,101,21431,1,0,0:0:0:0:
256,1,21561,1,0,0:0:0:0:
256,1,21691,1,0,0:0:0:0:
256,383,21822,1,0,0:0:0:0:
256,383,21952,1,0,0:0:0:0:
448,192,22083,2,0,L|64:192,1,383.399991305924
256,384,22344,2,0,L|256:0,1,383.399991305924
64,192,22604,5,0,0:0:0:0:
64,192,22735,1,0,0:0:0:0:
448,192,22865,1,0,0:0:0:0:
448,192,22996,6,0,L|64:192,2,383.399991305924
317,9,23387,1,0,0:0:0:0:
371,98,23517,1,0,0:0:0:0:
141,98,23648,1,0,0:0:0:0:
141,286,23778,1,0,0:0:0:0:
195,375,23908,1,0,0:0:0:0:
371,286,24039,1,0,0:0:0:0:
256,0,24170,2,0,L|256:384,2,383.399991305924
64,192,24691,6,0,L|448:192,2,383.399991305924
371,286,25083,1,0,0:0:0:0:
458,100,25213,1,0,0:0:0:0:
491,183,25344,1,0,0:0:0:0:
195,285,25474,1,0,0:0:0:0:
282,99,25604,1,0,0:0:0:0:
315,182,25735,1,0,0:0:0:0:
19,284,25865,1,0,0:0:0:0:
493,284,25996,1,0,0:0:0:0:
256,383,26126,1,0,0:0:0:0:
256,0,26257,2,0,L|256:384,2,383.399991305924
403,314,26778,5,0,0:0:0:0:
403,314,26903,1,0,0:0:0:0:
403,314,27028,1,0,0:0:0:0:
403,314,27153,1,0,0:0:0:0:
403,314,27278,1,0,0:0:0:0:
403,314,27403,1,0,0:0:0:0:
403,314,27528,1,0,0:0:0:0:
403,314,27653,1,0,0:0:0:0:
403,314,27778,1,0,0:0:0:0:
403,314,27903,1,0,0:0:0:0:
403,314,28028,1,0,0:0:0:0:
403,314,28153,1,0,0:0:0:0:
166,72,28278,5,0,0:0:0:0:
166,72,28403,1,0,0:0:0:0:
166,72,28528,1,0,0:0:0:0:
166,72,28653,1,0,0:0:0:0:
166,72,28778,1,0,0:0:0:0:
166,72,28903,1,0,0:0:0:0:
166,72,29028,1,0,0:0:0:0:
166,72,29153,1,0,0:0:0:0:
166,72,29278,1,0,0:0:0:0:
166,72,29403,1,0,0:0:0:0:
166,72,29528,1,0,0:0:0:0:
166,72,29653,1,0,0:0:0:0:
133,212,29778,5,0,0:0:0:0:
133,212,29903,1,0,0:0:0:0:
133,212,30028,1,0,0:0:0:0:
133,212,30153,1,0,0:0:0:0:
133,212,30278,1,0,0:0:0:0:
133,212,30403,1,0,0:0:0:0:
133,212,30528,1,0,0:0:0:0:
133,212,30653,1,0,0:0:0:0:
133,212,30778,1,0,0:0:0:0:
133,212,30903,1,0,0:0:0:0:
133,212,31028,1,0,0:0:0:0:
133,212,31153,1,0,0:0:0:0:
401,109,31278,5,0,0:0:0:0:
401,109,31403,1,0,0:0:0:0:
401,109,31528,1,0,0:0:0:0:
401,109,31653,1,0,0:0:0:0:
401,109,31778,1,0,0:0:0:0:
401,109,31903,1,0,0:0:0:0:
401,109,32028,1,0,0:0:0:0:
401,109,32153,1,0,0:0:0:0:
401,109,32278,1,0,0:0:0:0:
401,109,32403,1,0,0:0:0:0:
401,109,32528,1,0,0:0:0:0:
401,109,32653,1,0,0:0:0:0:
307,306,32778,5,0,0:0:0:0:
297,226,32908,1,0,0:0:0:0:
411,280,33038,1,0,0:0:0:0:
333,378,33169,1,0,0:0:0:0:
228,257,33299,1,0,0:0:0:0:
381,162,33430,1,0,0:0:0:0:
307,306,33560,1,0,0:0:0:0:
218,115,33691,1,0,0:0:0:0:
381,162,33821,1,0,0:0:0:0:
228,257,33951,1,0,0:0:0:0:
280,160,34082,1,0,0:0:0:0:
348,280,34212,1,0,0:0:0:0:
97,227,34343,1,0,0:0:0:0:
228,257,34473,1,0,0:0:0:0:
156,335,34604,1,0,0:0:0:0:
190,177,34734,1,0,0:0:0:0:
228,257,34864,1,0,0:0:0:0:
97,227,34995,1,0,0:0:0:0:
148,110,35125,1,0,0:0:0:0:
190,177,35256,1,0,0:0:0:0:
97,227,35386,1,0,0:0:0:0:
84,152,35517,1,0,0:0:0:0:
168,247,35647,1,0,0:0:0:0:
97,227,35778,1,0,0:0:0:0:
251,39,35908,1,0,0:0:0:0:
344,110,36038,1,0,0:0:0:0:
246,212,36169,1,0,0:0:0:0:
324,36,36299,1,0,0:0:0:0:
464,168,36430,1,0,0:0:0:0:
230,134,36560,1,0,0:0:0:0:
476,87,36691,1,0,0:0:0:0:
427,348,36821,1,0,0:0:0:0:
305,111,36951,1,0,0:0:0:0:
469,243,37082,1,0,0:0:0:0:
318,277,37212,1,0,0:0:0:0:
376,183,37343,1,0,0:0:0:0:
215,338,37473,1,0,0:0:0:0:
137,72,37604,1,0,0:0:0:0:
215,338,37734,1,0,0:0:0:0:
134,344,37864,1,0,0:0:0:0:
215,159,37995,1,0,0:0:0:0:
134,344,38125,1,0,0:0:0:0:
291,310,38256,1,0,0:0:0:0:
259,241,38386,1,0,0:0:0:0:
291,310,38517,1,0,0:0:0:0:
199,383,38647,1,0,0:0:0:0:
215,338,38778,1,0,0:0:0:0:
199,383,38908,1,0,0:0:0:0:
256,108,39038,6,0,L|256:64,31,44.9999988079071
256,192,41438,6,0,L|256:356,1,157.499995827675
328,368,42038,2,0,P|256:340|184:368,1,157.499995827675
256,349,42638,2,0,L|256:192,1,157.499995827675
256,192,43238,2,0,L|256:34,1,157.499995827675
325,4,43838,2,0,P|350:68|431:85,1,157.499995827675
430,85,44438,2,0,P|355:97|324:166,1,157.499995827675
324,166,45038,2,0,P|398:153|429:84,1,157.499995827675
429,84,45638,2,0,P|398:14|323:2,1,157.499995827675
256,34,46238,6,0,L|256:192,1,157.499995827675
256,192,46538,2,0,L|256:349,1,157.499995827675
256,349,46838,2,0,L|98:349,1,157.499995827675
98,349,47138,2,0,L|98:191,1,157.499995827675
414,191,47438,2,0,L|414:349,1,157.499995827675
413,349,47738,2,0,L|256:349,1,157.499995827675
256,192,48038,2,0,L|256:112,7,78.749998664856
256,36,48638,5,0,0:0:0:0:
440,36,48774,1,0,0:0:0:0:
256,36,48910,5,0,0:0:0:0:
72,36,49047,1,0,0:0:0:0:
256,36,49183,5,0,0:0:0:0:
288,36,49319,1,0,0:0:0:0:
440,36,49456,1,0,0:0:0:0:
408,36,49592,1,0,0:0:0:0:
256,36,49728,5,0,0:0:0:0:
72,36,49865,1,0,0:0:0:0:
256,36,50001,5,0,0:0:0:0:
440,36,50138,1,0,0:0:0:0:
256,36,50274,5,0,0:0:0:0:
0,36,50410,1,0,0:0:0:0:
256,36,50547,5,0,0:0:0:0:
288,36,50683,1,0,0:0:0:0:
440,36,50819,1,0,0:0:0:0:
408,36,50956,1,0,0:0:0:0:
256,36,51092,5,0,0:0:0:0:
72,36,51228,1,0,0:0:0:0:
256,36,51365,5,0,0:0:0:0:
256,36,51910,5,0,0:0:0:0:
440,36,52047,1,0,0:0:0:0:
256,36,52183,5,0,0:0:0:0:
0,36,52319,1,0,0:0:0:0:
256,36,52456,5,0,0:0:0:0:
288,36,52592,1,0,0:0:0:0:
512,36,52728,1,0,0:0:0:0:
480,36,52865,1,0,0:0:0:0:
256,36,53001,5,0,0:0:0:0:
72,36,53138,1,0,0:0:0:0:
256,36,53274,5,0,0:0:0:0:
288,36,53410,1,0,0:0:0:0:
440,36,53547,1,0,0:0:0:0:
408,36,53683,1,0,0:0:0:0:
256,36,53819,5,0,0:0:0:0:
0,36,53956,1,0,0:0:0:0:
256,36,54092,5,0,0:0:0:0:
440,36,54228,1,0,0:0:0:0:
256,36,54365,5,0,0:0:0:0:
72,36,54501,1,0,0:0:0:0:
256,36,54638,5,0,0:0:0:0:
512,36,54775,1,0,0:0:0:0:
256,36,55183,5,0,0:0:0:0:
0,36,55319,1,0,0:0:0:0:
256,36,55456,5,0,0:0:0:0:
440,36,55592,1,0,0:0:0:0:
256,36,55728,5,0,0:0:0:0:
224,36,55865,1,0,0:0:0:0:
72,36,56001,1,0,0:0:0:0:
104,36,56138,1,0,0:0:0:0:
256,36,56274,5,0,0:0:0:0:
288,36,56410,1,0,0:0:0:0:
440,36,56547,1,0,0:0:0:0:
408,36,56683,1,0,0:0:0:0:
256,36,56819,5,0,0:0:0:0:
224,36,56956,1,0,0:0:0:0:
0,36,57092,1,0,0:0:0:0:
32,36,57228,1,0,0:0:0:0:
256,36,57365,5,0,0:0:0:0:
288,36,57501,1,0,0:0:0:0:
512,36,57638,1,0,0:0:0:0:
480,36,57774,1,0,0:0:0:0:
256,36,57910,5,0,0:0:0:0:
0,36,58047,1,0,0:0:0:0:
256,36,58456,5,0,0:0:0:0:
256,192,58606,12,0,60856,0:0:0:0:
355,337,63256,6,0,L|397:258,2,89.9999976158143
430,352,63706,1,0,0:0:0:0:
235,272,63856,2,0,L|331:243,2,89.9999976158143
279,335,64306,1,0,0:0:0:0:
164,111,64456,2,0,L|174:18,3,89.9999976158143
185,16,65206,5,0,0:0:0:0:
155,118,65356,2,0,L|165:25,1,89.9999976158143
355,337,65656,6,0,L|397:258,1,89.9999976158143
494,288,65956,2,0,L|430:352,1,89.9999976158143
235,272,66256,2,0,L|331:243,3,89.9999976158143
164,111,66856,2,0,L|174:18,1,89.9999976158143
155,118,67156,2,0,L|165:25,1,89.9999976158143
185,16,67456,1,0,0:0:0:0:
185,16,67606,1,0,0:0:0:0:
146,125,67756,2,0,L|156:32,1,89.9999976158143
256,192,68056,12,0,68874,0:0:0:0:
440,291,69146,5,0,0:0:0:0:
466,60,69283,1,0,0:0:0:0:
369,324,69419,1,0,0:0:0:0:
294,333,69556,1,0,0:0:0:0:
256,192,69692,1,0,0:0:0:0:
256,112,69828,1,0,0:0:0:0:
218,333,69965,1,0,0:0:0:0:
143,324,70101,1,0,0:0:0:0:
46,60,70237,1,0,0:0:0:0:
72,291,70374,1,0,0:0:0:0:
115,20,70510,1,0,0:0:0:0:
256,0,70646,1,0,0:0:0:0:
256,76,70783,1,0,0:0:0:0:
256,0,71056,5,0,0:0:0:0:
316,128,71192,1,0,0:0:0:0:
380,63,71328,1,0,0:0:0:0:
256,172,71465,1,0,0:0:0:0:
196,300,71601,1,0,0:0:0:0:
132,235,71737,1,0,0:0:0:0:
380,63,72010,5,0,0:0:0:0:
132,235,72419,5,0,0:0:0:0:
199,106,72556,1,0,0:0:0:0:
220,339,72692,1,0,0:0:0:0:
313,106,72828,1,0,0:0:0:0:
380,235,72965,1,0,0:0:0:0:
292,339,73101,1,0,0:0:0:0:
56,52,73374,5,0,0:0:0:0:
56,52,73510,1,0,0:0:0:0:
101,288,73646,1,0,0:0:0:0:
56,52,73783,1,0,0:0:0:0:
137,118,73919,1,0,0:0:0:0:
137,118,74056,1,0,0:0:0:0:
47,356,74192,1,0,0:0:0:0:
137,118,74328,1,0,0:0:0:0:
456,52,74601,5,0,0:0:0:0:
456,52,74737,1,0,0:0:0:0:
411,288,74873,1,0,0:0:0:0:
375,118,75010,1,0,0:0:0:0:
465,356,75146,1,0,0:0:0:0:
117,38,75556,5,0,0:0:0:0:
214,121,75692,1,0,0:0:0:0:
296,22,75828,1,0,0:0:0:0:
121,175,75965,1,0,0:0:0:0:
391,175,76101,1,0,0:0:0:0:
216,22,76237,1,0,0:0:0:0:
298,121,76510,5,0,0:0:0:0:
395,38,76646,1,0,0:0:0:0:
216,22,76783,1,0,0:0:0:0:
391,175,76919,1,0,0:0:0:0:
121,175,77056,1,0,0:0:0:0:
296,22,77328,5,0,0:0:0:0:
216,362,77465,1,0,0:0:0:0:
216,362,77874,5,0,0:0:0:0:
256,192,78010,1,0,0:0:0:0:
296,22,78146,1,0,0:0:0:0:
296,22,78419,5,0,0:0:0:0:
216,362,78556,1,0,0:0:0:0:
296,362,78965,5,0,0:0:0:0:
256,192,79101,1,0,0:0:0:0:
216,22,79237,1,0,0:0:0:0:
136,22,79374,1,0,0:0:0:0:
256,192,79510,1,0,0:0:0:0:
376,362,79646,1,0,0:0:0:0:
456,362,79783,1,0,0:0:0:0:
56,22,79919,1,0,0:0:0:0:
136,22,80328,5,0,0:0:0:0:
512,302,80465,1,0,0:0:0:0:
512,216,80874,5,0,0:0:0:0:
0,82,81010,1,0,0:0:0:0:
0,168,81419,5,0,0:0:0:0:
305,352,82237,5,0,0:0:0:0:
305,352,82299,1,0,0:0:0:0:
305,352,82362,1,0,0:0:0:0:
250,269,82487,1,0,0:0:0:0:
151,262,82612,1,0,0:0:0:0:
68,317,82737,1,0,0:0:0:0:
193,345,82862,1,0,0:0:0:0:
256,192,82987,1,0,0:0:0:0:
189,93,83112,1,0,0:0:0:0:
46,144,83237,1,0,0:0:0:0:
356,235,83362,1,0,0:0:0:0:
46,144,83487,1,0,0:0:0:0:
356,235,83612,1,0,0:0:0:0:
430,182,83862,5,0,0:0:0:0:
430,182,83987,1,0,0:0:0:0:
430,182,84112,1,0,0:0:0:0:
421,87,84237,1,0,0:0:0:0:
317,42,84362,1,0,0:0:0:0:
179,78,84487,1,0,0:0:0:0:
157,235,84612,1,0,0:0:0:0:
388,330,84737,1,0,0:0:0:0:
324,253,84862,1,0,0:0:0:0:
222,273,84987,1,0,0:0:0:0:
143,343,85112,1,0,0:0:0:0:
21,302,85237,1,0,0:0:0:0:
2,19,85362,1,0,0:0:0:0:
21,302,85487,1,0,0:0:0:0:
2,19,85612,1,0,0:0:0:0:
2,19,86112,5,0,0:0:0:0:
350,113,86237,1,0,0:0:0:0:
416,60,86357,1,0,0:0:0:0:
491,137,86477,1,0,0:0:0:0:
360,229,86597,1,0,0:0:0:0:
214,96,86717,1,0,0:0:0:0:
253,168,86837,1,0,0:0:0:0:
241,287,86957,1,0,0:0:0:0:
96,343,87077,1,0,0:0:0:0:
8,172,87197,1,0,0:0:0:0:
314,288,87317,1,0,0:0:0:0:
8,172,87437,1,0,0:0:0:0:
314,288,87557,1,0,0:0:0:0:
381,239,87797,5,0,0:0:0:0:
381,239,87917,1,0,0:0:0:0:
381,239,88037,1,0,0:0:0:0:
433,362,88157,1,0,0:0:0:0:
347,370,88277,1,0,0:0:0:0:
232,313,88397,1,0,0:0:0:0:
212,147,88517,1,0,0:0:0:0:
362,24,88637,1,0,0:0:0:0:
510,206,88757,1,0,0:0:0:0:
418,249,88877,1,0,0:0:0:0:
335,147,88997,1,0,0:0:0:0:
231,267,89117,1,0,0:0:0:0:
45,57,89237,1,0,0:0:0:0:
231,267,89357,1,0,0:0:0:0:
45,57,89477,1,0,0:0:0:0:
63,192,90077,5,0,0:0:0:0:
448,192,90192,1,0,0:0:0:0:
63,192,90307,1,0,0:0:0:0:
448,192,90423,2,0,L|63:192,1,384.300005285702
256,0,90769,5,0,0:0:0:0:
256,384,90884,1,0,0:0:0:0:
256,0,91000,1,0,0:0:0:0:
256,384,91115,2,0,L|256:-1,1,384.300005285702
448,192,91461,6,0,L|63:192,1,384.300005285702
256,0,91692,2,0,L|256:385,1,384.300005285702
120,327,91923,5,0,0:0:0:0:
391,56,92038,1,0,0:0:0:0:
120,327,92153,1,0,0:0:0:0:
391,56,92269,2,0,L|119:328,1,384.300005285702
120,56,92615,5,0,0:0:0:0:
392,328,92730,1,0,0:0:0:0:
120,56,92846,1,0,0:0:0:0:
392,328,92961,2,0,L|120:56,1,384.300005285702
119,328,93307,6,0,L|391:56,1,384.300005285702
120,56,93538,2,0,L|392:328,1,384.300005285702
391,56,93769,5,0,0:0:0:0:
120,328,93884,1,0,0:0:0:0:
120,56,94000,1,0,0:0:0:0:
392,328,94111,1,0,0:0:0:0:
448,192,94222,5,0,0:0:0:0:
63,192,94333,1,0,0:0:0:0:
448,192,94444,1,0,0:0:0:0:
63,192,94555,1,0,0:0:0:0:
448,192,94666,1,0,0:0:0:0:
63,192,94777,2,0,L|448:192,1,384.300005285702
120,56,95000,1,0,0:0:0:0:
391,327,95111,2,0,L|119:55,1,384.300005285702
255,383,95333,2,0,L|255:0,1,384.300005285702
120,327,95555,5,0,0:0:0:0:
391,56,95666,1,0,0:0:0:0:
120,327,95777,2,0,L|392:55,1,384.300005285702
64,192,96000,1,0,0:0:0:0:
448,190,96111,1,0,0:0:0:0:
64,192,96222,2,0,L|448:191,1,384.300005285702
120,56,96444,1,0,0:0:0:0:
391,327,96555,1,0,0:0:0:0:
120,56,96666,2,0,L|392:328,1,384.300005285702
391,56,96888,6,0,L|119:328,1,384.300005285702
445,1,97111,6,0,L|63:383,1,540.000006294251
447,192,97555,6,0,L|63:192,1,384.300005285702
119,55,98222,6,0,L|391:327,1,384.300005285702
256,384,99111,6,0,L|256:0,1,384.300005285702
