osu file format v14

[General]
AudioFilename: audio.mp3
AudioLeadIn: 0
PreviewTime: -1
Countdown: 1
SampleSet: None
StackLeniency: 0.7
Mode: 0
LetterboxInBreaks: 0
WidescreenStoryboard: 0

[Editor]
DistanceSpacing: 1.5
BeatDivisor: 8
GridSize: 32
TimelineZoom: 1.9

[Metadata]
Title:Pluto
TitleUnicode:Pluto
Artist:Black Hole
ArtistUnicode:Black Hole
Creator:Bacwux
Version:Challenge
Source:
Tags:
BeatmapID:1517589
BeatmapSetID:718504

[Difficulty]
HPDrainRate:6
CircleSize:4.2
OverallDifficulty:7
ApproachRate:9.7
SliderMultiplier:2.2
SliderTickRate:1

[Events]
//Background and Video events
//Break Periods
//Storyboard Layer 0 (Background)
//Storyboard Layer 1 (Fail)
//Storyboard Layer 2 (Pass)
//Storyboard Layer 3 (Foreground)
//Storyboard Sound Samples

[TimingPoints]
104,600,4,2,1,70,1,0
104,-200,4,2,1,70,0,0
9404,-133.333333333333,4,2,1,70,0,0
9704,545.454545454546,4,1,1,60,1,0
9704,-66.6666666666667,4,1,1,60,0,0
13522,-133.333333333333,4,1,1,60,0,0
14067,-66.6666666666667,4,1,1,60,0,0
18431,521.739130434783,4,1,1,70,1,1
18431,-57.1428571428571,4,1,1,70,0,1
26778,500,3,1,1,70,1,0
32778,521.739130434783,3,1,1,70,1,1
39038,600,4,1,1,70,1,0
41438,-100,4,1,1,40,0,0
48638,545.454545454546,6,1,1,70,1,0
48638,-50,6,1,1,70,0,0
51365,-200,6,1,1,70,0,0
51638,-200,6,1,1,5,0,0
51910,-50,6,1,1,70,0,0
54774,-200,6,1,1,70,0,0
54910,-200,6,1,1,5,0,0
55183,-50,6,1,1,70,0,0
58047,-200,6,1,1,70,0,0
58456,600,4,1,1,70,1,0
58456,-100,4,1,1,70,0,0
59956,-200,4,1,1,70,0,0
68056,545.454545454546,4,1,1,21,1,0
68056,-200,4,1,1,21,0,0
69146,545.454545454546,6,1,1,65,1,0
69146,-44.4444444444445,6,1,1,65,0,0
70782,-400,6,1,1,65,0,0
70918,-400,6,1,1,5,0,0
71055,-44.4444444444445,6,1,1,65,0,0
71736,-400,6,1,1,65,0,0
71873,-400,6,1,1,5,0,0
72009,-200,6,1,1,65,0,0
72282,-200,6,1,1,5,0,0
72418,-44.4444444444445,6,1,1,65,0,0
73100,-400,6,1,1,65,0,0
73236,-400,6,1,1,5,0,0
73373,-44.4444444444445,6,1,1,65,0,0
74327,-400,6,1,1,65,0,0
74464,-400,6,1,1,5,0,0
74600,-44.4444444444445,6,1,1,65,0,0
75146,-400,6,1,1,65,0,0
75418,-400,6,1,1,5,0,0
75555,-50,6,1,1,65,0,0
75623,-50,6,1,1,5,0,0
75691,-44.4444444444445,6,1,1,65,0,0
76236,-400,6,1,1,65,0,0
76373,-400,6,1,1,5,0,0
76509,-44.4444444444445,6,1,1,65,0,0
77055,-400,6,1,1,65,0,0
77191,-400,6,1,1,5,0,0
77327,-44.4444444444445,6,1,1,65,0,0
77464,-400,6,1,1,65,0,0
77736,-400,6,1,1,5,0,0
77873,-44.4444444444445,6,1,1,65,0,0
78146,-400,6,1,1,65,0,0
78282,-400,6,1,1,5,0,0
78418,-44.4444444444445,6,1,1,65,0,0
78555,-200,6,1,1,65,0,0
78827,-200,6,1,1,5,0,0
78964,-44.4444444444445,6,1,1,65,0,0
79918,-100,6,1,1,65,0,0
80191,-100,6,1,1,5,0,0
80327,-50,6,1,1,65,0,0
80464,-66.6666666666667,6,1,1,65,0,0
80736,-66.6666666666667,6,1,1,5,0,0
80873,-50,6,1,1,65,0,0
81009,-50,6,1,1,65,0,0
81282,-50,6,1,1,5,0,0
81418,-44.4444444444445,6,1,1,65,0,0
81555,-44.4444444444445,6,1,1,5,0,0
81691,-40,6,1,1,65,0,0
82237,500,4,1,1,65,1,0
82237,-50,4,1,1,65,0,0
86237,480,4,1,1,65,1,0
86237,-50,4,1,1,65,0,0
90077,461.538461538462,4,1,1,75,1,1
90077,-44.4444444444445,4,1,1,75,0,1
93769,444.444444444444,4,2,1,80,1,0
93769,-133.333333333333,4,2,1,80,0,0
94102,-44.4444444444445,4,2,1,80,0,0
95546,-40,4,2,1,80,0,0
97546,-400,4,2,1,80,0,0

[HitObjects]
112,150,104,5,0,0:0:0:0:
214,134,404,5,0,0:0:0:0:
106,155,554,1,0,0:0:0:0:
220,137,854,5,0,0:0:0:0:
100,160,1004,1,0,0:0:0:0:
100,160,1304,1,0,0:0:0:0:
226,140,1454,5,0,0:0:0:0:
94,165,1604,1,0,0:0:0:0:
235,149,1904,6,0,L|155:162,2,55
330,115,2804,5,0,0:0:0:0:
324,219,2954,1,0,0:0:0:0:
336,110,3254,5,0,0:0:0:0:
330,228,3404,1,0,0:0:0:0:
330,228,3704,1,0,0:0:0:0:
342,105,3854,5,0,0:0:0:0:
336,237,4004,1,0,0:0:0:0:
356,98,4304,6,0,L|353:178,2,55
212,246,5204,5,0,0:0:0:0:
317,235,5354,1,0,0:0:0:0:
206,250,5654,5,0,0:0:0:0:
326,240,5804,1,0,0:0:0:0:
326,240,6104,1,0,0:0:0:0:
200,254,6254,5,0,0:0:0:0:
335,245,6404,1,0,0:0:0:0:
192,264,6704,6,0,L|263:258,2,55
110,324,7604,5,0,0:0:0:0:
123,217,7754,1,0,0:0:0:0:
105,329,8054,5,0,0:0:0:0:
119,212,8204,1,0,0:0:0:0:
119,212,8504,1,0,0:0:0:0:
100,334,8654,5,0,0:0:0:0:
115,207,8804,1,0,0:0:0:0:
95,339,8954,5,0,0:0:0:0:
95,339,9104,2,0,L|135:335,1,27.5
182,281,9404,2,0,L|224:285,1,41.2500015735627
320,320,9704,6,0,L|331:221,1,82.5000031471254
234,111,9976,2,0,L|245:210,1,82.5000031471254
312,70,10249,2,0,P|239:23|160:57,1,165.000006294251
119,189,10658,1,0,0:0:0:0:
313,162,10794,6,0,L|323:71,1,82.5000031471254
128,198,11067,1,0,0:0:0:0:
276,235,11204,2,0,B|405:221|405:221|350:195,1,165.000006294251
205,178,11613,1,0,0:0:0:0:
339,322,11749,1,0,0:0:0:0:
422,143,11885,6,0,P|421:100|383:54,1,82.5000031471254
204,251,12158,2,0,P|205:294|243:340,1,82.5000031471254
340,125,12431,2,0,B|280:130|280:130|225:114|225:114|171:118,1,165.000006294251
204,251,12840,1,0,0:0:0:0:
285,41,12976,5,0,0:0:0:0:
44,92,13113,1,0,0:0:0:0:
209,276,13249,1,0,0:0:0:0:
297,39,13385,1,0,0:0:0:0:
297,39,13522,2,0,L|291:108,2,41.2500015735627
289,102,13931,5,0,0:0:0:0:
135,202,14067,6,0,P|69:172|26:176,1,82.5000031471254
199,356,14340,2,0,P|239:347|273:325,1,82.5000031471254
314,104,14613,2,0,P|237:157|266:255,1,165.000006294251
400,221,15022,1,0,0:0:0:0:
400,221,15158,6,0,L|310:186,1,82.5000031471254
403,315,15431,1,0,0:0:0:0:
473,164,15567,2,0,L|452:66,1,82.5000031471254
323,191,15840,1,0,0:0:0:0:
452,71,15976,1,0,0:0:0:0:
284,20,16113,1,0,0:0:0:0:
155,140,16249,6,0,L|160:243,1,82.5000031471254
300,115,16522,2,0,L|295:32,1,82.5000031471254
69,106,16794,2,0,B|51:185|51:185|78:301,1,165.000006294251
185,323,17204,1,0,0:0:0:0:
302,143,17340,5,0,0:0:0:0:
78,275,17476,1,0,0:0:0:0:
368,315,17613,1,0,0:0:0:0:
144,183,17749,1,0,0:0:0:0:
144,183,18431,6,0,L|152:294,1,96.2500009179116
251,334,18691,1,0,0:0:0:0:
321,152,18822,2,0,P|228:120|139:198,1,192.500001835823
361,280,19213,1,0,0:0:0:0:
374,66,19344,1,0,0:0:0:0:
373,291,19474,5,0,0:0:0:0:
386,77,19604,2,0,P|330:60|289:70,1,96.2500009179116
144,183,19865,1,0,0:0:0:0:
373,291,19996,2,0,L|474:284,1,96.2500009179116
332,146,20257,2,0,L|235:152,1,96.2500009179116
104,266,20517,6,0,B|100:319|100:319|116:372,2,96.2500009179116
214,140,20909,2,0,P|183:84|54:92,1,192.500001835823
205,252,21300,1,0,0:0:0:0:
205,252,21431,1,0,0:0:0:0:
327,105,21561,5,0,0:0:0:0:
123,155,21691,1,0,0:0:0:0:
283,295,21822,2,0,B|333:305|333:305|394:289,1,96.2500009179116
241,72,22083,2,0,P|215:158|222:185,1,96.2500009179116
441,160,22344,2,0,P|434:112|407:72,1,96.2500009179116
141,251,22604,5,0,0:0:0:0:
57,290,22735,1,0,0:0:0:0:
133,344,22865,1,0,0:0:0:0:
330,222,22996,2,0,B|335:155|335:155|310:95|310:95|317:28,1,192.500001835823
248,177,23387,2,0,L|132:176,1,96.2500009179116
223,91,23648,5,0,0:0:0:0:
401,80,23778,1,0,0:0:0:0:
258,250,23909,2,0,L|269:366,1,96.2500009179116
421,180,24170,2,0,B|429:130|429:130|411:75,1,96.2500009179116
145,84,24431,2,0,B|130:127|130:127|138:177,1,96.2500009179116
355,261,24691,5,0,0:0:0:0:
217,137,24822,1,0,0:0:0:0:
358,276,24952,1,0,0:0:0:0:
220,152,25083,2,0,B|251:62|251:62|318:141,1,192.500001835823
208,277,25474,2,0,P|155:263|112:211,1,96.2500009179116
145,84,25735,5,0,0:0:0:0:
280,211,25865,1,0,0:0:0:0:
120,329,25996,2,0,L|7:336,1,96.2500009179116
151,73,26257,2,0,P|212:69|255:94,1,96.2500009179116
122,228,26517,2,0,P|61:232|18:207,1,96.2500009179116
254,95,26778,6,0,L|249:178,1,55
328,116,27028,2,0,L|323:199,1,55
402,137,27278,2,0,L|397:220,1,55
472,212,27528,6,0,L|477:295,1,55
398,233,27778,2,0,L|403:316,1,55
324,254,28028,2,0,L|329:337,1,55
184,308,28278,6,0,L|188:254,1,55
110,287,28528,2,0,L|114:233,1,55
36,266,28778,2,0,L|40:212,1,55
113,191,29029,6,0,L|110:137,1,55
187,170,29279,2,0,L|184:116,1,55
261,149,29529,2,0,L|258:95,1,55
203,38,29778,5,0,0:0:0:0:
284,26,29903,1,0,0:0:0:0:
360,56,30028,1,0,0:0:0:0:
410,120,30153,1,0,0:0:0:0:
422,200,30278,1,0,0:0:0:0:
392,275,30403,1,0,0:0:0:0:
323,321,30528,5,0,0:0:0:0:
242,333,30653,1,0,0:0:0:0:
166,303,30778,1,0,0:0:0:0:
116,239,30903,1,0,0:0:0:0:
104,159,31028,1,0,0:0:0:0:
134,84,31153,1,0,0:0:0:0:
183,147,31278,5,0,0:0:0:0:
153,222,31403,1,0,0:0:0:0:
233,211,31528,1,0,0:0:0:0:
182,142,31653,1,0,0:0:0:0:
149,224,31778,1,0,0:0:0:0:
237,212,31903,1,0,0:0:0:0:
270,129,32028,5,0,0:0:0:0:
325,199,32153,1,0,0:0:0:0:
276,128,32278,1,0,0:0:0:0:
364,138,32403,1,0,0:0:0:0:
279,122,32528,1,0,0:0:0:0:
348,67,32653,1,0,0:0:0:0:
407,212,32778,6,0,L|405:279,1,55
307,285,33038,2,0,L|309:352,1,55
238,238,33299,1,0,0:0:0:0:
327,204,33430,1,0,0:0:0:0:
225,257,33560,6,0,L|155:256,1,55
89,185,33821,2,0,L|159:184,1,55
225,113,34082,2,0,L|155:112,1,55
123,50,34343,5,0,0:0:0:0:
222,35,34473,1,0,0:0:0:0:
237,124,34604,1,0,0:0:0:0:
336,109,34734,1,0,0:0:0:0:
351,198,34865,1,0,0:0:0:0:
450,183,34995,1,0,0:0:0:0:
364,293,35125,5,0,0:0:0:0:
265,308,35255,1,0,0:0:0:0:
250,219,35386,1,0,0:0:0:0:
151,234,35516,1,0,0:0:0:0:
136,145,35647,1,0,0:0:0:0:
37,160,35777,1,0,0:0:0:0:
148,240,35908,6,0,L|146:306,1,55
255,159,36169,2,0,L|257:225,1,55
148,78,36430,2,0,L|146:144,1,55
262,153,36691,5,0,0:0:0:0:
352,117,36821,1,0,0:0:0:0:
255,164,36951,1,0,0:0:0:0:
344,202,37081,1,0,0:0:0:0:
242,166,37212,1,0,0:0:0:0:
278,256,37343,1,0,0:0:0:0:
130,202,37473,6,0,L|139:135,1,55
310,77,37734,2,0,L|363:119,1,55
327,296,37995,2,0,L|265:321,1,55
184,87,38256,6,0,L|246:62,1,55
382,182,38517,2,0,L|373:249,1,55
201,306,38778,2,0,L|148:264,1,55
256,192,39038,5,0,0:0:0:0:
256,192,41438,6,0,L|249:235,3,27.5
326,228,41738,2,0,L|331:201,3,27.5
406,210,42038,2,0,L|399:253,3,27.5
475,245,42338,2,0,L|480:218,3,27.5
402,165,42638,6,0,L|408:208,3,27.5
331,201,42938,2,0,L|326:173,3,27.5
252,183,43238,2,0,L|258:226,1,27.5
181,217,43388,2,0,L|177:190,1,27.5
102,197,43538,2,0,L|108:240,3,27.5
148,324,43838,6,0,L|190:328,1,27.5
241,272,43988,2,0,L|283:268,1,27.5
334,324,44138,2,0,L|376:328,3,27.5
454,269,44438,6,0,L|412:273,1,27.5
361,217,44588,2,0,L|319:213,1,27.5
268,269,44738,2,0,L|226:273,3,27.5
147,214,45038,6,0,L|189:218,1,27.5
240,162,45188,2,0,L|282:158,1,27.5
333,214,45338,2,0,L|375:218,3,27.5
453,159,45638,6,0,L|411:163,1,27.5
360,107,45788,2,0,L|318:103,1,27.5
267,159,45938,2,0,L|225:163,3,27.5
155,88,46238,6,0,L|157:127,3,27.5
238,134,46538,2,0,L|240:173,3,27.5
332,197,46838,6,0,L|330:236,3,27.5
249,243,47138,2,0,L|247:282,3,27.5
256,192,47438,12,0,48488,0:0:0:0:
188,105,48638,6,0,B|285:100|285:100|262:124,1,110
195,256,48910,2,0,B|98:261|98:261|121:237,1,110
144,38,49183,1,0,0:0:0:0:
244,188,49319,1,0,0:0:0:0:
28,152,49456,1,0,0:0:0:0:
162,40,49592,6,0,B|172:98|172:98|141:158,1,110
10,291,49865,2,0,B|55:253|55:253|122:250,1,110
304,298,50138,2,0,B|248:277|248:277|212:220,1,110
316,91,50410,6,0,L|311:222,2,110
388,31,50819,1,0,0:0:0:0:
214,86,50956,1,0,0:0:0:0:
395,179,51092,1,0,0:0:0:0:
221,234,51229,1,0,0:0:0:0:
118,123,51365,6,0,L|127:21,1,96.25
148,41,51910,6,0,L|135:181,1,110
235,355,52183,2,0,L|222:215,1,110
65,187,52456,1,0,0:0:0:0:
296,209,52592,1,0,0:0:0:0:
62,307,52728,2,0,B|47:253|47:253|58:191,1,110
244,117,53001,1,0,0:0:0:0:
132,249,53138,5,0,0:0:0:0:
255,366,53274,2,0,B|341:369|341:369|373:350,1,110
341,112,53547,1,0,0:0:0:0:
341,112,53683,2,0,B|295:184|295:184|295:222,1,110
512,312,53956,2,0,B|471:236|471:236|439:217,1,110
187,255,54228,6,0,L|307:292,1,110
292,96,54501,2,0,L|187:129,1,110
391,161,54774,6,0,P|413:118|409:89,1,68.75
443,90,55183,5,0,0:0:0:0:
443,90,55319,2,0,P|439:145|407:190,1,110
189,117,55592,2,0,P|238:92|293:97,2,110
203,308,56001,1,0,0:0:0:0:
257,177,56138,1,0,0:0:0:0:
121,195,56274,1,0,0:0:0:0:
343,286,56410,2,0,P|395:244|403:188,1,110
273,57,56683,5,0,0:0:0:0:
322,206,56819,1,0,0:0:0:0:
266,47,56956,2,0,P|332:33|384:49,1,110
404,204,57228,1,0,0:0:0:0:
216,211,57365,2,0,P|201:145|218:93,1,110
315,248,57638,2,0,L|311:370,1,110
123,277,57910,1,0,0:0:0:0:
283,156,58047,6,0,L|362:162,1,68.75
366,166,58456,2,0,P|354:109|421:202,1,440
351,248,59806,5,0,0:0:0:0:
217,260,59956,2,0,L|280:264,3,55
195,148,61156,5,0,0:0:0:0:
209,249,61306,1,0,0:0:0:0:
189,142,61606,5,0,0:0:0:0:
203,256,61756,1,0,0:0:0:0:
203,256,62056,1,0,0:0:0:0:
183,136,62206,5,0,0:0:0:0:
197,263,62356,1,0,0:0:0:0:
177,130,62656,6,0,L|185:206,1,55
191,270,63256,5,0,0:0:0:0:
229,283,63406,1,0,0:0:0:0:
270,286,63556,1,0,0:0:0:0:
308,270,63706,1,0,0:0:0:0:
260,199,63856,5,0,0:0:0:0:
298,186,64006,1,0,0:0:0:0:
339,183,64156,1,0,0:0:0:0:
377,199,64306,1,0,0:0:0:0:
406,279,64456,5,0,0:0:0:0:
444,317,64606,1,0,0:0:0:0:
483,279,64756,1,0,0:0:0:0:
444,240,64906,1,0,0:0:0:0:
444,240,65056,5,0,0:0:0:0:
444,317,65206,1,0,0:0:0:0:
483,279,65356,1,0,0:0:0:0:
406,279,65506,1,0,0:0:0:0:
315,322,65656,5,0,0:0:0:0:
315,280,65806,1,0,0:0:0:0:
294,244,65956,1,0,0:0:0:0:
294,202,66106,1,0,0:0:0:0:
221,266,66256,5,0,0:0:0:0:
221,224,66406,1,0,0:0:0:0:
200,188,66556,1,0,0:0:0:0:
200,146,66706,1,0,0:0:0:0:
316,132,66856,5,0,0:0:0:0:
331,184,67006,1,0,0:0:0:0:
278,170,67156,1,0,0:0:0:0:
316,132,67306,1,0,0:0:0:0:
316,132,67456,5,0,0:0:0:0:
278,170,67606,1,0,0:0:0:0:
331,184,67756,1,0,0:0:0:0:
278,170,67906,1,0,0:0:0:0:
399,145,68056,6,0,L|411:331,1,165
406,330,69146,6,0,P|356:295|274:312,1,123.750004720688
108,317,69418,2,0,P|158:352|240:335,1,123.750004720688
224,113,69691,1,0,0:0:0:0:
184,271,69827,1,0,0:0:0:0:
325,213,69964,1,0,0:0:0:0:
98,157,70100,6,0,P|92:82|115:32,1,123.750004720688
325,213,70373,2,0,P|331:288|308:338,1,123.750004720688
184,271,70646,1,0,0:0:0:0:
307,126,70782,6,0,L|332:122,1,20.625
394,78,71055,5,0,0:0:0:0:
394,78,71123,1,0,0:0:0:0:
394,78,71191,1,0,0:0:0:0:
462,242,71327,1,0,0:0:0:0:
239,99,71464,2,0,P|290:40|344:32,1,123.750004720688
233,211,71736,6,0,L|210:208,1,20.625
190,208,72009,2,0,L|197:277,1,68.75
155,348,72418,6,0,P|206:361|276:300,1,123.750004720688
226,102,72691,2,0,P|189:139|207:230,1,123.750004720688
403,286,72964,1,0,0:0:0:0:
329,202,73100,6,0,L|331:224,1,20.625
333,251,73373,5,0,0:0:0:0:
432,133,73509,1,0,0:0:0:0:
264,172,73646,1,0,0:0:0:0:
384,369,73782,1,0,0:0:0:0:
384,369,73850,1,0,0:0:0:0:
384,369,73918,2,0,P|450:357|488:297,1,123.750004720688
264,172,74191,1,0,0:0:0:0:
120,267,74327,6,0,L|124:292,1,20.625
130,314,74600,5,0,0:0:0:0:
76,189,74736,1,0,0:0:0:0:
209,66,74873,1,0,0:0:0:0:
132,243,75009,1,0,0:0:0:0:
56,108,75146,6,0,L|61:71,1,34.375
90,68,75555,6,0,L|82:122,1,55
18,251,75691,6,0,P|88:226|148:257,1,123.750004720688
338,329,75964,1,0,0:0:0:0:
81,315,76100,1,0,0:0:0:0:
221,99,76236,6,0,L|224:123,1,20.625
227,140,76509,5,0,0:0:0:0:
81,315,76646,1,0,0:0:0:0:
142,71,76782,1,0,0:0:0:0:
331,230,76918,1,0,0:0:0:0:
131,242,77055,6,0,L|106:238,1,20.625
92,237,77327,5,0,0:0:0:0:
218,64,77464,6,0,L|221:101,1,34.375
223,123,77873,5,0,0:0:0:0:
140,332,78009,1,0,0:0:0:0:
319,191,78146,6,0,L|340:194,1,20.625
368,197,78418,5,0,0:0:0:0:
152,323,78555,6,0,L|158:251,1,68.75
161,228,78964,6,0,P|234:217|297:257,1,123.750004720688
356,326,79236,1,0,0:0:0:0:
32,292,79373,2,0,L|50:162,1,123.750004720688
72,32,79646,1,0,0:0:0:0:
212,306,79782,1,0,0:0:0:0:
415,182,79918,6,0,P|426:124|359:80,1,137.5
369,79,80327,1,0,0:0:0:0:
214,231,80464,6,0,B|281:231|281:231|344:263|344:263|415:263,1,206.250007867813
412,263,80873,1,0,0:0:0:0:
195,67,81009,6,0,B|119:102|137:176|137:176|63:218|94:308,1,275
104,316,81418,2,0,L|265:305,1,123.750004720688
345,125,81691,6,0,P|290:184|368:274,2,183.333333333333
366,198,82236,6,0,L|356:346,1,110
187,176,82487,2,0,L|196:38,1,110
443,255,82737,1,0,0:0:0:0:
443,255,82987,5,0,0:0:0:0:
221,302,83112,1,0,0:0:0:0:
320,133,83237,2,0,P|372:120|433:155,1,110
288,356,83487,1,0,0:0:0:0:
159,193,83612,2,0,B|179:31|179:31|205:129,1,220
246,221,83987,1,0,0:0:0:0:
85,61,84112,1,0,0:0:0:0:
250,231,84237,6,0,P|304:251|361:221,1,110
193,54,84487,2,0,P|139:34|82:64,1,110
155,283,84737,2,0,B|250:231|250:231|154:153,1,220
61,217,85112,1,0,0:0:0:0:
228,342,85237,2,0,P|302:354|345:327,1,110
331,95,85487,1,0,0:0:0:0:
65,302,85612,1,0,0:0:0:0:
65,302,86112,1,0,0:0:0:0:
228,92,86237,6,0,P|288:77|339:102,1,110
167,304,86477,2,0,P|107:319|56:294,1,110
187,3,86717,2,0,B|213:65|213:65|182:231,1,220
66,89,87077,1,0,0:0:0:0:
285,124,87197,2,0,L|264:232,1,110
133,354,87437,1,0,0:0:0:0:
52,188,87557,1,0,0:0:0:0:
52,188,87797,5,0,0:0:0:0:
133,354,87917,1,0,0:0:0:0:
264,232,88037,1,0,0:0:0:0:
183,66,88157,6,0,L|68:74,1,110
264,232,88397,2,0,L|373:239,1,110
365,56,88637,1,0,0:0:0:0:
365,56,88877,5,0,0:0:0:0:
142,193,88997,1,0,0:0:0:0:
373,239,89117,1,0,0:0:0:0:
198,85,89237,1,0,0:0:0:0:
152,316,89357,1,0,0:0:0:0:
396,142,89477,1,0,0:0:0:0:
396,142,90077,6,0,B|339:120|339:120|259:146,1,123.750004720688
101,248,90307,1,0,0:0:0:0:
293,333,90423,2,0,P|348:260|265:135,1,247.500009441376
243,239,90769,1,0,0:0:0:0:
425,315,90884,2,0,L|423:182,1,123.750004720688
196,126,91115,1,0,0:0:0:0:
426,186,91230,2,0,P|451:115|419:62,1,123.750004720688
187,135,91461,6,0,L|194:277,1,123.750004720688
353,124,91692,2,0,L|346:0,1,123.750004720688
193,270,91923,5,0,0:0:0:0:
354,137,92038,1,0,0:0:0:0:
170,121,92153,1,0,0:0:0:0:
303,282,92269,2,0,B|326:115|326:115|276:197,1,247.500009441376
220,328,92615,1,0,0:0:0:0:
387,238,92730,2,0,L|406:104,1,123.750004720688
170,121,92961,1,0,0:0:0:0:
269,270,93077,2,0,P|352:270|393:229,1,123.750004720688
90,64,93307,6,0,L|96:204,1,123.750004720688
232,333,93538,2,0,L|226:209,1,123.750004720688
117,235,93769,5,0,0:0:0:0:
52,324,93880,1,0,0:0:0:0:
157,290,93991,1,0,0:0:0:0:
47,166,94102,2,0,P|83:88|228:111,1,247.500009441376
221,354,94435,2,0,B|162:372|162:372|97:358,2,123.750004720688
342,235,94769,1,0,0:0:0:0:
165,167,94880,2,0,P|142:225|166:296,1,123.750004720688
361,365,95102,6,0,L|355:238,1,123.750004720688
171,43,95324,2,0,L|176:166,1,123.750004720688
416,107,95546,6,0,P|337:86|275:125,1,137.5
156,282,95769,1,0,0:0:0:0:
376,271,95880,2,0,P|418:197|272:118,1,275
252,347,96213,2,0,B|323:338|323:338|373:291,1,137.5
282,25,96435,1,0,0:0:0:0:
282,25,96546,1,0,0:0:0:0:
164,234,96657,2,0,P|190:317|263:351,1,137.5
226,92,96880,6,0,P|141:73|75:119,1,137.5
317,216,97102,2,0,P|375:151|368:71,1,137.5
32,192,97546,5,0,0:0:0:0:
256,192,98213,5,0,0:0:0:0:
480,192,99102,5,0,0:0:0:0:
