osu file format v14

[General]
AudioFilename: audio.mp3
AudioLeadIn: 0
PreviewTime: 29
Countdown: 0
SampleSet: Normal
StackLeniency: 0.7
Mode: 2
LetterboxInBreaks: 0
WidescreenStoryboard: 0

[Editor]
DistanceSpacing: 1.5
BeatDivisor: 4
GridSize: 4
TimelineZoom: 3.899999

[Metadata]
Title:Pluto
TitleUnicode:Pluto
Artist:Black Hole
ArtistUnicode:Black∞Hole
Creator:Ascendance
Version:ZiRoX's Difficult
Source:DanceDanceRevolution SuperNOVA 2
Tags:beatmania IIDX 15 DJ TROOPERS CS DDR dance revolution pack 3 NM SEQUENCE UNLIMITED Hareimu JBHyperion JBH ZiRoX Razor Sharp Arthas Sanyi Sinnoh BEAT EX
BeatmapID:1454884
BeatmapSetID:680437

[Difficulty]
HPDrainRate:5
CircleSize:4
OverallDifficulty:8
ApproachRate:8
SliderMultiplier:1.85
SliderTickRate:2

[Events]
//Background and Video events
0,0,"cropped-1920-1080-502977.jpg",0,0
//Break Periods
//Storyboard Layer 0 (Background)
//Storyboard Layer 1 (Fail)
//Storyboard Layer 2 (Pass)
//Storyboard Layer 3 (Foreground)
//Storyboard Sound Samples

[TimingPoints]
104,600,4,2,1,70,1,0
104,-100,4,2,1,70,0,0
9704,545.454545454546,4,1,1,60,1,0
13454,-100,4,1,1,5,0,0
13794,-100,4,1,1,60,0,0
17817,-100,4,1,1,5,0,0
18431,521.739130434783,4,1,1,70,1,1
18431,-83.3333333333333,4,1,1,70,0,1
22539,-100,4,2,1,95,0,1
22604,-100,4,2,1,95,0,0
22800,-100,4,1,1,70,0,0
22996,-83.3333333333333,4,1,1,70,0,1
26778,500,3,1,1,70,1,0
32778,521.739130434783,3,1,1,70,1,1
39038,600,4,1,1,70,1,0
41438,-100,4,1,1,53,0,0
47588,-100,4,1,1,58,0,0
48038,-100,4,1,1,62,0,0
48638,545.454545454546,6,1,1,70,1,0
51433,-100,4,1,1,5,0,0
51910,-100,4,1,1,70,0,0
54842,-100,4,1,1,5,0,0
55182,-100,4,1,1,70,0,0
58251,-100,4,1,1,5,0,0
58456,600,4,1,1,70,1,0
59056,-100,4,1,1,63,0,0
59656,-100,4,1,1,56,0,0
60256,-100,4,1,1,49,0,0
63106,-100,4,2,1,78,0,0
67456,-100,4,2,1,54,0,0
68056,545.454545454546,4,1,1,21,1,0
68874,-100,4,3,1,50,0,0
69010,-100,4,1,1,65,0,0
69146,545.454545454546,6,1,1,65,1,0
70783,-100,6,1,1,80,0,0
75351,-100,4,1,1,5,0,0
75554,-100,4,1,1,80,0,0
77533,-100,4,1,1,5,0,0
77871,-100,4,1,1,80,0,0
79987,-100,4,1,1,5,0,0
80327,-100,4,1,1,85,0,0
80533,-100,4,1,1,5,0,0
80872,-100,4,1,1,90,0,0
81010,-100,4,1,1,95,0,0
81078,-100,4,1,1,5,0,0
81351,-100,4,1,1,95,0,0
81624,-100,4,2,1,90,0,0
82237,500,4,1,1,65,1,0
85674,-100,4,1,1,5,0,0
86049,-100,4,1,1,65,0,0
86237,480,4,1,1,65,1,0
89537,-100,4,1,1,5,0,0
90077,461.538461538462,4,1,1,75,1,1
90077,-83.3333333333333,4,1,1,75,0,1
93769,444.444444444444,4,2,1,80,1,0
93769,-100,4,2,1,80,0,0
93991,-100,4,1,1,80,0,0
94102,-83.3333333333333,4,1,1,80,0,1
95490,-83.3333333333333,4,1,1,85,0,1
97213,-83.3333333333333,4,1,1,85,0,0
97322,-100,4,1,1,70,0,0
101102,-100,4,1,1,5,0,0

[Colours]
Combo1 : 255,255,175
Combo2 : 0,64,128
Combo3 : 0,128,128
Combo4 : 213,85,43

[HitObjects]
288,196,104,5,0,1:0:0:0:
144,192,404,2,0,L|80:192,1,46.25,2|0,0:0|0:0,0:0:0:0:
248,192,854,2,0,L|308:192,1,46.25,2|0,0:0|0:0,0:0:0:0:
104,192,1304,2,0,L|24:192,2,46.25,0|0|2,0:0|0:0|0:0,0:0:0:0:
348,192,1904,1,2,2:0:0:0:
204,192,2204,1,0,1:0:0:0:
468,192,2504,5,0,1:3:0:0:
324,192,2804,2,0,L|256:192,1,46.25,2|0,0:0|0:0,0:0:0:0:
140,192,3254,2,0,L|76:192,1,46.25,2|0,0:0|0:0,0:0:0:0:
284,192,3704,2,0,L|360:192,2,46.25,0|0|2,0:0|0:0|0:0,0:0:0:0:
44,196,4304,1,2,0:0:0:0:
188,192,4604,1,0,1:0:0:0:
452,196,4904,5,0,1:3:0:0:
308,192,5204,2,0,L|248:192,1,46.25,2|0,0:0|0:0,0:0:0:0:
408,192,5654,2,0,L|468:192,1,46.25,2|0,0:0|0:0,0:0:0:0:
264,192,6104,2,0,L|184:192,2,46.25,0|0|2,0:0|0:0|2:0,0:0:0:0:
488,192,6704,1,2,0:0:0:0:
344,192,7004,1,0,1:0:0:0:
60,196,7304,5,0,1:3:0:0:
204,192,7604,2,0,L|264:192,1,46.25,2|0,0:0|0:0,0:0:0:0:
392,192,8054,2,0,L|328:192,1,46.25,2|0,0:0|0:0,0:0:0:0:
164,192,8504,2,0,L|88:192,2,46.25,0|2|0,0:0|0:0|0:0,0:0:0:0:
224,196,8954,1,0,3:0:0:0:
392,196,9104,1,0,3:0:0:0:
496,196,9404,1,0,0:0:0:0:
108,188,9704,6,0,P|72:208|64:268,1,92.5,8|0,0:3|0:0,0:0:0:0:
208,188,10249,2,0,L|108:188,1,92.5,4|0,0:0|0:0,0:0:0:0:
360,192,10794,6,0,L|280:192,1,46.25,0|0,0:0|0:0,0:0:0:0:
252,192,11067,2,0,L|184:192,1,46.25,0|0,0:0|0:0,0:0:0:0:
372,192,11476,2,0,L|428:192,1,46.25,0|0,0:0|0:0,0:0:0:0:
176,272,11885,6,0,L|76:272,1,92.5,0|0,0:0|0:0,0:0:0:0:
232,208,12431,2,0,L|332:208,1,92.5,4|0,0:0|0:0,0:0:0:0:
92,208,12976,6,0,L|160:208,1,46.25,0|0,0:0|0:0,0:0:0:0:
200,208,13248,2,0,L|268:208,1,46.25,0|0,0:0|0:0,0:0:0:0:
76,192,13658,2,0,P|52:240|64:296,1,92.5,0|4,0:0|0:2,0:0:0:0:
264,272,14067,6,0,L|388:272,1,92.5,0|0,0:0|0:0,0:0:0:0:
504,272,14613,2,0,L|404:272,1,92.5,0|0,0:0|0:0,0:0:0:0:
164,216,15157,6,0,L|248:216,1,46.25,0|0,0:0|0:0,0:0:0:0:
272,216,15430,2,0,L|352:216,1,46.25,0|0,0:0|0:0,0:0:0:0:
132,192,15840,2,0,L|92:216,1,46.25,0|0,0:0|0:0,0:0:0:0:
340,272,16249,6,0,L|448:272,1,92.5,0|0,0:0|0:0,0:0:0:0:
284,208,16794,2,0,L|184:208,1,92.5,0|0,0:0|0:0,0:0:0:0:
420,208,17340,2,0,L|484:208,2,46.25,0|0|0,0:0|0:0|0:0,0:0:0:0:
216,204,17749,1,0,0:0:0:0:
396,204,18431,6,0,L|480:204,2,55.4999983062745,4|0|0,0:2|0:0|0:0,0:0:0:0:
160,196,18822,2,0,P|80:260|112:344,1,166.499994918823,2|0,0:0|0:0,0:0:0:0:
252,316,19474,1,0,0:0:0:0:
307,316,19604,1,2,0:0:0:0:
363,316,19734,1,2,0:0:0:0:
40,316,19996,1,2,0:0:0:0:
172,316,20257,1,2,0:0:0:0:
404,316,20517,6,0,L|476:316,2,55.4999983062745,0|0|0,0:0|0:0|0:0,0:0:0:0:
172,316,20909,2,0,P|92:252|124:168,1,166.499994918823,2|0,0:0|0:0,0:0:0:0:
268,196,21561,1,0,0:0:0:0:
213,196,21691,1,2,0:0:0:0:
157,196,21821,1,2,0:0:0:0:
480,196,22083,1,2,0:0:0:0:
348,196,22344,1,2,0:0:0:0:
116,196,22604,6,0,L|56:196,2,46.25,2|0|2,0:0|0:0|0:0,0:0:0:0:
348,196,22996,2,0,P|428:132|396:48,1,166.499994918823,4|0,0:2|0:0,0:0:0:0:
236,196,23648,1,0,0:0:0:0:
181,196,23778,1,2,0:0:0:0:
125,196,23908,1,2,0:0:0:0:
448,196,24170,1,2,0:0:0:0:
316,196,24431,1,2,0:0:0:0:
72,196,24691,6,0,L|8:196,2,55.4999983062745,4|0|0,0:0|0:0|0:0,0:0:0:0:
304,196,25083,2,0,P|396:168|416:72,1,166.499994918823,2|0,0:0|0:0,0:0:0:0:
252,80,25735,1,0,0:0:0:0:
307,80,25865,1,2,0:0:0:0:
363,80,25995,1,2,0:0:0:0:
40,80,26257,1,2,0:0:0:0:
172,80,26518,1,2,0:0:0:0:
424,80,26778,6,0,L|300:80,1,92.5,4|0,0:2|0:0,0:0:0:0:
204,80,27278,2,0,L|152:80,1,46.25,0|0,3:3|0:0,0:0:0:0:
100,80,27528,2,0,L|48:80,1,46.25,0|0,0:0|2:0,0:0:0:0:
52,140,27778,2,0,L|104:140,1,46.25,0|0,0:0|3:0,0:0:0:0:
156,140,28028,1,0,0:0:0:0:
408,80,28278,6,0,L|284:80,1,92.5,4|0,0:2|0:0,0:0:0:0:
224,144,28778,2,0,L|276:144,1,46.25,0|0,0:0|3:0,0:0:0:0:
328,144,29028,2,0,L|380:144,1,46.25,0|0,0:0|0:0,0:0:0:0:
420,144,29278,2,0,L|368:144,1,46.25,0|0,3:0|3:0,0:0:0:0:
324,144,29528,1,0,1:0:0:0:
80,80,29778,6,0,L|204:80,1,92.5,4|0,0:2|0:0,0:0:0:0:
308,80,30278,2,0,L|360:80,1,46.25,0|0,0:0|0:0,0:0:0:0:
412,80,30528,2,0,L|464:80,1,46.25,0|0,0:0|1:0,0:0:0:0:
460,140,30778,2,0,L|408:140,1,46.25,0|0,3:0|3:0,0:0:0:0:
356,140,31028,1,0,0:0:0:0:
108,80,31278,6,0,L|232:80,1,92.5,4|0,3:2|0:0,0:0:0:0:
308,144,31778,2,0,L|256:144,1,46.25,0|0,3:0|3:0,0:0:0:0:
204,144,32028,2,0,L|152:144,1,46.25,0|0,0:0|0:0,0:0:0:0:
112,144,32278,2,0,L|60:144,1,46.25,0|0,3:0|3:0,0:0:0:0:
100,144,32528,1,0,0:0:0:0:
412,144,32778,6,0,L|472:144,2,46.25,4|0|0,0:2|0:0|0:0,0:0:0:0:
276,144,33169,1,0,0:0:0:0:
229,144,33299,1,0,0:0:0:0:
183,144,33429,1,0,0:0:0:0:
312,144,33560,2,0,L|372:144,2,46.25,0|0|0,0:0|0:0|0:0,0:0:0:0:
176,144,33951,1,0,0:0:0:0:
129,144,34081,1,0,0:0:0:0:
68,144,34211,1,0,0:0:0:0:
260,168,34343,6,0,L|284:232,2,46.25,2|0|0,0:2|0:0|3:0,0:0:0:0:
132,220,34734,2,0,L|156:284,2,46.25,2|0|0,0:2|0:0|3:0,0:0:0:0:
260,280,35125,6,0,L|236:344,2,46.25,2|0|0,0:2|3:0|3:0,0:0:0:0:
384,272,35517,2,0,L|408:336,2,46.25,0|2|0,0:0|3:2|3:1,0:0:0:0:
100,240,35908,6,0,L|40:240,2,46.25,4|0|0,0:2|0:0|0:0,0:0:0:0:
236,240,36299,1,0,0:0:0:0:
283,240,36429,1,0,3:0:0:0:
329,240,36559,1,0,3:0:0:0:
204,240,36690,2,0,L|144:240,2,46.25,0|0|0,0:2|0:0|3:0,0:0:0:0:
340,240,37081,1,0,3:0:0:0:
387,240,37211,1,0,0:0:0:0:
433,240,37343,1,0,0:0:0:0:
240,216,37473,6,0,L|192:184,2,46.25,4|0|0,0:2|0:0|0:0,0:0:0:0:
368,164,37864,2,0,L|420:124,2,46.25,4|0|0,0:2|3:0|3:0,0:0:0:0:
232,112,38256,6,0,L|176:80,2,46.25,4|0|0,0:2|0:0|0:0,0:0:0:0:
380,88,38647,2,0,L|436:48,2,46.25,4|0|0,0:2|3:0|3:0,0:0:0:0:
180,108,39038,1,4,0:2:0:0:
256,192,39338,12,0,41138,0:0:0:0:
256,192,41438,5,0,0:0:0:0:
104,192,42038,1,0,0:0:0:0:
256,192,42638,1,2,1:3:0:0:
72,192,43238,1,0,0:0:0:0:
420,192,43838,6,0,L|296:192,1,92.5,0|0,0:0|3:0,0:0:0:0:
448,192,44438,2,0,L|532:192,2,46.25,0|0|0,0:0|3:0|3:0,0:0:0:0:
184,192,45038,6,0,L|92:192,1,92.5,0|0,0:0|3:0,0:0:0:0:
212,192,45638,2,0,L|296:192,2,46.25,0|0|0,0:0|3:0|3:0,0:0:0:0:
452,196,46238,6,0,L|468:312,1,92.5,0|0,0:0|0:0,0:0:0:0:
228,196,46838,2,0,L|344:196,1,92.5,0|0,0:0|0:0,0:0:0:0:
60,188,47438,6,0,L|44:72,1,92.5,0|0,0:0|0:0,0:0:0:0:
284,188,48038,2,0,L|168:188,1,92.5,0|0,0:0|0:0,0:0:0:0:
440,188,48638,6,0,L|488:188,1,46.25,4|2,0:2|1:0,0:0:0:0:
488,264,48910,2,0,L|428:264,1,46.25,0|2,0:0|0:0,0:0:0:0:
292,268,49183,1,0,0:0:0:0:
172,268,49456,2,0,L|88:268,1,46.25,0|2,0:0|0:0,0:0:0:0:
172,268,49728,6,0,L|224:268,1,46.25,0|2,0:0|0:0,0:0:0:0:
276,204,50001,2,0,L|204:204,1,46.25,0|2,0:0|0:0,0:0:0:0:
172,204,50274,1,0,0:0:0:0:
316,204,50410,1,2,0:0:0:0:
152,204,50819,6,0,L|88:204,1,46.25,0|2,0:0|0:0,0:0:0:0:
104,272,51092,2,0,L|150:272,1,46.25,0|0,0:0|0:0,0:0:0:0:
308,276,51365,1,0,0:0:0:0:
140,188,51910,6,0,L|92:188,2,46.25,0|2|0,0:0|0:0|0:0,0:0:0:0:
276,188,52319,2,0,L|324:188,2,46.25,2|0|0,0:0|0:0|0:0,0:0:0:0:
408,268,52728,2,0,L|492:268,1,46.25,2|0,1:0|0:0,0:0:0:0:
408,268,53001,6,0,L|356:268,1,46.25,0|2,0:0|0:0,0:0:0:0:
304,204,53273,2,0,L|376:204,1,46.25,2|0,0:0|0:0,0:0:0:0:
404,204,53547,2,0,L|476:204,1,46.25,0|2,0:0|0:0,0:0:0:0:
396,148,53819,2,0,L|324:148,1,46.25,0|2,0:0|0:0,0:0:0:0:
428,204,54091,6,0,L|492:204,1,46.25,0|0,0:0|0:0,0:0:0:0:
476,272,54364,2,0,L|430:272,1,46.25,2|0,0:0|0:0,0:0:0:0:
372,272,54637,1,0,0:0:0:0:
176,272,54774,1,4,0:2:0:0:
72,188,55183,6,0,L|24:188,1,46.25,4|2,0:2|0:0,0:0:0:0:
24,264,55455,2,0,L|84:264,1,46.25,0|0,0:0|0:0,0:0:0:0:
220,268,55728,1,0,0:0:0:0:
336,268,56001,2,0,L|420:268,1,46.25,0|2,0:0|0:0,0:0:0:0:
336,268,56273,6,0,L|284:268,1,46.25,0|0,0:0|0:0,0:0:0:0:
232,204,56546,2,0,L|304:204,1,46.25,0|2,0:0|0:0,0:0:0:0:
336,204,56819,1,0,0:0:0:0:
188,204,56955,1,2,0:0:0:0:
304,204,57228,1,2,0:0:0:0:
356,204,57364,6,0,L|420:204,1,46.25,2|0,0:0|0:0,0:0:0:0:
468,272,57637,2,0,L|422:272,1,46.25,2|0,0:0|0:0,0:0:0:0:
360,272,57910,1,2,0:0:0:0:
160,272,58047,1,4,0:2:0:0:
336,272,58456,5,4,3:2:0:0:
180,280,59056,1,0,3:0:0:0:
408,192,59656,2,0,L|488:192,2,46.25,0|0|0,3:0|3:0|3:0,0:0:0:0:
164,192,60256,1,0,0:0:0:0:
308,192,60556,1,0,0:0:0:0:
44,192,60856,5,0,0:0:0:0:
188,192,61156,2,0,L|256:192,1,46.25,0|0,3:0|3:0,0:0:0:0:
372,192,61606,2,0,L|436:192,1,46.25,0|0,3:0|3:0,0:0:0:0:
228,192,62056,2,0,L|152:192,2,46.25,0|0|2,3:0|3:0|3:2,0:0:0:0:
468,196,62656,1,0,0:0:0:0:
324,192,62956,1,0,0:0:0:0:
104,200,63256,6,0,L|104:312,1,92.5,4|2,0:0|0:0,0:0:0:0:
256,300,63856,2,0,L|256:207,1,92.5,0|2,1:0|0:0,0:0:0:0:
408,200,64456,6,0,L|408:312,1,92.5,0|2,1:0|0:0,0:0:0:0:
256,300,65056,2,0,L|256:207,1,92.5,0|0,1:0|1:0,0:0:0:0:
440,208,65656,6,0,L|320:208,1,92.5,4|2,0:0|0:0,0:0:0:0:
224,208,66256,2,0,L|104:208,1,92.5,0|2,1:0|0:0,0:0:0:0:
380,212,66856,6,0,L|260:212,1,92.5,0|2,1:0|0:0,0:0:0:0:
140,212,67456,2,0,L|80:212,2,46.25,0|2|0,1:0|1:0|1:0,0:0:0:0:
368,212,67906,1,2,1:0:0:0:
200,188,69146,6,0,L|152:188,1,46.25,0|2,0:0|0:0,0:0:0:0:
152,264,69418,2,0,L|212:264,1,46.25,0|2,0:0|0:0,0:0:0:0:
352,268,69691,1,0,0:0:0:0:
496,260,69964,2,0,L|496:200,1,46.25,0|2,0:0|0:0,0:0:0:0:
440,208,70236,6,0,L|388:208,1,46.25,0|2,0:0|0:0,0:0:0:0:
336,208,70509,2,0,L|264:208,1,46.25,0|2,0:0|0:0,0:0:0:0:
232,208,70782,1,0,0:0:0:0:
16,260,71056,2,0,L|16:200,1,46.25,0|0,0:0|0:0,0:0:0:0:
72,208,71328,6,0,L|124:208,1,46.25,0|2,0:0|0:0,0:0:0:0:
176,208,71601,2,0,L|248:208,1,46.25,0|0,0:0|0:0,0:0:0:0:
284,212,71874,1,0,0:0:0:0:
80,212,72010,2,0,P|28:272|64:336,1,138.75,4|0,0:2|0:0,0:0:0:0:
124,328,72556,2,0,L|200:328,1,46.25,2|0,0:0|0:0,0:0:0:0:
236,328,72827,2,0,L|284:328,2,46.25,2|0|2,0:0|0:0|0:0,0:0:0:0:
400,328,73510,6,0,L|416:252,1,46.25,0|2,0:0|0:0,0:0:0:0:
332,268,73783,2,0,L|348:192,1,46.25,0|0,0:0|0:0,0:0:0:0:
420,228,74056,2,0,L|436:152,1,46.25,0|0,0:0|0:0,0:0:0:0:
352,268,74327,1,0,0:0:0:0:
200,188,74601,6,0,L|152:188,1,46.25,0|0,0:0|0:0,0:0:0:0:
152,264,74873,2,0,L|212:264,1,46.25,0|2,0:0|0:0,0:0:0:0:
352,268,75146,1,0,0:0:0:0:
256,200,75556,1,4,0:2:0:0:
168,200,75691,6,0,L|120:200,1,46.25,0|2,0:0|0:0,0:0:0:0:
120,124,75963,2,0,L|180:124,1,46.25,0|2,0:0|0:0,0:0:0:0:
316,120,76236,1,0,0:0:0:0:
176,120,76509,2,0,L|92:120,1,46.25,0|2,0:0|0:0,0:0:0:0:
60,192,76781,6,0,L|112:192,1,46.25,0|0,0:0|0:0,0:0:0:0:
160,192,77054,2,0,L|232:192,1,46.25,2|0,0:0|0:0,0:0:0:0:
264,192,77327,1,0,0:0:0:0:
116,192,77463,1,2,0:0:0:0:
264,196,77872,6,0,L|328:196,1,46.25,2|0,0:0|0:0,0:0:0:0:
364,196,78145,2,0,L|410:196,1,46.25,2|0,0:0|0:0,0:0:0:0:
464,196,78418,1,0,0:0:0:0:
264,192,78555,1,4,0:2:0:0:
124,192,78965,6,0,L|76:192,1,46.25,2|0,0:0|0:0,0:0:0:0:
128,264,79237,2,0,L|188:264,1,46.25,0|2,0:0|0:0,0:0:0:0:
232,264,79509,2,0,L|292:264,1,46.25,0|0,0:0|0:0,0:0:0:0:
336,264,79782,1,2,0:0:0:0:
160,264,79919,1,4,0:2:0:0:
116,264,80328,5,0,0:0:0:0:
344,264,80465,1,4,0:2:0:0:
392,264,80874,1,0,0:0:0:0:
116,264,81010,1,4,0:0:0:0:
248,264,81419,1,0,0:0:0:0:
364,264,81692,2,0,L|436:264,2,61.6666666666667,2|0|2,0:0|0:0|0:0,0:0:0:0:
108,268,82237,6,0,L|52:248,2,46.25,8|0|0,0:3|0:0|0:0,0:0:0:0:
224,276,82737,1,0,0:0:0:0:
364,276,82987,2,0,L|420:276,1,46.25,0|0,0:0|0:0,0:0:0:0:
468,212,83237,2,0,L|421:212,1,46.25,0|0,0:0|0:0,0:0:0:0:
364,212,83487,1,0,0:0:0:0:
216,212,83612,1,0,0:0:0:0:
96,220,83862,2,0,L|40:200,2,46.25,0|0|0,0:0|3:0|3:0,0:0:0:0:
288,224,84237,6,0,L|344:224,1,46.25,0|0,0:0|0:0,0:0:0:0:
392,160,84487,2,0,L|345:160,1,46.25,0|0,0:0|0:0,0:0:0:0:
288,160,84737,1,0,0:0:0:0:
148,156,84987,2,0,L|92:156,1,46.25,0|0,3:0|3:0,0:0:0:0:
44,92,85237,2,0,L|91:92,1,46.25,0|0,0:2|0:0,0:0:0:0:
148,92,85487,1,0,0:0:0:0:
296,92,85612,1,0,0:0:0:0:
444,92,86237,6,0,L|500:92,2,46.25,4|0|0,0:2|0:0|0:0,0:0:0:0:
380,92,86597,1,0,0:0:0:0:
244,92,86717,1,0,0:0:0:0:
120,156,86957,2,0,L|64:156,1,46.25,0|0,0:0|0:0,0:0:0:0:
16,92,87197,2,0,L|64:92,1,46.25,0|0,0:0|0:0,0:0:0:0:
120,92,87437,1,0,0:0:0:0:
256,92,87557,1,0,0:0:0:0:
392,96,87797,2,0,L|440:116,2,46.25,0|0|0,0:0|0:0|0:0,0:0:0:0:
244,92,88157,6,0,L|192:92,1,46.25,0|0,0:0|0:0,0:0:0:0:
140,156,88397,2,0,L|187:156,1,46.25,0|0,0:0|0:0,0:0:0:0:
244,156,88637,1,0,0:0:0:0:
372,156,88877,2,0,L|424:156,1,46.25,0|0,0:0|0:0,0:0:0:0:
476,212,89117,2,0,L|416:212,1,46.25,0|0,0:0|0:0,0:0:0:0:
368,212,89357,1,0,0:0:0:0:
212,212,89477,1,0,0:0:0:0:
368,212,90077,6,0,L|400:288,1,55.4999983062745,0|0,0:3|0:0,0:0:0:0:
76,268,90423,2,0,P|28:192|100:104,1,166.499994918823,2|0,0:0|0:0,0:0:0:0:
224,128,91000,1,0,0:0:0:0:
288,128,91115,1,2,0:0:0:0:
348,128,91230,1,2,0:0:0:0:
52,128,91461,2,0,L|52:256,1,110.999996612549,2|2,0:0|0:0,0:0:0:0:
184,248,91923,6,0,L|104:248,1,55.4999983062745,0|0,0:0|0:0,0:0:0:0:
440,264,92269,2,0,P|488:188|416:100,1,166.499994918823,2|0,0:0|0:0,0:0:0:0:
288,128,92846,1,0,0:0:0:0:
224,128,92961,1,2,0:0:0:0:
164,128,93076,1,2,0:0:0:0:
456,128,93307,1,2,0:0:0:0:
340,128,93538,1,2,0:0:0:0:
192,128,93769,6,0,L|116:128,1,46.25,2|0,0:0|0:0,0:0:0:0:
436,268,94103,2,0,P|484:192|412:104,1,166.499994918823,8|0,0:3|0:0,0:0:0:0:
256,256,94658,1,0,0:0:0:0:
320,256,94769,1,2,0:0:0:0:
380,256,94880,1,2,0:0:0:0:
72,256,95103,1,2,0:0:0:0:
176,256,95325,1,2,0:0:0:0:
352,256,95547,2,0,L|412:256,1,55.4999983062745,0|0,0:0|0:0,0:0:0:0:
76,268,95880,6,0,P|28:192|100:104,1,166.499994918823,2|0,0:0|0:0,0:0:0:0:
236,128,96436,2,0,L|304:128,2,55.4999983062745,0|2|0,0:0|0:0|0:0,0:0:0:0:
56,128,96880,1,4,0:2:0:0:
428,128,97103,1,4,0:0:0:0:
252,120,97547,5,4,0:2:0:0:
120,120,98214,1,4,0:0:0:0:
392,128,99103,1,4,0:0:0:0:
256,192,99325,12,0,101103,0:0:0:0:
