osu file format v14

[General]
AudioFilename: audio.mp3
AudioLeadIn: 0
PreviewTime: 29
Countdown: 0
SampleSet: Soft
StackLeniency: 0.7
Mode: 2
LetterboxInBreaks: 0
WidescreenStoryboard: 0

[Editor]
DistanceSpacing: 1.2
BeatDivisor: 4
GridSize: 4
TimelineZoom: 1.8

[Metadata]
Title:Pluto
TitleUnicode:Pluto
Artist:Black Hole
ArtistUnicode:Black∞Hole
Creator:Ascendance
Version:Razor's Black Another
Source:DanceDanceRevolution SuperNOVA 2
Tags:beatmania IIDX 15 DJ TROOPERS CS DDR dance revolution pack 3 NM SEQUENCE UNLIMITED Hareimu JBHyperion JBH ZiRoX Razor Sharp Arthas Sanyi Sinnoh BEAT EX
BeatmapID:1454892
BeatmapSetID:680437

[Difficulty]
HPDrainRate:7
CircleSize:4.2
OverallDifficulty:9.3
ApproachRate:9.3
SliderMultiplier:2
SliderTickRate:4

[Events]
//Background and Video events
0,0,"cropped-1920-1080-502977.jpg",0,0
//Break Periods
//Storyboard Layer 0 (Background)
//Storyboard Layer 1 (Fail)
//Storyboard Layer 2 (Pass)
//Storyboard Layer 3 (Foreground)
//Storyboard Sound Samples

[TimingPoints]
104,600,4,2,1,95,1,0
104,-100,4,2,1,95,0,0
9704,545.454545454546,4,1,1,60,1,0
9704,-66.6666666666667,4,1,1,60,0,0
13385,-100,4,1,1,60,0,0
13454,-100,4,1,1,5,0,0
13794,-100,4,1,1,60,0,0
13931,-66.6666666666667,4,1,1,60,0,0
17749,-66.6666666666667,4,1,1,60,0,0
17817,-100,4,1,1,5,0,0
18431,521.739130434783,4,1,1,70,1,1
18431,-50,4,1,1,70,0,1
22539,-100,4,2,1,95,0,1
22604,-100,4,2,1,95,0,0
22800,-100,4,1,1,70,0,0
22965,-100,4,1,1,70,0,0
22996,-50,4,1,1,70,0,1
26778,500,3,1,1,70,1,0
26778,-100,6,1,1,70,0,0
32778,521.739130434783,3,1,1,70,1,1
32778,-71.4285714285714,6,1,1,70,0,1
39038,600,4,1,1,70,1,0
41438,-100,4,1,1,53,0,0
47588,-100,4,1,1,58,0,0
48038,-100,4,1,1,62,0,0
48638,545.454545454546,6,1,1,70,1,0
48638,-100,4,1,1,70,0,0
51365,-100,4,1,1,70,0,0
51433,-100,4,1,1,5,0,0
51910,-100,4,1,1,70,0,0
54773,-100,4,1,1,70,0,0
54842,-100,4,1,1,5,0,0
55182,-100,4,1,1,70,0,0
58251,-100,4,1,1,5,0,0
58456,600,4,1,1,70,1,0
58456,-100,4,1,1,70,0,0
59056,-100,4,1,1,63,0,0
59656,-100,4,1,1,56,0,0
60256,-100,4,1,1,49,0,0
63106,-100,4,2,1,78,0,0
67456,-100,4,2,1,54,0,0
68056,545.454545454546,4,1,1,21,1,0
68156,-100,4,1,1,21,0,0
68874,-100,4,3,1,50,0,0
69010,-100,4,1,1,65,0,0
69146,545.454545454546,6,1,1,65,1,0
70783,-100,4,1,1,80,0,0
71056,-100,4,1,1,80,0,0
71737,-100,4,1,1,80,0,0
72419,-100,4,1,1,80,0,0
73100,-100,4,1,1,80,0,0
73373,-100,4,1,1,80,0,0
74327,-100,4,1,1,80,0,0
74600,-100,4,1,1,80,0,0
75145,-100,4,1,1,80,0,0
75351,-100,4,1,1,5,0,0
75554,-100,4,1,1,80,0,0
76235,-100,4,1,1,80,0,0
76508,-100,4,1,1,80,0,0
77053,-100,4,1,1,80,0,0
77326,-100,4,1,1,80,0,0
77462,-100,4,1,1,80,0,0
77533,-100,4,1,1,5,0,0
77871,-100,4,1,1,80,0,0
78143,-100,4,1,1,80,0,0
78416,-100,4,1,1,80,0,0
78556,-100,4,1,1,80,0,0
78965,-100,4,1,1,80,0,0
79919,-100,4,1,1,80,0,0
79987,-100,4,1,1,5,0,0
80327,-100,4,1,1,85,0,0
80465,-100,4,1,1,85,0,0
80533,-100,4,1,1,5,0,0
80872,-100,4,1,1,90,0,0
81010,-100,4,1,1,95,0,0
81078,-100,4,1,1,5,0,0
81283,-100,4,1,1,95,0,0
81624,-100,4,2,1,90,0,0
81690,-100,4,2,1,90,0,0
82237,500,4,1,1,65,1,0
82237,-66.6666666666667,4,1,1,65,0,0
85612,-50,4,1,1,65,0,0
85674,-100,4,1,1,5,0,0
86049,-100,4,1,1,65,0,0
86237,480,4,1,1,65,1,0
86237,-50,4,1,1,65,0,0
89477,-50,4,1,1,65,0,0
89537,-50,4,1,1,5,0,0
90077,461.538461538462,4,1,1,75,1,1
90077,-66.6666666666667,4,1,1,75,0,1
93769,444.444444444444,4,2,1,80,1,0
93769,-66.6666666666667,4,2,1,80,0,0
93991,-100,4,1,1,80,0,0
94102,-66.6666666666667,4,1,1,80,0,1
95490,-66.6666666666667,4,1,1,85,0,1
96434,-66.6666666666667,4,1,1,85,0,1
96822,-66.6666666666667,4,1,1,85,0,1
97213,-100,4,1,1,85,0,0
97322,-100,4,1,1,70,0,0

[Colours]
Combo1 : 255,255,175
Combo2 : 0,64,128
Combo3 : 0,128,128
Combo4 : 213,85,43

[HitObjects]
124,204,104,5,0,1:0:0:0:
264,200,404,2,0,L|276:272,1,50,2|0,0:0|0:0,0:0:0:0:
132,260,854,2,0,L|144:332,1,50,2|0,0:0|0:0,0:0:0:0:
140,309,1304,1,0,0:0:0:0:
72,312,1454,2,0,L|84:384,1,50,0|2,0:0|0:0,0:0:0:0:
220,344,1904,2,0,L|108:344,1,100,2|0,2:0|1:0,0:0:0:0:
388,180,2504,5,0,1:3:0:0:
248,184,2804,2,0,L|236:112,1,50,2|0,0:0|0:0,0:0:0:0:
380,124,3254,2,0,L|368:52,1,50,2|0,0:0|0:0,0:0:0:0:
372,75,3704,1,0,0:0:0:0:
440,72,3854,2,0,L|428:0,1,50,0|2,0:0|0:0,0:0:0:0:
292,40,4304,2,0,L|404:40,1,100,2|0,0:0|1:0,0:0:0:0:
124,180,4904,5,0,1:3:0:0:
264,172,5204,2,0,L|272:112,1,50,2|0,0:0|0:0,0:0:0:0:
132,104,5654,2,0,L|124:44,1,50,2|0,0:0|0:0,0:0:0:0:
125,54,6104,1,0,0:0:0:0:
196,52,6254,2,0,L|188:-8,1,50,0|2,0:0|2:0,0:0:0:0:
328,28,6704,2,0,L|184:28,1,100,2|0,0:0|1:0,0:0:0:0:
438,201,7304,5,0,1:3:0:0:
301,211,7604,2,0,L|293:271,1,50,2|0,0:0|0:0,0:0:0:0:
429,286,8054,2,0,L|437:346,1,50,2|0,0:0|0:0,0:0:0:0:
351,323,8504,1,0,0:0:0:0:
280,325,8654,2,0,L|288:385,1,50,2|0,0:0|0:0,0:0:0:0:
417,367,8954,1,0,3:0:0:0:
224,360,9104,2,0,L|216:296,1,50,0|0,3:0|0:0,0:0:0:0:
288,308,9404,2,0,L|292:248,1,50,0|0,0:0|0:0,0:0:0:0:
52,264,9704,5,8,0:3:0:0:
31,193,9840,1,0,0:0:0:0:
58,125,9976,1,0,0:0:0:0:
123,89,10113,1,0,0:0:0:0:
228,88,10249,2,0,L|64:88,1,150.000005722046,4|0,0:0|0:0,0:0:0:0:
184,88,10658,1,0,0:0:0:0:
80,92,10794,6,0,L|160:92,1,75.0000028610231,0|0,0:0|0:0,0:0:0:0:
260,92,11067,1,0,0:0:0:0:
48,148,11204,2,0,L|48:304,1,150.000005722046,0|0,0:0|0:0,0:0:0:0:
140,244,11613,1,0,0:0:0:0:
48,196,11749,1,0,0:0:0:0:
292,228,11885,6,0,L|300:136,1,75.0000028610231,0|0,0:0|0:0,0:0:0:0:
192,160,12158,2,0,L|184:68,1,75.0000028610231,0|0,0:0|0:0,0:0:0:0:
292,80,12431,2,0,L|132:80,1,150.000005722046,4|0,0:0|0:0,0:0:0:0:
244,108,12840,1,0,0:0:0:0:
348,132,12976,6,0,L|440:160,2,75.0000028610231,0|0|0,0:0|0:0|0:0,0:0:0:0:
112,132,13385,6,0,L|111:290,1,150
352,264,13931,1,4,0:2:0:0:
144,284,14067,6,0,L|40:284,1,75.0000028610231,0|0,0:0|0:0,0:0:0:0:
164,240,14340,2,0,L|260:240,1,75.0000028610231,0|0,0:0|0:0,0:0:0:0:
136,224,14613,2,0,P|80:176|156:152,1,150.000005722046,0|0,0:0|0:0,0:0:0:0:
228,132,15022,1,0,0:0:0:0:
124,136,15158,6,0,L|24:136,2,75.0000028610231,0|0|0,0:0|0:0|0:0,0:0:0:0:
384,140,15567,2,0,L|384:300,1,150.000005722046
284,264,15976,1,0,0:0:0:0:
380,224,16113,1,0,0:0:0:0:
120,208,16249,6,0,L|24:208,1,75.0000028610231,0|0,0:0|0:0,0:0:0:0:
144,176,16522,2,0,L|232:176,1,75.0000028610231,0|0,0:0|0:0,0:0:0:0:
116,156,16794,2,0,L|16:156,1,75.0000028610231,0|0,0:0|0:0,0:0:0:0:
144,136,17067,2,0,L|236:136,1,75.0000028610231,0|0,0:0|0:0,0:0:0:0:
424,116,17340,6,0,L|332:116,2,75.0000028610231,0|0|0,0:0|0:0|0:0,0:0:0:0:
60,112,17749,2,0,B|60:328|60:328|60:236,1,300.000011444092,0|0,0:0|0:0,0:0:0:0:
344,264,18431,6,0,L|246:286,1,100,4|0,0:2|0:0,0:0:0:0:
148,220,18691,1,0,0:0:0:0:
396,220,18822,1,2,0:0:0:0:
472,220,18952,2,0,L|472:20,1,200,0|0,0:0|0:0,0:0:0:0:
372,20,19344,1,0,0:0:0:0:
148,64,19474,6,0,L|248:64,1,100,0|2,0:0|0:0,0:0:0:0:
32,112,19735,2,0,L|132:112,1,100,2|0,0:0|0:0,0:0:0:0:
352,124,19996,2,0,L|364:232,1,100,2|0,0:0|0:0,0:0:0:0:
136,216,20257,2,0,L|124:324,1,100,2|0,0:0|0:0,0:0:0:0:
380,320,20517,6,0,L|488:320,2,100,0|0|0,0:0|0:0|0:0,0:0:0:0:
144,300,20909,1,2,0:0:0:0:
232,300,21039,2,0,L|232:92,1,200,0|0,0:0|0:0,0:0:0:0:
332,96,21431,1,0,0:0:0:0:
432,92,21561,6,0,L|304:92,1,100,0|2,0:0|0:0,0:0:0:0:
128,68,21822,2,0,L|248:68,1,100,2|0,0:0|0:0,0:0:0:0:
32,160,22083,1,2,0:0:0:0:
448,232,22344,1,2,0:0:0:0:
100,280,22604,6,0,L|80:188,1,50,2|0,0:0|0:0,0:0:0:0:
300,208,22865,1,2,0:0:0:0:
80,196,22996,1,4,0:2:0:0:
174,196,23126,2,0,L|407:197,1,200
456,194,23517,1,0,0:0:0:0:
196,84,23648,6,0,L|92:84,1,100,0|2,0:0|0:0,0:0:0:0:
344,128,23909,2,0,L|240:128,1,100,2|0,0:0|2:0,0:0:0:0:
468,168,24170,2,0,L|472:280,1,100,2|0,0:0|0:0,0:0:0:0:
228,268,24431,2,0,L|224:372,1,100,2|0,0:0|0:0,0:0:0:0:
468,352,24691,5,4,0:0:0:0:
422,263,24821,1,0,0:0:0:0:
345,200,24951,1,0,0:0:0:0:
250,172,25083,1,2,0:0:0:0:
476,184,25213,2,0,L|488:-16,1,200,0|0,0:0|0:0,0:0:0:0:
388,0,25604,1,0,0:0:0:0:
68,72,25735,6,0,L|48:184,1,100,0|2,0:0|0:0,0:0:0:0:
268,196,25996,2,0,L|148:196,1,100,2|0,0:0|0:0,0:0:0:0:
440,268,26257,2,0,L|456:152,1,100,2|0,0:0|0:0,0:0:0:0:
72,268,26517,2,0,L|56:152,1,100,2|0,0:0|0:0,0:0:0:0:
300,228,26778,5,4,0:2:0:0:
347,226,26903,1,0,2:0:0:0:
367,184,27028,1,0,0:0:0:0:
338,146,27153,1,0,2:0:0:0:
288,144,27278,2,0,L|220:144,2,50,0|0|0,3:3|0:0|0:0,0:0:0:0:
184,144,27653,2,0,L|252:144,2,50,0|0|0,2:0|0:0|3:0,0:0:0:0:
288,144,28028,2,0,L|220:144,1,50,0|0,0:0|0:0,0:0:0:0:
52,200,28278,5,4,0:2:0:0:
54,150,28403,1,0,3:0:0:0:
84,111,28528,1,0,0:0:0:0:
131,97,28653,1,0,2:0:0:0:
180,96,28778,2,0,L|248:96,2,50,0|0|0,0:0|3:0|0:0,0:0:0:0:
284,96,29153,2,0,L|216:96,2,50,0|0|0,0:0|3:0|3:0,0:0:0:0:
180,96,29528,2,0,L|248:96,1,50,0|0,1:0|1:0,0:0:0:0:
452,284,29778,5,4,0:2:0:0:
402,284,29903,1,0,0:0:0:0:
352,284,30028,1,0,0:0:0:0:
302,284,30153,1,0,3:0:0:0:
252,284,30278,2,0,L|320:284,2,50,0|0|0,0:0|0:0|0:0,0:0:0:0:
356,284,30653,2,0,L|288:284,2,50,0|0|0,1:0|3:0|3:0,0:0:0:0:
252,284,31028,2,0,L|320:284,1,50,0|0,0:0|0:0,0:0:0:0:
60,100,31278,5,4,3:2:0:0:
110,100,31403,1,0,3:0:0:0:
160,100,31528,1,0,0:0:0:0:
210,100,31653,1,0,0:0:0:0:
260,100,31778,2,0,L|192:100,2,50,0|0|0,3:0|3:0|0:0,0:0:0:0:
156,100,32153,2,0,L|224:100,2,50,0|0|0,0:0|3:0|3:0,0:0:0:0:
260,100,32528,2,0,L|192:100,1,50,0|0,0:0|0:0,0:0:0:0:
452,104,32778,5,4,0:2:0:0:
414,162,32908,1,0,0:0:0:0:
354,197,33038,1,0,0:0:0:0:
285,201,33169,1,0,0:0:0:0:
356,204,33299,2,0,L|364:304,1,69.9999978637696,0|0,0:0|0:0,0:0:0:0:
292,276,33560,2,0,L|376:276,1,69.9999978637696,0|0,0:0|0:0,0:0:0:0:
32,144,33821,5,0,0:0:0:0:
72,168,33952,1,0,0:0:0:0:
132,184,34082,1,0,0:0:0:0:
216,192,34212,1,0,0:0:0:0:
404,148,34343,6,0,L|316:148,2,69.9999978637696,2|0|0,0:2|0:0|3:0,0:0:0:0:
292,146,34734,6,0,L|204:146,2,69.9999978637696,0|0|2,0:0|3:0|0:2,0:0:0:0:
163,149,35125,6,0,L|75:149,2,69.9999978637696,0|0|2,3:0|0:0|3:2,0:0:0:0:
260,150,35517,5,0,0:0:0:0:
161,149,35647,1,0,0:0:0:0:
69,153,35778,1,0,0:0:0:0:
440,168,35908,5,4,0:2:0:0:
394,220,36038,1,0,0:0:0:0:
331,250,36168,1,0,0:0:0:0:
262,254,36299,1,0,0:0:0:0:
192,252,36430,2,0,L|280:248,1,69.9999978637696,0|0,3:0|3:0,0:0:0:0:
192,236,36691,2,0,L|112:228,1,69.9999978637696,0|0,0:2|0:0,0:0:0:0:
480,224,36951,5,0,3:0:0:0:
394,220,37081,1,0,3:0:0:0:
384,136,37211,1,0,0:0:0:0:
468,132,37342,1,0,0:0:0:0:
252,216,37473,5,4,0:2:0:0:
274,152,37603,1,0,0:0:0:0:
338,131,37733,1,0,0:0:0:0:
144,200,37864,5,4,0:2:0:0:
216,132,37995,1,0,3:0:0:0:
312,116,38125,1,0,3:0:0:0:
64,180,38256,5,4,0:2:0:0:
176,180,38386,1,0,0:0:0:0:
288,180,38517,1,0,0:0:0:0:
36,144,38647,5,4,0:2:0:0:
256,124,38778,1,0,3:0:0:0:
476,144,38908,1,0,3:0:0:0:
36,144,39038,5,4,0:2:0:0:
256,192,39338,12,0,41138,0:0:0:0:
184,68,41438,6,0,L|160:136,3,50,0|0|0|0,0:0|3:0|3:0|3:0,0:0:0:0:
248,124,42038,6,0,L|272:192,3,50,0|0|0|0,0:0|3:0|3:0|3:0,0:0:0:0:
344,180,42638,6,0,L|320:248,3,50,2|0|0|0,1:3|3:0|3:0|3:0,0:0:0:0:
408,236,43238,6,0,L|432:304,3,50,0|0|0|0,0:0|3:0|3:0|3:0,0:0:0:0:
344,284,43838,6,0,L|320:352,1,50,0|0,0:0|3:0,0:0:0:0:
248,328,44138,2,0,L|224:260,1,50,0|0,3:0|3:0,0:0:0:0:
152,280,44438,2,0,L|176:212,1,50,0|0,0:0|3:0,0:0:0:0:
88,232,44738,2,0,L|112:164,1,50,0|0,3:0|3:0,0:0:0:0:
185,185,45038,6,0,L|161:253,1,50,0|0,0:0|3:0,0:0:0:0:
248,236,45338,2,0,L|272:304,1,50,0|0,3:0|3:0,0:0:0:0:
344,284,45638,2,0,L|368:352,1,50,0|0,0:0|3:0,0:0:0:0:
281,330,45938,2,0,L|257:262,1,50,0|0,3:0|3:0,0:0:0:0:
476,228,46238,6,0,L|404:228,1,50,0|0,0:0|3:0,0:0:0:0:
292,228,46538,1,0,0:0:0:0:
36,228,46838,6,0,L|108:228,1,50,0|0,0:0|3:0,0:0:0:0:
220,228,47138,1,0,0:0:0:0:
472,188,47438,5,0,0:0:0:0:
332,164,47588,1,0,3:0:0:0:
472,188,47738,1,0,0:0:0:0:
40,188,48038,5,0,0:0:0:0:
180,164,48188,1,0,0:0:0:0:
40,188,48338,1,0,0:0:0:0:
420,184,48638,6,0,L|488:184,2,50,4|2|0,0:2|1:0|0:0,0:0:0:0:
200,196,49047,1,2,0:0:0:0:
214,148,49183,1,0,0:0:0:0:
249,114,49319,1,2,0:0:0:0:
297,102,49456,1,0,0:0:0:0:
416,104,49592,1,2,0:0:0:0:
200,72,49728,6,0,L|132:72,1,50,0|2,0:0|0:0,0:0:0:0:
264,120,50001,2,0,L|340:120,1,50,0|2,0:0|0:0,0:0:0:0:
200,72,50274,1,0,0:0:0:0:
404,112,50410,2,0,L|340:112,2,50,2|0|2,0:0|0:0|0:0,0:0:0:0:
484,116,50819,5,0,0:0:0:0:
280,152,50956,2,0,L|208:152,2,50,2|0|0,0:0|0:0|0:0,0:0:0:0:
72,136,51365,6,0,L|72:308,1,150,0|0,0:0|0:0,0:0:0:0:
384,288,51910,6,0,L|456:288,2,50,0|2|0,0:0|0:0|0:0,0:0:0:0:
176,168,52319,1,2,0:0:0:0:
256,168,52455,1,0,0:0:0:0:
336,168,52591,1,0,0:0:0:0:
128,288,52728,1,2,1:0:0:0:
78,288,52864,1,0,0:0:0:0:
128,288,53001,5,0,0:0:0:0:
416,296,53138,1,2,0:0:0:0:
184,280,53274,2,0,L|180:212,1,50,2|0,0:0|0:0,0:0:0:0:
260,228,53547,1,0,0:0:0:0:
32,168,53683,2,0,L|108:168,1,50,2|0,0:0|0:0,0:0:0:0:
288,168,53956,1,2,0:0:0:0:
208,168,54092,6,0,L|200:232,1,50,0|0,0:0|0:0,0:0:0:0:
424,224,54365,2,0,L|432:280,1,50,2|0,0:0|0:0,0:0:0:0:
152,284,54638,1,0,0:0:0:0:
432,296,54774,2,0,L|432:164,1,100,4|0,0:2|0:0,0:0:0:0:
224,192,55183,6,0,L|136:192,1,50,4|2,0:2|0:0,0:0:0:0:
252,176,55456,1,0,0:0:0:0:
48,148,55592,1,0,0:0:0:0:
304,136,55728,2,0,L|228:136,2,50,0|0|0,0:0|0:0|0:0,0:0:0:0:
44,96,56138,1,2,0:0:0:0:
292,92,56274,6,0,L|300:152,1,50,0|0,0:0|0:0,0:0:0:0:
220,164,56547,2,0,L|184:212,1,50,0|2,0:0|0:0,0:0:0:0:
396,208,56819,2,0,L|324:208,1,50,0|2,0:0|0:0,0:0:0:0:
128,172,57092,2,0,L|208:172,1,50,0|2,0:0|0:0,0:0:0:0:
384,148,57365,6,0,L|460:148,1,50,2|0,0:0|0:0,0:0:0:0:
212,104,57638,2,0,L|152:104,1,50,2|0,0:0|0:0,0:0:0:0:
380,92,57910,1,2,0:0:0:0:
80,84,58047,2,0,L|80:224,1,100,4|0,0:2|0:0,0:0:0:0:
352,180,58456,5,4,3:2:0:0:
256,192,58756,12,0,60556,0:0:0:0:
176,80,60856,5,0,0:0:0:0:
292,108,61156,2,0,L|224:108,1,50,0|0,3:0|3:0,0:0:0:0:
124,124,61606,2,0,L|176:124,1,50,0|0,3:0|3:0,0:0:0:0:
292,136,62056,1,0,3:0:0:0:
232,148,62206,2,0,L|304:148,1,50,0|2,3:0|3:2,0:0:0:0:
172,200,62656,1,0,0:0:0:0:
464,232,62956,1,0,0:0:0:0:
188,52,63256,5,4,0:0:0:0:
142,72,63406,1,0,0:0:0:0:
108,108,63556,1,2,0:0:0:0:
91,154,63706,1,0,0:0:0:0:
92,204,63856,1,0,1:0:0:0:
114,249,64006,1,0,0:0:0:0:
150,282,64156,1,2,0:0:0:0:
197,298,64306,1,0,0:0:0:0:
276,300,64456,6,0,L|344:300,1,50,0|0,1:0|0:0,0:0:0:0:
256,264,64756,2,0,L|192:264,1,50,2|0,0:0|0:0,0:0:0:0:
128,248,65056,2,0,L|192:248,1,50,0|0,1:0|0:0,0:0:0:0:
100,228,65356,2,0,L|160:228,1,50,0|0,1:0|1:0,0:0:0:0:
324,332,65656,5,4,0:0:0:0:
369,311,65806,1,0,0:0:0:0:
403,275,65956,1,2,0:0:0:0:
420,229,66106,1,0,0:0:0:0:
419,179,66256,1,0,1:0:0:0:
397,134,66406,1,0,0:0:0:0:
361,101,66556,1,2,0:0:0:0:
314,85,66706,1,0,0:0:0:0:
236,84,66856,6,0,L|168:84,1,50,0|0,1:0|0:0,0:0:0:0:
256,120,67156,2,0,L|320:120,1,50,2|0,0:0|0:0,0:0:0:0:
384,136,67456,2,0,L|320:136,1,50,0|2,1:0|1:0,0:0:0:0:
412,156,67756,2,0,L|352:156,1,50,0|2,1:0|1:0,0:0:0:0:
188,52,68056,5,0,3:0:0:0:
416,104,69146,6,0,L|344:104,1,50,0|2,0:0|0:0,0:0:0:0:
284,96,69419,1,0,0:0:0:0:
364,116,69556,1,2,0:0:0:0:
152,144,69692,1,0,0:0:0:0:
232,156,69828,1,2,0:0:0:0:
156,184,69965,1,0,0:0:0:0:
384,196,70101,1,2,0:0:0:0:
304,200,70237,6,0,L|236:200,1,50,0|2,0:0|0:0,0:0:0:0:
328,168,70510,1,0,0:0:0:0:
88,144,70646,1,2,0:0:0:0:
168,144,70783,2,0,L|168:32,1,100,0|0,0:0|0:0,0:0:0:0:
88,56,71192,1,0,0:0:0:0:
168,52,71328,5,0,0:0:0:0:
368,76,71465,1,2,0:0:0:0:
288,80,71601,1,0,0:0:0:0:
368,92,71737,1,2,0:0:0:0:
36,112,72010,2,0,L|36:240,1,100,4|0,0:2|2:0,0:0:0:0:
256,208,72419,5,0,0:0:0:0:
176,212,72556,1,2,0:0:0:0:
252,188,72692,1,0,0:0:0:0:
48,168,72828,1,2,0:0:0:0:
248,140,72965,1,0,0:0:0:0:
168,140,73101,1,2,0:0:0:0:
168,140,73374,1,0,0:0:0:0:
248,136,73510,5,0,0:0:0:0:
56,104,73646,1,2,0:0:0:0:
264,76,73783,1,0,0:0:0:0:
184,72,73919,1,0,0:0:0:0:
264,72,74056,1,0,0:0:0:0:
56,176,74192,1,2,0:0:0:0:
136,176,74328,1,0,0:0:0:0:
136,176,74601,5,0,0:0:0:0:
344,172,74737,1,2,0:0:0:0:
264,176,74874,1,0,0:0:0:0:
464,216,75010,1,2,0:0:0:0:
384,216,75146,2,0,L|384:48,1,150,0|4,0:0|0:2,0:0:0:0:
176,72,75692,5,0,0:0:0:0:
416,112,75828,1,2,0:0:0:0:
336,116,75965,1,0,0:0:0:0:
136,148,76101,1,2,0:0:0:0:
216,156,76237,1,0,0:0:0:0:
216,156,76510,1,0,0:0:0:0:
472,204,76646,1,2,0:0:0:0:
256,248,76783,5,0,0:0:0:0:
336,240,76919,1,0,0:0:0:0:
256,224,77056,1,2,0:0:0:0:
256,224,77328,5,0,0:0:0:0:
32,224,77465,1,2,0:0:0:0:
44,224,77874,5,2,0:0:0:0:
256,184,78010,1,0,0:0:0:0:
40,152,78146,1,2,0:0:0:0:
40,152,78419,5,0,0:0:0:0:
260,152,78556,2,0,L|260:284,1,100,4|0,0:2|0:0,0:0:0:0:
460,252,78965,5,2,0:0:0:0:
380,248,79101,1,0,0:0:0:0:
460,252,79237,1,0,0:0:0:0:
212,216,79374,1,2,0:0:0:0:
288,196,79510,1,0,0:0:0:0:
88,172,79646,1,0,0:0:0:0:
320,136,79783,1,2,0:0:0:0:
48,88,79919,6,0,L|48:244,1,150,4|0,0:2|0:0,0:0:0:0:
336,248,80465,6,0,L|176:248,1,150,4|0,0:2|0:0,0:0:0:0:
472,296,81010,6,0,L|473:169,1,100,4|0,0:0|0:0,0:0:0:0:
264,160,81419,6,0,L|368:160,1,100,0|2,0:0|0:0,0:0:0:0:
291,101,81874,2,0,L|387:101,1,66.6666666666667
72,108,82237,5,8,0:3:0:0:
47,136,82299,1,0,0:0:0:0:
35,171,82362,1,0,0:0:0:0:
35,208,82424,1,0,0:0:0:0:
48,243,82487,1,0,0:0:0:0:
105,290,82612,1,0,0:0:0:0:
316,288,82737,2,0,L|156:288,1,150.000005722046,0|0,0:0|0:0,0:0:0:0:
268,252,83112,1,0,0:0:0:0:
32,240,83237,6,0,L|44:160,1,75.0000028610231,0|0,0:0|0:0,0:0:0:0:
148,148,83487,1,0,0:0:0:0:
376,148,83612,2,0,L|212:148,1,150.000005722046
300,148,83987,2,0,L|204:148,1,75.0000028610231,0|0,3:0|3:0,0:0:0:0:
472,192,84237,6,0,L|480:292,1,75.0000028610231,0|0,0:0|0:0,0:0:0:0:
372,264,84487,2,0,L|468:264,1,75.0000028610231,0|0,0:0|0:0,0:0:0:0:
168,248,84737,2,0,L|336:248,1,150.000005722046,0|0,0:0|3:0,0:0:0:0:
220,208,85112,1,0,3:0:0:0:
452,188,85237,6,0,L|368:188,2,75.0000028610231,0|0|0,0:2|0:0|0:0,0:0:0:0:
172,208,85612,2,0,B|172:76|172:76|172:280|172:280|172:200,1,400,0|4,0:0|0:0,0:0:0:0:
384,220,86237,6,0,L|496:220,1,100,4|0,0:2|0:0,0:0:0:0:
348,184,86477,2,0,L|368:72,1,100,0|0,0:0|0:0,0:0:0:0:
168,184,86717,2,0,L|376:184,1,200,0|0,0:0|0:0,0:0:0:0:
248,116,87077,1,0,0:0:0:0:
480,108,87197,6,0,L|400:168,2,100,0|0|0,0:0|0:0|0:0,0:0:0:0:
188,76,87557,2,0,L|400:76,1,200,0|0,0:0|0:0,0:0:0:0:
268,148,87917,1,0,0:0:0:0:
380,196,88037,1,0,0:0:0:0:
84,172,88157,6,0,L|72:288,1,100,0|0,0:0|0:0,0:0:0:0:
192,268,88397,2,0,L|72:268,1,100,0|0,0:0|0:0,0:0:0:0:
360,184,88637,2,0,L|144:184,1,200,0|0,0:0|0:0,0:0:0:0:
268,96,88997,1,0,0:0:0:0:
36,112,89117,5,0,0:0:0:0:
77,199,89237,1,0,0:0:0:0:
170,229,89357,1,0,0:0:0:0:
472,248,89477,2,0,B|472:56|472:56|472:288,1,400,0|0,0:0|0:0,0:0:0:0:
132,264,90077,6,0,L|44:264,2,75.0000028610231,0|0|0,0:3|0:0|0:0,0:0:0:0:
360,264,90423,1,2,0:0:0:0:
268,243,90538,2,0,L|452:243,1,150.000005722046
338,213,90884,1,0,0:0:0:0:
40,136,91000,6,0,L|142:128,1,75.0000028610231,0|2,0:0|0:0,0:0:0:0:
404,112,91230,2,0,L|300:106,1,75.0000028610231,2|0,0:0|0:0,0:0:0:0:
48,120,91461,2,0,L|39:221,1,75.0000028610231,2|0,0:0|0:0,0:0:0:0:
464,120,91692,2,0,L|476:224,1,75.0000028610231,2|0,0:0|0:0,0:0:0:0:
152,240,91923,6,0,L|40:240,2,75.0000028610231
412,124,92269,2,0,L|200:124,1,150.000005722046,2|0,0:0|0:0,0:0:0:0:
336,73,92615,1,0,0:0:0:0:
423,75,92730,1,0,0:0:0:0:
84,80,92846,6,0,L|68:192,1,75.0000028610231,0|2,0:0|0:0,0:0:0:0:
316,216,93077,2,0,L|196:216,1,75.0000028610231,2|0,0:0|0:0,0:0:0:0:
476,168,93307,1,2,0:0:0:0:
176,132,93538,2,0,L|280:132,1,75.0000028610231,2|0,0:0|0:0,0:0:0:0:
52,148,93769,2,0,L|40:252,1,75.0000028610231,2|0,0:0|0:0,0:0:0:0:
244,264,93991,5,2,1:0:0:0:
48,276,94102,2,0,L|44:168,1,75.0000028610231,8|0,0:3|0:0,0:0:0:0:
152,176,94435,2,0,L|160:64,1,75.0000028610231,0|0,0:0|0:0,0:0:0:0:
252,76,94657,1,0,0:0:0:0:
56,72,94768,1,2,0:0:0:0:
292,136,94879,6,0,L|176:136,1,75.0000028610231,2|0,0:0|0:0,0:0:0:0:
472,168,95102,2,0,L|344:164,1,75.0000028610231,2|0,0:0|0:0,0:0:0:0:
104,200,95324,2,0,L|220:196,1,75.0000028610231,2|0,0:0|0:0,0:0:0:0:
444,220,95546,2,0,L|448:112,1,75.0000028610231,0|0,0:0|0:0,0:0:0:0:
328,108,95768,5,0,0:0:0:0:
136,108,95879,1,2,0:0:0:0:
232,132,95991,2,0,L|24:132,1,150.000005722046,0|0,0:0|0:0,0:0:0:0:
159,166,96324,1,0,0:0:0:0:
404,184,96435,1,0,0:0:0:0:
156,256,96546,1,2,0:0:0:0:
384,272,96657,2,0,L|400:164,1,75.0000028610231,2|0,0:0|0:0,0:0:0:0:
52,140,96879,6,0,L|168:112,1,75.0000028610231,4|2,0:2|0:0,0:0:0:0:
460,140,97102,2,0,L|344:112,1,75.0000028610231,4|2,0:0|0:0,0:0:0:0:
129,121,97546,5,4,0:2:0:0:
472,212,98213,5,4,0:0:0:0:
40,240,99102,5,4,0:0:0:0:
