osu file format v14

[General]
AudioFilename: audio.mp3
AudioLeadIn: 0
PreviewTime: 29
Countdown: 0
SampleSet: Normal
StackLeniency: 0.7
Mode: 2
LetterboxInBreaks: 0
WidescreenStoryboard: 0

[Editor]
DistanceSpacing: 1.3
BeatDivisor: 4
GridSize: 4
TimelineZoom: 2

[Metadata]
Title:Pluto
TitleUnicode:Pluto
Artist:Black Hole
ArtistUnicode:Black∞Hole
Creator:Ascendance
Version:Hyperion's Expert
Source:DanceDanceRevolution SuperNOVA 2
Tags:beatmania IIDX 15 DJ TROOPERS CS DDR dance revolution pack 3 NM SEQUENCE UNLIMITED Hareimu JBHyperion JBH ZiRoX Razor Sharp Arthas Sanyi Sinnoh BEAT EX
BeatmapID:1441260
BeatmapSetID:680437

[Difficulty]
HPDrainRate:7
CircleSize:5
OverallDifficulty:9.4
ApproachRate:9.4
SliderMultiplier:1.8
SliderTickRate:4

[Events]
//Background and Video events
0,0,"cropped-1920-1080-502977.jpg",0,0
//Break Periods
//Storyboard Layer 0 (Background)
//Storyboard Layer 1 (Fail)
//Storyboard Layer 2 (Pass)
//Storyboard Layer 3 (Foreground)
//Storyboard Sound Samples

[TimingPoints]
104,600,4,2,1,95,1,0
4304,-80,4,2,1,95,0,0
4604,-100,4,2,1,95,0,0
5354,-80,4,2,1,95,0,0
5654,-100,4,2,1,95,0,0
6704,-80,4,2,1,95,0,0
7004,-100,4,2,1,95,0,0
7754,-80,4,2,1,95,0,0
8054,-100,4,2,1,95,0,0
9704,545.454545454546,4,1,1,60,1,0
12976,-66.6666666666667,4,1,1,60,0,0
13385,-100,4,1,1,60,0,0
13454,-66.6666666666667,4,1,1,20,0,0
13931,-80,4,1,1,60,0,0
14067,-100,4,1,1,60,0,0
17749,-66.6666666666667,4,1,1,60,0,0
18431,521.739130434783,4,1,1,70,1,1
18431,-66.6666666666667,4,1,1,70,0,1
22604,-100,4,2,1,95,0,0
22800,-100,4,1,1,70,0,0
22996,-66.6666666666667,4,1,1,70,0,1
26778,500,3,1,1,70,1,0
26778,-100,6,1,1,70,0,0
28278,-80,6,1,1,70,0,0
28528,-100,6,1,1,70,0,0
29778,-80,6,1,1,70,0,0
30028,-100,6,1,1,70,0,0
31278,-80,6,1,1,70,0,0
31528,-100,6,1,1,70,0,0
32278,-80,6,1,1,70,0,0
32778,521.739130434783,3,1,1,70,1,1
32778,-71.4285714285714,6,1,1,70,0,1
36951,-57.1428571428571,6,1,1,70,0,1
37473,-71.4285714285714,6,1,1,70,0,1
39038,600,4,1,1,70,1,0
39338,-100,4,1,1,50,0,0
41438,-83.3333333333333,4,1,1,53,0,0
42638,-66.6666666666667,4,1,1,53,0,0
43838,-83.3333333333333,4,1,1,53,0,0
44888,-50,4,1,1,53,0,0
45038,-66.6666666666667,4,1,1,53,0,0
46238,-83.3333333333333,4,1,1,50,0,0
46838,-83.3333333333333,4,1,1,55,0,0
47438,-83.3333333333333,4,1,1,60,0,0
48038,-83.3333333333333,4,1,1,65,0,0
48638,545.454545454546,6,1,1,70,1,0
48638,-80,4,1,1,70,0,0
54773,-100,4,1,1,70,0,0
54842,-100,4,1,1,5,0,0
55182,-80,4,1,1,70,0,0
58047,-57.1428571428571,4,1,1,70,0,0
58251,-100,4,1,1,5,0,0
58456,600,4,1,1,70,1,0
58456,-100,4,1,1,70,0,0
59656,-100,4,1,1,56,0,0
60256,-100,4,1,1,49,0,0
61306,-66.6666666666667,4,1,1,49,0,0
61606,-100,4,1,1,49,0,0
63106,-100,4,2,1,78,0,0
66856,-66.6666666666667,4,2,1,78,0,0
67456,-66.6666666666667,4,2,1,54,0,0
68056,545.454545454546,4,1,1,21,1,0
68874,-100,4,3,1,50,0,0
69010,-100,4,1,1,65,0,0
69078,-100,4,1,1,65,0,0
69146,545.454545454546,6,1,1,65,1,0
69146,-80,4,1,1,65,0,0
70783,-100,4,1,1,80,0,0
71056,-100,4,1,1,80,0,0
71737,-100,4,1,1,80,0,0
72010,-66.6666666666667,4,1,1,80,0,0
72283,-100,4,1,1,80,0,0
72419,-80,4,1,1,80,0,0
78896,-80,4,1,1,80,0,0
78965,-80,4,1,1,80,0,0
79919,-66.6666666666667,4,1,1,80,0,0
79987,-66.6666666666667,4,1,1,5,0,0
80327,-66.6666666666667,4,1,1,85,0,0
80533,-66.6666666666667,4,1,1,5,0,0
80872,-66.6666666666667,4,1,1,90,0,0
81010,-50,4,1,1,95,0,0
81078,-100,4,1,1,5,0,0
81351,-100,4,1,1,95,0,0
81690,-100,4,2,1,90,0,0
82237,500,4,1,1,65,1,0
82237,-80,4,1,1,65,0,0
85612,-66.6666666666667,4,1,1,65,0,0
85674,-100,4,1,1,5,0,0
86049,-100,4,1,1,65,0,0
86237,480,4,1,1,65,1,0
86237,-80,4,1,1,65,0,0
90077,461.538461538462,4,1,1,75,1,1
90077,-66.6666666666667,4,1,1,75,0,1
93769,444.444444444444,4,2,1,77,1,0
93769,-66.6666666666667,4,2,1,77,0,0
93991,-100,4,2,1,80,0,0
94102,-66.6666666666667,4,1,1,80,0,1
95546,-66.6666666666667,4,1,1,85,0,1
96435,-66.6666666666667,4,1,1,85,0,1
96823,-66.6666666666667,4,1,1,85,0,1
97213,-100,4,1,1,85,0,0
97323,-100,4,1,1,70,0,0

[Colours]
Combo1 : 255,255,175
Combo2 : 0,64,128
Combo3 : 0,128,128
Combo4 : 213,85,43

[HitObjects]
220,192,104,5,0,1:0:0:0:
380,192,404,1,2,0:0:0:0:
232,192,554,2,0,L|232:92,1,90,0|2,0:0|0:0,0:0:0:0:
380,192,1004,1,0,0:0:0:0:
236,280,1304,1,0,0:0:0:0:
308,280,1454,1,0,0:0:0:0:
236,280,1604,1,2,0:0:0:0:
488,280,1904,2,0,L|504:192,1,90,2|0,2:0|1:0,0:0:0:0:
144,192,2504,5,0,1:3:0:0:
304,192,2804,1,2,0:0:0:0:
156,192,2954,2,0,L|56:192,1,90,0|2,0:0|0:0,0:0:0:0:
216,192,3404,1,0,0:0:0:0:
80,192,3704,1,0,0:0:0:0:
200,192,3854,1,0,0:0:0:0:
320,192,4004,1,2,0:0:0:0:
12,192,4304,2,0,L|124:192,1,112.5,2|0,0:0|1:0,0:0:0:0:
484,192,4904,5,0,1:3:0:0:
320,192,5204,1,2,0:0:0:0:
492,112,5354,2,0,L|368:112,1,112.5,0|2,0:0|0:0,0:0:0:0:
224,112,5804,1,0,0:0:0:0:
388,40,6104,1,0,0:0:0:0:
317,40,6254,1,0,0:0:0:0:
388,40,6404,1,2,2:0:0:0:
84,40,6704,2,0,P|52:92|84:116,1,112.5,2|0,0:0|1:0,0:0:0:0:
444,112,7304,5,0,1:3:0:0:
280,192,7604,1,2,0:0:0:0:
448,192,7754,2,0,L|332:192,1,112.5,0|2,0:0|0:0,0:0:0:0:
492,192,8204,1,0,0:0:0:0:
340,288,8504,1,0,0:0:0:0:
236,288,8654,1,2,0:0:0:0:
132,288,8804,1,0,0:0:0:0:
280,288,8954,1,0,3:0:0:0:
56,288,9104,2,0,L|8:288,1,45,0|0,3:0|0:0,0:0:0:0:
56,288,9404,1,0,0:0:0:0:
304,192,9704,6,0,L|308:136,1,45,8|0,0:3|0:0,0:0:0:0:
184,152,9976,2,0,L|180:104,1,45,0|0,0:0|0:0,0:0:0:0:
304,104,10249,1,4,0:0:0:0:
160,108,10522,2,0,L|108:108,1,45,0|0,0:0|0:0,0:0:0:0:
260,105,10794,1,0,0:0:0:0:
324,137,10931,1,0,0:0:0:0:
324,209,11067,1,0,0:0:0:0:
172,209,11204,1,0,0:0:0:0:
288,269,11476,1,0,0:0:0:0:
80,321,11613,2,0,L|20:321,1,45,0|0,0:0|0:0,0:0:0:0:
228,321,11885,6,0,L|232:273,1,45,0|0,0:0|0:0,0:0:0:0:
112,237,12158,2,0,L|120:185,1,45,0|0,0:0|0:0,0:0:0:0:
248,189,12431,1,4,0:0:0:0:
119,192,12704,2,0,L|163:192,1,45
340,64,12976,2,0,L|408:64,2,67.5000025749208
188,64,13385,1,0,0:0:0:0:
276,160,13522,2,0,L|411:160,1,135.000005149842
180,160,13931,6,0,L|116:160,1,56.25,4|0,0:2|0:0,0:0:0:0:
204,160,14204,2,0,L|212:208,1,45,0|0,0:0|0:0,0:0:0:0:
64,160,14476,1,0,0:0:0:0:
44,92,14613,1,0,0:0:0:0:
88,32,14749,1,0,0:0:0:0:
160,32,14885,1,0,0:0:0:0:
372,32,15022,2,0,L|420:32,1,45,0|0,0:0|0:0,0:0:0:0:
192,32,15294,1,0,0:0:0:0:
256,32,15431,1,0,0:0:0:0:
192,32,15567,1,0,0:0:0:0:
356,32,15840,1,0,0:0:0:0:
152,100,15976,2,0,L|108:100,1,45,0|0,0:0|0:0,0:0:0:0:
308,104,16249,5,0,0:0:0:0:
364,156,16385,1,0,0:0:0:0:
364,228,16522,1,0,0:0:0:0:
308,276,16658,1,0,0:0:0:0:
160,276,16794,2,0,L|144:228,1,45,0|0,0:0|0:0,0:0:0:0:
364,156,17067,2,0,L|380:108,1,45,0|0,0:0|0:0,0:0:0:0:
87,112,17340,1,0,0:0:0:0:
75,192,17476,1,0,0:0:0:0:
145,233,17613,1,0,0:0:0:0:
492,232,17749,1,0,0:0:0:0:
384,224,18431,6,0,L|464:224,2,67.5000025749208,4|0|0,0:2|0:0|0:0,0:0:0:0:
144,224,18822,2,0,P|52:180|36:88,1,202.500007724762,2|0,0:0|0:0,0:0:0:0:
124,88,19344,1,0,0:0:0:0:
260,88,19474,1,0,0:0:0:0:
32,88,19604,1,2,0:0:0:0:
276,88,19735,2,0,L|352:88,1,67.5000025749208,2|0,0:0|0:0,0:0:0:0:
96,88,19996,2,0,L|92:156,1,67.5000025749208,2|0,0:0|0:0,0:0:0:0:
316,252,20257,2,0,L|244:252,1,67.5000025749208,2|0,0:0|0:0,0:0:0:0:
452,252,20517,6,0,L|380:252,2,67.5000025749208,0|0|0,0:0|0:0|0:0,0:0:0:0:
184,248,20909,2,0,P|220:156|312:116,1,202.500007724762,2|0,0:0|0:0,0:0:0:0:
396,116,21431,1,0,0:0:0:0:
256,116,21561,1,0,0:0:0:0:
484,116,21691,1,2,0:0:0:0:
240,116,21822,2,0,L|172:116,1,67.5000025749208,2|0,0:0|0:0,0:0:0:0:
408,192,22083,1,2,0:0:0:0:
376,192,22148,1,0,0:0:0:0:
340,192,22213,1,0,0:0:0:0:
104,192,22344,2,0,L|176:192,1,67.5000025749208,2|0,0:0|0:0,0:0:0:0:
376,192,22604,6,0,L|380:244,1,45,2|0,0:0|0:0,0:0:0:0:
176,264,22865,1,2,0:0:0:0:
472,236,22996,6,0,B|472:136|472:136|384:84,1,202.500007724762,4|0,0:2|0:0,0:0:0:0:
288,84,23517,1,0,0:0:0:0:
428,84,23648,1,0,0:0:0:0:
204,84,23778,1,2,0:0:0:0:
476,160,23909,2,0,L|408:160,1,67.5000025749208,2|0,0:0|2:0,0:0:0:0:
144,288,24170,2,0,L|85:254,1,67.5000025749208,2|0,0:0|0:0,0:0:0:0:
324,196,24431,2,0,L|382:162,1,67.5000025749208,2|0,0:0|0:0,0:0:0:0:
128,216,24691,5,4,0:0:0:0:
76,140,24822,1,0,0:0:0:0:
128,64,24952,1,0,0:0:0:0:
388,140,25083,2,0,P|452:196|388:268,1,202.500007724762,2|0,0:0|0:0,0:0:0:0:
292,268,25604,1,0,0:0:0:0:
155,268,25735,1,0,0:0:0:0:
384,268,25865,1,2,0:0:0:0:
128,268,25996,2,0,L|120:192,1,67.5000025749208,2|0,0:0|0:0,0:0:0:0:
360,192,26257,2,0,L|428:192,1,67.5000025749208,2|0,0:0|0:0,0:0:0:0:
220,116,26517,2,0,L|287:116,1,67.5000025749208,2|0,0:0|0:0,0:0:0:0:
64,116,26778,5,4,0:2:0:0:
16,170,26903,1,0,2:0:0:0:
29,241,27028,1,0,0:0:0:0:
93,274,27153,1,0,2:0:0:0:
296,276,27278,2,0,L|336:248,1,45,0|0,3:3|0:0,0:0:0:0:
152,236,27528,2,0,L|144:184,1,45,0|0,0:0|2:0,0:0:0:0:
392,192,27778,1,0,0:0:0:0:
384,116,27903,1,0,3:0:0:0:
332,60,28028,1,0,0:0:0:0:
255,51,28153,1,0,0:0:0:0:
68,52,28278,6,0,L|184:52,1,112.5,4|0,0:2|0:0,0:0:0:0:
255,51,28653,1,0,2:0:0:0:
48,52,28778,2,0,L|40:100,1,45,0|0,0:0|3:0,0:0:0:0:
220,124,29028,2,0,L|232:168,1,45,0|0,0:0|0:0,0:0:0:0:
40,96,29278,1,0,3:0:0:0:
48,172,29403,1,0,3:0:0:0:
100,232,29528,1,0,1:0:0:0:
177,237,29653,1,0,1:0:0:0:
460,284,29778,6,0,L|344:284,1,112.5,4|0,0:2|0:0,0:0:0:0:
420,284,30153,1,0,3:0:0:0:
196,284,30278,2,0,L|156:256,1,45,0|0,0:0|0:0,0:0:0:0:
348,192,30528,2,0,L|356:140,1,45,0|0,0:0|1:0,0:0:0:0:
136,192,30778,1,0,3:0:0:0:
76,152,30903,1,0,3:0:0:0:
76,80,31028,1,0,0:0:0:0:
136,40,31153,1,0,0:0:0:0:
316,40,31278,6,0,L|432:40,1,112.5,4|0,3:2|0:0,0:0:0:0:
500,40,31653,1,0,0:0:0:0:
284,40,31778,2,0,L|276:88,1,45,0|0,3:0|3:0,0:0:0:0:
456,132,32028,2,0,L|464:180,1,45,0|0,0:0|0:0,0:0:0:0:
276,176,32278,2,0,L|332:176,1,56.25,0|0,3:0|3:0,0:0:0:0:
152,248,32528,2,0,L|92:248,1,56.25,0|0,0:0|0:0,0:0:0:0:
439,259,32778,5,4,0:2:0:0:
478,199,32908,1,0,0:0:0:0:
456,132,33038,1,0,0:0:0:0:
390,106,33169,1,0,0:0:0:0:
148,92,33299,2,0,L|140:160,1,62.9999980773926,0|0,0:0|0:0,0:0:0:0:
364,196,33560,2,0,L|372:264,1,62.9999980773926,0|0,0:0|0:0,0:0:0:0:
84,156,33821,1,0,0:0:0:0:
69,236,33951,1,0,0:0:0:0:
110,308,34082,1,0,0:0:0:0:
187,336,34212,1,0,0:0:0:0:
428,336,34343,6,0,L|500:336,2,62.9999980773926,2|0|0,0:2|0:0|3:0,0:0:0:0:
364,336,34734,1,2,0:2:0:0:
176,336,34864,2,0,L|116:308,1,62.9999980773926,0|0,0:0|3:0,0:0:0:0:
364,252,35125,2,0,L|304:224,1,62.9999980773926,2|0,0:2|3:0,0:0:0:0:
116,188,35386,2,0,L|108:120,1,62.9999980773926,0|0,3:0|0:0,0:0:0:0:
364,164,35647,2,0,L|356:96,1,62.9999980773926,2|0,3:2|3:1,0:0:0:0:
32,104,35908,5,4,0:2:0:0:
16,172,36038,1,0,0:0:0:0:
48,232,36169,1,0,0:0:0:0:
116,252,36299,1,0,0:0:0:0:
368,252,36430,2,0,L|376:184,1,62.9999980773926,0|0,3:0|3:0,0:0:0:0:
144,164,36691,2,0,L|136:96,1,62.9999980773926,0|0,0:2|0:0,0:0:0:0:
440,104,36951,2,0,L|360:104,3,78.7500007510185,0|0|0|0,3:0|3:0|0:0|0:0,0:0:0:0:
109,132,37473,6,0,L|37:132,2,62.9999980773926,4|0|0,0:2|0:0|0:0,0:0:0:0:
332,132,37864,1,4,0:2:0:0:
77,104,37995,2,0,L|93:164,1,62.9999980773926,0|0,3:0|3:0,0:0:0:0:
309,132,38256,2,0,L|245:132,1,62.9999980773926,4|0,0:2|0:0,0:0:0:0:
465,224,38517,2,0,L|401:224,1,62.9999980773926,0|4,0:0|0:2,0:0:0:0:
102,280,38778,2,0,L|165:280,1,62.9999980773926,0|0,3:0|3:0,0:0:0:0:
501,280,39038,5,4,0:2:0:0:
256,192,39338,12,0,41138,2:0:0:0:
420,192,41438,6,0,L|424:136,1,53.9999983520508,0|0,0:0|3:0,0:0:0:0:
264,192,41738,2,0,L|260:136,1,53.9999983520508,0|0,3:0|3:0,0:0:0:0:
96,192,42038,2,0,L|100:136,1,53.9999983520508,0|0,0:0|3:0,0:0:0:0:
256,192,42338,2,0,L|252:136,1,53.9999983520508,0|0,3:0|3:0,0:0:0:0:
368,140,42638,6,0,L|448:140,1,67.5000025749208,2|0,1:3|3:0,0:0:0:0:
232,192,42863,2,0,L|152:192,1,67.5000025749208
220,192,43088,1,0,3:0:0:0:
328,192,43238,1,0,0:0:0:0:
128,192,43313,2,0,L|44:192,1,67.5000025749208,2|0,0:3|0:0,0:0:0:0:
264,192,43538,2,0,L|268:272,1,67.5000025749208,0|0,3:0|3:0,0:0:0:0:
116,88,43838,6,0,L|72:120,2,53.9999983520508,0|0|0,0:0|3:0|3:0,0:0:0:0:
192,88,44288,1,0,3:0:0:0:
344,192,44438,1,0,0:0:0:0:
256,192,44588,1,0,3:0:0:0:
168,192,44738,1,0,3:0:0:0:
280,192,44888,2,0,L|336:192,1,45,0|0,3:0|0:0,0:0:0:0:
140,192,45038,6,0,L|72:192,1,67.5000025749208,0|0,0:0|3:0,0:0:0:0:
276,272,45263,2,0,L|343:272,1,67.5000025749208,0|0,0:0|0:0,0:0:0:0:
287,272,45488,1,0,3:0:0:0:
380,192,45638,1,0,0:0:0:0:
180,192,45713,2,0,L|176:124,1,67.5000025749208,2|0,0:3|0:0,0:0:0:0:
388,192,45938,2,0,L|460:192,1,67.5000025749208,0|0,3:0|3:0,0:0:0:0:
256,192,46238,12,0,48338,2:0:0:0:
168,192,48638,5,4,0:2:0:0:
392,192,48774,2,0,L|400:128,1,56.25,2|0,1:0|0:0,0:0:0:0:
184,192,49047,2,0,L|178:247,1,56.25,2|0,0:0|0:0,0:0:0:0:
268,248,49319,2,0,L|200:248,1,56.25,2|0,0:0|0:0,0:0:0:0:
428,248,49592,6,0,L|488:248,1,56.25,2|0,0:0|0:0,0:0:0:0:
244,332,49865,2,0,L|176:332,1,56.25,2|0,0:0|0:0,0:0:0:0:
416,332,50138,2,0,L|480:332,1,56.25,2|0,0:0|0:0,0:0:0:0:
156,248,50410,2,0,L|220:248,1,56.25,2|0,0:0|0:0,0:0:0:0:
304,248,50683,2,0,L|240:248,1,56.25,2|0,0:0|0:0,0:0:0:0:
488,248,50956,6,0,L|436:224,1,56.25,2|0,0:0|0:0,0:0:0:0:
224,136,51228,2,0,L|276:112,1,56.25,0|0,0:0|0:0,0:0:0:0:
140,112,51910,5,0,0:0:0:0:
360,136,52047,2,0,L|428:136,1,56.25,2|0,0:0|0:0,0:0:0:0:
108,192,52319,2,0,L|168:192,1,56.25,2|0,0:0|0:0,0:0:0:0:
392,216,52592,1,0,0:0:0:0:
56,272,52728,2,0,L|120:272,1,56.25,2|0,1:0|0:0,0:0:0:0:
204,272,53001,5,0,0:0:0:0:
428,216,53138,1,2,0:0:0:0:
184,192,53274,2,0,L|120:192,2,56.25,2|0|0,0:0|0:0|0:0,0:0:0:0:
416,144,53683,2,0,L|480:144,1,56.25,2|0,0:0|0:0,0:0:0:0:
160,92,53956,6,0,L|224:92,1,56.25,2|0,0:0|0:0,0:0:0:0:
440,64,54228,2,0,L|372:64,1,56.25,0|2,0:0|0:0,0:0:0:0:
288,92,54501,2,0,L|352:92,1,56.25,0|0,0:0|0:0,0:0:0:0:
72,92,54774,2,0,L|68:200,1,90,4|0,0:2|0:0,0:0:0:0:
340,192,55183,5,4,0:2:0:0:
92,252,55319,2,0,L|160:252,1,56.25,2|0,0:0|0:0,0:0:0:0:
364,288,55592,2,0,L|296:288,1,56.25,0|0,0:0|0:0,0:0:0:0:
400,288,55865,1,0,0:0:0:0:
248,288,56001,1,0,0:0:0:0:
460,192,56138,5,2,0:0:0:0:
372,192,56274,2,0,L|312:192,1,56.25,0|0,0:0|0:0,0:0:0:0:
408,192,56547,1,0,0:0:0:0:
268,192,56683,1,2,0:0:0:0:
388,192,56819,1,0,0:0:0:0:
160,192,56956,2,0,L|100:192,1,56.25,2|0,0:0|0:0,0:0:0:0:
388,96,57228,5,2,0:0:0:0:
128,96,57365,2,0,L|112:168,1,56.25,2|0,0:0|0:0,0:0:0:0:
328,152,57638,2,0,L|260:152,1,56.25,2|0,0:0|0:0,0:0:0:0:
484,152,57910,1,2,0:0:0:0:
100,152,58047,6,0,P|36:208|96:280,1,196.875001877546,4|0,0:2|0:0,0:0:0:0:
384,280,58456,1,4,3:2:0:0:
172,192,59656,6,0,L|168:128,1,45,0|0,3:0|3:0,0:0:0:0:
316,148,59956,1,0,3:0:0:0:
48,148,60256,1,0,0:0:0:0:
300,148,60556,1,0,0:0:0:0:
152,148,60856,5,0,0:0:0:0:
296,148,61156,1,0,3:0:0:0:
144,148,61306,2,0,L|16:192,1,135.000005149842,0|0,3:0|3:0,0:0:0:0:
168,148,61756,1,0,3:0:0:0:
332,148,62056,1,0,3:0:0:0:
220,148,62206,1,0,3:0:0:0:
108,148,62356,1,2,3:2:0:0:
376,148,62656,1,0,0:0:0:0:
124,148,62956,1,0,0:0:0:0:
484,148,63256,5,4,0:0:0:0:
474,74,63406,1,0,0:0:0:0:
424,21,63556,1,2,0:0:0:0:
351,7,63706,1,0,0:0:0:0:
136,8,63856,2,0,L|132:68,1,45,0|0,1:0|0:0,0:0:0:0:
344,88,64156,2,0,L|348:148,1,45,2|0,0:0|0:0,0:0:0:0:
108,132,64456,5,0,1:0:0:0:
112,224,64606,1,0,0:0:0:0:
164,296,64756,1,2,0:0:0:0:
248,320,64906,1,0,0:0:0:0:
48,292,65056,2,0,L|112:292,1,45,0|0,1:0|0:0,0:0:0:0:
304,220,65356,2,0,L|352:220,1,45,0|0,1:0|1:0,0:0:0:0:
92,220,65656,5,4,0:0:0:0:
100,140,65806,1,0,0:0:0:0:
152,72,65956,1,2,0:0:0:0:
232,68,66106,1,0,0:0:0:0:
436,80,66256,2,0,L|464:120,1,45,0|0,1:0|0:0,0:0:0:0:
240,160,66556,2,0,L|212:208,1,45,2|0,0:0|0:0,0:0:0:0:
488,192,66856,6,0,L|464:256,1,67.5000025749208,0|0,1:0|0:0,0:0:0:0:
260,256,67156,2,0,L|328:256,1,67.5000025749208,2|0,0:0|0:0,0:0:0:0:
112,232,67456,2,0,L|40:232,1,67.5000025749208,0|2,1:0|1:0,0:0:0:0:
400,232,67756,2,0,L|472:232,1,67.5000025749208,0|2,1:0|1:0,0:0:0:0:
24,232,68056,5,0,3:0:0:0:
320,84,68874,2,0,L|400:84,1,67.5,4|0,3:3|0:0,0:0:0:0:
164,84,69146,6,0,L|84:84,1,56.25,0|2,0:0|0:0,0:0:0:0:
328,176,69419,2,0,L|248:176,1,56.25,0|2,0:0|0:0,0:0:0:0:
492,84,69692,2,0,L|412:84,2,56.25,0|2|0,0:0|0:0|0:0,0:0:0:0:
240,84,70101,6,0,L|236:148,1,56.25,2|0,0:0|0:0,0:0:0:0:
464,176,70374,2,0,L|460:240,1,56.25,2|0,0:0|0:0,0:0:0:0:
208,176,70646,2,0,L|204:240,1,56.25,2|0,0:0|0:0,0:0:0:0:
352,232,71056,5,0,0:0:0:0:
276,232,71192,1,0,0:0:0:0:
352,232,71328,1,0,0:0:0:0:
128,232,71465,2,0,L|108:192,1,45,2|0,0:0|0:0,0:0:0:0:
332,272,71737,2,0,L|352:232,1,45,2|0,0:0|0:0,0:0:0:0:
36,192,72010,2,0,P|52:128|116:104,1,135.000005149842,4|0,0:2|2:0,0:0:0:0:
356,104,72419,5,0,0:0:0:0:
132,104,72556,2,0,L|128:32,1,56.25,2|0,0:0|0:0,0:0:0:0:
440,104,72828,2,0,L|372:104,1,56.25,2|0,0:0|0:0,0:0:0:0:
176,104,73101,1,2,0:0:0:0:
356,104,73374,6,0,L|296:104,1,56.25,0|0,0:0|0:0,0:0:0:0:
440,104,73646,1,2,0:0:0:0:
200,28,73783,2,0,L|135:28,2,56.25,0|0|0,0:0|0:0|0:0,0:0:0:0:
416,28,74192,1,2,0:0:0:0:
304,28,74328,1,0,0:0:0:0:
440,132,74601,5,0,0:0:0:0:
192,132,74737,2,0,L|128:132,1,56.25,2|0,0:0|0:0,0:0:0:0:
376,132,75010,2,0,L|312:132,1,56.25,2|0,0:0|0:0,0:0:0:0:
152,224,75556,5,4,0:2:0:0:
368,224,75692,1,0,0:0:0:0:
60,224,75828,2,0,L|120:224,1,56.25,2|0,0:0|0:0,0:0:0:0:
340,224,76101,2,0,L|276:224,1,56.25,2|0,0:0|0:0,0:0:0:0:
464,224,76510,5,0,0:0:0:0:
212,308,76646,1,2,0:0:0:0:
468,308,76783,1,0,0:0:0:0:
340,308,76919,1,0,0:0:0:0:
456,308,77056,1,2,0:0:0:0:
300,308,77328,1,0,0:0:0:0:
44,308,77465,1,2,0:0:0:0:
260,192,77874,5,2,0:0:0:0:
120,192,78010,1,0,0:0:0:0:
244,192,78146,1,2,0:0:0:0:
64,192,78419,1,0,0:0:0:0:
432,192,78556,2,0,L|436:52,1,140.625,4|0,0:2|0:0,0:0:0:0:
236,52,78965,5,2,0:0:0:0:
148,52,79101,1,0,0:0:0:0:
236,52,79237,1,0,0:0:0:0:
20,148,79374,1,2,0:0:0:0:
108,148,79510,1,0,0:0:0:0:
20,148,79646,1,0,0:0:0:0:
108,148,79783,1,2,0:0:0:0:
312,148,79919,6,0,L|172:148,1,135.000005149842,4|0,0:2|0:0,0:0:0:0:
384,148,80328,1,0,0:0:0:0:
112,228,80465,2,0,L|252:228,1,135.000005149842,4|0,0:2|0:0,0:0:0:0:
40,228,80874,1,0,0:0:0:0:
332,228,81010,6,0,P|388:288|332:348,1,180,4|0,0:0|0:0,0:0:0:0:
52,348,81419,1,0,0:0:0:0:
396,152,81692,1,2,0:0:0:0:
240,152,81874,1,0,0:0:0:0:
408,152,82056,1,2,0:0:0:0:
100,152,82237,5,8,0:3:0:0:
96,179,82299,1,0,0:0:0:0:
93,207,82362,1,0,0:0:0:0:
196,204,82487,2,0,L|204:268,1,56.25,0|0,0:0|0:0,0:0:0:0:
52,260,82737,1,0,0:0:0:0:
26,202,82862,1,0,0:0:0:0:
59,149,82987,1,0,0:0:0:0:
122,147,83112,1,0,0:0:0:0:
336,148,83237,6,0,L|392:148,2,56.25,0|0|0,0:0|0:0|0:0,0:0:0:0:
196,148,83612,1,0,0:0:0:0:
352,80,83862,1,0,0:0:0:0:
208,80,83987,1,0,1:0:0:0:
340,80,84112,1,0,3:0:0:0:
96,80,84237,5,0,0:0:0:0:
31,109,84362,1,0,0:0:0:0:
29,180,84487,1,0,0:0:0:0:
92,212,84612,1,0,0:0:0:0:
236,212,84737,2,0,L|156:212,1,56.25,0|0,0:0|0:0,0:0:0:0:
320,212,84987,2,0,L|324:152,1,56.25,0|0,3:0|3:0,0:0:0:0:
96,280,85237,6,0,L|40:280,2,56.25,0|0|0,0:2|0:0|0:0,0:0:0:0:
392,280,85612,2,0,P|444:196|392:120,1,202.500007724762,0|0,0:0|0:0,0:0:0:0:
300,120,86112,1,4,0:0:0:0:
92,120,86237,6,0,L|36:120,1,56.25,4|0,0:2|0:0,0:0:0:0:
124,120,86477,2,0,L|60:120,1,56.25,0|0,0:0|0:0,0:0:0:0:
216,120,86717,2,0,L|236:180,1,56.25,0|0,0:0|0:0,0:0:0:0:
100,188,86957,2,0,L|160:188,1,56.25,0|0,0:0|0:0,0:0:0:0:
400,188,87197,6,0,L|336:188,2,56.25,0|0|0,0:0|0:0|0:0,0:0:0:0:
164,188,87557,1,0,0:0:0:0:
332,188,87797,1,0,0:0:0:0:
188,188,87917,1,0,0:0:0:0:
324,188,88037,1,0,0:0:0:0:
84,188,88157,6,0,L|76:248,1,56.25,0|0,0:0|0:0,0:0:0:0:
208,244,88397,2,0,L|248:288,1,56.25,0|0,0:0|0:0,0:0:0:0:
376,284,88637,2,0,L|308:284,1,56.25,0|0,0:0|0:0,0:0:0:0:
190,286,88877,2,0,L|246:286,1,56.25
60,192,89117,5,0,0:0:0:0:
188,192,89237,1,0,0:0:0:0:
68,192,89357,1,0,0:0:0:0:
180,192,89477,1,0,0:0:0:0:
428,192,90077,6,0,L|344:192,2,67.5000025749208,0|0|0,0:3|0:0|0:0,0:0:0:0:
172,192,90423,2,0,L|32:192,1,135.000005149842,2|0,0:0|0:0,0:0:0:0:
160,120,90769,2,0,L|220:80,1,67.5000025749208,0|0,0:0|0:0,0:0:0:0:
92,84,91000,5,0,0:0:0:0:
336,84,91115,1,2,0:0:0:0:
76,84,91230,2,0,L|68:152,1,67.5000025749208,2|0,0:0|0:0,0:0:0:0:
340,192,91461,2,0,L|412:192,1,67.5000025749208,2|0,0:0|0:0,0:0:0:0:
180,240,91692,2,0,L|248:240,1,67.5000025749208,2|0,0:0|0:0,0:0:0:0:
20,240,91923,5,0,0:0:0:0:
104,240,92038,1,0,0:0:0:0:
20,240,92153,1,0,0:0:0:0:
276,240,92269,2,0,L|416:240,1,135.000005149842,2|0,0:0|0:0,0:0:0:0:
275,168,92615,2,0,L|215:128,1,67.5000025749208,0|0,0:0|0:0,0:0:0:0:
355,132,92846,5,0,0:0:0:0:
112,132,92961,1,2,0:0:0:0:
371,132,93077,2,0,L|379:200,1,67.5000025749208,2|0,0:0|0:0,0:0:0:0:
104,240,93307,2,0,L|32:240,1,67.5000025749208,2|0,0:0|0:0,0:0:0:0:
376,304,93538,2,0,L|448:304,1,67.5000025749208,2|0,0:0|0:0,0:0:0:0:
196,304,93769,6,0,L|188:236,1,67.5000025749208,2|0,0:0|0:0,0:0:0:0:
376,232,93991,1,2,1:0:0:0:
100,120,94102,6,0,L|235:120,1,135.000005149842,8|0,0:3|0:0,0:0:0:0:
356,116,94435,2,0,L|296:76,1,67.5000025749208
180,52,94657,1,0,0:0:0:0:
424,52,94769,1,2,0:0:0:0:
164,52,94879,6,0,L|96:52,1,67.5000025749208,2|0,0:0|0:0,0:0:0:0:
372,116,95102,2,0,L|380:188,1,67.5000025749208,2|0,0:0|0:0,0:0:0:0:
124,192,95324,2,0,L|132:264,1,67.5000025749208,2|0,0:0|0:0,0:0:0:0:
400,260,95546,5,0,0:0:0:0:
312,260,95657,1,0,0:0:0:0:
220,260,95768,1,0,0:0:0:0:
492,260,95879,2,0,L|352:260,1,135.000005149842,2|0,0:0|0:0,0:0:0:0:
228,260,96213,2,0,L|288:220,1,67.5000025749208
156,224,96435,5,0,0:0:0:0:
400,224,96546,1,2,0:0:0:0:
144,224,96657,2,0,L|72:224,1,67.5000025749208,2|0,0:0|0:0,0:0:0:0:
412,112,96879,2,0,L|484:112,1,67.5000025749208,4|2,0:2|0:0,0:0:0:0:
100,52,97102,2,0,L|28:52,1,67.5000025749208,4|2,0:0|0:0,0:0:0:0:
256,52,97546,5,4,0:2:0:0:
128,192,98213,1,4,0:0:0:0:
384,192,99102,1,4,0:0:0:0:
