osu file format v14

[General]
AudioFilename: audio.mp3
AudioLeadIn: 0
PreviewTime: 29
Countdown: 0
SampleSet: Soft
StackLeniency: 0.7
Mode: 2
LetterboxInBreaks: 0
WidescreenStoryboard: 0

[Editor]
Bookmarks: 48638
DistanceSpacing: 1.8
BeatDivisor: 4
GridSize: 32
TimelineZoom: 2.000001

[Metadata]
Title:Pluto
TitleUnicode:Pluto
Artist:Black Hole
ArtistUnicode:Black∞Hole
Creator:Ascendance
Version:Ascennoh's Basic
Source:DanceDanceRevolution SuperNOVA 2
Tags:beatmania IIDX 15 DJ TROOPERS CS DDR dance revolution pack 3 NM SEQUENCE UNLIMITED Hareimu JBHyperion JBH ZiRoX Razor Sharp Arthas Sanyi Sinnoh BEAT EX
BeatmapID:1470198
BeatmapSetID:680437

[Difficulty]
HPDrainRate:4
CircleSize:3.5
OverallDifficulty:7
ApproachRate:7
SliderMultiplier:1.55
SliderTickRate:2

[Events]
//Background and Video events
0,0,"cropped-1920-1080-502977.jpg",0,0
//Break Periods
2,41638,47738
//Storyboard Layer 0 (Background)
//Storyboard Layer 1 (Fail)
//Storyboard Layer 2 (Pass)
//Storyboard Layer 3 (Foreground)
//Storyboard Sound Samples

[TimingPoints]
104,600,4,2,1,95,1,0
104,-100,4,2,1,95,0,0
9704,545.454545454546,4,1,1,60,1,0
13385,-100,4,1,1,60,0,0
13454,-100,4,1,1,5,0,0
13794,-100,4,1,1,60,0,0
17817,-100,4,1,1,5,0,0
18431,521.739130434783,4,1,1,70,1,1
18431,-83.3333333333333,4,1,1,70,0,1
22539,-100,4,2,1,95,0,1
22604,-100,4,2,1,95,0,0
22800,-100,4,1,1,70,0,0
22996,-83.3333333333333,4,1,1,70,0,1
26778,500,3,1,1,70,1,0
32778,521.739130434783,3,1,1,70,1,1
39038,600,4,1,1,70,1,0
41438,-100,4,1,1,53,0,0
47588,-100,4,1,1,58,0,0
48038,-100,4,1,1,62,0,0
48638,545.454545454546,6,1,1,70,1,0
48638,-66.6666666666667,4,1,1,70,0,0
51433,-66.6666666666667,4,1,1,5,0,0
51910,-66.6666666666667,4,1,1,70,0,0
54842,-66.6666666666667,4,1,1,5,0,0
55182,-66.6666666666667,4,1,1,70,0,0
58251,-66.6666666666667,4,1,1,5,0,0
58456,600,4,1,1,70,1,0
58456,-66.6666666666667,4,1,1,70,0,0
59056,-66.6666666666667,4,1,1,63,0,0
59656,-66.6666666666667,4,1,1,56,0,0
60256,-66.6666666666667,4,1,1,49,0,0
63106,-66.6666666666667,4,2,1,78,0,0
67456,-66.6666666666667,4,2,1,54,0,0
68056,545.454545454546,4,1,1,21,1,0
68056,-66.6666666666667,4,1,1,21,0,0
68874,-66.6666666666667,4,3,1,50,0,0
69010,-66.6666666666667,4,1,1,65,0,0
69146,545.454545454546,6,1,1,65,1,0
70783,-66.6666666666667,4,1,1,80,0,0
75351,-66.6666666666667,4,1,1,5,0,0
75554,-66.6666666666667,4,1,1,80,0,0
77533,-66.6666666666667,4,1,1,5,0,0
77871,-66.6666666666667,4,1,1,80,0,0
79987,-66.6666666666667,4,1,1,5,0,0
80327,-66.6666666666667,4,1,1,85,0,0
80533,-66.6666666666667,4,1,1,5,0,0
80872,-66.6666666666667,4,1,1,90,0,0
81010,-66.6666666666667,4,1,1,95,0,0
81078,-66.6666666666667,4,1,1,5,0,0
81351,-66.6666666666667,4,1,1,95,0,0
81624,-66.6666666666667,4,2,1,90,0,0
82237,500,4,1,1,65,1,0
82237,-66.6666666666667,4,1,1,65,0,0
85674,-66.6666666666667,4,1,1,5,0,0
86049,-66.6666666666667,4,1,1,65,0,0
86237,480,4,1,1,65,1,0
86237,-66.6666666666667,4,1,1,65,0,0
89537,-66.6666666666667,4,1,1,5,0,0
90077,461.538461538462,4,1,1,75,1,1
90077,-66.6666666666667,4,1,1,75,0,1
93769,444.444444444444,4,2,1,80,1,0
93769,-66.6666666666667,4,2,1,80,0,0
93991,-74.0740740740741,4,1,1,80,0,0
94102,-74.0740740740741,4,1,1,80,0,1
95490,-74.0740740740741,4,1,1,85,0,1
95546,-74.0740740740741,4,1,1,85,0,0
97213,-74.0740740740741,4,1,1,85,0,0
97322,-74.0740740740741,4,1,1,70,0,0

[Colours]
Combo1 : 255,255,175
Combo2 : 0,64,128
Combo3 : 0,128,128
Combo4 : 213,85,43

[HitObjects]
151,338,104,6,14,L|140:237,1,77.5,0|2,1:0|0:0,0:0:0:0:
231,206,554,1,0,0:0:0:0:
387,251,854,2,14,L|396:189,1,38.75,2|0,0:0|0:0,0:0:0:0:
235,94,1304,2,14,L|343:92,2,77.5,0|2|2,0:0|0:0|2:0,0:0:0:0:
100,92,2204,1,0,1:0:0:0:
339,78,2504,6,14,L|446:78,1,77.5,0|2,1:3|0:0,0:0:0:0:
344,108,2954,1,0,0:0:0:0:
200,227,3254,2,14,L|191:167,1,38.75,2|0,0:0|0:0,0:0:0:0:
380,313,3704,2,14,L|274:320,1,77.5,0|2,0:0|0:0,0:0:0:0:
178,294,4304,2,14,L|81:297,1,77.5,2|0,0:0|1:0,0:0:0:0:
353,245,4904,6,14,L|360:147,1,77.5,0|2,1:3|0:0,0:0:0:0:
291,130,5354,1,0,0:0:0:0:
148,111,5654,2,14,L|75:112,1,38.75,2|0,0:0|0:0,0:0:0:0:
273,58,6104,2,14,L|381:59,2,77.5,0|2|2,0:0|2:0|0:0,0:0:0:0:
124,58,7004,1,0,1:0:0:0:
360,221,7304,6,14,L|252:222,1,77.5,0|2,1:3|0:0,0:0:0:0:
222,221,7754,1,0,0:0:0:0:
400,305,8054,2,14,L|466:305,1,38.75,2|0,0:0|0:0,0:0:0:0:
264,331,8504,2,14,L|151:332,1,77.5,0|0,0:0|0:0,0:0:0:0:
140,331,8954,2,14,L|82:330,1,38.75,0|0,3:0|3:0,0:0:0:0:
156,333,9404,1,0,0:0:0:0:
399,347,9704,6,14,L|406:242,1,77.5,8|0,0:3|0:0,0:0:0:0:
321,240,10113,1,0,0:0:0:0:
160,263,10249,2,14,L|152:160,1,77.5,4|0,0:0|0:0,0:0:0:0:
285,75,10794,2,14,L|133:86,1,116.25,0|0,0:0|0:0,0:0:0:0:
342,151,11613,1,0,0:0:0:0:
188,304,11885,6,14,L|183:204,1,77.5,0|0,0:0|0:0,0:0:0:0:
262,189,12294,1,0,0:0:0:0:
426,234,12431,2,14,L|430:126,1,77.5,4|0,0:0|0:0,0:0:0:0:
333,105,12976,2,14,L|255:109,1,77.5,0|0,0:0|0:0,0:0:0:0:
105,125,13385,1,0,0:0:0:0:
105,125,13931,5,4,0:2:0:0:
181,169,14067,2,14,L|286:169,1,77.5,0|0,0:0|0:0,0:0:0:0:
397,266,14613,2,14,L|404:173,1,77.5,0|0,0:0|0:0,0:0:0:0:
140,336,15158,2,14,P|122:274|170:215,1,116.25,0|0,0:0|0:0,0:0:0:0:
286,202,15840,2,14,L|360:195,1,38.75,0|0,0:0|0:0,0:0:0:0:
168,164,16249,6,14,L|154:71,1,77.5,0|0,0:0|0:0,0:0:0:0:
300,207,16794,2,14,L|287:305,1,77.5,0|0,0:0|0:0,0:0:0:0:
136,338,17340,2,14,L|236:343,1,77.5,0|0,0:0|0:0,0:0:0:0:
360,348,17749,1,0,0:0:0:0:
254,257,18431,6,14,L|105:247,1,139.499995742798,4|2,0:2|0:0,0:0:0:0:
261,158,19213,2,14,L|379:148,2,92.9999971618653,0|0|2,0:0|0:0|0:0,0:0:0:0:
111,256,19996,2,14,L|105:147,1,92.9999971618653,2|2,0:0|0:0,0:0:0:0:
376,346,20517,6,14,L|431:210,1,139.499995742798,0|2,0:0|0:0,0:0:0:0:
268,237,21300,1,0,0:0:0:0:
146,237,21561,2,14,L|17:237,2,92.9999971618653,0|2|2,0:0|0:0|0:0,0:0:0:0:
413,247,22344,1,2,0:0:0:0:
298,232,22604,2,14,L|202:232,1,77.5,2|2,0:0|0:0,0:0:0:0:
72,279,22996,6,14,P|33:215|143:105,1,232.499992904663,4|0,0:2|0:0,0:0:0:0:
261,74,23909,2,14,L|255:185,1,92.9999971618653,2|2,0:0|0:0,0:0:0:0:
135,224,24431,1,2,0:0:0:0:
254,317,24691,6,14,L|434:317,1,139.499995742798,4|2,0:0|0:0,0:0:0:0:
233,256,25474,1,0,0:0:0:0:
364,211,25735,2,14,L|363:101,1,92.9999971618653,0|2,0:0|0:0,0:0:0:0:
271,75,26257,1,2,0:0:0:0:
411,74,26517,1,2,0:0:0:0:
168,325,26778,6,14,P|127:263|193:183,1,155,4|0,0:2|3:3,0:0:0:0:
272,160,27528,2,14,L|363:164,2,77.5,0|0|0,0:0|0:0|0:0,0:0:0:0:
56,232,28278,6,14,P|36:160|114:90,1,155,4|0,0:2|0:0,0:0:0:0:
199,78,29028,2,14,L|286:82,1,77.5,0|0,0:0|3:0,0:0:0:0:
378,94,29528,1,0,1:0:0:0:
163,325,29778,6,14,P|131:262|199:196,1,155,4|0,0:2|0:0,0:0:0:0:
309,238,30528,2,14,L|314:153,1,77.5,0|0,0:0|3:0,0:0:0:0:
202,128,31028,1,0,0:0:0:0:
421,186,31278,6,14,P|466:121|401:52,1,155,4|0,3:2|3:0,0:0:0:0:
317,39,32028,2,14,L|223:41,2,77.5,0|0|0,0:0|3:0|0:0,0:0:0:0:
136,79,32778,6,14,P|86:134|159:258,1,232.5,4|0,0:2|0:0,0:0:0:0:
280,343,33821,2,14,L|291:241,1,77.5,0|0,0:0|0:0,0:0:0:0:
175,192,34343,2,14,L|354:185,1,155,2|0,0:2|0:0,0:0:0:0:
446,263,35125,2,14,L|457:101,1,155,2|2,0:2|3:2,0:0:0:0:
249,39,35908,6,14,P|196:92|281:214,1,232.5,4|0,0:2|0:2,0:0:0:0:
388,293,36951,2,14,L|399:206,1,77.5,0|0,3:0|0:0,0:0:0:0:
166,341,37473,2,14,P|165:264|250:230,1,155,4|0,0:2|3:0,0:0:0:0:
339,231,38256,2,14,L|349:65,1,155,4|0,0:2|3:0,0:0:0:0:
138,40,39038,5,4,0:2:0:0:
256,192,39338,12,0,41438,0:0:0:0:
336,306,48638,6,14,L|343:226,1,58.1250022172929,4|2,0:2|1:0,0:0:0:0:
226,218,49047,2,14,P|190:196|241:147,1,116.250004434586,2|2,0:0|0:0,0:0:0:0:
308,124,49456,2,14,L|369:87,2,58.1250022172929,0|2|0,0:0|0:0|0:0,0:0:0:0:
228,119,49865,2,14,L|112:53,1,116.250004434586,2|2,0:0|0:0,0:0:0:0:
368,198,50410,6,14,P|402:148|382:67,1,116.250004434586,2|2,0:0|0:0,0:0:0:0:
290,206,50956,2,14,L|245:159,1,58.1250022172929,2|0,0:0|0:0,0:0:0:0:
322,130,51228,2,14,L|371:99,1,58.1250022172929,0|0,0:0|0:0,0:0:0:0:
371,98,51910,6,14,L|345:26,1,58.1250022172929,0|2,0:0|0:0,0:0:0:0:
114,177,52319,2,14,P|84:128|148:91,1,116.250004434586,2|0,0:0|0:0,0:0:0:0:
197,142,52728,2,14,L|316:77,1,116.250004434586,2|0,1:0|0:0,0:0:0:0:
228,62,53138,2,14,L|151:38,1,58.1250022172929,2|2,0:0|0:0,0:0:0:0:
58,188,53547,5,0,0:0:0:0:
52,125,53683,1,2,0:0:0:0:
265,156,53956,2,14,P|301:81|258:20,1,116.250004434586,2|0,0:0|0:0,0:0:0:0:
173,43,54501,1,0,0:0:0:0:
421,240,54774,6,14,P|424:154|410:24,1,174.375006651879,4|4,0:2|0:2,0:0:0:0:
333,55,55319,2,14,L|251:15,2,58.1250022172929,2|0|0,0:0|0:0|0:0,0:0:0:0:
216,233,55865,1,0,0:0:0:0:
147,214,56001,2,14,L|71:147,2,58.1250022172929,0|2|0,0:0|0:0|0:0,0:0:0:0:
343,199,56683,6,14,L|336:85,1,58.1250022172929,2|0,0:0|0:0,0:0:0:0:
267,151,56956,2,14,L|135:87,1,116.250004434586,2|2,0:0|0:0,0:0:0:0:
220,71,57365,2,14,L|332:8,2,116.250004434586,2|2|2,0:0|0:0|0:0,0:0:0:0:
69,228,58047,6,14,P|38:122|84:55,1,174.375006651879,4|4,0:2|3:2,0:0:0:0:
349,222,59806,6,14,L|360:136,1,58.1250022172929,0|0,3:0|3:0,0:0:0:0:
226,217,60256,2,14,L|78:168,1,116.250004434586,0|0,0:0|0:0,0:0:0:0:
354,228,61156,6,14,L|360:149,1,58.1250022172929,0|0,3:0|3:0,0:0:0:0:
241,171,61606,2,14,L|249:98,1,58.1250022172929,0|0,3:0|3:0,0:0:0:0:
118,88,62056,2,14,L|105:178,2,58.1250022172929,0|0|2,3:0|3:0|3:2,0:0:0:0:
262,143,62656,2,14,L|391:98,1,116.250004434586,0|0,0:0|0:0,0:0:0:0:
110,222,63256,6,14,P|77:144|118:95,1,116.250004434586,4|2,0:0|0:0,0:0:0:0:
152,97,63706,1,0,0:0:0:0:
224,97,63856,1,0,1:0:0:0:
350,332,64156,2,14,L|360:275,1,58.1250022172929,2|0,0:0|0:0,0:0:0:0:
295,74,64456,6,14,L|229:32,2,58.1250022172929,0|0|2,1:0|0:0|0:0,0:0:0:0:
376,109,64906,1,0,0:0:0:0:
449,248,65056,1,0,1:0:0:0:
465,168,65206,1,0,0:0:0:0:
432,197,65356,1,0,1:0:0:0:
193,249,65656,6,14,B|138:249|138:249|136:171,1,116.250004434586,4|2,0:0|0:0,0:0:0:0:
219,155,66106,2,14,L|292:99,1,58.1250022172929,0|0,0:0|1:0,0:0:0:0:
111,282,66556,5,2,0:0:0:0:
58,233,66706,1,0,0:0:0:0:
39,164,66856,1,0,1:0:0:0:
58,95,67006,1,0,0:0:0:0:
111,46,67156,1,2,0:0:0:0:
173,140,67306,1,0,0:0:0:0:
244,133,67456,2,14,L|285:61,2,58.1250022172929,0|2|0,1:0|1:0|1:0,0:0:0:0:
177,191,67906,1,2,1:0:0:0:
455,132,69146,5,0,0:0:0:0:
411,108,69283,2,14,L|320:96,1,77.5,2|2,0:0|0:0,0:0:0:0:
165,245,69828,2,14,L|164:184,1,38.75,2|0,0:0|0:0,0:0:0:0:
230,171,70101,2,14,L|327:149,2,77.5,2|2|2,0:0|0:0|0:0,0:0:0:0:
231,250,71056,5,0,0:0:0:0:
231,134,71192,1,0,0:0:0:0:
230,192,71328,1,0,0:0:0:0:
298,241,71465,2,14,L|444:215,1,116.250004434586,2|2,0:0|0:0,0:0:0:0:
165,256,72010,6,14,P|133:187|243:141,1,174.375006651879,4|0,0:2|0:0,0:0:0:0:
259,122,72556,1,2,0:0:0:0:
135,85,72828,1,2,0:0:0:0:
30,183,73101,2,14,L|31:67,1,116.250004434586,2|0,0:0|0:0,0:0:0:0:
148,144,73646,6,14,L|246:97,1,58.1250022172929,2|0,0:0|0:0,0:0:0:0:
338,113,74056,2,14,L|368:52,2,58.1250022172929,0|2|0,0:0|0:0|0:0,0:0:0:0:
205,96,74601,2,14,L|178:27,4,58.1250022172929,0|2|0|2|0,0:0|0:0|0:0|0:0|0:0,0:0:0:0:
210,130,75556,6,14,L|300:127,1,58.1250022172929,4|0,0:2|0:0,0:0:0:0:
409,209,75828,2,14,P|425:161|411:81,1,116.250004434586,2|2,0:0|0:0,0:0:0:0:
373,53,76510,5,0,0:0:0:0:
234,218,76646,2,14,L|183:141,1,58.1250022172929,2|0,0:0|0:0,0:0:0:0:
245,130,76919,2,14,L|312:75,1,58.1250022172929,0|2,0:0|0:0,0:0:0:0:
143,132,77328,2,14,L|134:57,1,58.1250022172929,0|2,0:0|0:0,0:0:0:0:
299,40,77874,5,2,0:0:0:0:
168,31,78146,1,2,0:0:0:0:
397,218,78419,1,0,0:0:0:0:
445,178,78556,6,14,P|471:107|367:26,1,174.375006651879,4|2,0:2|0:0,0:0:0:0:
348,54,79101,2,14,L|260:56,1,58.1250022172929,0|0,0:0|0:0,0:0:0:0:
227,196,79374,2,14,P|236:118|295:97,1,116.250004434586,2|0,0:0|0:0,0:0:0:0:
388,103,79919,5,4,0:2:0:0:
125,161,80465,1,4,0:2:0:0:
480,54,81010,1,4,0:0:0:0:
148,49,81419,1,0,0:0:0:0:
18,190,81692,2,14,L|2:60,2,77.5000029563905,2|0|2,0:0|0:0|0:0,0:0:0:0:
111,202,82237,6,14,L|228:139,1,116.250004434586,8|0,0:3|0:0,0:0:0:0:
342,169,82737,2,14,L|217:72,1,116.250004434586,0|0,0:0|0:0,0:0:0:0:
194,92,83112,1,0,0:0:0:0:
141,89,83237,2,14,L|104:1,2,58.1250022172929,0|0|0,0:0|0:0|0:0,0:0:0:0:
205,154,83612,1,0,0:0:0:0:
340,234,83862,2,14,L|401:118,1,116.250004434586,0|0,0:0|3:0,0:0:0:0:
315,115,84237,6,14,L|222:34,1,116.250004434586,0|0,0:0|0:0,0:0:0:0:
271,133,84612,2,14,L|335:64,1,58.1250022172929,0|0,0:0|0:0,0:0:0:0:
442,326,84987,5,0,3:0:0:0:
480,283,85112,1,0,3:0:0:0:
492,227,85237,1,0,0:2:0:0:
473,173,85362,1,0,0:0:0:0:
428,136,85487,1,0,0:0:0:0:
364,119,85612,1,0,0:0:0:0:
364,99,86112,1,0,0:0:0:0:
281,102,86237,6,14,L|148:99,2,116.250004434586,4|0|0,0:2|0:0|0:0,0:0:0:0:
323,162,86957,1,0,0:0:0:0:
265,156,87077,1,0,0:0:0:0:
207,151,87197,1,0,0:0:0:0:
149,146,87317,1,0,0:0:0:0:
91,141,87437,1,0,0:0:0:0:
142,98,87557,1,0,0:0:0:0:
243,237,87797,2,14,L|248:99,1,116.250004434586,0|0,0:0|0:0,0:0:0:0:
167,104,88157,6,14,L|47:44,1,116.250004434586,0|0,0:0|0:0,0:0:0:0:
131,191,88517,2,14,L|191:137,1,58.1250022172929,0|0,0:0|0:0,0:0:0:0:
48,269,88877,2,14,L|42:186,1,58.1250022172929,0|0,0:0|0:0,0:0:0:0:
105,180,89117,2,14,L|154:126,2,58.1250022172929,0|0|0,0:0|0:0|0:0,0:0:0:0:
30,178,89477,1,0,0:0:0:0:
406,241,90077,5,0,0:3:0:0:
415,183,90192,1,0,0:0:0:0:
416,125,90307,1,0,0:0:0:0:
337,114,90423,1,2,0:0:0:0:
198,250,90769,2,14,L|194:156,1,58.1250022172929,0|0,0:0|0:0,0:0:0:0:
272,211,91000,6,14,L|327:140,2,58.1250022172929,0|2|2,0:0|0:0|0:0,0:0:0:0:
148,252,91461,2,14,L|66:167,1,116.250004434586,2|2,0:0|0:0,0:0:0:0:
286,183,91923,5,0,0:0:0:0:
333,150,92038,1,0,0:0:0:0:
354,97,92153,1,0,0:0:0:0:
342,41,92269,1,2,0:0:0:0:
213,255,92615,2,14,L|207:184,1,58.1250022172929,0|0,0:0|0:0,0:0:0:0:
266,129,92846,5,0,0:0:0:0:
318,103,92961,1,2,0:0:0:0:
370,77,93076,1,2,0:0:0:0:
229,100,93307,2,14,L|145:15,1,116.250004434586,2|2,0:0|0:0,0:0:0:0:
493,213,93991,5,2,1:0:0:0:
501,138,94102,2,14,P|468:63|393:31,1,156.937500598669,8|0,0:3|0:0,0:0:0:0:
340,40,94546,1,0,0:0:0:0:
300,152,94657,2,14,L|251:74,2,52.3125001995564,0|2|2,0:0|0:0|0:0,0:0:0:0:
420,270,95102,2,14,L|429:129,1,104.625000399113,2|2,0:0|0:0,0:0:0:0:
243,162,95546,6,14,L|80:163,1,156.937500598669,0|2,0:0|0:0,0:0:0:0:
213,281,96212,2,14,L|213:180,1,52.3125001995564,0|0,0:0|0:0,0:0:0:0:
160,208,96434,1,0,0:0:0:0:
104,173,96546,2,14,L|104:114,1,52.3125001995564,2|2,0:0|0:0,0:0:0:0:
327,201,96879,6,14,L|326:81,1,104.625000399113,4|4,0:2|0:0,0:0:0:0:
31,57,97546,1,4,0:2:0:0:
345,63,98212,1,4,0:0:0:0:
145,79,99101,1,4,0:0:0:0:
