osu file format v14

[General]
AudioFilename: audio.mp3
AudioLeadIn: 0
PreviewTime: 29
Countdown: 0
SampleSet: Soft
StackLeniency: 0.7
Mode: 2
LetterboxInBreaks: 0
WidescreenStoryboard: 0

[Editor]
Bookmarks: 32778,69146
DistanceSpacing: 1
BeatDivisor: 4
GridSize: 8
TimelineZoom: 3.2

[Metadata]
Title:Pluto
TitleUnicode:Pluto
Artist:Black Hole
ArtistUnicode:Black∞Hole
Creator:Ascendance
Version:Collab Hyper
Source:DanceDanceRevolution SuperNOVA 2
Tags:beatmania IIDX 15 DJ TROOPERS CS DDR dance revolution pack 3 NM SEQUENCE UNLIMITED Hareimu JBHyperion JBH ZiRoX Razor Sharp Arthas Sanyi Sinnoh BEAT EX
BeatmapID:1454883
BeatmapSetID:680437

[Difficulty]
HPDrainRate:5
CircleSize:4.3
OverallDifficulty:8.8
ApproachRate:8.8
SliderMultiplier:1.95
SliderTickRate:4

[Events]
//Background and Video events
0,0,"cropped-1920-1080-502977.jpg",0,0
//Break Periods
//Storyboard Layer 0 (Background)
//Storyboard Layer 1 (Fail)
//Storyboard Layer 2 (Pass)
//Storyboard Layer 3 (Foreground)
//Storyboard Sound Samples

[TimingPoints]
104,600,4,2,1,95,1,0
104,-100,4,2,1,95,0,0
9704,545.454545454546,4,1,1,60,1,0
13385,-100,4,1,1,60,0,0
13454,-100,4,1,1,5,0,0
13794,-100,4,1,1,60,0,0
17817,-100,4,1,1,5,0,0
18431,521.739130434783,4,1,1,70,1,1
18431,-83.3333333333333,4,1,1,70,0,1
22539,-83.3333333333333,4,2,1,95,0,1
22604,-83.3333333333333,4,2,1,95,0,0
22800,-83.3333333333333,4,1,1,70,0,0
22996,-83.3333333333333,4,1,1,70,0,1
26778,500,3,1,1,70,1,0
32778,521.739130434783,3,1,1,70,1,1
32778,-76.9230769230769,6,1,1,70,0,1
39038,600,4,1,1,70,1,0
41438,-66.6666666666667,4,1,1,53,0,0
47588,-66.6666666666667,4,1,1,58,0,0
48038,-66.6666666666667,4,1,1,62,0,0
48638,545.454545454546,6,1,1,70,1,0
48638,-74.0740740740741,4,1,1,70,0,0
51433,-74.0740740740741,4,1,1,5,0,0
51910,-74.0740740740741,4,1,1,70,0,0
54842,-74.0740740740741,4,1,1,5,0,0
55182,-74.0740740740741,4,1,1,70,0,0
58251,-74.0740740740741,4,1,1,5,0,0
58456,600,4,1,1,70,1,0
59056,-66.6666666666667,4,1,1,63,0,0
59656,-66.6666666666667,4,1,1,56,0,0
60256,-66.6666666666667,4,1,1,49,0,0
63106,-66.6666666666667,4,2,1,78,0,0
67456,-66.6666666666667,4,2,1,54,0,0
68056,545.454545454546,4,1,1,21,1,0
68874,-100,4,3,1,50,0,0
69010,-100,4,1,1,65,0,0
69146,545.454545454546,6,1,1,65,1,0
69146,-74.0740740740741,4,1,1,65,0,0
70783,-74.0740740740741,4,1,1,80,0,0
75351,-74.0740740740741,4,1,1,5,0,0
75554,-74.0740740740741,4,1,1,80,0,0
77533,-74.0740740740741,4,1,1,5,0,0
77871,-74.0740740740741,4,1,1,80,0,0
79987,-74.0740740740741,4,1,1,5,0,0
80327,-74.0740740740741,4,1,1,85,0,0
80533,-74.0740740740741,4,1,1,5,0,0
80872,-74.0740740740741,4,1,1,90,0,0
81010,-74.0740740740741,4,1,1,95,0,0
81078,-74.0740740740741,4,1,1,5,0,0
81351,-74.0740740740741,4,1,1,95,0,0
81624,-74.0740740740741,4,2,1,90,0,0
82237,500,4,1,1,65,1,0
82237,-74.0740740740741,4,1,1,65,0,0
85674,-74.0740740740741,4,1,1,5,0,0
86049,-74.0740740740741,4,1,1,65,0,0
86237,480,4,1,1,65,1,0
86357,-74.0740740740741,4,1,1,65,0,0
89537,-74.0740740740741,4,1,1,5,0,0
90077,461.538461538462,4,1,1,75,1,1
90077,-74.0740740740741,4,1,1,75,0,1
93769,444.444444444444,4,2,1,79,1,0
93769,-74.0740740740741,4,2,1,79,0,0
94102,-74.0740740740741,4,1,1,80,0,1
95490,-74.0740740740741,4,1,1,85,0,1
97213,-74.0740740740741,4,1,1,85,0,0
97322,-83.3333333333333,4,1,1,70,0,0
101102,-83.3333333333333,4,1,1,5,0,0

[Colours]
Combo1 : 255,255,175
Combo2 : 0,64,128
Combo3 : 0,128,128
Combo4 : 213,85,43

[HitObjects]
131,278,104,5,0,1:0:0:0:
281,223,404,2,0,L|291:154,1,48.75,2|0,0:0|0:0,0:0:0:0:
141,151,854,2,0,L|131:93,1,48.75,2|0,0:0|0:0,0:0:0:0:
350,85,1304,6,0,L|431:75,2,48.75,0|0|2,0:0|0:0|0:0,0:0:0:0:
226,147,1904,2,0,L|234:263,1,97.5,2|0,2:0|1:0,0:0:0:0:
468,319,2504,5,0,1:3:0:0:
295,268,2804,2,0,L|246:280,1,48.75,2|0,0:0|0:0,0:0:0:0:
384,167,3254,2,0,L|434:176,1,48.75,2|0,0:0|0:0,0:0:0:0:
202,186,3704,6,0,L|198:122,1,48.75,0|0,0:0|0:0,0:0:0:0:
279,89,4004,1,2,0:0:0:0:
150,300,4304,2,0,L|10:298,1,97.5,2|0,0:0|1:0,0:0:0:0:
342,341,4904,5,0,1:3:0:0:
226,263,5204,2,0,L|246:215,1,48.75,2|0,0:0|0:0,0:0:0:0:
444,183,5654,2,0,L|430:134,1,48.75,2|0,0:0|0:0,0:0:0:0:
230,90,6104,5,0,0:0:0:0:
181,95,6254,1,0,0:0:0:0:
133,100,6404,1,2,2:0:0:0:
317,255,6704,2,0,L|329:153,1,97.5,2|0,0:0|1:0,0:0:0:0:
131,232,7304,5,0,1:3:0:0:
304,342,7604,2,0,L|243:343,1,48.75,2|0,0:0|0:0,0:0:0:0:
72,254,8054,2,0,L|141:250,1,48.75,2|0,0:0|0:0,0:0:0:0:
365,250,8504,6,0,L|373:192,1,48.75,0|2,0:0|0:0,0:0:0:0:
484,186,8804,2,0,L|493:124,1,48.75,0|0,0:0|3:0,0:0:0:0:
273,154,9104,2,0,L|268:84,1,48.75,0|0,3:0|0:0,0:0:0:0:
376,92,9404,2,0,L|372:34,1,48.75,0|0,0:0|0:0,0:0:0:0:
127,101,9704,5,8,0:3:0:0:
53,138,9840,1,0,0:0:0:0:
56,210,9976,1,0,0:0:0:0:
125,253,10113,1,0,0:0:0:0:
415,283,10249,1,4,0:0:0:0:
269,332,10522,2,0,L|262:264,1,48.75,0|0,0:0|0:0,0:0:0:0:
359,228,10794,6,0,L|423:221,2,48.75,0|0|0,0:0|0:0|0:0,0:0:0:0:
188,248,11204,1,0,0:0:0:0:
330,157,11476,2,0,L|325:77,1,48.75,0|0,0:0|0:0,0:0:0:0:
230,86,11749,1,0,0:0:0:0:
458,292,11885,6,0,L|473:221,1,48.75,0|0,0:0|0:0,0:0:0:0:
366,232,12158,2,0,L|295:221,1,48.75,0|0,0:0|0:0,0:0:0:0:
59,202,12431,1,4,0:0:0:0:
205,266,12704,2,0,L|214:202,1,48.75,0|0,0:0|0:0,0:0:0:0:
130,160,12976,2,0,L|136:108,1,48.75,0|0,0:0|0:0,0:0:0:0:
235,81,13249,1,0,0:0:0:0:
461,51,13385,6,0,L|462:234,1,146.25,0|0,0:0|0:0,0:0:0:0:
249,314,13931,5,4,0:2:0:0:
135,298,14067,2,0,L|135:231,1,48.75,0|0,0:0|0:0,0:0:0:0:
242,182,14340,1,0,0:0:0:0:
37,147,14476,1,0,0:0:0:0:
131,146,14613,1,0,0:0:0:0:
37,147,14749,1,0,0:0:0:0:
131,146,14885,1,0,0:0:0:0:
274,114,15022,6,0,L|350:113,1,48.75,0|0,0:0|0:0,0:0:0:0:
202,62,15294,2,0,L|140:62,1,48.75,0|0,0:0|0:0,0:0:0:0:
432,278,15567,2,0,L|440:133,1,97.5,0|0,0:0|0:0,0:0:0:0:
323,157,15976,1,0,0:0:0:0:
448,82,16113,1,0,0:0:0:0:
172,274,16249,6,0,L|95:274,1,48.75,0|0,0:0|0:0,0:0:0:0:
235,328,16522,2,0,L|307:328,1,48.75,0|0,0:0|0:0,0:0:0:0:
60,347,16794,1,0,0:0:0:0:
256,261,17067,2,0,L|263:198,1,48.75,0|0,0:0|0:0,0:0:0:0:
362,198,17340,2,0,L|375:122,1,48.75,0|0,0:0|0:0,0:0:0:0:
467,117,17613,1,0,0:0:0:0:
245,89,17749,2,0,L|73:88,1,146.25,0|0,0:0|0:0,0:0:0:0:
173,137,18294,1,0,0:0:0:0:
410,212,18431,6,0,L|499:212,2,58.4999982147217,4|0|0,0:2|0:0|0:0,0:0:0:0:
141,303,18822,2,0,L|326:303,1,175.499994644165,2|0,0:0|0:0,0:0:0:0:
208,254,19344,2,0,L|197:192,1,58.4999982147217,0|0,0:0|0:0,0:0:0:0:
422,164,19604,2,0,L|434:91,1,58.4999982147217,2|2,0:0|0:0,0:0:0:0:
276,114,19996,2,0,L|127:112,1,116.999996429443,2|2,0:0|0:0,0:0:0:0:
73,109,20387,1,0,0:0:0:0:
310,244,20517,6,0,L|411:248,2,58.4999982147217,0|0|0,0:0|0:0|0:0,0:0:0:0:
75,341,20909,2,0,P|62:267|155:203,1,175.499994644165,2|0,0:0|0:0,0:0:0:0:
251,200,21431,2,0,L|321:201,1,58.4999982147217,0|0,0:0|0:0,0:0:0:0:
78,99,21691,2,0,L|67:39,1,58.4999982147217,2|2,0:0|0:0,0:0:0:0:
228,71,22083,2,0,L|382:63,1,116.999996429443,2|2,0:0|0:0,0:0:0:0:
168,235,22604,5,2,0:0:0:0:
165,176,22734,1,0,0:0:0:0:
163,118,22864,1,2,0:0:0:0:
439,272,22996,6,0,L|237:273,1,175.499994644165,4|0,0:2|0:0,0:0:0:0:
157,284,23517,2,0,L|233:284,1,58.4999982147217,0|0,0:0|0:0,0:0:0:0:
457,345,23778,2,0,L|393:345,1,58.4999982147217,2|2,0:0|0:0,0:0:0:0:
229,357,24170,2,0,L|67:357,1,116.999996429443,2|2,0:0|0:0,0:0:0:0:
171,324,24561,1,0,0:0:0:0:
432,261,24691,6,0,L|439:195,1,58.4999982147217,4|0,0:0|0:0,0:0:0:0:
358,163,24952,1,0,0:0:0:0:
121,216,25083,2,0,P|99:140|189:81,1,175.499994644165,2|0,0:0|0:0,0:0:0:0:
285,53,25604,2,0,L|273:131,1,58.4999982147217,0|0,0:0|0:0,0:0:0:0:
68,218,25865,2,0,L|62:285,1,58.4999982147217,2|2,0:0|0:0,0:0:0:0:
246,280,26257,2,0,L|415:278,1,116.999996429443,2|2,0:0|0:0,0:0:0:0:
452,275,26648,1,0,0:0:0:0:
137,356,26778,6,0,L|129:288,1,48.75,4|0,0:2|2:0,0:0:0:0:
230,263,27028,2,0,L|241:205,1,48.75,0|0,0:0|2:0,0:0:0:0:
116,147,27278,2,0,L|256:141,2,97.5,0|0|0,3:3|0:0|0:0,0:0:0:0:
349,144,28028,1,0,0:0:0:0:
177,95,28278,6,0,L|179:154,1,48.75,4|0,0:2|3:0,0:0:0:0:
281,197,28528,2,0,L|364:212,1,48.75,0|0,0:0|2:0,0:0:0:0:
199,248,28778,2,0,L|60:258,2,97.5,0|0|0,0:0|0:0|3:0,0:0:0:0:
393,239,29528,1,0,1:0:0:0:
133,347,29778,6,0,L|123:285,1,48.75,4|0,0:2|0:0,0:0:0:0:
223,254,30028,2,0,L|215:200,1,48.75,0|0,0:0|3:0,0:0:0:0:
94,175,30278,2,0,L|215:159,2,97.5,0|0|0,0:0|0:0|3:0,0:0:0:0:
316,211,31028,1,0,0:0:0:0:
187,314,31278,5,4,3:2:0:0:
206,232,31403,1,0,3:0:0:0:
282,195,31528,1,0,0:0:0:0:
367,193,31653,1,0,0:0:0:0:
258,137,31778,2,0,L|122:139,2,97.5,0|0|0,3:0|0:0|3:0,0:0:0:0:
431,208,32528,2,0,L|439:143,1,48.75,0|0,0:0|0:0,0:0:0:0:
224,272,32778,6,0,L|160:272,2,63.3749970989229,4|0|0,0:2|0:0|0:0,0:0:0:0:
352,88,33169,2,0,L|416:88,2,63.3749970989229
128,168,33560,2,0,L|64:168,1,63.3749970989229,0|0,0:0|0:0,0:0:0:0:
288,56,33821,2,0,L|352:56,1,63.3749970989229,0|0,0:0|0:0,0:0:0:0:
128,144,34082,2,0,L|64:144,1,63.3749970989229,0|0,0:0|0:0,0:0:0:0:
288,264,34343,5,2,0:2:0:0:
352,248,34473,1,0,0:0:0:0:
416,264,34604,1,0,3:0:0:0:
192,104,34734,1,2,0:2:0:0:
128,64,34864,1,0,0:0:0:0:
192,24,34995,1,0,3:0:0:0:
416,264,35125,5,2,0:2:0:0:
464,216,35256,1,0,3:0:0:0:
480,152,35386,1,0,3:0:0:0:
464,88,35517,1,0,0:0:0:0:
416,40,35647,1,2,3:2:0:0:
352,24,35778,1,0,3:1:0:0:
128,304,35908,6,0,L|192:304,1,63.3749970989229,4|0,0:2|0:0,0:0:0:0:
288,232,36169,2,0,L|224:232,1,63.3749970989229,0|0,0:0|0:0,0:0:0:0:
128,160,36430,2,0,L|192:160,1,63.3749970989229,0|0,3:0|3:0,0:0:0:0:
416,152,36691,2,0,L|480:152,2,63.3749970989229,0|0|0,0:2|0:0|3:0,0:0:0:0:
192,88,37082,2,0,L|128:88,1,63.3749970989229,0|0,3:0|0:0,0:0:0:0:
64,48,37343,1,0,0:0:0:0:
288,304,37473,5,4,0:2:0:0:
352,304,37604,1,0,0:0:0:0:
416,304,37734,1,0,0:0:0:0:
336,232,37864,1,4,0:2:0:0:
416,232,37995,1,0,3:0:0:0:
352,160,38125,1,0,3:0:0:0:
128,160,38256,5,4,0:2:0:0:
64,160,38386,1,0,0:0:0:0:
128,232,38517,1,0,0:0:0:0:
208,232,38647,1,4,0:2:0:0:
128,304,38778,1,0,3:0:0:0:
192,304,38908,1,0,3:0:0:0:
384,64,39038,1,4,0:2:0:0:
256,192,39338,12,0,41138,0:0:0:0:
320,200,41438,6,0,L|168:200,3,146.250005578995,0|0|0|0,0:0|3:0|0:0|3:0,0:0:0:0:
400,104,42638,2,0,L|248:104,1,146.250005578995,2|0,1:3|3:0,0:0:0:0:
144,104,43088,2,0,L|296:104,1,146.250005578995,0|0,3:0|3:0,0:0:0:0:
400,192,43538,2,0,L|320:192,1,73.1250027894975,0|0,3:0|3:0,0:0:0:0:
104,216,43838,6,0,L|24:216,2,73.1250027894975,0|0|0,0:0|3:0|3:0,0:0:0:0:
320,272,44438,2,0,L|400:272,2,73.1250027894975,0|0|0,0:0|3:0|3:0,0:0:0:0:
96,144,45038,2,0,L|176:144,1,73.1250027894975,0|0,0:0|3:0,0:0:0:0:
240,144,45338,1,0,3:0:0:0:
464,136,45638,2,0,L|384:136,1,73.1250027894975,0|0,0:0|3:0,0:0:0:0:
320,136,45938,1,0,3:0:0:0:
104,264,46238,6,0,L|112:192,1,73.1250027894975,0|0,0:0|3:0,0:0:0:0:
264,320,46538,2,0,L|256:168,1,146.250005578995,0|0,0:0|0:0,0:0:0:0:
144,88,46988,1,0,3:0:0:0:
288,48,47138,2,0,L|440:48,1,146.250005578995,0|0,0:0|0:0,0:0:0:0:
336,144,47588,5,0,3:0:0:0:
264,168,47738,1,0,0:0:0:0:
336,160,47888,1,0,3:0:0:0:
264,152,48038,1,0,0:0:0:0:
336,176,48188,1,0,0:0:0:0:
264,136,48338,1,0,0:0:0:0:
336,192,48488,1,0,0:0:0:0:
80,232,48638,6,0,L|8:232,1,65.8125002510548,4|2,0:2|1:0,0:0:0:0:
144,296,48910,2,0,L|216:296,1,65.8125002510548,0|2,0:0|0:0,0:0:0:0:
80,152,49183,2,0,L|216:152,1,131.62500050211
312,112,49592,2,0,L|320:40,1,65.8125002510548,2|0,0:0|0:0,0:0:0:0:
184,296,49865,2,0,L|176:224,1,65.8125002510548,2|0,0:0|0:0,0:0:0:0:
312,256,50138,2,0,L|320:184,1,65.8125002510548,2|0,0:0|0:0,0:0:0:0:
88,176,50410,6,2,P|48:128|88:80,1,131.62500050211,2|2,0:0|0:0,0:0:0:0:
216,96,50819,2,0,L|288:96,1,65.8125002510548,0|2,0:0|0:0,0:0:0:0:
152,248,51092,2,0,L|80:248,1,65.8125002510548,0|0,0:0|0:0,0:0:0:0:
320,304,51365,2,0,L|320:104,1,197.437500753164,0|0,0:0|0:0,0:0:0:0:
184,136,51910,6,0,L|112:136,2,65.8125002510548,0|2|0,0:0|0:0|0:0,0:0:0:0:
416,192,52319,2,2,P|456:144|416:96,1,131.62500050211,2|0,0:0|0:0,0:0:0:0:
184,304,52728,2,2,P|144:256|184:208,1,131.62500050211,2|0,1:0|0:0,0:0:0:0:
280,224,53138,5,2,0:0:0:0:
184,136,53274,2,0,L|192:64,1,65.8125002510548,2|0,0:0|0:0,0:0:0:0:
320,144,53547,2,0,L|248:144,2,65.8125002510548,0|2|0,0:0|0:0|0:0,0:0:0:0:
88,256,53956,2,2,P|48:208|88:160,1,131.62500050211,2|0,0:0|0:0,0:0:0:0:
216,208,54365,1,2,0:0:0:0:
152,208,54501,1,0,0:0:0:0:
88,208,54638,1,0,0:0:0:0:
416,304,54774,2,2,P|456:256|416:208,1,131.62500050211,4|0,0:2|0:0,0:0:0:0:
288,160,55183,5,4,0:2:0:0:
192,136,55319,1,2,0:0:0:0:
288,88,55456,1,0,0:0:0:0:
416,64,55592,2,0,L|272:64,1,131.62500050211,0|0,0:0|0:0,0:0:0:0:
184,64,56001,1,0,0:0:0:0:
384,144,56138,1,2,0:0:0:0:
488,224,56274,6,0,L|344:224,1,131.62500050211,0|0,0:0|0:0,0:0:0:0:
256,264,56683,1,2,0:0:0:0:
352,304,56819,2,0,L|424:304,2,65.8125002510548,0|2|0,0:0|0:0|0:0,0:0:0:0:
152,48,57228,1,2,0:0:0:0:
48,128,57365,2,0,L|184:128,1,131.62500050211,2|2,0:0|0:0,0:0:0:0:
384,176,57910,1,2,0:0:0:0:
152,328,58047,2,0,P|88:272|152:208,1,197.437500753164,4|4,0:2|3:2,0:0:0:0:
344,200,59056,5,0,3:0:0:0:
144,192,59656,1,0,3:0:0:0:
160,120,59806,1,0,3:0:0:0:
176,48,59956,1,0,3:0:0:0:
328,240,60256,2,0,L|320:88,1,146.250005578995,0|0,0:0|0:0,0:0:0:0:
96,192,60856,5,0,0:0:0:0:
248,240,61156,2,0,L|256:160,1,73.1250027894975,0|0,3:0|3:0,0:0:0:0:
104,112,61606,2,0,L|96:32,1,73.1250027894975,0|0,3:0|3:0,0:0:0:0:
320,80,62056,1,0,3:0:0:0:
248,80,62206,1,0,3:0:0:0:
176,80,62356,1,2,3:2:0:0:
320,152,62656,1,0,0:0:0:0:
176,176,62956,1,0,0:0:0:0:
392,272,63256,6,0,L|384:192,1,73.1250027894975,4|0,0:0|0:0,0:0:0:0:
272,272,63556,2,0,L|264:192,1,73.1250027894975,2|0,0:0|0:0,0:0:0:0:
120,248,63856,2,0,L|128:176,1,73.1250027894975,0|0,1:0|0:0,0:0:0:0:
240,136,64156,2,0,L|248:64,1,73.1250027894975,2|0,0:0|0:0,0:0:0:0:
392,112,64456,6,0,L|312:112,3,73.1250027894975,0|0|2|0,1:0|0:0|0:0|0:0,0:0:0:0:
168,320,65056,2,0,L|88:320,3,73.1250027894975,0|0|0|0,1:0|0:0|1:0|1:0,0:0:0:0:
352,232,65656,6,0,L|432:232,1,73.1250027894975,4|0,0:0|0:0,0:0:0:0:
280,176,65956,2,0,L|200:176,1,73.1250027894975,2|0,0:0|0:0,0:0:0:0:
352,328,66256,1,0,1:0:0:0:
416,288,66406,1,0,0:0:0:0:
416,216,66556,1,2,0:0:0:0:
352,176,66706,1,0,0:0:0:0:
208,96,66856,6,0,L|128:96,1,73.1250027894975,0|0,1:0|0:0,0:0:0:0:
264,40,67156,2,0,L|337:40,1,73.1250027894975,2|0,0:0|0:0,0:0:0:0:
192,248,67456,2,0,L|104:248,1,73.1250027894975,0|2,1:0|1:0,0:0:0:0:
376,208,67756,2,0,L|456:208,1,73.1250027894975,0|2,1:0|1:0,0:0:0:0:
72,168,68056,1,0,3:0:0:0:
352,296,69146,6,0,L|336:224,1,65.8125002510548,0|2,0:0|0:0,0:0:0:0:
472,232,69419,2,0,L|488:160,1,65.8125002510548,0|2,0:0|0:0,0:0:0:0:
280,152,69692,2,0,L|136:152,1,131.62500050211,0|0,0:0|0:0,0:0:0:0:
280,88,70101,2,0,L|376:88,1,65.8125002510548,2|0,0:0|0:0,0:0:0:0:
216,184,70374,6,0,L|144:184,1,65.8125002510548,2|0,0:0|0:0,0:0:0:0:
272,184,70646,1,2,0:0:0:0:
56,184,70783,1,0,0:0:0:0:
160,184,71056,2,0,L|232:184,1,65.8125002510548,0|0,0:0|0:0,0:0:0:0:
336,240,71327,2,0,L|264:240,1,65.8125002510548,0|2,0:0|0:0,0:0:0:0:
152,240,71600,2,0,L|80:240,1,65.8125002510548,0|2,0:0|0:0,0:0:0:0:
176,240,71874,1,0,0:0:0:0:
432,240,72010,2,0,P|472:280|416:320,1,131.62500050211,4|0,0:2|2:0,0:0:0:0:
200,320,72418,6,0,L|128:320,2,65.8125002510548,0|2|0,0:0|0:0|0:0,0:0:0:0:
416,320,72828,2,0,L|496:320,1,65.8125002510548,2|0,0:0|0:0,0:0:0:0:
232,320,73101,1,2,0:0:0:0:
144,320,73374,1,0,0:0:0:0:
352,328,73510,6,0,L|432:328,1,65.8125002510548,0|2,0:0|0:0,0:0:0:0:
288,264,73783,2,0,L|192:264,1,65.8125002510548,0|0,0:0|0:0,0:0:0:0:
352,184,74056,2,0,L|424:184,2,65.8125002510548,0|2|0,0:0|0:0|0:0,0:0:0:0:
104,176,74601,6,0,L|80:248,1,65.8125002510548,0|2,0:0|0:0,0:0:0:0:
216,248,74874,2,0,L|288:248,2,65.8125002510548,0|2|0,0:0|0:0|0:0,0:0:0:0:
360,320,75556,1,4,0:2:0:0:
152,320,75692,2,0,L|40:320,1,65.8125002510548,0|2,0:0|0:0,0:0:0:0:
200,248,75965,2,0,L|136:192,1,65.8125002510548,0|2,0:0|0:0,0:0:0:0:
352,248,76237,1,0,0:0:0:0:
248,320,76510,2,0,L|136:320,1,65.8125002510548,0|2,0:0|0:0,0:0:0:0:
296,248,76783,6,0,L|232:192,1,65.8125002510548,0|0,0:0|0:0,0:0:0:0:
448,248,77055,1,2,0:0:0:0:
344,160,77328,2,0,L|256:160,1,65.8125002510548,0|2,0:0|0:0,0:0:0:0:
72,192,77874,2,0,L|144:192,2,65.8125002510548,2|0|2,0:0|0:0|0:0,0:0:0:0:
312,192,78419,1,0,0:0:0:0:
88,192,78556,1,4,0:2:0:0:
312,192,78965,6,0,L|400:192,2,65.8125002510548,2|0|0,0:0|0:0|0:0,0:0:0:0:
168,192,79374,2,0,L|80:192,2,65.8125002510548,2|0|0,0:0|0:0|0:0,0:0:0:0:
232,192,79783,1,2,0:0:0:0:
440,192,79919,2,0,P|488:272|400:328,1,197.437500753164,4|0,0:2|0:0,0:0:0:0:
160,192,80465,6,0,P|80:232|112:328,1,197.437500753164,4|0,0:2|0:0,0:0:0:0:
411,321,81010,2,0,P|448:280|360:200,1,197.437500753164,4|0,0:0|0:0,0:0:0:0:
120,200,81692,2,0,L|32:200,2,87.7500003347397,2|0|2,0:0|0:0|0:0,0:0:0:0:
416,208,82237,6,0,L|448:296,1,65.8125002510548,8|0,0:3|0:0,0:0:0:0:
320,272,82487,2,0,L|304:352,1,65.8125002510548,0|0,0:0|0:0,0:0:0:0:
416,344,82737,2,0,P|464:272|424:200,1,131.62500050211,0|0,0:0|0:0,0:0:0:0:
368,176,83112,1,0,0:0:0:0:
152,168,83237,6,0,L|80:168,2,65.8125002510548,0|0|0,0:0|0:0|0:0,0:0:0:0:
304,176,83612,2,0,P|344:224|288:264,1,131.62500050211,0|0,0:0|0:0,0:0:0:0:
168,272,83987,2,0,L|64:272,1,65.8125002510548,0|0,3:0|3:0,0:0:0:0:
344,280,84237,6,0,L|432:280,1,65.8125002510548,0|0,0:0|0:0,0:0:0:0:
288,216,84487,2,0,L|208:216,1,65.8125002510548,0|0,0:0|0:0,0:0:0:0:
360,216,84737,2,0,P|456:176|464:136,1,131.62500050211,0|0,0:0|3:0,0:0:0:0:
384,96,85112,1,0,3:0:0:0:
240,96,85237,2,0,L|168:96,1,65.8125002510548,0|0,0:2|0:0,0:0:0:0:
248,96,85487,1,0,0:0:0:0:
456,96,85612,1,0,0:0:0:0:
328,96,86112,1,4,0:0:0:0:
112,96,86237,6,0,L|72:176,1,48.75,4|0,0:2|0:0,0:0:0:0:
216,152,86477,2,0,L|232:224,1,65.8125002510548,0|0,0:0|0:0,0:0:0:0:
360,216,86717,2,0,P|384:280|336:352,1,131.62500050211,0|0,0:0|0:0,0:0:0:0:
256,336,87077,1,0,0:0:0:0:
160,336,87197,6,0,L|88:336,2,65.8125002510548,0|0|0,0:0|0:0|0:0,0:0:0:0:
296,336,87557,2,0,L|432:336,1,131.62500050211,0|0,0:0|0:0,0:0:0:0:
296,336,87917,2,0,L|200:336,1,65.8125002510548,0|0,0:0|0:0,0:0:0:0:
40,336,88157,6,0,L|16:240,1,65.8125002510548,0|0,0:0|0:0,0:0:0:0:
152,272,88397,2,0,L|256:272,1,65.8125002510548,0|0,0:0|0:0,0:0:0:0:
80,272,88637,2,0,P|24:208|56:112,1,131.62500050211,0|0,0:0|0:0,0:0:0:0:
112,120,88997,1,0,0:0:0:0:
248,120,89117,2,0,L|320:120,1,65.8125002510548,0|0,0:0|0:0,0:0:0:0:
394,120,89357,1,0,0:0:0:0:
136,120,89477,1,0,0:0:0:0:
328,128,90077,6,0,L|416:128,2,65.8125002510548,0|0|0,0:3|0:0|0:0,0:0:0:0:
104,136,90423,2,0,P|56:192|136:280,1,197.437500753164,2|0,0:0|0:0,0:0:0:0:
224,288,90884,1,0,0:0:0:0:
336,288,91000,2,0,L|360:192,1,65.8125002510548,0|2,0:0|0:0,0:0:0:0:
144,192,91230,1,2,0:0:0:0:
304,152,91461,1,2,0:0:0:0:
72,112,91692,1,2,0:0:0:0:
400,112,91923,6,0,L|472:112,2,65.8125002510548,0|0|0,0:0|0:0|0:0,0:0:0:0:
224,112,92269,2,0,L|16:112,1,197.437500753164,2|0,0:0|0:0,0:0:0:0:
128,112,92730,1,0,0:0:0:0:
224,112,92846,2,0,L|304:112,1,65.8125002510548,0|2,0:0|0:0,0:0:0:0:
384,112,93077,1,2,0:0:0:0:
48,112,93307,1,2,0:0:0:0:
248,112,93538,1,2,0:0:0:0:
464,112,93769,1,2,0:0:0:0:
496,166,93880,1,0,0:0:0:0:
472,225,93991,1,2,1:0:0:0:
224,224,94102,6,0,P|136:272|224:312,1,197.437500753164,8|0,0:3|0:0,0:0:0:0:
272,328,94547,1,0,0:0:0:0:
360,328,94658,2,0,L|448:328,2,65.8125002510548,0|2|2,0:0|0:0|0:0,0:0:0:0:
136,320,95103,1,2,0:0:0:0:
360,328,95325,1,2,0:0:0:0:
112,320,95547,2,0,L|32:320,2,65.8125002510548,0|0|0,0:0|0:0|0:0,0:0:0:0:
280,320,95880,6,0,P|344:256|288:208,1,131.62500050211,2|0,0:0|0:0,0:0:0:0:
248,200,96214,2,0,L|168:200,1,65.8125002510548,0|0,0:0|0:0,0:0:0:0:
96,200,96436,2,0,L|24:200,1,65.8125002510548,0|2,0:0|0:0,0:0:0:0:
304,200,96658,2,0,L|480:200,1,131.62500050211,2|4,0:0|0:2,0:0:0:0:
128,200,97103,1,4,0:0:0:0:
304,112,97547,5,4,0:2:0:0:
120,128,98214,1,4,0:0:0:0:
392,128,99103,1,4,0:0:0:0:
256,192,99325,12,0,101103,0:0:0:0:
