osu file format v14

[General]
AudioFilename: audio.mp3
AudioLeadIn: 0
PreviewTime: 29
Countdown: 0
SampleSet: Normal
StackLeniency: 0.7
Mode: 2
LetterboxInBreaks: 0
WidescreenStoryboard: 0

[Editor]
DistanceSpacing: 4
BeatDivisor: 4
GridSize: 32
TimelineZoom: 1.8

[Metadata]
Title:Pluto
TitleUnicode:Pluto
Artist:Black Hole
ArtistUnicode:Black∞Hole
Creator:Ascendance
Version:Challenge
Source:DanceDanceRevolution SuperNOVA 2
Tags:beatmania IIDX 15 DJ TROOPERS CS DDR dance revolution pack 3 NM SEQUENCE UNLIMITED Hareimu JBHyperion JBH ZiRoX Razor Sharp Arthas Sanyi Sinnoh BEAT EX
BeatmapID:1438740
BeatmapSetID:680437

[Difficulty]
HPDrainRate:7
CircleSize:5.5
OverallDifficulty:9.5
ApproachRate:9.5
SliderMultiplier:1.96
SliderTickRate:4

[Events]
//Background and Video events
0,0,"cropped-1920-1080-502977.jpg",0,0
//Break Periods
//Storyboard Layer 0 (Background)
//Storyboard Layer 1 (Fail)
//Storyboard Layer 2 (Pass)
//Storyboard Layer 3 (Foreground)
//Storyboard Sound Samples

[TimingPoints]
104,600,4,2,1,70,1,0
104,-100,4,2,1,70,0,0
9704,545.454545454546,4,1,1,60,1,0
9704,-66.6666666666667,4,1,1,60,0,0
13385,-100,4,1,1,60,0,0
13454,-100,4,1,1,5,0,0
13794,-100,4,1,1,60,0,0
13931,-66.6666666666667,4,1,1,60,0,0
17749,-66.6666666666667,4,1,1,60,0,0
17817,-100,4,1,1,5,0,0
18431,521.739130434783,4,1,1,70,1,1
18431,-50,4,1,1,70,0,1
22539,-100,4,2,1,95,0,1
22604,-100,4,2,1,95,0,0
22800,-100,4,1,1,70,0,0
22965,-100,4,1,1,70,0,0
22996,-50,4,1,1,70,0,1
26778,500,3,1,1,70,1,0
26778,-100,3,1,1,70,0,0
32778,521.739130434783,3,1,1,70,1,1
32778,-71.4285714285714,3,1,1,70,0,1
39038,600,4,1,1,70,1,0
41438,-100,4,1,1,53,0,0
47588,-100,4,1,1,58,0,0
48038,-100,4,1,1,62,0,0
48638,545.454545454546,6,1,1,70,1,0
48638,-100,6,1,1,70,0,0
51365,-100,6,1,1,70,0,0
51433,-100,6,1,1,5,0,0
51910,-100,6,1,1,70,0,0
54773,-100,6,1,1,70,0,0
54842,-100,6,1,1,5,0,0
55182,-100,6,1,1,70,0,0
58251,-100,6,1,1,5,0,0
58456,600,4,1,1,70,1,0
58456,-100,4,1,1,70,0,0
59056,-100,4,1,1,63,0,0
59656,-100,4,1,1,56,0,0
60256,-100,4,1,1,49,0,0
63106,-100,4,2,1,78,0,0
67456,-100,4,2,1,54,0,0
68056,545.454545454546,4,1,1,21,1,0
68156,-100,4,1,1,21,0,0
68874,-100,4,3,1,50,0,0
69010,-100,4,1,1,65,0,0
69146,545.454545454546,6,1,1,65,1,0
70783,-100,6,1,1,80,0,0
71056,-100,6,1,1,80,0,0
71737,-100,6,1,1,80,0,0
72419,-100,6,1,1,80,0,0
73100,-100,6,1,1,80,0,0
73373,-100,6,1,1,80,0,0
74327,-100,6,1,1,80,0,0
74600,-100,6,1,1,80,0,0
75145,-100,6,1,1,80,0,0
75351,-100,6,1,1,5,0,0
75554,-100,6,1,1,80,0,0
76235,-100,6,1,1,80,0,0
76508,-100,6,1,1,80,0,0
77053,-100,6,1,1,80,0,0
77326,-100,6,1,1,80,0,0
77462,-100,6,1,1,80,0,0
77533,-100,6,1,1,5,0,0
77871,-100,6,1,1,80,0,0
78143,-100,6,1,1,80,0,0
78416,-100,6,1,1,80,0,0
78556,-100,6,1,1,80,0,0
78965,-100,6,1,1,80,0,0
79919,-100,6,1,1,80,0,0
79987,-100,6,1,1,5,0,0
80327,-100,6,1,1,85,0,0
80465,-100,6,1,1,85,0,0
80533,-100,6,1,1,5,0,0
80872,-100,6,1,1,90,0,0
81010,-100,6,1,1,95,0,0
81078,-100,6,1,1,5,0,0
81351,-100,6,1,1,95,0,0
81624,-100,6,2,1,90,0,0
81690,-100,6,2,1,90,0,0
82237,500,4,1,1,65,1,0
82237,-66.6666666666667,4,1,1,65,0,0
85612,-50,4,1,1,65,0,0
85674,-100,4,1,1,5,0,0
86049,-100,4,1,1,65,0,0
86237,480,4,1,1,65,1,0
86237,-50,4,1,1,65,0,0
89477,-50,4,1,1,65,0,0
89537,-50,4,1,1,5,0,0
90077,461.538461538462,4,1,1,75,1,1
90077,-50,4,1,1,75,0,1
93769,444.444444444444,4,2,1,80,1,0
93769,-50,4,2,1,80,0,0
93991,-100,4,1,1,80,0,0
94102,-50,4,1,1,80,0,1
95490,-50,4,1,1,85,0,1
96434,-50,4,1,1,85,0,1
96822,-50,4,1,1,85,0,1
97213,-100,4,1,1,85,0,0
97322,-100,4,1,1,70,0,0

[Colours]
Combo1 : 255,255,175
Combo2 : 0,64,128
Combo3 : 0,128,128
Combo4 : 213,85,43

[HitObjects]
159,272,104,5,0,1:0:0:0:
318,339,404,2,0,L|330:272,1,49,2|0,0:0|0:0,0:0:0:0:
165,218,854,2,0,L|157:161,1,49,2|0,0:0|0:0,0:0:0:0:
351,116,1304,2,0,L|434:122,2,49,0|0|2,0:0|0:0|0:0,0:0:0:0:
186,256,1904,2,0,L|300:246,1,98,2|0,2:0|1:0,0:0:0:0:
43,122,2504,5,0,1:3:0:0:
189,175,2804,2,0,L|201:234,1,49,2|0,0:0|0:0,0:0:0:0:
348,283,3254,2,0,L|343:341,1,49,2|0,0:0|0:0,0:0:0:0:
179,315,3704,2,0,L|110:320,2,49,0|0|2,0:0|0:0|0:0,0:0:0:0:
342,286,4304,2,0,L|449:298,1,98,2|0,0:0|1:0,0:0:0:0:
180,342,4904,5,0,1:3:0:0:
328,225,5204,2,0,L|268:220,1,49,2|0,0:0|0:0,0:0:0:0:
114,170,5654,2,0,L|199:161,1,49,2|0,0:0|0:0,0:0:0:0:
313,99,6104,2,0,L|403:117,2,49,0|0|2,0:0|0:0|2:0,0:0:0:0:
134,182,6704,2,0,L|123:71,1,98,2|0,0:0|1:0,2:0:0:0:
386,177,7304,5,0,1:3:0:0:
227,253,7604,2,0,L|240:327,1,49,2|0,0:0|0:0,0:0:0:0:
408,273,8054,2,0,L|348:285,1,49,2|0,0:0|0:0,0:0:0:0:
121,261,8504,5,0,0:0:0:0:
258,214,8654,2,0,L|268:161,1,49,2|0,0:0|0:0,0:0:0:0:
42,129,8954,2,0,L|36:62,1,49,0|0,3:0|3:0,3:0:0:0:
164,40,9254,1,0,0:0:0:0:
41,77,9404,1,0,0:0:0:0:
413,250,9704,6,0,L|499:246,1,73.5000028038026,8|0,0:3|0:0,0:0:0:0:
353,195,9976,1,0,0:0:0:0:
463,189,10113,1,0,0:0:0:0:
181,316,10249,2,0,L|176:162,1,147.000005607605,4|0,0:0|0:0,0:0:0:0:
295,234,10658,1,0,0:0:0:0:
81,261,10794,5,0,0:0:0:0:
158,213,10931,1,0,0:0:0:0:
156,141,11067,1,0,0:0:0:0:
78,97,11204,1,0,0:0:0:0:
315,261,11340,5,0,0:0:0:0:
238,213,11476,1,0,0:0:0:0:
240,141,11613,1,0,0:0:0:0:
317,97,11749,1,0,0:0:0:0:
240,141,11885,6,0,L|123:136,1,73.5000028038026
301,248,12158,2,0,L|312:155,1,73.5000028038026
181,210,12431,1,4,0:0:0:0:
301,249,12567,1,0,0:0:0:0:
104,307,12704,2,0,L|10:313,1,73.5000028038026
270,338,12976,6,0,L|369:343,1,73.5000028038026
192,373,13249,1,0,0:0:0:0:
443,294,13385,2,0,P|481:234|421:172,1,147
241,132,13931,6,0,L|158:138,2,73.5000028038026,4|0|0,0:2|0:0|0:0,0:0:0:0:
374,200,14340,2,0,L|387:98,1,73.5000028038026
187,203,14613,2,0,L|91:199,2,73.5000028038026
309,214,15022,1,0,0:0:0:0:
108,337,15158,6,0,L|101:245,1,73.5000028038026
236,234,15431,1,0,0:0:0:0:
33,168,15567,1,0,0:0:0:0:
453,98,15840,1,0,0:0:0:0:
341,109,15976,1,0,0:0:0:0:
453,98,16113,1,0,0:0:0:0:
237,277,16249,6,0,L|223:168,1,73.5000028038026
338,209,16522,2,0,L|429:198,1,73.5000028038026
293,143,16794,1,0,0:0:0:0:
391,128,16931,1,0,0:0:0:0:
109,166,17067,2,0,L|101:68,1,73.5000028038026
364,239,17340,5,0,0:0:0:0:
263,251,17476,1,0,0:0:0:0:
162,262,17613,1,0,0:0:0:0:
383,340,17749,2,0,L|78:323,1,294.00001121521
361,252,18431,6,0,L|372:137,1,98,4|0,0:2|0:0,0:0:0:0:
118,197,18691,1,0,0:0:0:0:
347,62,18822,2,0,L|123:71,1,196,2|0,0:0|0:0,0:0:0:0:
273,145,19213,1,0,0:0:0:0:
154,148,19344,1,0,0:0:0:0:
425,234,19474,5,0,0:0:0:0:
203,318,19604,2,0,L|311:318,2,98,2|2|0,0:0|0:0|0:0,0:0:0:0:
425,234,19996,2,0,L|302:234,1,98,2|0,0:0|0:0,0:0:0:0:
113,234,20257,2,0,L|236:234,1,98,2|0,0:0|0:0,0:0:0:0:
27,144,20517,5,0,0:0:0:0:
317,72,20648,2,0,L|211:72,1,98
413,281,20909,2,0,P|466:207|366:123,1,196,2|0,0:0|0:0,0:0:0:0:
295,123,21300,2,0,L|410:123,1,98
143,214,21561,5,0,0:0:0:0:
341,301,21691,2,0,L|231:301,2,98,2|2|0,0:0|0:0|0:0,0:0:0:0:
125,361,22083,2,0,L|113:252,1,98,2|0,0:0|0:0,0:0:0:0:
387,361,22344,2,0,L|399:252,1,98,2|0,0:0|0:0,0:0:0:0:
204,187,22604,5,2,0:0:0:0:
304,189,22735,1,0,0:0:0:0:
82,188,22865,1,2,0:0:0:0:
373,289,22996,6,0,L|384:182,1,98,4|0,0:2|0:0,0:0:0:0:
261,237,23257,1,0,2:0:0:0:
382,192,23387,2,0,L|487:200,1,98
136,170,23648,5,0,0:0:0:0:
370,88,23778,2,0,L|474:96,2,98,2|2|0,0:0|0:0|2:0,0:0:0:0:
136,170,24170,2,0,L|131:68,1,98,2|0,0:0|0:0,0:0:0:0:
417,253,24431,2,0,L|311:253,1,98,2|0,0:0|0:0,0:0:0:0:
54,320,24691,6,0,L|181:320,1,98,4|0,0:0|0:0,0:0:0:0:
376,321,24952,1,0,0:0:0:0:
172,197,25083,2,0,L|402:197,1,196,2|0,0:0|0:0,0:0:0:0:
186,71,25474,2,0,L|201:172,1,98
431,231,25735,5,0,0:0:0:0:
155,301,25865,1,2,0:0:0:0:
258,308,25996,1,2,0:0:0:0:
362,317,26126,1,0,0:0:0:0:
77,316,26257,2,0,L|69:189,1,98,2|0,0:0|0:0,0:0:0:0:
336,208,26517,2,0,L|444:201,1,98,2|0,0:0|0:0,0:0:0:0:
131,61,26778,5,4,0:2:0:0:
228,60,26903,1,0,2:0:0:0:
131,61,27028,1,0,0:0:0:0:
228,61,27153,1,0,2:0:0:0:
325,58,27278,1,0,3:3:0:0:
422,59,27403,1,0,0:0:0:0:
287,58,27528,5,0,0:0:0:0:
430,59,27653,1,0,2:0:0:0:
341,100,27778,1,0,0:0:0:0:
339,197,27903,1,0,3:0:0:0:
433,222,28028,1,0,0:0:0:0:
335,230,28153,1,0,0:0:0:0:
187,232,28278,5,4,0:2:0:0:
88,232,28403,1,0,3:0:0:0:
187,232,28528,1,0,0:0:0:0:
233,140,28653,1,0,2:0:0:0:
127,136,28778,1,0,0:0:0:0:
83,51,28903,1,0,3:0:0:0:
230,44,29028,5,0,0:0:0:0:
339,43,29153,1,0,0:0:0:0:
230,44,29278,1,0,3:0:0:0:
132,46,29403,1,0,3:0:0:0:
230,44,29528,1,0,1:0:0:0:
113,47,29653,1,0,1:0:0:0:
350,138,29778,5,4,0:2:0:0:
241,195,29903,1,0,0:0:0:0:
351,229,30028,1,0,0:0:0:0:
350,321,30153,1,0,3:0:0:0:
254,275,30278,1,0,0:0:0:0:
351,229,30403,1,0,0:0:0:0:
198,214,30528,5,0,0:0:0:0:
83,215,30653,1,0,1:0:0:0:
198,214,30778,1,0,3:0:0:0:
83,215,30903,1,0,3:0:0:0:
82,115,31028,1,0,0:0:0:0:
196,70,31153,1,0,0:0:0:0:
47,117,31278,5,4,3:2:0:0:
161,136,31403,1,0,3:0:0:0:
278,157,31528,1,0,0:0:0:0:
150,189,31653,1,0,0:0:0:0:
268,219,31778,1,0,3:0:0:0:
380,243,31903,1,0,3:0:0:0:
238,339,32028,5,0,0:0:0:0:
210,257,32153,1,0,0:0:0:0:
316,246,32278,1,0,3:0:0:0:
339,147,32403,1,0,3:0:0:0:
208,132,32528,1,0,0:0:0:0:
340,102,32653,1,0,0:0:0:0:
163,82,32778,6,0,L|56:82,1,68.5999979064942,4|0,0:2|0:0,0:0:0:0:
291,179,33038,2,0,L|376:179,1,68.5999979064942
100,237,33299,2,0,L|15:237,1,68.5999979064942
311,313,33560,6,0,L|228:313,2,68.5999979064942
105,221,33951,2,0,L|182:221,2,68.5999979064942
371,232,34343,6,0,L|371:143,1,68.5999979064942,2|0,0:2|0:0,0:0:0:0:
279,141,34604,1,0,3:0:0:0:
52,139,34734,2,0,L|145:139,2,68.5999979064942,2|0|0,0:2|0:0|3:0,0:0:0:0:
336,48,35125,6,0,L|256:48,2,68.5999979064942,2|0|0,0:2|3:0|3:0,0:0:0:0:
128,110,35517,1,0,0:0:0:0:
228,152,35647,2,0,L|224:228,1,68.5999979064942,2|0,3:2|3:1,3:1:0:0:
30,287,35908,5,4,0:2:0:0:
127,295,36038,1,0,0:0:0:0:
231,307,36169,1,0,0:0:0:0:
424,188,36299,1,0,0:0:0:0:
311,197,36430,1,0,3:0:0:0:
421,123,36560,1,0,3:0:0:0:
187,150,36691,6,0,L|186:69,1,68.5999979064942,0|0,0:2|0:0,0:0:0:0:
310,56,36951,1,0,3:0:0:0:
92,251,37082,2,0,L|-2:251,1,68.5999979064942,0|0,3:0|0:0,0:0:0:0:
132,199,37343,1,0,0:0:0:0:
388,285,37473,5,4,0:2:0:0:
270,287,37604,1,0,0:0:0:0:
160,290,37734,1,0,0:0:0:0:
421,308,37864,5,4,0:2:0:0:
273,311,37995,1,0,3:0:0:0:
135,314,38125,1,0,3:0:0:0:
388,99,38256,5,4,0:2:0:0:
270,97,38386,1,0,0:0:0:0:
160,94,38517,1,0,0:0:0:0:
421,76,38647,5,4,0:2:0:0:
217,69,38778,1,0,3:0:0:0:
421,76,38908,1,0,3:0:0:0:
110,167,39038,5,4,0:2:0:0:
256,192,39338,12,0,41138,0:0:0:0:
107,341,41438,6,0,L|95:255,1,49,0|0,0:0|3:0,0:0:0:0:
233,258,41738,2,0,L|244:200,1,49,0|0,3:0|3:0,3:0:0:0:
375,172,42038,2,0,L|431:154,1,49,0|0,0:0|3:0,3:0:0:0:
283,111,42338,2,0,L|212:83,1,49,0|0,3:0|3:0,3:0:0:0:
410,49,42638,6,0,L|358:55,1,49,2|0,1:3|3:0,0:0:0:0:
221,94,42938,2,0,L|165:101,1,49,0|0,3:0|3:0,3:0:0:0:
332,224,43238,2,0,L|340:147,1,49,0|0,0:0|3:0,0:0:0:0:
192,247,43538,2,0,L|181:327,1,49,0|0,3:0|3:0,1:0:0:0:
336,334,43838,6,0,L|411:348,1,49,0|0,0:0|3:0,0:0:0:0:
255,270,44138,2,0,L|195:274,1,49,0|0,3:0|3:0,3:0:0:0:
85,237,44438,2,0,L|77:173,1,49,0|0,0:0|3:0,0:0:0:0:
201,170,44738,2,0,L|279:161,1,49,0|0,3:0|3:0,3:0:0:0:
114,65,45038,6,0,L|189:78,1,49,0|0,0:0|3:0,0:0:0:0:
306,116,45338,2,0,L|320:53,1,49,0|0,3:0|3:0,3:0:0:0:
174,268,45638,2,0,L|160:206,1,49,0|0,0:0|3:0,0:0:0:0:
311,332,45938,2,0,L|375:325,1,49,0|0,3:0|3:0,3:0:0:0:
215,353,46238,5,0,0:0:0:0:
103,349,46388,1,0,3:0:0:0:
215,353,46538,1,0,0:0:0:0:
103,349,46688,1,0,3:0:0:0:
328,353,46838,5,0,0:0:0:0:
440,349,46988,1,0,3:0:0:0:
328,353,47138,1,0,0:0:0:0:
440,349,47288,1,0,3:0:0:0:
228,307,47438,6,0,L|220:243,1,49,0|0,0:0|3:0,0:0:0:0:
357,234,47738,2,0,L|373:178,1,49,0|0,0:0|3:0,0:0:0:0:
120,164,48038,2,0,L|44:158,1,49
350,98,48338,2,0,L|435:107,1,49
67,283,48638,5,4,0:2:0:0:
305,274,48774,1,2,1:0:0:0:
205,223,48910,1,0,0:0:0:0:
206,126,49047,1,2,0:0:0:0:
81,100,49183,1,0,0:0:0:0:
206,126,49319,1,2,0:0:0:0:
81,100,49456,1,0,0:0:0:0:
373,55,49592,5,2,0:0:0:0:
165,131,49728,1,0,0:0:0:0:
296,129,49865,1,2,0:0:0:0:
83,231,50001,1,0,0:0:0:0:
74,329,50138,1,2,0:0:0:0:
190,291,50274,1,0,0:0:0:0:
402,272,50410,5,2,0:0:0:0:
304,306,50547,1,0,0:0:0:0:
404,297,50683,1,2,0:0:0:0:
163,230,50819,1,0,0:0:0:0:
275,198,50956,1,2,0:0:0:0:
158,134,51092,1,0,0:0:0:0:
159,35,51228,1,0,0:0:0:0:
456,73,51365,6,0,L|456:230,1,147
146,294,51910,5,0,0:0:0:0:
347,341,52047,1,2,0:0:0:0:
443,341,52183,1,0,0:0:0:0:
200,208,52319,1,2,0:0:0:0:
299,209,52456,1,0,0:0:0:0:
328,107,52592,1,0,0:0:0:0:
36,77,52728,5,2,1:0:0:0:
153,94,52865,1,0,0:0:0:0:
36,77,53001,1,0,0:0:0:0:
169,170,53138,1,2,0:0:0:0:
188,259,53274,1,2,0:0:0:0:
93,226,53410,1,0,0:0:0:0:
188,259,53547,1,0,0:0:0:0:
277,216,53683,1,2,0:0:0:0:
188,259,53819,1,0,0:0:0:0:
93,226,53956,1,2,0:0:0:0:
435,307,54092,5,0,0:0:0:0:
328,270,54228,1,0,0:0:0:0:
314,172,54365,1,2,0:0:0:0:
433,118,54501,1,0,0:0:0:0:
314,172,54638,1,0,0:0:0:0:
71,55,54774,6,0,L|72:183,1,98,4|0,0:2|0:0,0:0:0:0:
314,172,55183,5,4,0:2:0:0:
46,258,55319,1,2,0:0:0:0:
144,259,55456,1,0,0:0:0:0:
241,260,55592,1,0,0:0:0:0:
144,259,55728,1,0,0:0:0:0:
271,261,55865,1,0,0:0:0:0:
152,260,56001,1,0,0:0:0:0:
476,268,56138,5,2,0:0:0:0:
361,266,56274,1,0,0:0:0:0:
255,264,56410,1,0,0:0:0:0:
385,266,56547,1,0,0:0:0:0:
281,265,56683,1,2,0:0:0:0:
385,266,56819,1,0,0:0:0:0:
122,145,56956,5,2,0:0:0:0:
252,145,57092,1,0,0:0:0:0:
106,143,57228,1,2,0:0:0:0:
199,144,57365,1,2,0:0:0:0:
106,143,57501,1,0,0:0:0:0:
199,144,57638,1,2,0:0:0:0:
293,144,57774,1,0,0:0:0:0:
493,147,57910,5,2,0:0:0:0:
199,144,58047,2,0,L|196:316,1,147,4|4,0:2|3:2,0:0:0:0:
327,237,59056,1,0,3:0:0:0:
160,225,59656,1,0,3:0:0:0:
276,175,59806,2,0,L|288:119,1,49,0|0,3:0|3:0,3:0:0:0:
121,121,60256,2,0,L|-7:104,1,98
430,52,60856,5,0,0:0:0:0:
295,137,61156,2,0,L|301:192,1,49,0|0,3:0|3:0,3:0:0:0:
473,247,61606,2,0,L|460:322,1,49,0|0,3:0|3:0,3:0:0:0:
262,349,62056,5,0,3:0:0:0:
169,280,62206,2,0,L|185:201,1,49,0|2,3:0|3:2,3:0:0:0:
365,142,62656,2,0,L|478:140,1,98
101,343,63256,6,0,L|88:262,1,49,4|0,0:0|0:0,0:0:0:0:
226,245,63556,2,0,L|239:189,1,49,2|0,0:0|0:0,0:0:0:0:
136,164,63856,1,0,1:0:0:0:
35,149,64006,1,0,0:0:0:0:
136,164,64156,1,2,0:0:0:0:
303,157,64306,1,0,0:0:0:0:
60,47,64456,5,0,1:0:0:0:
162,104,64606,1,0,0:0:0:0:
35,137,64756,1,2,0:0:0:0:
34,235,64906,1,0,0:0:0:0:
192,308,65056,1,0,1:0:0:0:
312,307,65206,1,0,0:0:0:0:
192,308,65356,1,0,1:0:0:0:
80,309,65506,1,0,1:0:0:0:
402,361,65656,5,4,0:0:0:0:
438,271,65806,1,0,0:0:0:0:
337,265,65956,1,2,0:0:0:0:
275,175,66106,1,0,0:0:0:0:
413,167,66256,1,0,1:0:0:0:
309,119,66406,1,0,0:0:0:0:
305,33,66556,1,2,0:0:0:0:
413,167,66706,1,0,0:0:0:0:
275,202,66856,5,0,1:0:0:0:
163,202,67006,1,0,0:0:0:0:
275,202,67156,1,2,0:0:0:0:
163,202,67306,1,0,0:0:0:0:
412,283,67456,5,0,1:0:0:0:
305,284,67606,1,2,1:0:0:0:
412,283,67756,1,0,1:0:0:0:
111,288,67906,1,2,1:0:0:0:
228,347,68056,6,0,L|227:46,1,294,0|4,3:0|3:3,3:0:0:0:
486,69,69146,5,0,0:0:0:0:
357,87,69282,1,2,0:0:0:0:
481,119,69418,1,0,0:0:0:0:
139,196,69555,1,2,0:0:0:0:
264,307,69691,1,0,0:0:0:0:
267,205,69827,1,2,0:0:0:0:
139,196,69964,1,0,0:0:0:0:
413,181,70100,5,2,0:0:0:0:
294,182,70236,1,0,0:0:0:0:
49,186,70373,1,2,0:0:0:0:
148,186,70509,1,0,0:0:0:0:
49,186,70646,1,2,0:0:0:0:
417,183,70782,5,0,0:0:0:0:
221,183,71055,1,0,0:0:0:0:
325,183,71191,1,0,0:0:0:0:
221,183,71327,1,0,0:0:0:0:
20,189,71464,1,2,0:0:0:0:
133,188,71600,1,0,0:0:0:0:
454,192,71736,1,2,0:0:0:0:
41,188,72009,6,0,L|41:320,1,98,4|0,0:2|2:0,0:0:0:0:
332,221,72418,5,0,0:0:0:0:
212,222,72555,1,2,0:0:0:0:
332,221,72691,1,0,0:0:0:0:
92,242,72827,1,2,0:0:0:0:
211,242,72964,1,0,0:0:0:0:
10,243,73100,1,2,0:0:0:0:
425,248,73373,5,0,0:0:0:0:
322,248,73509,1,0,0:0:0:0:
211,248,73646,1,2,0:0:0:0:
503,248,73782,1,0,0:0:0:0:
275,247,73918,1,0,0:0:0:0:
374,247,74055,1,0,0:0:0:0:
275,247,74191,1,2,0:0:0:0:
503,248,74327,5,0,0:0:0:0:
41,244,74600,1,0,0:0:0:0:
154,243,74736,1,2,0:0:0:0:
41,244,74873,1,0,0:0:0:0:
391,246,75009,1,2,0:0:0:0:
87,333,75146,6,0,L|87:197,1,98
348,190,75555,5,4,0:2:0:0:
99,111,75691,1,0,0:0:0:0:
210,112,75827,1,2,0:0:0:0:
99,111,75964,1,0,0:0:0:0:
400,80,76100,1,2,0:0:0:0:
196,172,76236,2,0,L|196:295,1,98
316,298,76646,1,2,0:0:0:0:
57,335,76782,5,0,0:0:0:0:
179,339,76918,1,0,0:0:0:0:
57,335,77055,1,2,0:0:0:0:
475,337,77327,5,0,0:0:0:0:
187,298,77464,1,2,0:0:0:0:
486,148,77873,1,2,0:0:0:0:
199,164,78009,1,0,0:0:0:0:
485,245,78146,1,2,0:0:0:0:
167,163,78418,1,0,0:0:0:0:
490,85,78555,6,0,L|490:230,1,98,4|0,0:2|0:0,0:0:0:0:
190,297,78964,5,2,0:0:0:0:
307,288,79100,1,0,0:0:0:0:
41,194,79236,1,0,0:0:0:0:
319,179,79373,5,2,0:0:0:0:
202,171,79509,1,0,0:0:0:0:
468,76,79646,1,0,0:0:0:0:
352,117,79782,1,2,0:0:0:0:
70,248,79918,6,0,L|71:98,1,147,4|0,0:2|0:0,0:0:0:0:
257,265,80464,2,0,L|257:94,1,147,4|0,0:2|0:0,0:0:0:0:
442,248,81009,2,0,L|441:98,1,147,4|0,0:0|0:0,0:0:0:0:
121,63,81691,1,2,0:0:0:0:
281,72,81873,1,0,0:0:0:0:
121,63,82055,1,2,0:0:0:0:
435,271,82236,5,8,0:3:0:0:
436,246,82299,1,0,0:0:0:0:
438,222,82362,1,0,0:0:0:0:
439,197,82424,1,0,0:0:0:0:
441,173,82487,1,0,0:0:0:0:
339,126,82612,1,0,0:0:0:0:
107,263,82737,6,0,L|293:253,1,147.000005607605
145,184,83112,1,0,0:0:0:0:
379,343,83237,2,0,L|396:242,1,73.5000028038026
281,251,83487,2,0,L|203:239,1,73.5000028038026
479,177,83737,5,0,0:0:0:0:
357,191,83862,1,0,0:0:0:0:
479,177,83987,1,0,3:0:0:0:
492,72,84112,1,0,3:0:0:0:
198,53,84237,5,0,0:0:0:0:
322,68,84362,1,0,0:0:0:0:
198,53,84487,1,0,0:0:0:0:
159,174,84612,1,0,0:0:0:0:
275,250,84737,5,0,0:0:0:0:
164,268,84862,1,0,0:0:0:0:
275,250,84987,1,0,3:0:0:0:
386,231,85112,1,0,3:0:0:0:
67,197,85237,2,0,L|63:115,1,73.5000028038026,0|0,0:2|0:0,0:0:0:0:
282,108,85487,1,0,0:0:0:0:
63,24,85612,6,0,L|361:35,1,294
245,97,86112,1,4,0:0:0:0:
479,199,86237,5,4,0:2:0:0:
364,211,86357,1,0,0:0:0:0:
479,199,86477,1,0,0:0:0:0:
204,103,86597,1,0,0:0:0:0:
476,48,86717,6,0,L|275:48,1,196
374,112,87077,1,0,0:0:0:0:
136,314,87197,2,0,L|134:203,1,98
225,248,87437,2,0,L|328:242,1,98
41,135,87677,5,0,0:0:0:0:
151,153,87797,1,0,0:0:0:0:
41,135,87917,1,0,0:0:0:0:
24,37,88037,1,0,0:0:0:0:
309,68,88157,5,0,0:0:0:0:
195,77,88277,1,0,0:0:0:0:
326,148,88397,1,0,0:0:0:0:
344,232,88517,1,0,0:0:0:0:
143,220,88637,5,0,0:0:0:0:
40,232,88757,1,0,0:0:0:0:
310,298,88877,1,0,0:0:0:0:
422,320,88997,1,0,0:0:0:0:
142,334,89117,5,0,0:0:0:0:
310,298,89237,1,0,0:0:0:0:
143,220,89357,1,0,0:0:0:0:
471,331,89477,2,0,L|471:33,1,294
42,76,90077,5,0,0:3:0:0:
252,101,90192,1,0,0:0:0:0:
462,129,90307,1,0,0:0:0:0:
182,341,90423,6,0,L|183:129,1,196,2|0,0:0|0:0,0:0:0:0:
302,237,90769,1,0,0:0:0:0:
182,238,90884,1,0,0:0:0:0:
486,300,91000,5,0,0:0:0:0:
378,271,91115,1,2,0:0:0:0:
487,283,91230,1,2,0:0:0:0:
170,132,91346,1,0,0:0:0:0:
373,167,91461,2,0,L|484:162,1,98,2|0,0:0|0:0,0:0:0:0:
193,78,91692,2,0,L|93:88,1,98,2|0,0:0|0:0,0:0:0:0:
470,76,91923,5,0,0:0:0:0:
250,104,92038,1,0,0:0:0:0:
29,132,92153,1,0,0:0:0:0:
340,317,92269,2,0,L|342:102,1,196,2|0,0:0|0:0,0:0:0:0:
229,192,92615,1,0,0:0:0:0:
345,200,92730,1,0,0:0:0:0:
41,283,92846,5,0,0:0:0:0:
272,335,92961,2,2,L|373:331,1,98
41,283,93192,1,0,0:0:0:0:
304,117,93307,2,0,L|185:117,1,98,2|0,0:0|0:0,0:0:0:0:
467,224,93538,2,0,L|358:223,1,98,2|0,0:0|0:0,0:0:0:0:
141,222,93769,5,2,0:0:0:0:
241,223,93880,1,0,0:0:0:0:
141,222,93991,1,2,1:0:0:0:
385,328,94102,6,0,L|171:328,1,196,8|0,0:3|0:0,0:0:0:0:
347,219,94435,2,0,L|332:322,1,98
71,217,94657,1,0,0:0:0:0:
307,104,94769,2,0,L|201:104,1,98,2|2,0:0|0:0,0:0:0:0:
430,65,94991,1,0,0:0:0:0:
152,291,95102,2,0,L|134:177,1,98,2|0,0:0|0:0,0:0:0:0:
351,236,95324,2,0,L|371:126,1,98,2|0,0:0|0:0,0:0:0:0:
71,85,95546,5,0,0:0:0:0:
255,91,95657,1,0,0:0:0:0:
57,85,95769,1,0,0:0:0:0:
374,288,95880,2,0,L|373:83,1,196,2|0,0:0|0:0,0:0:0:0:
288,168,96213,1,0,0:0:0:0:
186,166,96324,1,0,0:0:0:0:
457,79,96435,1,0,0:0:0:0:
186,78,96546,5,2,0:0:0:0:
360,81,96657,1,2,0:0:0:0:
186,78,96769,1,0,0:0:0:0:
408,200,96880,1,4,0:2:0:0:
110,194,96991,1,2,0:0:0:0:
407,271,97102,1,4,0:0:0:0:
109,274,97213,1,2,0:0:0:0:
386,339,97546,5,4,0:2:0:0:
48,252,98213,5,4,0:0:0:0:
457,207,99102,5,4,0:0:0:0:
