osu file format v14

[General]
AudioFilename: audio.mp3
AudioLeadIn: 0
PreviewTime: 162713
Countdown: 0
SampleSet: Normal
StackLeniency: 0.2
Mode: 0
LetterboxInBreaks: 0
WidescreenStoryboard: 0

[Editor]
Bookmarks: 2122,38888,75654,130033,162713,203563,239815,254112,290877,307217,323557,339898,357259,372579,388919,405259,421600,437940,456323,470621,495131,519642
DistanceSpacing: 1.6
BeatDivisor: 4
GridSize: 16
TimelineZoom: 1.6

[Metadata]
Title:Belie The Machine
TitleUnicode:Belie The Machine
Artist:Black Crown Initiate
ArtistUnicode:Black Crown Initiate
Creator:TheKingHenry
Version:Self-repudiation
Source:
Tags:selves we cannot forgive progressive death metal stream english
BeatmapID:2354761
BeatmapSetID:1127009

[Difficulty]
HPDrainRate:6
CircleSize:3
OverallDifficulty:9.7
ApproachRate:9.7
SliderMultiplier:1.4
SliderTickRate:1

[Events]
//Background and Video events
0,0,"bcialbumart.jpg",0,0
//Break Periods
2,291077,296764
//Storyboard Layer 0 (Background)
//Storyboard Layer 1 (Fail)
//Storyboard Layer 2 (Pass)
//Storyboard Layer 3 (Foreground)
//Storyboard Layer 4 (Overlay)
//Storyboard Sound Samples

[TimingPoints]
80,255.31914893617,4,1,5,30,1,0
1611,-100,4,1,1,30,0,0
1994,-100,4,1,5,10,0,0
2122,-200,4,1,6,30,0,0
5058,-200,4,1,6,15,0,0
5186,-200,4,1,6,30,0,0
5314,-200,4,1,6,10,0,0
5441,-200,4,1,6,30,0,0
5697,-200,4,1,6,15,0,0
5952,-200,4,1,5,30,0,0
10292,-200,4,1,6,20,0,0
10548,-200,4,1,5,30,0,0
18462,-200,4,1,6,40,0,0
18590,-200,4,1,6,10,0,0
19228,-200,4,1,6,30,0,0
19484,-200,4,1,6,10,0,0
19994,-200,4,1,6,30,0,0
22931,-200,4,1,6,10,0,0
23186,-200,4,1,6,30,0,0
23314,-200,4,1,6,10,0,0
23569,-200,4,1,6,30,0,0
24079,-200,4,1,5,30,0,0
27526,-200,4,1,5,15,0,0
27654,-200,4,1,5,30,0,0
28675,-200,4,1,6,40,0,0
28931,-200,4,1,6,30,0,0
30207,-200,4,1,5,40,0,0
32760,-200,4,1,6,30,0,0
33526,-200,4,1,5,30,0,0
38377,-200,4,1,1,40,0,0
38760,-200,4,1,5,10,0,0
38888,-200,4,1,5,30,0,0
39526,-200,4,1,5,10,0,0
39782,-200,4,1,5,30,0,0
41314,-200,4,1,5,10,0,0
41441,-200,4,1,5,30,0,0
41824,-200,4,1,5,20,0,0
41952,-200,4,1,5,30,0,0
42973,-133.333333333333,4,1,5,30,0,0
43101,-133.333333333333,4,1,5,10,0,0
43356,-133.333333333333,4,1,5,30,0,0
44250,-133.333333333333,4,1,5,10,0,0
44505,-133.333333333333,4,1,5,30,0,0
44633,-133.333333333333,4,1,5,50,0,0
44760,-133.333333333333,4,1,5,30,0,0
45016,-200,4,1,5,30,0,0
45143,-200,4,1,5,10,0,0
45271,-200,4,1,5,30,0,0
45654,-200,4,1,5,10,0,0
46037,-133.333333333333,4,1,5,30,0,0
46165,-133.333333333333,4,1,5,10,0,0
46548,-133.333333333333,4,1,5,30,0,0
46931,-133.333333333333,4,1,5,10,0,0
47058,-200,4,1,6,30,0,0
47314,-200,4,1,5,30,0,0
47697,-200,4,1,5,10,0,0
47952,-200,4,1,5,30,0,0
48335,-200,4,1,5,10,0,0
48590,-200,4,1,5,30,0,0
49484,-200,4,1,5,10,0,0
49611,-200,4,1,5,30,0,0
49739,-200,4,1,5,10,0,0
49994,-200,4,1,5,30,0,0
51016,-200,4,1,5,10,0,0
51143,-133.333333333333,4,1,6,30,0,0
51271,-133.333333333333,4,1,5,30,0,0
52292,-133.333333333333,4,1,5,10,0,0
52420,-133.333333333333,4,1,5,30,0,0
53569,-133.333333333333,4,1,5,10,0,0
53952,-133.333333333333,4,1,5,30,0,0
54335,-133.333333333333,4,1,5,10,0,0
54590,-200,4,1,5,30,0,0
55228,-200,4,1,6,40,0,0
55356,-200,4,1,6,10,0,0
55867,-200,4,1,5,30,0,0
56250,-200,4,1,6,10,0,0
56760,-133.333333333333,4,1,6,40,0,0
57271,-200,4,1,6,40,0,0
57782,-200,4,1,5,30,0,0
57909,-200,4,1,5,10,0,0
58165,-200,4,1,5,30,0,0
59697,-200,4,1,5,10,0,0
59824,-200,4,1,5,30,0,0
60207,-200,4,1,5,15,0,0
60335,-200,4,1,5,30,0,0
61101,-200,4,1,5,10,0,0
61228,-200,4,1,5,30,0,0
61356,-133.333333333333,4,1,5,30,0,0
61484,-133.333333333333,4,1,5,10,0,0
61739,-133.333333333333,4,1,5,30,0,0
62633,-133.333333333333,4,1,5,10,0,0
62888,-133.333333333333,4,1,5,30,0,0
63782,-133.333333333333,4,1,5,10,0,0
63909,-133.333333333333,4,1,5,30,0,0
64037,-133.333333333333,4,1,5,10,0,0
64292,-133.333333333333,4,1,5,30,0,0
64931,-133.333333333333,4,1,5,10,0,0
65441,-133.333333333333,4,1,6,40,0,0
65697,-133.333333333333,4,1,5,10,0,0
65824,-133.333333333333,4,1,5,30,0,0
66079,-133.333333333333,4,1,5,10,0,0
66335,-133.333333333333,4,1,5,30,0,0
66973,-133.333333333333,4,1,5,50,0,0
67356,-133.333333333333,4,1,5,30,0,0
67994,-133.333333333333,4,1,5,50,0,0
68377,-133.333333333333,4,1,5,30,0,0
69016,-133.333333333333,4,1,5,50,0,0
69399,-133.333333333333,4,1,6,30,0,0
69654,-133.333333333333,4,1,5,10,0,0
69909,-133.333333333333,4,1,5,30,0,0
71186,-133.333333333333,4,1,5,10,0,0
71569,-133.333333333333,4,1,5,30,0,0
71952,-133.333333333333,4,1,5,10,0,0
72207,-133.333333333333,4,1,5,30,0,0
72782,-133.333333333333,4,1,5,10,0,0
72973,-200,4,1,5,30,0,0
73101,-133.333333333333,4,1,5,30,0,0
75654,-1000,4,1,4,90,0,1
75718,-1000,4,1,4,90,0,0
76675,-100,4,1,3,90,0,0
79739,-1000,4,1,4,90,0,0
80760,-100,4,1,3,90,0,0
82803,-200,4,1,1,90,0,0
83824,-1000,4,1,4,90,0,0
84845,-100,4,1,3,90,0,0
87909,-1000,4,1,4,90,0,0
88931,-100,4,1,3,90,0,0
90973,-200,4,1,1,90,0,0
93016,255.31914893617,3,1,1,100,1,0
93781,255.31914893617,4,1,4,100,1,0
93781,-1000,4,1,4,90,0,0
94802,-100,4,1,3,90,0,0
97866,-1000,4,1,4,90,0,0
98887,-100,4,1,3,90,0,0
100929,-200,4,1,1,90,0,0
101951,-1000,4,1,4,90,0,0
102972,-100,4,1,3,90,0,0
106036,-1000,4,1,4,90,0,0
107057,-100,4,1,3,90,0,0
109100,-200,4,1,1,90,0,0
111142,255.31914893617,3,1,1,90,1,0
111907,255.31914893617,4,1,4,100,1,0
111907,-500,4,1,4,90,0,0
112928,-100,4,1,3,90,0,0
113438,-100,4,1,1,90,0,0
115992,-500,4,1,4,90,0,0
117013,-100,4,1,3,90,0,0
117524,-100,4,1,1,90,0,0
119055,-200,4,1,1,90,0,0
120077,-500,4,1,4,90,0,0
121098,-100,4,1,3,90,0,0
121609,-100,4,1,1,90,0,0
124162,-500,4,1,4,90,0,0
125183,-100,4,1,3,90,0,0
125694,-100,4,1,1,90,0,0
127226,-200,4,1,1,90,0,0
129268,255.31914893617,3,1,1,90,1,0
130033,255.31914893617,4,1,1,90,1,0
130033,-500,4,1,4,90,0,0
131054,-200,4,1,1,90,0,0
132841,-200,4,1,1,40,0,0
133096,-200,4,1,1,90,0,0
133352,-200,4,1,1,60,0,0
133862,-200,4,1,1,90,0,0
134118,-500,4,1,4,90,0,0
135139,-200,4,1,1,90,0,0
136671,-100,4,1,1,90,0,0
136756,-100,4,1,1,25,0,0
137181,-100,4,1,1,90,0,0
138203,-500,4,1,1,90,0,0
138713,-500,4,1,5,90,0,0
139224,-100,4,1,2,90,0,0
140245,-100,4,1,1,50,0,0
140501,-66.6666666666667,4,1,1,50,0,0
140756,-50,4,1,1,90,0,0
141777,-100,4,1,1,90,0,0
142798,-100,4,1,5,90,0,0
143054,-200,4,1,1,90,0,0
143309,-100,4,1,1,90,0,0
145352,-500,4,1,1,90,0,0
145862,-100,4,1,5,90,0,0
146373,-100,4,1,2,90,0,0
147394,-100,4,1,1,50,0,0
147650,-66.6666666666667,4,1,1,50,0,0
147905,-50,4,1,1,90,0,0
148926,-100,4,1,1,90,0,0
149947,-100,4,1,5,90,0,0
150203,-200,4,1,1,90,0,0
150458,-100,4,1,1,90,0,0
154543,-100,4,1,5,90,0,0
154798,-66.6666666666667,4,1,1,50,0,0
155054,-50,4,1,1,90,0,0
156075,-100,4,1,1,90,0,0
157352,-200,4,1,1,90,0,0
157607,-100,4,1,1,90,0,0
157990,-100,4,1,5,90,0,0
158118,-100,4,1,1,90,0,0
158373,-100,4,1,5,90,0,0
158501,-100,4,1,1,90,0,0
158756,-100,4,1,5,90,0,0
158884,-100,4,1,1,90,0,0
159139,-100,4,1,5,90,0,0
159267,-100,4,1,1,90,0,0
160288,-100,4,1,1,50,0,0
160671,-100,4,1,2,90,0,0
161692,-100,4,1,5,90,0,0
161947,-66.6666666666667,4,1,1,50,0,0
162203,-50,4,1,1,90,0,0
163224,-100,4,1,1,90,0,0
164245,-100,4,1,5,90,0,0
164501,-200,4,1,1,90,0,0
164756,-100,4,1,1,90,0,0
164841,-100,4,1,1,25,0,0
165011,-100,4,1,1,90,0,0
165181,-100,4,1,1,25,0,0
165267,-100,4,1,1,90,0,0
165437,-100,4,1,5,100,0,0
165607,-100,4,1,1,25,0,0
165777,-100,4,1,1,40,0,0
165862,-100,4,1,1,60,0,0
165947,-100,4,1,1,90,0,0
166203,-100,4,1,1,25,0,0
166288,-100,4,1,1,40,0,0
166543,-100,4,1,1,90,0,0
166798,255.31914893617,3,1,1,90,1,1
166798,-133.333333333333,3,1,1,90,0,1
167563,-133.333333333333,3,1,2,90,0,1
172159,-133.333333333333,3,1,4,50,0,1
172670,-133.333333333333,3,1,1,90,0,1
173691,-133.333333333333,3,1,2,90,0,1
178032,-66.6666666666667,3,1,5,100,0,1
178798,-133.333333333333,3,1,4,40,0,1
179053,-133.333333333333,3,1,1,90,0,1
179819,-133.333333333333,3,1,2,90,0,1
180968,-133.333333333333,3,1,2,40,0,1
181095,-133.333333333333,3,1,2,90,0,1
182627,-133.333333333333,3,1,2,40,0,1
182883,-133.333333333333,3,1,2,90,0,1
184415,-133.333333333333,3,1,4,50,0,1
184925,-133.333333333333,3,1,1,90,0,1
185946,-133.333333333333,3,1,2,90,0,1
188500,-133.333333333333,3,1,2,30,0,1
188755,-133.333333333333,3,1,2,50,0,1
188855,-133.333333333333,3,1,2,90,0,1
190159,-133.333333333333,3,1,2,40,0,1
190287,-200,3,1,2,90,0,1
191308,-200,3,1,1,90,0,1
191563,-200,3,1,2,90,0,1
197436,-200,3,1,1,90,0,1
197691,-200,3,1,2,90,0,1
202032,-100,3,1,1,70,0,1
202287,-100,3,1,1,90,0,1
202797,-100,3,1,1,70,0,1
203563,255.31914893617,4,1,1,90,1,0
203563,-1000,4,1,4,90,0,0
204584,-100,4,1,3,90,0,1
204648,-100,4,1,3,90,0,0
207648,-500,4,1,4,90,0,0
208669,-100,4,1,3,90,0,0
210711,-200,4,1,1,90,0,0
211733,-1000,4,1,4,90,0,0
212754,-100,4,1,3,90,0,0
215818,-1000,4,1,4,90,0,0
216839,-100,4,1,3,90,0,0
218882,-200,4,1,1,90,0,0
220924,255.31914893617,3,1,1,90,1,0
221689,255.31914893617,4,1,1,90,1,0
221689,-1000,4,1,4,90,0,0
222710,-100,4,1,3,90,0,0
225774,-500,4,1,4,90,0,0
226795,-100,4,1,3,90,0,0
228837,-200,4,1,1,90,0,0
229859,-1000,4,1,4,90,0,0
230880,-100,4,1,3,90,0,0
233944,-1000,4,1,4,90,0,0
234965,-100,4,1,3,90,0,0
237008,-200,4,1,1,90,0,0
239050,255.31914893617,3,1,1,90,1,0
239815,255.31914893617,4,1,1,90,1,0
241857,-100,4,1,5,90,0,0
242112,-66.6666666666667,4,1,1,50,0,0
242368,-50,4,1,1,90,0,0
243389,-100,4,1,1,90,0,0
244666,-200,4,1,1,90,0,0
244921,-100,4,1,1,90,0,0
245304,-100,4,1,5,90,0,0
245432,-100,4,1,1,90,0,0
245687,-100,4,1,5,90,0,0
245815,-100,4,1,1,90,0,0
246070,-100,4,1,5,90,0,0
246197,-100,4,1,1,90,0,0
246453,-100,4,1,5,90,0,0
246580,-100,4,1,1,90,0,0
249006,-100,4,1,5,90,0,0
249261,-66.6666666666667,4,1,1,50,0,0
249517,-50,4,1,1,90,0,0
250538,-100,4,1,1,90,0,0
251815,-200,4,1,1,90,0,0
252070,-100,4,1,1,90,0,0
252155,-100,4,1,1,25,0,0
252325,-100,4,1,1,90,0,0
252410,-100,4,1,1,25,0,0
252580,-100,4,1,1,90,0,0
252751,-100,4,1,5,100,0,0
252836,-100,4,1,3,40,0,0
252921,-100,4,1,1,25,0,0
253091,-100,4,1,1,90,0,0
253261,-100,4,1,5,100,0,0
253346,-100,4,1,3,40,0,0
253432,-100,4,1,1,25,0,0
253517,-100,4,1,1,40,0,0
253602,-100,4,1,1,60,0,0
253687,-100,4,1,1,90,0,0
254112,255.31914893617,3,1,1,90,1,1
254112,-133.333333333333,3,1,1,90,0,1
254877,-133.333333333333,3,1,2,90,0,1
259473,-133.333333333333,3,1,4,50,0,1
259984,-133.333333333333,3,1,1,90,0,1
261005,-133.333333333333,3,1,2,90,0,1
263558,-133.333333333333,3,1,2,40,0,1
264069,-133.333333333333,3,1,2,90,0,1
265346,-66.6666666666667,3,1,5,100,0,1
266112,-133.333333333333,3,1,4,40,0,1
266367,-133.333333333333,3,1,1,90,0,1
267133,-133.333333333333,3,1,2,90,0,1
268282,-133.333333333333,3,1,2,40,0,1
268409,-133.333333333333,3,1,2,90,0,1
269941,-133.333333333333,3,1,2,40,0,1
270197,-133.333333333333,3,1,2,90,0,1
271729,-133.333333333333,3,1,4,50,0,1
272239,-133.333333333333,3,1,1,90,0,1
273260,-133.333333333333,3,1,2,90,0,1
277473,-133.333333333333,3,1,2,40,0,1
277601,-133.333333333333,3,1,2,90,0,1
278622,-200,3,1,1,90,0,1
278877,-200,3,1,2,90,0,1
284750,-200,3,1,1,90,0,1
285005,-200,3,1,2,90,0,1
289346,-100,3,1,1,90,0,1
289473,-100,3,1,1,40,0,1
289729,-100,3,1,1,90,0,1
290239,-100,3,1,1,50,0,1
290494,-100,3,1,1,90,0,1
290877,255.31914893617,4,1,1,90,1,0
297259,-333.333333333333,3,1,5,50,0,0
301259,-333.333333333333,3,1,5,30,0,0
301600,-333.333333333333,3,1,5,50,0,0
301940,-333.333333333333,3,1,5,80,0,0
302366,-333.333333333333,3,1,5,50,0,0
305174,-200,3,1,5,50,0,0
305302,-200,3,1,5,10,0,0
305557,-200,3,1,5,50,0,0
305685,-200,3,1,5,10,0,0
306196,-200,3,1,5,30,0,0
306323,-200,3,1,5,40,0,0
307217,-133.333333333333,3,1,5,40,0,0
308111,-133.333333333333,3,1,5,15,0,0
308238,-133.333333333333,3,1,5,30,0,0
308494,-133.333333333333,3,1,5,40,0,0
309132,-133.333333333333,3,1,5,15,0,0
309259,-133.333333333333,3,1,5,40,0,0
310153,-133.333333333333,3,1,5,15,0,0
310281,-133.333333333333,3,1,5,30,0,0
310408,-133.333333333333,3,1,5,40,0,0
311174,-133.333333333333,3,1,5,15,0,0
311302,-133.333333333333,3,1,5,40,0,0
312196,-133.333333333333,3,1,5,15,0,0
312323,-133.333333333333,3,1,5,40,0,0
313217,-133.333333333333,3,1,5,15,0,0
313345,-133.333333333333,3,1,5,40,0,0
314238,-133.333333333333,3,1,5,15,0,0
314366,-133.333333333333,3,1,5,40,0,0
315259,-133.333333333333,3,1,5,30,0,0
315387,-133.333333333333,3,1,5,40,0,0
315770,-133.333333333333,3,1,5,15,0,0
315898,-133.333333333333,3,1,5,40,0,0
318323,-133.333333333333,3,1,5,15,0,0
318451,-133.333333333333,3,1,5,40,0,0
319345,-133.333333333333,3,1,5,30,0,0
319472,-133.333333333333,3,1,5,40,0,0
319855,-133.333333333333,3,1,5,15,0,0
320111,-133.333333333333,3,1,5,40,0,0
320366,-133.333333333333,3,1,5,15,0,0
320494,-133.333333333333,3,1,5,40,0,0
321387,-133.333333333333,3,1,5,15,0,0
321515,-133.333333333333,3,1,5,40,0,0
322408,-133.333333333333,3,1,5,15,0,0
322536,-133.333333333333,3,1,5,40,0,0
322664,-133.333333333333,3,1,5,15,0,0
322791,-133.333333333333,3,1,5,20,0,0
322919,-133.333333333333,3,1,5,40,0,0
324451,-133.333333333333,3,1,5,15,0,0
324579,-133.333333333333,3,1,5,40,0,0
325472,-133.333333333333,3,1,5,15,0,0
325600,-133.333333333333,3,1,5,40,0,0
326494,-133.333333333333,3,1,5,15,0,0
326621,-133.333333333333,3,1,5,40,0,0
327515,-133.333333333333,3,1,5,20,0,0
327642,-133.333333333333,3,1,5,40,0,0
328025,-133.333333333333,3,1,5,15,0,0
328153,-133.333333333333,3,1,5,40,0,0
328536,-133.333333333333,3,1,5,15,0,0
328664,-133.333333333333,3,1,5,40,0,0
329557,-133.333333333333,3,1,5,15,0,0
329685,-133.333333333333,3,1,5,40,0,0
330579,-133.333333333333,3,1,5,15,0,0
330706,-133.333333333333,3,1,5,40,0,0
331089,-133.333333333333,3,1,5,15,0,0
331217,-133.333333333333,3,1,5,40,0,0
331600,-133.333333333333,3,1,5,30,0,0
331728,-133.333333333333,3,1,5,40,0,0
332621,-133.333333333333,3,1,5,15,0,0
332749,-133.333333333333,3,1,5,40,0,0
333642,-133.333333333333,3,1,5,15,0,0
333770,-133.333333333333,3,1,5,40,0,0
334664,-133.333333333333,3,1,5,15,0,0
334791,-133.333333333333,3,1,5,40,0,0
335685,-133.333333333333,3,1,5,30,0,0
335813,-133.333333333333,3,1,5,40,0,0
336196,-133.333333333333,3,1,5,15,0,0
336323,-133.333333333333,3,1,5,40,0,0
336706,-133.333333333333,3,1,5,15,0,0
336834,-133.333333333333,3,1,5,40,0,0
337728,-133.333333333333,3,1,5,15,0,0
337855,-133.333333333333,3,1,5,40,0,0
338238,-133.333333333333,3,1,5,15,0,0
338366,-133.333333333333,3,1,5,40,0,0
338749,-133.333333333333,3,1,5,15,0,0
338876,-133.333333333333,3,1,5,50,0,0
339004,-133.333333333333,3,1,5,30,0,0
339068,-133.333333333333,3,1,5,20,0,0
339259,-133.333333333333,3,1,5,50,0,0
339642,-133.333333333333,3,1,1,90,0,0
339898,-500,3,1,4,90,0,0
340919,-500,3,1,2,100,0,0
341430,-500,3,1,4,90,0,0
341940,-500,3,1,1,90,0,0
342962,-500,3,1,4,70,0,0
343217,-500,3,1,2,100,0,0
343728,-500,3,1,1,90,0,0
345004,-133.333333333333,3,1,1,50,0,0
345089,-133.333333333333,3,1,1,30,0,0
345430,-133.333333333333,3,1,1,50,0,0
345515,-133.333333333333,3,1,1,30,0,0
346025,-133.333333333333,3,1,2,90,0,0
346153,-133.333333333333,3,1,1,30,0,0
346281,-133.333333333333,3,1,2,90,0,0
346408,-133.333333333333,3,1,1,30,0,0
346536,-133.333333333333,3,1,1,90,0,0
347557,-133.333333333333,3,1,1,70,0,0
347813,-133.333333333333,3,1,1,100,0,0
348068,-500,3,1,4,90,0,0
349089,-500,3,1,2,100,0,0
349600,-500,3,1,4,90,0,0
350111,-500,3,1,1,90,0,0
351132,-500,3,1,4,70,0,0
351387,-500,3,1,2,100,0,0
351898,-500,3,1,1,90,0,0
353174,-133.333333333333,3,1,1,60,0,0
353259,-133.333333333333,3,1,1,30,0,0
353430,-133.333333333333,3,1,1,90,0,0
353685,-133.333333333333,3,1,1,70,0,0
353770,-133.333333333333,3,1,1,40,0,0
354196,-133.333333333333,3,1,2,90,0,0
354579,-133.333333333333,3,1,1,40,0,0
354962,-133.333333333333,3,1,2,100,0,0
355217,-133.333333333333,3,1,1,50,0,0
355472,-133.333333333333,3,1,1,70,0,0
355728,-133.333333333333,3,1,1,90,0,0
356238,-100,3,1,1,90,0,0
356494,-50,3,1,5,90,0,0
357259,-100,3,1,2,90,0,0
360323,-43.4782608695652,3,1,1,90,0,0
360834,-100,3,1,1,70,0,0
361089,-100,3,1,1,90,0,0
362876,-100,3,1,2,90,0,0
364408,-500,3,1,1,90,0,0
364919,-100,3,1,2,90,0,0
368494,-43.4782608695652,3,1,1,90,0,0
369004,-100,3,1,1,70,0,0
369259,-100,3,1,1,90,0,0
371047,-100,3,1,2,90,0,0
372579,-100,3,1,1,90,0,0
388919,-50,3,1,4,90,0,1
388983,-50,3,1,1,80,0,1
392238,-50,3,1,2,80,0,1
392302,-50,3,1,1,80,0,1
393004,-50,3,1,4,90,0,1
393068,-50,3,1,1,90,0,1
397089,-50,3,1,4,90,0,1
397153,-50,3,1,1,80,0,1
400408,-50,3,1,2,80,0,1
400472,-50,3,1,1,80,0,1
401174,-50,3,1,4,90,0,1
401238,-50,3,1,1,90,0,1
405259,-100,3,1,1,90,0,1
419557,-50,3,1,1,90,0,1
421600,-1000,3,1,1,90,0,1
421664,-1000,3,1,1,90,0,0
422621,-100,3,1,2,90,0,0
425685,-43.4782608695652,3,1,1,90,0,0
426196,-100,3,1,1,90,0,0
428238,-100,3,1,2,90,0,0
429770,-500,3,1,1,90,0,0
430281,-100,3,1,2,90,0,0
433855,-43.4782608695652,3,1,1,90,0,0
434366,-100,3,1,1,70,0,0
434621,-100,3,1,1,90,0,0
436408,-100,3,1,2,90,0,0
437940,-500,3,1,1,90,0,0
438962,-100,3,1,1,90,0,0
440579,-100,3,1,1,25,0,0
441004,-100,3,1,1,90,0,0
442025,-500,3,1,1,90,0,0
442536,-500,3,1,5,90,0,0
443047,-100,3,1,2,90,0,0
444068,-100,3,1,1,50,0,0
444323,-66.6666666666667,3,1,1,50,0,0
444579,-50,3,1,1,90,0,0
445600,-100,3,1,1,90,0,0
446621,-100,3,1,5,90,0,0
446876,-200,3,1,1,90,0,0
447132,-100,3,1,2,90,0,0
449174,-500,3,1,1,90,0,0
449685,-500,3,1,5,90,0,0
450196,-100,3,1,2,90,0,0
451217,-100,3,1,1,50,0,0
451472,-66.6666666666667,3,1,1,50,0,0
451728,-50,3,1,1,90,0,0
452749,-100,3,1,1,90,0,0
453770,-100,3,1,5,90,0,0
454025,-200,3,1,1,90,0,0
454281,-100,3,1,1,90,0,0
458366,-100,3,1,5,90,0,0
458621,-66.6666666666667,3,1,1,50,0,0
458876,-50,3,1,1,90,0,0
459898,-100,3,1,1,90,0,0
461174,-200,3,1,1,90,0,0
461430,-100,3,1,1,90,0,0
461813,-100,3,1,5,90,0,0
461940,-100,3,1,1,90,0,0
462196,-100,3,1,5,90,0,0
462323,-100,3,1,1,90,0,0
462579,-100,3,1,5,90,0,0
462706,-100,3,1,1,90,0,0
462962,-100,3,1,5,90,0,0
463089,-100,3,1,1,90,0,0
464366,-100,3,1,1,50,0,0
464494,-100,3,1,1,90,0,0
465515,-100,3,1,5,90,0,0
465770,-66.6666666666667,3,1,1,50,0,0
466025,-50,3,1,1,90,0,0
467047,-100,3,1,1,90,0,0
468323,-200,3,1,1,90,0,0
468579,-100,3,1,5,90,0,0
468706,-100,3,1,1,30,0,0
468834,-100,3,1,1,90,0,0
469004,-100,3,1,1,25,0,0
469089,-100,3,1,1,90,0,0
469259,-100,3,1,5,100,0,0
469430,-100,3,1,1,25,0,0
469600,-100,3,1,1,40,0,0
469685,-100,3,1,1,60,0,0
469770,-100,3,1,1,90,0,0
469855,-100,3,1,3,50,0,0
469940,-100,3,1,1,25,0,0
470111,-100,3,1,1,90,0,0
470621,255.31914893617,3,1,1,90,1,1
470621,-133.333333333333,3,1,1,90,0,1
471386,-133.333333333333,3,1,2,90,0,1
473557,-133.333333333333,3,1,1,40,0,1
473684,-133.333333333333,3,1,2,90,0,1
475982,-133.333333333333,3,1,4,50,0,1
476493,-133.333333333333,3,1,1,90,0,1
477514,-133.333333333333,3,1,2,90,0,1
478663,-133.333333333333,3,1,1,40,0,1
478791,-133.333333333333,3,1,2,90,0,1
480067,-133.333333333333,3,1,2,40,0,1
480323,-133.333333333333,3,1,2,50,0,1
480578,-133.333333333333,3,1,2,90,0,1
481855,-66.6666666666667,3,1,5,90,0,1
482621,-133.333333333333,3,1,4,50,0,1
482876,-133.333333333333,3,1,1,90,0,1
483642,-133.333333333333,3,1,2,90,0,1
484791,-133.333333333333,3,1,1,40,0,1
484918,-133.333333333333,3,1,2,90,0,1
486450,-133.333333333333,3,1,1,40,0,1
486706,-133.333333333333,3,1,2,90,0,1
488238,-133.333333333333,3,1,4,50,0,1
488748,-133.333333333333,3,1,1,90,0,1
489769,-133.333333333333,3,1,2,90,0,1
491940,-133.333333333333,3,1,1,40,0,1
492067,-133.333333333333,3,1,2,90,0,1
493982,-133.333333333333,3,1,1,40,0,1
494110,-133.333333333333,3,1,2,90,0,1
495067,-100,3,1,1,90,0,0
495131,-66.6666666666667,3,1,1,90,0,1
495642,-66.6666666666667,3,1,2,90,0,1
498450,-40,3,1,2,90,0,1
498706,-66.6666666666667,3,1,2,90,0,1
500493,-66.6666666666667,3,1,4,50,0,1
501003,-66.6666666666667,3,1,1,90,0,1
501769,-66.6666666666667,3,1,2,90,0,1
502025,-40,3,1,2,90,0,1
504323,-66.6666666666667,3,1,2,90,0,1
506365,-66.6666666666667,3,1,5,100,0,1
506621,-133.333333333333,3,1,1,90,0,1
507131,-66.6666666666667,3,1,4,50,0,1
507386,-66.6666666666667,3,1,1,90,0,1
507897,-66.6666666666667,3,1,2,90,0,1
508918,-50,3,1,2,90,0,1
509684,-66.6666666666667,3,1,2,90,0,1
510450,-66.6666666666667,3,1,1,90,0,1
510706,-66.6666666666667,3,1,2,90,0,1
512748,-66.6666666666667,3,1,4,50,0,1
513259,-66.6666666666667,3,1,1,90,0,1
514025,-66.6666666666667,3,1,2,90,0,1
516578,-66.6666666666667,3,1,1,90,0,1
517599,-50,3,1,2,90,0,1
518620,-66.6666666666667,3,1,1,70,0,1
518876,-37.037037037037,3,1,1,90,0,1
519706,-37.037037037037,3,1,1,90,0,0
520918,-37.037037037037,3,1,1,60,0,0
521174,-100,3,1,1,90,0,0
521429,-100,3,1,1,20,0,0

[Colours]
Combo1 : 255,173,91
Combo2 : 128,128,128
Combo3 : 192,192,192
Combo4 : 255,0,0
Combo5 : 255,128,128
Combo6 : 244,122,0

[HitObjects]
194,207,80,5,0,0:0:0:0:
286,215,335,1,0,0:0:0:0:
242,282,590,1,0,0:0:0:0:
286,215,845,1,0,0:0:0:0:
348,322,1101,5,0,0:0:0:0:
425,289,1356,1,0,0:0:0:0:
436,161,1611,1,10,0:3:0:0:
436,161,1994,1,8,0:0:0:0:
433,158,2058,1,8,0:0:0:0:
430,155,2122,70,0,L|364:119,1,70,4|0,0:0|0:0,0:0:0:0:
248,5,2633,1,0,0:0:0:0:
253,145,2888,1,0,0:0:0:0:
290,76,3016,1,2,0:0:0:0:
337,213,3143,6,0,L|277:268,1,70,8|0,0:0|0:0,0:0:0:0:
180,254,3654,1,0,0:0:0:0:
140,104,3909,2,0,L|125:187,1,70,2|0,0:0|0:0,0:0:0:0:
180,254,4292,1,2,0:0:0:0:
180,254,4420,2,0,L|165:337,1,70
337,213,4931,1,2,0:0:0:0:
358,293,5058,1,8,0:0:0:0:
414,170,5186,70,0,L|388:128,2,35,8|8|0,0:0|0:0|0:0,0:0:0:0:
455,270,5697,1,2,0:0:0:0:
495,199,5824,1,8,0:0:0:0:
358,293,5952,1,8,0:0:0:0:
455,270,6079,1,2,0:0:0:0:
315,183,6207,6,0,L|242:199,1,70,6|0,0:0|0:0,0:0:0:0:
218,283,6590,1,2,0:0:0:0:
271,146,6718,2,0,L|196:162,1,70,6|0,0:0|0:0,0:0:0:0:
218,283,7101,1,4,0:0:0:0:
227,109,7228,70,0,L|154:125,1,70,8|0,0:0|0:0,0:0:0:0:
62,201,7739,2,0,L|135:217,1,70,2|0,0:0|0:0,0:0:0:0:
315,183,8250,5,0,0:0:0:0:
275,36,8505,1,2,0:0:0:0:
399,143,8760,1,2,0:0:0:0:
419,45,8888,1,2,0:0:0:0:
416,31,9143,1,2,0:0:0:0:
489,159,9271,70,0,L|460:231,1,70,8|0,0:0|0:0,0:0:0:0:
361,253,9654,1,2,0:0:0:0:
347,256,9909,1,2,0:0:0:0:
323,338,10037,1,2,0:0:0:0:
275,195,10165,1,8,0:0:0:0:
229,349,10292,6,0,L|156:367,1,70,4|0,0:0|0:0,0:0:0:0:
55,338,10675,1,2,0:0:0:0:
246,312,10803,2,0,L|173:330,1,70,2|0,0:0|0:0,0:0:0:0:
55,338,11186,1,2,0:0:0:0:
263,275,11314,70,0,L|190:293,2,70,8|0|0,0:0|0:0|0:0,0:0:0:0:
407,201,11952,2,0,L|378:178,1,35,8|0,0:0|0:0,0:0:0:0:
376,285,12207,2,0,L|347:262,1,35,8|0,0:0|0:0,0:0:0:0:
296,193,12462,1,2,0:0:0:0:
263,275,12590,1,0,0:0:0:0:
263,275,12845,2,0,L|190:293,1,70,2|0,0:0|0:0,0:0:0:0:
121,243,13228,1,2,0:0:0:0:
228,176,13356,6,0,L|295:192,2,70,8|0|0,0:0|0:0|0:0,0:0:0:0:
166,49,13994,2,0,L|203:40,1,35,8|0,0:0|0:0,0:0:0:0:
200,40,14377,70,0,L|127:57,1,70,2|0,0:0|0:0,0:0:0:0:
93,136,14760,1,2,0:0:0:0:
228,176,14888,2,0,L|292:159,1,52.5,8|0,0:0|2:0,0:0:0:0:
278,162,15143,6,0,L|318:233,1,70,6|0,0:0|2:0,0:0:0:0:
304,311,15526,1,2,0:0:0:0:
278,162,15654,2,0,L|342:145,1,52.5,8|0,0:0|2:0,0:0:0:0:
328,148,15909,70,0,L|368:219,1,70,6|0,0:0|2:0,0:0:0:0:
354,297,16292,1,2,0:0:0:0:
328,148,16420,2,0,L|392:131,1,52.5,8|0,0:0|2:0,0:0:0:0:
378,134,16675,6,0,L|418:205,1,70,6|0,0:0|2:0,0:0:0:0:
404,283,17058,1,2,0:0:0:0:
378,134,17186,2,0,L|442:117,1,52.5,8|0,0:0|2:0,0:0:0:0:
428,120,17441,70,0,L|468:191,1,70,6|0,0:0|2:0,0:0:0:0:
454,269,17824,2,0,L|429:251,1,23.3333333333333,2|10,0:0|0:3,0:0:0:0:
462,180,17952,5,8,0:0:0:0:
476,177,18207,1,2,0:0:0:0:
359,164,18335,1,8,0:0:0:0:
500,87,18462,69,4,0:0:0:0:
477,60,18590,1,8,0:0:0:0:
446,45,18718,1,8,0:0:0:0:
411,44,18845,1,8,0:0:0:0:
380,58,18973,1,8,0:0:0:0:
380,58,19228,5,2,0:0:0:0:
372,164,19356,1,8,0:0:0:0:
349,190,19484,1,8,0:0:0:0:
318,205,19612,1,8,0:0:0:0:
283,206,19739,1,8,0:0:0:0:
252,192,19867,1,8,0:0:0:0:
276,96,19994,70,0,L|305:131,1,35,8|2,0:0|0:0,0:0:0:0:
302,287,20250,1,8,0:0:0:0:
372,164,20377,1,8,0:0:0:0:
216,268,20505,6,0,L|150:232,1,70,4|0,0:0|0:0,0:0:0:0:
67,255,20888,1,2,0:0:0:0:
92,169,21016,2,0,L|68:93,1,70,2|0,0:0|0:0,0:0:0:0:
0,47,21399,1,2,0:0:0:0:
137,30,21526,70,0,L|158:96,1,70,8|0,0:0|0:0,0:0:0:0:
254,186,22037,2,0,L|272:142,1,35
238,76,22292,1,0,0:0:0:0:
372,38,22548,2,0,L|362:72,1,35
355,206,22803,2,0,L|370:247,2,35,2|8|8,0:0|0:0|0:0,0:0:0:0:
443,162,23186,2,0,L|458:121,2,35,2|8|8,0:0|0:0|0:0,0:0:0:0:
469,324,23569,5,8,0:0:0:0:
362,71,23824,1,2,0:0:0:0:
311,309,24079,1,4,0:0:0:0:
266,191,24207,1,2,0:0:0:0:
272,178,24462,1,8,0:0:0:0:
189,273,24590,70,0,L|103:264,1,70,6|0,0:0|0:0,0:0:0:0:
81,187,24973,1,2,0:0:0:0:
169,190,25101,2,0,L|203:127,1,70,2|0,0:0|0:0,0:0:0:0:
159,52,25484,1,4,0:0:0:0:
272,178,25611,6,0,L|277:253,1,70,8|0,0:0|0:0,0:0:0:0:
177,355,26122,1,0,0:0:0:0:
348,377,26377,1,0,0:0:0:0:
196,255,26633,70,0,L|192:208,1,35
272,178,26888,1,2,0:0:0:0:
430,255,27143,1,4,0:0:0:0:
305,287,27271,1,2,0:0:0:0:
293,294,27526,1,8,0:0:0:0:
401,174,27654,6,0,L|396:104,1,70,8|0,0:0|0:0,0:0:0:0:
249,51,28037,1,6,0:0:0:0:
235,50,28292,1,2,0:0:0:0:
193,130,28420,1,2,0:0:0:0:
330,52,28548,1,8,0:0:0:0:
268,209,28675,70,0,L|190:225,1,70,6|0,0:0|0:0,0:0:0:0:
116,182,29058,1,2,0:0:0:0:
124,275,29186,2,0,L|173:334,1,70,2|0,0:0|0:0,0:0:0:0:
255,346,29569,1,2,0:0:0:0:
268,209,29697,1,8,0:0:0:0:
268,209,30207,5,4,0:0:0:0:
354,256,30335,2,0,L|344:314,1,52.5,4|0,0:0|2:0,0:0:0:0:
337,328,30590,1,2,0:0:0:0:
442,266,30718,2,0,L|431:183,1,70,2|0,0:0|0:0,0:0:0:0:
268,209,31228,69,4,0:0:0:0:
360,268,31356,2,0,L|350:326,1,52.5,4|0,0:0|2:0,0:0:0:0:
343,340,31611,1,2,0:0:0:0:
456,256,31739,2,0,L|445:173,1,70,8|0,0:0|0:0,0:0:0:0:
268,209,32250,5,4,0:0:0:0:
366,280,32377,2,0,L|356:338,1,52.5,4|0,0:0|2:0,0:0:0:0:
349,352,32632,1,2,0:0:0:0:
356,165,32760,70,0,L|296:103,1,70,4|0,0:0|0:0,0:0:0:0:
340,32,33143,1,2,0:0:0:0:
189,36,33271,2,0,L|179:97,1,52.5,8|0,0:0|2:0,0:0:0:0:
180,87,33526,6,0,L|98:97,1,70,6|0,0:0|0:0,0:0:0:0:
34,50,33909,1,2,0:0:0:0:
180,87,34037,2,0,L|170:148,1,52.5,8|0,0:0|2:0,0:0:0:0:
171,138,34292,70,0,L|89:148,1,70,6|0,0:0|0:0,0:0:0:0:
25,101,34675,1,2,0:0:0:0:
171,138,34803,2,0,L|161:199,1,52.5,8|0,0:0|2:0,0:0:0:0:
162,189,35058,6,0,L|80:199,1,70,6|0,0:0|0:0,0:0:0:0:
16,152,35441,1,2,0:0:0:0:
162,189,35569,2,0,L|152:250,1,52.5,8|0,0:0|2:0,0:0:0:0:
153,240,35824,70,0,L|71:250,1,70,6|0,0:0|0:0,0:0:0:0:
7,203,36207,2,0,L|31:186,1,23.3333333333333,2|10,0:0|0:3,0:0:0:0:
83,248,36335,5,8,0:0:0:0:
69,334,36462,1,2,0:0:0:0:
2,278,36590,1,2,0:0:0:0:
140,384,36718,1,8,0:0:0:0:
83,248,36845,69,0,0:0:0:0:
166,157,37101,1,0,0:0:0:0:
83,248,37356,1,0,0:0:0:0:
186,245,37611,1,0,0:0:0:0:
64,157,37867,5,0,0:0:0:0:
97,73,38122,1,0,0:0:0:0:
391,73,38377,1,10,0:3:0:0:
391,73,38760,1,8,0:0:0:0:
390,76,38824,1,8,0:0:0:0:
387,78,38888,70,0,P|384:105|385:131,1,52.5,6|0,0:0|2:0,0:0:0:0:
395,167,39143,1,2,0:0:0:0:
481,322,39399,2,0,L|464:353,2,35,2|8|8,0:0|0:0|0:0,0:0:0:0:
471,229,39782,1,0,0:0:0:0:
336,329,39909,5,12,0:0:0:0:
278,358,40037,2,0,P|245:338|222:307,1,70,4|0,0:0|0:0,0:0:0:0:
252,251,40420,1,4,0:0:0:0:
225,313,40548,2,0,P|247:340|278:358,1,70,4|0,0:0|0:0,0:0:0:0:
336,329,40931,69,4,0:0:0:0:
278,358,41058,1,4,0:0:0:0:
252,251,41186,2,0,L|282:222,1,35,2|0,0:0|0:0,0:0:0:0:
374,234,41441,1,4,0:0:0:0:
354,122,41569,1,2,0:0:0:0:
358,108,41824,1,8,0:0:0:0:
238,158,41952,6,0,P|211:161|184:158,1,52.5,8|0,0:0|2:0,0:0:0:0:
155,146,42207,1,2,0:0:0:0:
198,0,42462,1,4,0:0:0:0:
274,74,42590,1,2,0:0:0:0:
281,86,42845,1,8,0:0:0:0:
112,40,42973,70,0,P|78:43|43:53,2,52.5000020027161,2|8|8,0:0|0:0|0:0,0:0:0:0:
155,146,43356,1,2,0:0:0:0:
40,132,43484,2,0,P|12:163|11:232,1,105.000004005432,6|0,0:0|0:0,0:0:0:0:
150,246,43867,1,2,0:0:0:0:
1,371,43994,5,8,0:0:0:0:
1,371,44250,2,0,L|8:319,1,52.5000020027161,8|8,0:0|0:0,0:0:0:0:
150,246,44505,1,4,0:0:0:0:
206,327,44633,2,0,P|158:344|121:341,1,78.7500030040742,4|0,0:0|2:0,0:0:0:0:
92,327,44888,1,8,0:0:0:0:
150,246,45016,70,0,L|140:201,1,35,4|8,0:0|0:0,0:0:0:0:
73,175,45271,1,0,0:0:0:0:
175,117,45399,1,2,0:0:0:0:
57,85,45526,2,0,L|16:96,2,35,6|8|8,0:0|0:0|0:0,0:0:0:0:
94,30,45909,1,8,0:0:0:0:
250,73,46037,6,0,P|260:98|262:124,1,52.5000020027161,8|8,0:0|0:0,0:0:0:0:
232,210,46292,1,8,0:0:0:0:
230,213,46355,1,8,0:0:0:0:
228,216,46419,1,8,0:0:0:0:
226,220,46483,1,8,0:0:0:0:
224,223,46547,1,4,0:0:0:0:
328,204,46675,2,0,P|367:227|394:302,1,105.000004005432,8|0,0:0|0:0,0:0:0:0:
477,167,47058,70,0,P|436:147|406:144,1,70,6|0,0:0|0:0,0:0:0:0:
328,204,47441,1,2,0:0:0:0:
318,99,47569,2,0,L|340:62,2,35,2|8|8,0:0|0:0|0:0,0:0:0:0:
232,161,47952,1,2,0:0:0:0:
208,6,48079,5,8,0:0:0:0:
208,6,48335,1,0,0:0:0:0:
166,91,48462,1,8,0:0:0:0:
162,89,48526,1,8,0:0:0:0:
158,87,48590,1,4,0:0:0:0:
232,161,48718,1,8,0:0:0:0:
237,174,48973,1,8,0:0:0:0:
153,237,49101,70,0,L|113:217,1,35
92,297,49356,2,0,L|52:277,1,35,2|8,0:0|0:0,0:0:0:0:
43,199,49611,2,0,L|47:162,2,35,2|8|8,0:0|0:0|0:0,0:0:0:0:
137,139,49994,1,2,0:0:0:0:
224,279,50122,6,0,P|254:285|289:281,1,52.5,8|0,0:0|2:0,0:0:0:0:
293,279,50377,1,0,0:0:0:0:
323,99,50633,1,4,0:0:0:0:
255,178,50760,2,0,L|218:151,2,35,8|0|0,0:0|0:0|0:0,0:0:0:0:
415,137,51143,70,0,P|459:162|483:203,1,78.7500030040742,6|0,0:0|2:0,0:0:0:0:
487,212,51399,1,0,0:0:0:0:
395,225,51526,1,2,0:0:0:0:
374,63,51654,6,0,P|411:53|450:60,1,78.7500030040742,8|0,0:0|0:0,0:0:0:0:
507,91,51909,1,6,0:0:0:0:
415,137,52037,1,0,0:0:0:0:
487,212,52165,70,0,L|477:271,1,52.5000020027161,0|8,0:0|0:0,0:0:0:0:
294,321,52420,6,0,P|298:271|284:226,1,78.7500030040742,8|0,0:0|2:0,0:0:0:0:
270,200,52675,1,6,0:0:0:0:
270,200,52803,1,0,0:0:0:0:
270,200,52931,1,0,0:0:0:0:
202,281,53058,1,2,0:0:0:0:
270,200,53186,70,0,P|225:177|177:176,1,78.7500030040742,8|0,0:0|2:0,0:0:0:0:
117,185,53441,2,0,L|61:195,2,52.5000020027161,2|8|8,0:0|0:0|0:0,0:0:0:0:
197,174,53824,1,8,0:0:0:0:
82,275,53952,6,0,P|32:269|-5:237,1,78.7500030040742,8|0,0:0|2:0,0:0:0:0:
65,194,54207,2,0,L|117:185,2,52.5000020027161,2|8|8,0:0|0:0|0:0,0:0:0:0:
0,137,54590,2,0,L|26:117,1,23.3333333333333,2|10,0:0|0:3,0:0:0:0:
66,110,54718,69,8,0:0:0:0:
117,185,54845,2,0,L|159:177,1,35,2|2,0:0|0:0,0:0:0:0:
66,110,55101,1,8,0:0:0:0:
184,99,55228,5,6,0:0:0:0:
212,118,55355,1,8,0:0:0:0:
231,148,55483,1,8,0:0:0:0:
236,182,55610,1,8,0:0:0:0:
228,216,55738,1,8,0:0:0:0:
258,254,55866,1,4,0:0:0:0:
175,285,55994,1,2,0:0:0:0:
288,336,56122,69,8,0:0:0:0:
318,318,56249,1,8,0:0:0:0:
339,290,56377,1,8,0:0:0:0:
347,257,56505,1,8,0:0:0:0:
342,222,56632,1,8,0:0:0:0:
294,149,56760,6,0,L|243:123,1,52.5000020027161,8|0,0:3|0:0,0:0:0:0:
402,129,57016,1,8,0:0:0:0:
271,21,57143,1,8,0:0:0:0:
253,226,57271,70,0,P|223:244|197:250,1,52.5,6|0,0:0|0:0,0:0:0:0:
189,252,57526,1,0,0:0:0:0:
192,162,57654,1,2,0:0:0:0:
110,205,57782,2,0,L|89:247,2,35,0|8|8,0:0|0:0|0:0,0:0:0:0:
192,162,58165,1,2,0:0:0:0:
68,125,58292,5,12,0:0:0:0:
39,67,58420,2,0,P|59:34|90:11,1,70,4|0,0:0|0:0,0:0:0:0:
150,37,58803,1,4,0:0:0:0:
84,14,58931,2,0,P|57:35|39:67,1,70,4|0,0:0|0:0,0:0:0:0:
68,125,59314,69,4,0:0:0:0:
39,65,59441,1,4,0:0:0:0:
150,37,59569,2,0,L|179:67,1,35,2|8,0:0|0:0,0:0:0:0:
192,162,59824,5,4,0:0:0:0:
110,205,59952,1,2,0:0:0:0:
97,201,60207,1,8,0:0:0:0:
246,239,60335,69,8,0:0:0:0:
266,31,60590,1,2,0:0:0:0:
345,225,60845,1,4,0:0:0:0:
356,138,60973,2,0,L|381:108,1,35,2|8,0:0|0:0,0:0:0:0:
510,227,61228,1,8,0:0:0:0:
345,225,61356,6,0,P|311:228|275:241,2,52.5000020027161,2|8|8,0:0|0:0|0:0,0:0:0:0:
442,282,61739,1,2,0:0:0:0:
291,315,61867,2,0,P|247:300|212:241,1,105.000004005432,6|0,0:0|0:0,0:0:0:0:
213,137,62250,1,2,0:0:0:0:
129,258,62377,69,8,0:0:0:0:
129,258,62633,1,0,0:0:0:0:
133,174,62760,1,8,0:0:0:0:
130,171,62824,1,8,0:0:0:0:
128,168,62888,1,4,0:0:0:0:
214,253,63016,1,8,0:0:0:0:
214,273,63271,1,8,0:0:0:0:
129,258,63399,5,4,0:0:0:0:
159,343,63526,1,2,0:0:0:0:
72,328,63654,2,0,L|39:277,1,52.5000020027161,2|8,0:0|0:0,0:0:0:0:
46,182,63909,2,0,L|-12:162,2,52.5000020027161,4|8|8,0:0|0:0|0:0,0:0:0:0:
118,131,64292,1,2,0:0:0:0:
129,258,64420,69,8,0:0:0:0:
200,152,64548,1,8,0:0:0:0:
236,227,64675,1,6,0:0:0:0:
259,5,64931,1,8,0:0:0:0:
236,227,65186,1,8,0:0:0:0:
388,19,65441,6,0,P|439:33|472:68,1,78.7500030040742,6|0,0:0|2:0,0:0:0:0:
465,60,65697,1,8,0:0:0:0:
394,103,65824,1,2,0:0:0:0:
472,148,65952,2,0,L|484:202,2,52.5000020027161,4|8|8,0:0|0:0|0:0,0:0:0:0:
394,103,66335,1,2,0:0:0:0:
388,260,66462,69,8,0:0:0:0:
388,260,66718,1,0,0:0:0:0:
382,272,66781,1,0,0:0:0:0:
375,283,66845,1,0,0:0:0:0:
366,292,66909,1,0,0:0:0:0:
356,300,66973,1,0,0:0:0:0:
311,232,67101,2,0,L|317:154,1,78.7500030040742,4|0,0:0|2:0,0:0:0:0:
323,138,67356,1,2,0:0:0:0:
232,203,67484,6,0,L|237:132,1,52.5000020027161,2|0,0:0|2:0,0:0:0:0:
210,56,67739,1,0,0:0:0:0:
199,47,67802,1,0,0:0:0:0:
188,41,67866,1,0,0:0:0:0:
175,37,67930,1,0,0:0:0:0:
163,34,67994,1,0,0:0:0:0:
156,117,68122,2,0,L|150:195,1,78.7500030040742,4|0,0:0|2:0,0:0:0:0:
153,211,68377,1,2,0:0:0:0:
18,337,68505,69,8,0:0:0:0:
18,337,68760,1,0,0:0:0:0:
16,323,68823,1,0,0:0:0:0:
17,310,68887,1,0,0:0:0:0:
20,298,68951,1,0,0:0:0:0:
26,286,69015,1,0,0:0:0:0:
103,324,69143,2,0,L|192:326,1,78.7500030040742,4|0,0:0|2:0,0:0:0:0:
197,318,69399,1,2,0:0:0:0:
51,240,69526,6,0,L|23:290,2,52.5000020027161,6|8|8,0:0|0:0|0:0,0:0:0:0:
149,236,69909,1,2,0:0:0:0:
41,141,70037,2,0,P|55:91|90:65,1,78.7500030040742,8|0,0:0|2:0,0:0:0:0:
105,58,70292,2,0,L|162:39,1,52.5000020027161,6|0,0:0|0:0,0:0:0:0:
220,96,70548,1,0,0:0:0:0:
263,10,70675,1,2,0:0:0:0:
287,149,70803,69,8,0:0:0:0:
287,149,71058,2,0,L|232:187,1,52.5000020027161,2|8,0:0|0:0,0:0:0:0:
261,266,71314,2,0,L|329:218,1,78.7500030040742,2|0,0:0|2:0,0:0:0:0:
373,150,71569,5,8,0:0:0:0:
373,150,71824,2,4,L|411:191,2,52.5000020027161,6|4|4,0:0|0:0|0:0,0:0:0:0:
420,77,72207,1,2,0:0:0:0:
325,221,72335,69,8,0:0:0:0:
325,221,72590,2,0,L|363:262,2,52.5000020027161
288,144,72973,2,0,L|256:143,1,23.3333333333333,2|10,0:0|0:3,0:0:0:0:
231,156,73101,5,8,0:0:0:0:
223,57,73228,1,2,0:0:0:0:
129,17,73356,1,8,0:3:0:0:
129,17,73484,1,8,0:3:0:0:
231,156,73611,69,10,0:3:0:0:
61,199,73867,1,0,0:0:0:0:
149,289,74122,1,0,0:0:0:0:
61,199,74377,1,0,0:0:0:0:
88,80,74633,5,0,0:0:0:0:
253,35,74888,1,0,0:0:0:0:
253,35,75654,70,0,L|236:86,1,52.5,14|0,0:0|2:0,0:0:0:0:
214,166,76675,5,14,0:0:0:0:
214,176,76738,1,0,0:0:0:0:
216,186,76802,1,0,0:0:0:0:
219,196,76866,1,0,0:0:0:0:
222,206,76930,1,0,0:0:0:0:
227,216,76994,1,0,0:0:0:0:
233,224,77057,1,0,0:0:0:0:
239,233,77121,1,0,0:0:0:0:
247,240,77185,1,0,0:0:0:0:
254,247,77249,1,0,0:0:0:0:
263,253,77313,1,0,0:0:0:0:
272,258,77377,1,0,0:0:0:0:
282,262,77440,1,0,0:0:0:0:
292,266,77504,1,0,0:0:0:0:
302,268,77568,1,0,0:0:0:0:
313,269,77632,1,0,0:0:0:0:
323,269,77696,69,0,0:0:0:0:
334,268,77760,1,0,0:0:0:0:
344,266,77823,1,0,0:0:0:0:
354,263,77887,1,0,0:0:0:0:
364,259,77951,1,0,0:0:0:0:
373,255,78015,1,0,0:0:0:0:
382,249,78079,1,0,0:0:0:0:
390,242,78143,1,0,0:0:0:0:
397,235,78206,1,0,0:0:0:0:
404,227,78270,1,0,0:0:0:0:
410,218,78334,1,0,0:0:0:0:
415,209,78398,1,0,0:0:0:0:
419,199,78462,1,0,0:0:0:0:
422,189,78526,1,0,0:0:0:0:
424,179,78589,1,0,0:0:0:0:
425,168,78653,1,0,0:0:0:0:
425,158,78718,5,8,0:0:0:0:
414,156,78781,1,0,0:0:0:0:
404,155,78845,1,0,0:0:0:0:
393,155,78909,1,0,0:0:0:0:
383,157,78973,1,0,0:0:0:0:
373,160,79037,1,0,0:0:0:0:
363,164,79100,1,0,0:0:0:0:
354,169,79164,1,0,0:0:0:0:
345,175,79228,1,0,0:0:0:0:
337,182,79292,1,0,0:0:0:0:
330,190,79356,1,0,0:0:0:0:
324,198,79420,1,0,0:0:0:0:
319,207,79483,1,0,0:0:0:0:
315,217,79547,1,0,0:0:0:0:
312,227,79611,1,0,0:0:0:0:
310,237,79675,1,0,0:0:0:0:
310,248,79739,70,0,L|309:302,1,52.5,14|0,0:0|2:0,0:0:0:0:
242,365,80760,5,14,0:0:0:0:
225,371,80823,1,0,0:0:0:0:
208,374,80887,1,0,0:0:0:0:
190,374,80951,1,0,0:0:0:0:
173,371,81015,1,0,0:0:0:0:
157,366,81079,1,0,0:0:0:0:
141,357,81142,1,0,0:0:0:0:
128,346,81206,1,0,0:0:0:0:
116,333,81270,1,0,0:0:0:0:
107,318,81334,1,0,0:0:0:0:
101,302,81398,1,0,0:0:0:0:
97,285,81462,1,0,0:0:0:0:
97,267,81525,1,0,0:0:0:0:
100,250,81589,1,0,0:0:0:0:
105,233,81653,1,0,0:0:0:0:
113,218,81717,1,0,0:0:0:0:
124,204,81781,69,0,0:0:0:0:
137,192,81845,1,0,0:0:0:0:
152,183,81908,1,0,0:0:0:0:
168,177,81972,1,0,0:0:0:0:
185,173,82036,1,0,0:0:0:0:
203,172,82100,1,0,0:0:0:0:
220,175,82164,1,0,0:0:0:0:
237,180,82228,1,0,0:0:0:0:
252,188,82292,5,0,0:0:0:0:
279,194,82355,1,0,0:0:0:0:
306,193,82419,1,0,0:0:0:0:
333,184,82483,1,0,0:0:0:0:
355,167,82547,1,0,0:0:0:0:
373,145,82611,1,0,0:0:0:0:
383,119,82674,1,0,0:0:0:0:
385,92,82738,1,0,0:0:0:0:
379,64,82803,70,0,L|361:8,1,52.5,4|0,0:0|2:0,0:0:0:0:
280,3,83058,1,12,0:3:0:0:
288,99,83186,1,12,0:3:0:0:
389,51,83314,6,0,L|371:-5,1,52.5,2|0,0:0|2:0,0:0:0:0:
192,0,83569,1,8,0:0:0:0:
278,202,83697,1,8,0:0:0:0:
483,73,83824,70,0,L|471:22,1,52.5,14|0,0:0|2:0,0:0:0:0:
388,5,84845,5,14,0:0:0:0:
378,8,84908,1,0,0:0:0:0:
368,12,84972,1,0,0:0:0:0:
359,17,85036,1,0,0:0:0:0:
350,23,85100,1,0,0:0:0:0:
342,30,85164,1,0,0:0:0:0:
335,38,85227,1,0,0:0:0:0:
329,46,85291,1,0,0:0:0:0:
323,55,85355,1,0,0:0:0:0:
319,65,85419,1,0,0:0:0:0:
315,75,85483,1,0,0:0:0:0:
313,85,85547,1,0,0:0:0:0:
312,95,85610,1,0,0:0:0:0:
311,106,85674,1,0,0:0:0:0:
312,116,85738,1,0,0:0:0:0:
314,126,85802,1,0,0:0:0:0:
316,137,85866,69,0,0:0:0:0:
320,146,85930,1,0,0:0:0:0:
325,156,85993,1,0,0:0:0:0:
331,165,86057,1,0,0:0:0:0:
337,173,86121,1,0,0:0:0:0:
345,180,86185,1,0,0:0:0:0:
353,187,86249,1,0,0:0:0:0:
361,193,86313,1,0,0:0:0:0:
371,198,86376,1,0,0:0:0:0:
380,202,86440,1,0,0:0:0:0:
390,205,86504,1,0,0:0:0:0:
401,206,86568,1,0,0:0:0:0:
411,207,86632,1,0,0:0:0:0:
422,207,86696,1,0,0:0:0:0:
432,206,86759,1,0,0:0:0:0:
442,203,86823,1,0,0:0:0:0:
452,200,86888,5,8,0:0:0:0:
448,189,86951,1,0,0:0:0:0:
445,180,87015,1,0,0:0:0:0:
440,170,87079,1,0,0:0:0:0:
434,161,87143,1,0,0:0:0:0:
428,153,87207,1,0,0:0:0:0:
421,145,87270,1,0,0:0:0:0:
413,138,87334,1,0,0:0:0:0:
405,132,87398,1,0,0:0:0:0:
396,126,87462,1,0,0:0:0:0:
387,121,87526,1,0,0:0:0:0:
377,117,87590,1,0,0:0:0:0:
367,114,87653,1,0,0:0:0:0:
357,111,87717,1,0,0:0:0:0:
347,110,87781,1,0,0:0:0:0:
336,110,87845,1,0,0:0:0:0:
326,110,87909,70,0,L|272:113,1,52.5,14|0,0:0|2:0,0:0:0:0:
206,174,88931,5,14,0:0:0:0:
194,187,88994,1,0,0:0:0:0:
185,202,89058,1,0,0:0:0:0:
179,218,89122,1,0,0:0:0:0:
177,235,89186,1,0,0:0:0:0:
178,253,89250,1,0,0:0:0:0:
182,270,89313,1,0,0:0:0:0:
189,286,89377,1,0,0:0:0:0:
199,300,89441,1,0,0:0:0:0:
212,312,89505,1,0,0:0:0:0:
227,321,89569,1,0,0:0:0:0:
243,327,89633,1,0,0:0:0:0:
260,330,89696,1,0,0:0:0:0:
278,330,89760,1,0,0:0:0:0:
295,326,89824,1,0,0:0:0:0:
311,319,89888,1,0,0:0:0:0:
325,309,89952,69,0,0:0:0:0:
338,297,90016,1,0,0:0:0:0:
347,282,90079,1,0,0:0:0:0:
354,266,90143,1,0,0:0:0:0:
357,249,90207,1,0,0:0:0:0:
357,232,90271,1,0,0:0:0:0:
354,215,90335,1,0,0:0:0:0:
348,198,90399,1,0,0:0:0:0:
337,172,90462,5,0,0:0:0:0:
336,144,90526,1,0,0:0:0:0:
344,117,90590,1,0,0:0:0:0:
360,94,90654,1,0,0:0:0:0:
383,78,90718,1,0,0:0:0:0:
409,70,90781,1,0,0:0:0:0:
437,71,90845,1,0,0:0:0:0:
463,81,90909,1,0,0:0:0:0:
485,98,90973,70,0,L|515:151,1,52.5,4|0,0:0|2:0,0:0:0:0:
498,225,91228,1,12,0:3:0:0:
421,155,91356,1,12,0:3:0:0:
497,75,91484,6,0,L|515:133,1,52.5,0|0,0:0|2:0,0:0:0:0:
415,241,91739,1,8,0:0:0:0:
385,29,91867,1,8,0:0:0:0:
498,225,91994,69,0,0:0:0:0:
498,225,92122,1,0,0:0:0:0:
341,162,92250,5,0,0:0:0:0:
341,162,92378,1,0,0:0:0:0:
313,261,92505,69,0,0:0:0:0:
313,261,92633,1,0,0:0:0:0:
341,162,92760,5,0,0:0:0:0:
341,162,92888,1,0,0:0:0:0:
401,305,93016,69,8,0:0:0:0:
401,305,93143,1,0,0:0:0:0:
323,358,93271,5,0,0:0:0:0:
323,358,93398,1,0,0:0:0:0:
236,323,93526,69,0,0:0:0:0:
236,323,93654,1,0,0:0:0:0:
225,232,93781,6,0,L|228:180,1,52.5,14|0,0:0|2:0,0:0:0:0:
295,98,94802,69,14,0:0:0:0:
305,95,94865,1,0,0:0:0:0:
315,94,94929,1,0,0:0:0:0:
326,93,94993,1,0,0:0:0:0:
336,94,95057,1,0,0:0:0:0:
346,96,95121,1,0,0:0:0:0:
357,99,95184,1,0,0:0:0:0:
366,103,95248,1,0,0:0:0:0:
376,107,95312,1,0,0:0:0:0:
385,113,95376,1,0,0:0:0:0:
393,119,95440,1,0,0:0:0:0:
400,127,95504,1,0,0:0:0:0:
407,135,95567,1,0,0:0:0:0:
413,143,95631,1,0,0:0:0:0:
418,152,95695,1,0,0:0:0:0:
422,162,95759,1,0,0:0:0:0:
426,172,95823,5,0,0:0:0:0:
428,182,95887,1,0,0:0:0:0:
429,193,95950,1,0,0:0:0:0:
429,203,96014,1,0,0:0:0:0:
428,214,96078,1,0,0:0:0:0:
426,224,96142,1,0,0:0:0:0:
423,234,96206,1,0,0:0:0:0:
419,244,96270,1,0,0:0:0:0:
415,253,96333,1,0,0:0:0:0:
409,262,96397,1,0,0:0:0:0:
402,270,96461,1,0,0:0:0:0:
395,277,96525,1,0,0:0:0:0:
387,284,96589,1,0,0:0:0:0:
378,290,96653,1,0,0:0:0:0:
369,295,96716,1,0,0:0:0:0:
359,299,96780,1,0,0:0:0:0:
349,302,96844,69,8,0:0:0:0:
340,295,96907,1,0,0:0:0:0:
332,289,96971,1,0,0:0:0:0:
325,281,97035,1,0,0:0:0:0:
318,273,97099,1,0,0:0:0:0:
313,264,97163,1,0,0:0:0:0:
308,254,97226,1,0,0:0:0:0:
305,244,97290,1,0,0:0:0:0:
302,234,97354,1,0,0:0:0:0:
301,224,97418,1,0,0:0:0:0:
301,213,97482,1,0,0:0:0:0:
301,203,97546,1,0,0:0:0:0:
303,193,97609,1,0,0:0:0:0:
306,182,97673,1,0,0:0:0:0:
310,173,97737,1,0,0:0:0:0:
315,163,97801,1,0,0:0:0:0:
321,155,97866,6,0,L|355:113,1,52.5,14|0,0:0|2:0,0:0:0:0:
317,28,98887,69,14,0:0:0:0:
302,18,98950,1,0,0:0:0:0:
286,11,99014,1,0,0:0:0:0:
269,6,99078,1,0,0:0:0:0:
252,4,99142,1,0,0:0:0:0:
234,5,99206,1,0,0:0:0:0:
217,9,99269,1,0,0:0:0:0:
201,15,99333,1,0,0:0:0:0:
186,24,99397,1,0,0:0:0:0:
173,36,99461,1,0,0:0:0:0:
161,49,99525,1,0,0:0:0:0:
152,64,99589,1,0,0:0:0:0:
145,80,99652,1,0,0:0:0:0:
141,97,99716,1,0,0:0:0:0:
140,114,99780,1,0,0:0:0:0:
142,132,99844,1,0,0:0:0:0:
146,149,99908,5,0,0:0:0:0:
153,165,99972,1,0,0:0:0:0:
163,179,100035,1,0,0:0:0:0:
175,192,100099,1,0,0:0:0:0:
188,203,100163,1,0,0:0:0:0:
203,212,100227,1,0,0:0:0:0:
220,218,100291,1,0,0:0:0:0:
237,221,100355,1,0,0:0:0:0:
254,222,100419,69,0,0:0:0:0:
281,215,100482,1,0,0:0:0:0:
308,217,100546,1,0,0:0:0:0:
334,228,100610,1,0,0:0:0:0:
355,247,100674,1,0,0:0:0:0:
368,271,100738,1,0,0:0:0:0:
373,299,100801,1,0,0:0:0:0:
369,326,100865,1,0,0:0:0:0:
357,351,100929,6,0,L|299:382,1,52.5,4|0,0:0|2:0,0:0:0:0:
229,369,101185,1,12,0:3:0:0:
249,273,101312,1,12,0:3:0:0:
392,341,101440,70,0,L|345:381,1,52.5,2|0,0:0|2:0,0:0:0:0:
229,369,101695,1,8,0:0:0:0:
424,261,101823,1,8,0:0:0:0:
161,307,101951,6,0,L|135:259,1,52.5,14|0,0:0|2:0,0:0:0:0:
182,183,102972,69,14,0:0:0:0:
187,174,103035,1,0,0:0:0:0:
192,165,103099,1,0,0:0:0:0:
196,155,103163,1,0,0:0:0:0:
199,145,103227,1,0,0:0:0:0:
200,134,103291,1,0,0:0:0:0:
200,124,103354,1,0,0:0:0:0:
198,113,103418,1,0,0:0:0:0:
195,103,103482,1,0,0:0:0:0:
191,93,103546,1,0,0:0:0:0:
186,84,103610,1,0,0:0:0:0:
180,76,103674,1,0,0:0:0:0:
173,68,103737,1,0,0:0:0:0:
165,62,103801,1,0,0:0:0:0:
156,56,103865,1,0,0:0:0:0:
146,52,103929,1,0,0:0:0:0:
136,49,103993,5,0,0:0:0:0:
126,47,104057,1,0,0:0:0:0:
115,46,104120,1,0,0:0:0:0:
105,47,104184,1,0,0:0:0:0:
95,49,104248,1,0,0:0:0:0:
85,52,104312,1,0,0:0:0:0:
75,57,104376,1,0,0:0:0:0:
66,63,104440,1,0,0:0:0:0:
58,69,104503,1,0,0:0:0:0:
51,77,104567,1,0,0:0:0:0:
45,86,104631,1,0,0:0:0:0:
40,95,104695,1,0,0:0:0:0:
36,105,104759,1,0,0:0:0:0:
34,115,104823,1,0,0:0:0:0:
32,125,104886,1,0,0:0:0:0:
33,136,104950,1,0,0:0:0:0:
34,146,105015,69,8,0:0:0:0:
43,141,105078,1,0,0:0:0:0:
52,137,105142,1,0,0:0:0:0:
63,134,105206,1,0,0:0:0:0:
73,132,105270,1,0,0:0:0:0:
83,132,105334,1,0,0:0:0:0:
94,133,105397,1,0,0:0:0:0:
104,135,105461,1,0,0:0:0:0:
114,139,105525,1,0,0:0:0:0:
124,143,105589,1,0,0:0:0:0:
132,149,105653,1,0,0:0:0:0:
141,155,105717,1,0,0:0:0:0:
148,163,105780,1,0,0:0:0:0:
154,171,105844,1,0,0:0:0:0:
160,180,105908,1,0,0:0:0:0:
164,190,105972,1,0,0:0:0:0:
167,200,106036,5,14,0:0:0:0:
392,224,106419,1,0,0:0:0:0:
224,31,106802,1,0,0:0:0:0:
245,329,107057,69,14,0:0:0:0:
257,340,107120,1,0,0:0:0:0:
272,349,107184,1,0,0:0:0:0:
289,356,107248,1,0,0:0:0:0:
306,359,107312,1,0,0:0:0:0:
323,359,107376,1,0,0:0:0:0:
340,355,107439,1,0,0:0:0:0:
356,349,107503,1,0,0:0:0:0:
371,339,107567,1,0,0:0:0:0:
384,327,107631,1,0,0:0:0:0:
394,313,107695,1,0,0:0:0:0:
401,297,107759,1,0,0:0:0:0:
405,280,107822,1,0,0:0:0:0:
406,262,107886,1,0,0:0:0:0:
403,245,107950,1,0,0:0:0:0:
398,228,108014,1,0,0:0:0:0:
389,213,108078,5,0,0:0:0:0:
378,200,108142,1,0,0:0:0:0:
364,189,108205,1,0,0:0:0:0:
349,181,108269,1,0,0:0:0:0:
332,176,108333,1,0,0:0:0:0:
315,174,108397,1,0,0:0:0:0:
297,175,108461,1,0,0:0:0:0:
280,180,108525,1,0,0:0:0:0:
265,188,108588,69,0,0:0:0:0:
237,196,108652,1,0,0:0:0:0:
209,193,108716,1,0,0:0:0:0:
185,180,108780,1,0,0:0:0:0:
165,160,108844,1,0,0:0:0:0:
154,135,108908,1,0,0:0:0:0:
152,107,108971,1,0,0:0:0:0:
160,80,109035,1,0,0:0:0:0:
176,57,109100,6,0,L|230:23,1,52.5,4|0,0:0|2:0,0:0:0:0:
310,31,109355,1,12,0:3:0:0:
252,152,109483,1,12,0:3:0:0:
165,43,109610,70,0,L|222:16,1,52.5,2|0,0:0|2:0,0:0:0:0:
363,99,109866,1,8,0:0:0:0:
131,172,109993,1,8,0:0:0:0:
408,198,110121,5,0,0:0:0:0:
408,198,110249,1,0,0:0:0:0:
247,254,110376,69,0,0:0:0:0:
247,254,110504,1,0,0:0:0:0:
252,152,110632,5,0,0:0:0:0:
252,152,110760,1,0,0:0:0:0:
247,254,110887,69,0,0:0:0:0:
247,254,111015,1,0,0:0:0:0:
131,172,111142,5,8,0:0:0:0:
131,172,111270,1,0,0:0:0:0:
151,82,111397,69,0,0:0:0:0:
151,82,111525,1,0,0:0:0:0:
228,30,111652,5,0,0:0:0:0:
228,30,111780,1,0,0:0:0:0:
321,54,111907,70,0,L|352:95,1,49,14|0,0:0|2:0,0:0:0:0:
368,174,112417,1,4,0:0:0:0:
368,174,112928,5,14,0:0:0:0:
367,177,112991,1,0,0:0:0:0:
366,180,113055,1,0,0:0:0:0:
366,184,113119,1,0,0:0:0:0:
365,187,113183,1,0,0:0:0:0:
365,191,113247,1,0,0:0:0:0:
364,194,113310,1,0,0:0:0:0:
364,198,113374,1,0,0:0:0:0:
363,201,113438,69,4,0:0:0:0:
349,221,113501,1,0,0:0:0:0:
330,237,113565,1,0,0:0:0:0:
308,246,113629,1,0,0:0:0:0:
284,249,113693,1,0,0:0:0:0:
260,245,113757,1,0,0:0:0:0:
238,233,113820,1,0,0:0:0:0:
220,216,113884,1,0,0:0:0:0:
209,195,113949,5,0,0:0:0:0:
208,191,114012,1,0,0:0:0:0:
208,188,114076,1,0,0:0:0:0:
208,184,114140,1,0,0:0:0:0:
208,181,114204,1,0,0:0:0:0:
208,177,114268,1,0,0:0:0:0:
208,174,114331,1,0,0:0:0:0:
208,170,114395,1,0,0:0:0:0:
208,167,114460,69,4,0:0:0:0:
193,147,114523,1,0,0:0:0:0:
173,133,114587,1,0,0:0:0:0:
149,126,114651,1,0,0:0:0:0:
125,125,114715,1,0,0:0:0:0:
102,132,114779,1,0,0:0:0:0:
81,145,114842,1,0,0:0:0:0:
65,164,114906,1,0,0:0:0:0:
56,186,114970,5,8,0:0:0:0:
59,186,115033,1,0,0:0:0:0:
62,187,115097,1,0,0:0:0:0:
66,188,115161,1,0,0:0:0:0:
69,189,115225,1,0,0:0:0:0:
72,190,115289,1,0,0:0:0:0:
76,191,115352,1,0,0:0:0:0:
79,192,115416,1,0,0:0:0:0:
82,193,115481,69,4,0:0:0:0:
104,201,115544,1,0,0:0:0:0:
124,215,115608,1,0,0:0:0:0:
139,235,115672,1,0,0:0:0:0:
148,257,115736,1,0,0:0:0:0:
150,282,115800,1,0,0:0:0:0:
145,306,115863,1,0,0:0:0:0:
134,327,115927,1,0,0:0:0:0:
117,345,115992,6,0,L|70:358,1,49,14|0,0:0|2:0,0:0:0:0:
0,317,116502,1,4,0:0:0:0:
0,317,117013,69,14,0:0:0:0:
0,313,117076,1,0,0:0:0:0:
1,310,117140,1,0,0:0:0:0:
1,306,117204,1,0,0:0:0:0:
2,303,117268,1,0,0:0:0:0:
3,299,117332,1,0,0:0:0:0:
3,296,117395,1,0,0:0:0:0:
4,292,117459,1,0,0:0:0:0:
4,289,117524,5,4,0:0:0:0:
13,266,117587,1,0,0:0:0:0:
29,248,117651,1,0,0:0:0:0:
50,235,117715,1,0,0:0:0:0:
73,228,117779,1,0,0:0:0:0:
98,228,117843,1,0,0:0:0:0:
121,236,117906,1,0,0:0:0:0:
141,249,117970,1,0,0:0:0:0:
157,268,118034,69,0,0:0:0:0:
158,271,118097,1,0,0:0:0:0:
159,274,118161,1,0,0:0:0:0:
161,277,118225,1,0,0:0:0:0:
162,280,118289,1,0,0:0:0:0:
164,283,118353,1,0,0:0:0:0:
165,287,118416,1,0,0:0:0:0:
166,290,118480,1,0,0:0:0:0:
168,293,118545,5,4,0:0:0:0:
186,308,118608,1,0,0:0:0:0:
209,318,118672,1,0,0:0:0:0:
233,321,118736,1,0,0:0:0:0:
257,316,118800,1,0,0:0:0:0:
279,305,118864,1,0,0:0:0:0:
296,288,118927,1,0,0:0:0:0:
308,267,118991,1,0,0:0:0:0:
313,243,119055,70,0,L|306:180,1,52.5,12|0,0:0|2:0,0:0:0:0:
226,149,119311,1,12,0:3:0:0:
220,264,119438,1,12,0:3:0:0:
341,213,119566,6,0,L|314:154,1,52.5,2|0,0:0|2:0,0:0:0:0:
158,91,119821,1,8,0:0:0:0:
153,314,119949,1,8,0:0:0:0:
243,60,120077,70,0,L|289:31,1,49,14|0,0:0|2:0,0:0:0:0:
368,40,120587,1,4,0:0:0:0:
368,40,121098,5,14,0:0:0:0:
369,43,121161,1,0,0:0:0:0:
370,46,121225,1,0,0:0:0:0:
371,49,121289,1,0,0:0:0:0:
372,53,121353,1,0,0:0:0:0:
373,56,121417,1,0,0:0:0:0:
374,59,121480,1,0,0:0:0:0:
375,63,121544,1,0,0:0:0:0:
376,66,121609,69,4,0:0:0:0:
381,89,121672,1,0,0:0:0:0:
379,114,121736,1,0,0:0:0:0:
369,136,121800,1,0,0:0:0:0:
354,155,121864,1,0,0:0:0:0:
333,168,121928,1,0,0:0:0:0:
310,175,121991,1,0,0:0:0:0:
285,174,122055,1,0,0:0:0:0:
262,166,122119,5,0,0:0:0:0:
259,163,122182,1,0,0:0:0:0:
257,160,122246,1,0,0:0:0:0:
255,157,122310,1,0,0:0:0:0:
253,154,122374,1,0,0:0:0:0:
252,151,122438,1,0,0:0:0:0:
249,149,122501,1,0,0:0:0:0:
247,146,122565,1,0,0:0:0:0:
245,143,122630,69,4,0:0:0:0:
227,125,122693,1,0,0:0:0:0:
205,115,122757,1,0,0:0:0:0:
181,113,122821,1,0,0:0:0:0:
158,119,122885,1,0,0:0:0:0:
138,133,122949,1,0,0:0:0:0:
124,153,123012,1,0,0:0:0:0:
118,177,123076,1,0,0:0:0:0:
121,201,123141,5,8,0:0:0:0:
117,200,123204,1,0,0:0:0:0:
114,200,123268,1,0,0:0:0:0:
110,200,123332,1,0,0:0:0:0:
107,200,123396,1,0,0:0:0:0:
103,199,123460,1,0,0:0:0:0:
100,199,123523,1,0,0:0:0:0:
96,199,123587,1,0,0:0:0:0:
93,199,123651,69,4,0:0:0:0:
69,204,123715,1,0,0:0:0:0:
48,216,123778,1,0,0:0:0:0:
31,234,123842,1,0,0:0:0:0:
21,256,123906,1,0,0:0:0:0:
18,280,123970,1,0,0:0:0:0:
22,304,124033,1,0,0:0:0:0:
33,326,124097,1,0,0:0:0:0:
50,344,124162,6,0,L|103:354,1,49,14|0,0:0|2:0,0:0:0:0:
175,314,124672,1,4,0:0:0:0:
175,314,125183,69,14,0:0:0:0:
176,310,125246,1,0,0:0:0:0:
177,307,125310,1,0,0:0:0:0:
178,304,125374,1,0,0:0:0:0:
179,300,125438,1,0,0:0:0:0:
180,297,125502,1,0,0:0:0:0:
181,294,125565,1,0,0:0:0:0:
182,290,125629,1,0,0:0:0:0:
184,287,125694,5,4,0:0:0:0:
202,270,125757,1,0,0:0:0:0:
224,259,125821,1,0,0:0:0:0:
248,255,125885,1,0,0:0:0:0:
272,258,125949,1,0,0:0:0:0:
294,268,126013,1,0,0:0:0:0:
313,284,126076,1,0,0:0:0:0:
327,304,126140,1,0,0:0:0:0:
334,327,126204,69,0,0:0:0:0:
334,330,126267,1,0,0:0:0:0:
335,333,126331,1,0,0:0:0:0:
336,337,126395,1,0,0:0:0:0:
337,340,126459,1,0,0:0:0:0:
338,343,126523,1,0,0:0:0:0:
339,347,126586,1,0,0:0:0:0:
340,350,126650,1,0,0:0:0:0:
341,353,126715,5,4,0:0:0:0:
373,365,126778,1,0,0:0:0:0:
407,363,126842,1,0,0:0:0:0:
438,346,126906,1,0,0:0:0:0:
457,317,126970,1,0,0:0:0:0:
463,283,127034,1,0,0:0:0:0:
453,250,127097,1,0,0:0:0:0:
429,224,127161,1,0,0:0:0:0:
397,211,127226,70,0,L|342:219,1,52.5,12|0,0:0|2:0,0:0:0:0:
265,168,127482,1,12,0:3:0:0:
399,121,127609,1,12,0:3:0:0:
371,241,127736,6,0,L|310:236,1,52.5,2|0,0:0|2:0,0:0:0:0:
262,87,127991,1,8,0:0:0:0:
492,156,128119,1,8,0:0:0:0:
214,261,128247,69,0,0:0:0:0:
214,261,128375,1,0,0:0:0:0:
182,128,128502,5,0,0:0:0:0:
182,128,128630,1,0,0:0:0:0:
111,194,128758,69,0,0:0:0:0:
111,194,128886,1,0,0:0:0:0:
182,128,129013,5,0,0:0:0:0:
182,128,129141,1,0,0:0:0:0:
125,289,129268,69,8,0:0:0:0:
125,289,129396,1,0,0:0:0:0:
190,353,129523,5,0,0:0:0:0:
190,353,129651,1,0,0:0:0:0:
276,329,129778,69,0,0:0:0:0:
276,329,129906,1,0,0:0:0:0:
306,242,130033,6,0,P|332:204|388:185,1,105,14|0,0:0|2:0,0:0:0:0:
445,196,131054,1,4,0:0:0:0:
445,196,132586,2,0,L|467:251,1,52.5,6|0,0:0|2:0,0:0:0:0:
451,290,132841,1,8,0:0:0:0:
450,294,132905,1,8,0:0:0:0:
449,298,132969,1,8,0:0:0:0:
343,156,133096,69,8,0:0:0:0:
314,342,133224,1,8,0:0:0:0:
225,94,133352,2,0,P|164:98|122:149,1,122.5,6|0,0:0|2:0,0:0:0:0:
116,241,133862,1,8,0:0:0:0:
387,228,133990,1,8,0:0:0:0:
68,334,134118,6,0,P|30:308|10:252,1,105,14|0,0:0|2:0,0:0:0:0:
21,197,135139,1,4,0:0:0:0:
21,197,136415,37,2,0:0:0:0:
46,157,136501,1,2,0:0:0:0:
71,117,136586,1,2,0:0:0:0:
166,129,136671,2,0,L|185:174,5,46.6666666666667,8|8|8|8|8|8,0:0|0:0|0:0|0:0|0:0|0:0,0:0:0:0:
221,43,137181,21,8,0:0:0:0:
289,270,137309,1,8,0:0:0:0:
352,58,137437,2,0,L|439:44,1,70
421,46,137947,1,8,0:0:0:0:
479,278,138075,1,8,0:0:0:0:
267,110,138203,6,0,L|222:136,1,49,6|0,0:0|2:0,0:0:0:0:
195,207,138713,1,4,0:0:0:0:
195,207,139224,69,4,0:0:0:0:
195,207,139352,1,0,0:0:0:0:
231,300,139479,5,0,0:0:0:0:
231,300,139607,1,0,0:0:0:0:
320,329,139735,69,4,0:0:0:0:
319,334,139798,1,0,0:0:0:0:
318,339,139862,1,0,0:0:0:0:
403,280,139990,5,0,0:0:0:0:
403,280,140118,1,0,0:0:0:0:
413,176,140245,70,0,P|362:152|306:185,1,105,6|0,0:0|2:0,0:0:0:0:
290,220,140501,2,0,P|303:166|213:122,1,157.500006008148,6|0,0:0|2:0,0:0:0:0:
181,139,140756,2,0,P|217:91|114:22,1,210,6|0,0:0|2:0,0:0:0:0:
76,36,141011,5,8,0:0:0:0:
48,76,141074,1,8,0:0:0:0:
45,124,141138,1,8,0:0:0:0:
66,167,141202,1,8,0:0:0:0:
107,194,141267,70,0,B|167:230|206:321|182:352|166:381|107:388|39:329|36:281|72:235|165:238|224:259|241:288|242:292|242:296|273:314|359:298,1,490,6|0,0:0|2:0,0:0:0:0:
326,300,141777,1,0,0:0:0:0:
343,298,141841,1,0,0:0:0:0:
361,296,141905,1,0,0:0:0:0:
378,293,141969,1,0,0:0:0:0:
395,291,142033,1,0,0:0:0:0:
413,289,142096,1,0,0:0:0:0:
430,287,142160,1,0,0:0:0:0:
447,284,142224,1,0,0:0:0:0:
465,282,142288,6,0,L|473:200,1,70,10|0,0:0|0:0,0:0:0:0:
345,22,142543,1,0,0:0:0:0:
345,22,142798,1,4,0:0:0:0:
353,188,143054,2,0,L|337:240,1,52.5,0|0,0:0|2:0,0:0:0:0:
348,266,143309,70,0,L|264:218,1,70,4|0,0:0|0:0,0:0:0:0:
185,313,143564,2,0,L|245:347,1,70
334,109,143820,2,0,L|250:61,1,70
128,188,144075,2,0,L|188:222,1,70
199,8,144330,6,0,L|115:56,1,70,8|0,0:0|0:0,0:0:0:0:
188,222,144586,2,0,L|248:187,1,70
334,39,144841,2,0,L|250:87,1,70
261,333,145096,69,8,0:0:0:0:
188,112,145224,1,8,0:0:0:0:
383,286,145352,6,0,L|431:264,1,49,6|0,0:0|2:0,0:0:0:0:
465,187,145862,1,4,0:0:0:0:
465,187,146373,69,4,0:0:0:0:
465,187,146501,1,0,0:0:0:0:
446,98,146628,5,0,0:0:0:0:
446,98,146756,1,0,0:0:0:0:
366,48,146884,69,4,0:0:0:0:
368,41,146947,1,0,0:0:0:0:
371,34,147011,1,0,0:0:0:0:
284,33,147139,5,0,0:0:0:0:
284,33,147267,1,0,0:0:0:0:
202,78,147394,70,0,P|187:133|221:184,1,105,6|0,0:0|2:0,0:0:0:0:
177,245,147650,2,0,P|239:202|309:230,1,157.500006008148,6|0,0:0|2:0,0:0:0:0:
352,157,147905,2,0,P|326:225|454:255,1,210,6|0,0:0|2:0,0:0:0:0:
468,249,148160,5,8,0:0:0:0:
490,205,148224,1,8,0:0:0:0:
487,157,148288,1,8,0:0:0:0:
461,116,148352,1,8,0:0:0:0:
418,94,148415,70,0,B|371:83|350:47|341:7|341:7|295:30|272:65|285:108|309:135|352:157|352:157|276:194|204:154|173:83,1,490,6|0,0:0|2:0,0:0:0:0:
187,111,148926,1,0,0:0:0:0:
176,97,148990,1,0,0:0:0:0:
165,84,149054,1,0,0:0:0:0:
154,70,149118,1,0,0:0:0:0:
143,57,149182,1,0,0:0:0:0:
132,43,149245,1,0,0:0:0:0:
121,30,149309,1,0,0:0:0:0:
110,16,149373,1,0,0:0:0:0:
99,3,149437,6,0,L|59:73,1,70,10|0,0:0|0:0,0:0:0:0:
126,296,149692,1,0,0:0:0:0:
126,296,149947,1,4,0:0:0:0:
268,127,150203,2,0,L|254:65,1,52.5,0|0,0:0|2:0,0:0:0:0:
219,76,150458,70,0,L|310:43,1,70,4|0,0:0|0:0,0:0:0:0:
195,200,150713,2,0,L|130:223,1,70
386,87,150969,2,0,L|477:54,1,70
434,217,151224,2,0,L|369:240,1,70
233,11,151479,6,0,L|298:34,1,70,8|0,0:0|0:0,0:0:0:0:
288,210,151735,2,0,L|222:186,1,70
85,14,151990,2,0,L|150:37,1,70
118,237,152245,2,0,L|52:213,1,70
298,34,152501,70,0,L|322:114,1,70,4|0,0:0|0:0,0:0:0:0:
222,186,152756,2,0,L|201:118,1,70
319,42,153011,2,0,L|343:122,1,70,4|0,0:0|0:0,0:0:0:0:
243,194,153266,2,0,L|222:126,1,70
452,221,153522,5,4,0:0:0:0:
453,226,153585,1,0,0:0:0:0:
454,231,153649,1,0,0:0:0:0:
391,320,153777,69,0,0:0:0:0:
391,320,153905,1,0,0:0:0:0:
284,325,154032,5,4,0:0:0:0:
284,325,154160,1,0,0:0:0:0:
218,241,154288,69,0,0:0:0:0:
218,241,154416,1,0,0:0:0:0:
222,126,154543,6,0,B|202:71|202:71|153:34,1,105,6|0,0:0|2:0,0:0:0:0:
213,24,154798,2,0,B|291:81|291:81|381:63,1,157.500006008148,6|0,0:0|2:0,0:0:0:0:
409,96,155054,2,0,B|308:116|308:116|295:240,1,210,6|0,0:0|2:0,0:0:0:0:
347,255,155309,69,8,0:0:0:0:
299,266,155372,1,8,0:0:0:0:
251,278,155436,1,8,0:0:0:0:
204,290,155500,1,8,0:0:0:0:
156,302,155564,6,0,B|178:129|178:129|93:227|93:227|318:177,1,490,6|0,0:0|2:0,0:0:0:0:
280,170,156075,1,0,0:0:0:0:
287,154,156139,1,0,0:0:0:0:
294,138,156203,1,0,0:0:0:0:
302,122,156267,1,0,0:0:0:0:
309,106,156331,1,0,0:0:0:0:
316,90,156394,1,0,0:0:0:0:
324,74,156458,1,0,0:0:0:0:
331,58,156522,1,0,0:0:0:0:
338,42,156586,70,0,L|422:54,1,70,14|0,0:0|0:0,0:0:0:0:
512,250,156841,1,0,0:0:0:0:
512,250,157096,1,4,0:0:0:0:
344,133,157352,2,0,L|317:190,1,52.5,0|0,0:0|2:0,0:0:0:0:
279,238,157607,6,0,L|377:245,2,70,4|0|0,0:0|0:0|0:0,0:0:0:0:
167,156,157990,1,4,0:0:0:0:
98,233,158118,2,0,L|129:300,1,70
163,149,158373,1,4,0:0:0:0:
92,239,158501,2,0,L|123:306,1,70,0|8,0:0|0:0,0:0:0:0:
159,142,158756,1,4,0:0:0:0:
86,245,158884,2,0,L|117:312,1,70
155,135,159139,69,4,0:0:0:0:
155,135,159267,1,8,0:3:0:0:
33,80,159394,5,4,0:3:0:0:
33,80,159522,1,4,0:3:0:0:
179,241,159650,70,0,L|252:213,1,70,4|0,0:0|0:0,0:0:0:0:
220,109,159905,2,0,L|154:134,1,70
175,257,160160,1,0,0:0:0:0:
222,95,160288,1,8,0:0:0:0:
224,81,160543,1,8,0:0:0:0:
320,253,160671,5,12,0:0:0:0:
320,253,160798,1,0,0:0:0:0:
430,239,160926,69,0,0:0:0:0:
430,239,161053,1,0,0:0:0:0:
459,131,161181,5,4,0:0:0:0:
459,131,161308,1,0,0:0:0:0:
383,45,161437,69,0,0:0:0:0:
383,45,161564,1,0,0:0:0:0:
271,55,161692,6,0,B|231:105|231:105|191:117,1,105,6|0,0:0|2:0,0:0:0:0:
184,151,161947,2,0,B|246:129|246:129|355:185,1,157.500006008148,6|0,0:0|2:0,0:0:0:0:
352,224,162203,2,0,B|270:179|270:179|275:327,1,210,6|0,0:0|2:0,0:0:0:0:
218,328,162458,69,8,0:0:0:0:
187,287,162521,1,8,0:0:0:0:
159,247,162586,1,8,0:0:0:0:
129,207,162649,1,8,0:0:0:0:
101,168,162713,6,0,B|5:314|5:314|3:184|3:184|143:367,1,490,6|0,0:0|2:0,0:0:0:0:
133,334,163224,1,0,0:0:0:0:
150,337,163288,1,0,0:0:0:0:
167,339,163352,1,0,0:0:0:0:
185,342,163416,1,0,0:0:0:0:
202,344,163480,1,0,0:0:0:0:
219,347,163543,1,0,0:0:0:0:
237,350,163607,1,0,0:0:0:0:
254,352,163671,1,0,0:0:0:0:
271,355,163735,70,0,L|299:275,1,70,14|0,0:0|0:0,0:0:0:0:
184,76,163990,1,0,0:0:0:0:
184,76,164245,1,4,0:0:0:0:
367,54,164501,2,0,L|381:111,1,52.5,0|0,0:0|2:0,0:0:0:0:
378,193,164756,53,4,0:0:0:0:
366,201,164841,1,8,0:0:0:0:
355,210,164926,1,8,0:0:0:0:
307,201,165011,1,8,0:0:0:0:
223,336,165181,1,8,0:0:0:0:
246,301,165267,6,0,L|230:253,1,46.6666666666667
132,211,165437,1,4,0:0:0:0:
115,280,165522,1,4,0:0:0:0:
79,312,165607,69,8,0:0:0:0:
70,290,165692,1,8,0:0:0:0:
62,268,165777,1,8,0:0:0:0:
54,246,165862,1,8,0:0:0:0:
53,188,165947,1,8,0:0:0:0:
52,130,166032,5,8,0:0:0:0:
210,176,166203,1,8,0:0:0:0:
184,133,166288,69,8,0:0:0:0:
195,112,166373,1,8,0:0:0:0:
206,92,166458,1,8,0:0:0:0:
253,67,166543,5,0,0:0:0:0:
227,33,166628,1,0,0:0:0:0:
201,0,166713,1,0,0:0:0:0:
134,12,166798,5,6,0:0:0:0:
342,107,166925,1,0,0:0:0:0:
95,123,167053,1,0,0:0:0:0:
326,13,167180,1,0,0:0:0:0:
326,13,167563,6,0,P|276:40|269:172,1,183.750007009506,0|0,0:0|2:0,0:0:0:0:
309,196,168074,1,0,0:0:0:0:
116,69,168329,2,0,P|34:114|18:238,1,210.000008010865,12|4,0:0|0:0,0:0:0:0:
222,359,169095,2,0,P|235:311|220:254,1,105.000004005432,0|4,0:0|0:0,0:0:0:0:
110,179,169606,1,0,0:0:0:0:
327,186,169861,70,0,P|362:150|377:94,2,105.000004005432,4|0|4,0:0|0:0|0:0,0:0:0:0:
311,21,170627,2,0,P|358:0|410:2,1,105.000004005432,0|4,0:0|0:0,0:0:0:0:
502,171,171138,1,0,0:0:0:0:
226,98,171393,1,12,0:0:0:0:
226,98,171904,21,4,0:0:0:0:
258,167,171967,1,0,0:0:0:0:
233,239,172031,1,0,0:0:0:0:
164,273,172095,1,0,0:0:0:0:
91,248,172159,53,8,0:0:0:0:
91,248,172415,1,8,0:0:0:0:
91,248,172670,1,8,0:0:0:0:
122,37,172798,1,8,0:0:0:0:
233,257,172925,5,6,0:0:0:0:
35,160,173053,1,0,0:0:0:0:
121,375,173180,1,0,0:0:0:0:
198,128,173308,1,0,0:0:0:0:
198,128,173691,70,0,P|186:183|283:273,1,183.750007009506,0|0,0:0|2:0,0:0:0:0:
327,258,174202,1,0,0:0:0:0:
286,79,174457,2,0,P|344:6|469:11,1,210.000008010865,12|4,0:0|0:0,0:0:0:0:
397,207,175223,2,0,P|384:159|399:102,1,105.000004005432,0|4,0:0|0:0,0:0:0:0:
512,164,175734,1,0,0:0:0:0:
257,314,175989,6,0,P|242:228|332:157,2,210.000008010865,4|4|4,0:0|0:0|0:0,0:0:0:0:
140,101,177266,1,0,0:0:0:0:
409,281,177521,1,8,0:0:0:0:
409,281,178032,70,0,P|388:210|286:153,1,157.500006008148,4|0,0:0|2:0,0:0:0:0:
187,145,178287,1,4,0:0:0:0:
187,145,178798,1,8,0:0:0:0:
238,353,179053,5,4,0:0:0:0:
324,160,179180,1,0,0:0:0:0:
165,236,179308,1,0,0:0:0:0:
409,281,179436,1,0,0:0:0:0:
409,281,179819,70,0,P|356:301|250:222,1,183.750007009506,0|0,0:0|2:0,0:0:0:0:
240,175,180330,1,0,0:0:0:0:
421,72,180585,2,0,P|407:148|351:201,1,157.500006008148,12|8,0:0|0:0,0:0:0:0:
348,203,181032,1,8,0:0:0:0:
346,206,181095,1,4,0:0:0:0:
190,50,181351,2,0,P|238:37|295:52,1,105.000004005432,8|4,0:0|0:0,0:0:0:0:
349,203,181862,1,0,0:0:0:0:
174,291,182117,6,0,P|153:245|158:187,1,105.000004005432,4|0,0:0|0:0,0:0:0:0:
359,112,182627,1,8,0:0:0:0:
363,112,182691,1,8,0:0:0:0:
367,111,182755,1,8,0:0:0:0:
371,111,182819,1,8,0:0:0:0:
375,111,182883,2,0,P|417:141|440:187,1,105.000004005432,0|4,0:0|0:0,0:0:0:0:
323,337,183394,1,0,0:0:0:0:
216,90,183649,1,12,0:0:0:0:
216,90,184159,5,4,0:0:0:0:
242,162,184222,1,0,0:0:0:0:
306,205,184286,1,0,0:0:0:0:
383,201,184350,1,0,0:0:0:0:
443,152,184414,53,8,0:0:0:0:
443,152,184670,1,8,0:0:0:0:
443,152,184925,1,8,0:0:0:0:
453,363,185053,1,8,0:0:0:0:
336,119,185180,5,4,0:0:0:0:
369,328,185308,1,0,0:0:0:0:
214,117,185436,1,0,0:0:0:0:
192,345,185563,1,0,0:0:0:0:
192,345,185946,70,0,P|136:356|46:259,1,183.750007009506,0|0,0:0|2:0,0:0:0:0:
39,216,186457,1,0,0:0:0:0:
247,273,186712,2,0,P|319:214|314:89,1,210.000008010865,12|4,0:0|0:0,0:0:0:0:
108,126,187478,2,0,P|113:177|142:220,1,105.000004005432,8|4,0:0|0:0,0:0:0:0:
322,104,187989,1,0,0:0:0:0:
304,352,188244,5,4,0:0:0:0:
377,283,188500,1,8,0:0:0:0:
285,259,188755,2,0,P|307:221|378:188,2,105.000004005432,12|0|4,0:0|0:0|0:0,0:0:0:0:
480,228,189521,1,2,0:0:0:0:
216,356,189776,70,0,L|96:277,1,131.25000500679,12|0,0:0|2:0,0:0:0:0:
105,279,190159,1,8,0:0:0:0:
104,274,190223,1,8,0:0:0:0:
104,269,190287,5,8,0:0:0:0:
331,231,190415,1,8,0:0:0:0:
78,147,190542,69,6,0:0:0:0:
78,147,191053,1,8,0:0:0:0:
222,367,191180,1,8,0:0:0:0:
209,72,191308,6,0,L|259:14,2,70,4|0|0,0:0|0:0|0:0,0:0:0:0:
298,181,192074,1,0,0:0:0:0:
331,190,192329,1,2,0:0:0:0:
365,200,192585,1,2,0:0:0:0:
186,346,192840,69,12,0:0:0:0:
187,163,193095,2,0,L|134:115,1,70,8|0,0:0|0:0,0:0:0:0:
21,170,193606,1,4,0:0:0:0:
60,27,193861,1,8,0:0:0:0:
94,19,194117,1,2,0:0:0:0:
108,225,194372,6,0,L|75:294,2,70,4|0|0,0:0|0:0|0:0,0:0:0:0:
176,49,195138,1,4,0:0:0:0:
210,41,195393,1,2,0:0:0:0:
244,33,195648,1,2,0:0:0:0:
251,260,195904,69,8,0:0:0:0:
324,101,196159,2,0,L|381:114,1,52.5,4|0,0:0|2:0,0:0:0:0:
398,127,196415,1,0,0:0:0:0:
431,330,196670,5,4,0:0:0:0:
431,330,196925,1,2,0:0:0:0:
412,226,197053,1,2,0:0:0:0:
310,329,197180,1,2,0:0:0:0:
412,226,197308,1,2,0:0:0:0:
211,214,197436,70,0,L|157:162,2,70,4|0|0,0:0|0:0|0:0,0:0:0:0:
357,107,198202,1,4,0:0:0:0:
340,75,198457,1,2,0:0:0:0:
324,44,198712,1,2,0:0:0:0:
101,106,198968,6,0,L|85:178,2,70,12|0|0,0:0|0:0|0:0,0:0:0:0:
241,81,199734,1,4,0:0:0:0:
176,228,199989,1,8,0:0:0:0:
196,257,200244,1,2,0:0:0:0:
362,118,200500,70,0,L|383:45,2,70,4|0|0,0:0|0:0|0:0,0:0:0:0:
473,201,201266,1,4,0:0:0:0:
456,232,201521,1,2,0:0:0:0:
440,263,201776,1,2,0:0:0:0:
271,175,202032,21,8,0:0:0:0:
202,186,202095,1,8,0:0:0:0:
156,237,202159,1,8,0:0:0:0:
150,306,202223,1,8,0:0:0:0:
188,363,202287,5,0,0:0:0:0:
205,345,202350,1,0,0:0:0:0:
218,325,202414,1,0,0:0:0:0:
226,302,202478,1,0,0:0:0:0:
230,277,202542,1,0,0:0:0:0:
228,253,202606,1,0,0:0:0:0:
222,230,202669,1,0,0:0:0:0:
210,208,202733,1,0,0:0:0:0:
195,189,202797,70,0,L|164:145,1,35,8|0,0:0|0:0,0:0:0:0:
281,137,202925,2,0,L|301:165,1,35,8|0,0:0|0:0,0:0:0:0:
86,219,203053,5,0,0:0:0:0:
75,196,203116,1,0,0:0:0:0:
70,172,203180,1,0,0:0:0:0:
71,148,203244,1,0,0:0:0:0:
77,124,203308,1,0,0:0:0:0:
88,102,203372,1,0,0:0:0:0:
104,84,203435,1,0,0:0:0:0:
123,69,203499,1,0,0:0:0:0:
146,59,203563,38,0,L|198:44,1,52.5,14|0,0:0|2:0,0:0:0:0:
284,48,204584,5,14,0:0:0:0:
293,52,204647,1,0,0:0:0:0:
302,56,204711,1,0,0:0:0:0:
311,62,204775,1,0,0:0:0:0:
320,68,204839,1,0,0:0:0:0:
327,76,204903,1,0,0:0:0:0:
335,83,204966,1,0,0:0:0:0:
341,91,205030,1,0,0:0:0:0:
347,100,205094,1,0,0:0:0:0:
352,110,205158,1,0,0:0:0:0:
356,119,205222,1,0,0:0:0:0:
359,129,205286,1,0,0:0:0:0:
361,139,205349,1,0,0:0:0:0:
363,150,205413,1,0,0:0:0:0:
364,160,205477,1,0,0:0:0:0:
363,171,205541,1,0,0:0:0:0:
362,181,205605,69,0,0:0:0:0:
360,191,205669,1,0,0:0:0:0:
357,202,205732,1,0,0:0:0:0:
353,211,205796,1,0,0:0:0:0:
349,221,205860,1,0,0:0:0:0:
343,230,205924,1,0,0:0:0:0:
337,238,205988,1,0,0:0:0:0:
330,246,206052,1,0,0:0:0:0:
323,254,206115,1,0,0:0:0:0:
315,260,206179,1,0,0:0:0:0:
306,266,206243,1,0,0:0:0:0:
297,271,206307,1,0,0:0:0:0:
287,276,206371,1,0,0:0:0:0:
277,279,206435,1,0,0:0:0:0:
267,282,206498,1,0,0:0:0:0:
257,284,206562,1,0,0:0:0:0:
247,284,206626,5,8,0:0:0:0:
246,273,206689,1,0,0:0:0:0:
246,263,206753,1,0,0:0:0:0:
248,252,206817,1,0,0:0:0:0:
250,242,206881,1,0,0:0:0:0:
254,232,206945,1,0,0:0:0:0:
258,223,207008,1,0,0:0:0:0:
263,214,207072,1,0,0:0:0:0:
270,205,207136,1,0,0:0:0:0:
277,198,207200,1,0,0:0:0:0:
285,191,207264,1,0,0:0:0:0:
293,185,207328,1,0,0:0:0:0:
303,179,207391,1,0,0:0:0:0:
312,175,207455,1,0,0:0:0:0:
322,172,207519,1,0,0:0:0:0:
332,170,207583,1,0,0:0:0:0:
343,169,207648,70,0,L|396:178,1,49,14|0,0:0|2:0,0:0:0:0:
478,161,208158,1,4,0:0:0:0:
478,161,208669,5,14,0:0:0:0:
482,144,208732,1,0,0:0:0:0:
484,126,208796,1,0,0:0:0:0:
483,109,208860,1,0,0:0:0:0:
479,92,208924,1,0,0:0:0:0:
473,75,208988,1,0,0:0:0:0:
465,60,209051,1,0,0:0:0:0:
454,46,209115,1,0,0:0:0:0:
442,34,209179,1,0,0:0:0:0:
428,24,209243,1,0,0:0:0:0:
412,16,209307,1,0,0:0:0:0:
395,10,209371,1,0,0:0:0:0:
378,8,209434,1,0,0:0:0:0:
361,7,209498,1,0,0:0:0:0:
343,10,209562,1,0,0:0:0:0:
327,15,209626,1,0,0:0:0:0:
311,22,209690,69,0,0:0:0:0:
296,32,209754,1,0,0:0:0:0:
283,44,209817,1,0,0:0:0:0:
272,58,209881,1,0,0:0:0:0:
264,73,209945,1,0,0:0:0:0:
257,89,210009,1,0,0:0:0:0:
253,106,210073,1,0,0:0:0:0:
252,123,210137,1,0,0:0:0:0:
254,141,210200,5,0,0:0:0:0:
253,168,210264,1,0,0:0:0:0:
246,195,210328,1,0,0:0:0:0:
231,219,210392,1,0,0:0:0:0:
211,238,210456,1,0,0:0:0:0:
186,252,210520,1,0,0:0:0:0:
159,258,210583,1,0,0:0:0:0:
131,257,210647,1,0,0:0:0:0:
105,248,210711,70,0,L|54:215,1,52.5,4|0,0:0|2:0,0:0:0:0:
66,132,210967,1,12,0:3:0:0:
191,206,211094,1,12,0:3:0:0:
31,310,211222,6,0,L|-3:265,1,52.5,2|0,0:0|2:0,0:0:0:0:
0,87,211477,1,8,0:0:0:0:
118,301,211605,1,8,0:0:0:0:
119,43,211733,70,0,L|68:33,1,52.5,14|0,0:0|2:0,0:0:0:0:
0,87,212754,5,0,0:0:0:0:
0,97,212817,1,0,0:0:0:0:
2,107,212881,1,0,0:0:0:0:
4,118,212945,1,0,0:0:0:0:
7,128,213009,1,0,0:0:0:0:
11,137,213073,1,0,0:0:0:0:
16,147,213136,1,0,0:0:0:0:
22,155,213200,1,0,0:0:0:0:
28,164,213264,1,0,0:0:0:0:
35,171,213328,1,0,0:0:0:0:
43,178,213392,1,0,0:0:0:0:
52,185,213456,1,0,0:0:0:0:
61,190,213519,1,0,0:0:0:0:
70,195,213583,1,0,0:0:0:0:
80,199,213647,1,0,0:0:0:0:
90,202,213711,1,0,0:0:0:0:
100,204,213775,69,0,0:0:0:0:
110,205,213839,1,0,0:0:0:0:
121,205,213902,1,0,0:0:0:0:
131,205,213966,1,0,0:0:0:0:
142,203,214030,1,0,0:0:0:0:
152,201,214094,1,0,0:0:0:0:
162,198,214158,1,0,0:0:0:0:
172,194,214222,1,0,0:0:0:0:
181,189,214285,1,0,0:0:0:0:
190,183,214349,1,0,0:0:0:0:
198,176,214413,1,0,0:0:0:0:
205,169,214477,1,0,0:0:0:0:
212,161,214541,1,0,0:0:0:0:
219,153,214605,1,0,0:0:0:0:
224,144,214668,1,0,0:0:0:0:
229,134,214732,1,0,0:0:0:0:
233,125,214797,5,8,0:0:0:0:
237,134,214860,1,0,0:0:0:0:
242,143,214924,1,0,0:0:0:0:
248,152,214988,1,0,0:0:0:0:
255,160,215052,1,0,0:0:0:0:
262,167,215116,1,0,0:0:0:0:
271,173,215179,1,0,0:0:0:0:
280,179,215243,1,0,0:0:0:0:
289,183,215307,1,0,0:0:0:0:
299,186,215371,1,0,0:0:0:0:
309,189,215435,1,0,0:0:0:0:
320,190,215499,1,0,0:0:0:0:
330,190,215562,1,0,0:0:0:0:
341,189,215626,1,0,0:0:0:0:
351,186,215690,1,0,0:0:0:0:
361,183,215754,1,0,0:0:0:0:
371,179,215818,69,14,0:0:0:0:
266,79,216201,1,0,0:0:0:0:
435,93,216584,1,0,0:0:0:0:
221,164,216839,5,14,0:0:0:0:
208,175,216902,1,0,0:0:0:0:
197,189,216966,1,0,0:0:0:0:
188,204,217030,1,0,0:0:0:0:
182,220,217094,1,0,0:0:0:0:
178,238,217158,1,0,0:0:0:0:
178,255,217221,1,0,0:0:0:0:
180,272,217285,1,0,0:0:0:0:
185,289,217349,1,0,0:0:0:0:
192,305,217413,1,0,0:0:0:0:
202,319,217477,1,0,0:0:0:0:
214,332,217541,1,0,0:0:0:0:
228,343,217604,1,0,0:0:0:0:
243,351,217668,1,0,0:0:0:0:
260,357,217732,1,0,0:0:0:0:
277,360,217796,1,0,0:0:0:0:
294,360,217860,69,0,0:0:0:0:
312,358,217924,1,0,0:0:0:0:
328,352,217987,1,0,0:0:0:0:
344,345,218051,1,0,0:0:0:0:
358,335,218115,1,0,0:0:0:0:
370,322,218179,1,0,0:0:0:0:
381,308,218243,1,0,0:0:0:0:
389,293,218307,1,0,0:0:0:0:
394,276,218371,5,0,0:0:0:0:
396,248,218434,1,0,0:0:0:0:
393,220,218498,1,0,0:0:0:0:
382,194,218562,1,0,0:0:0:0:
365,172,218626,1,0,0:0:0:0:
343,154,218690,1,0,0:0:0:0:
318,143,218753,1,0,0:0:0:0:
290,138,218817,1,0,0:0:0:0:
263,140,218881,69,4,0:0:0:0:
263,140,219137,1,2,0:0:0:0:
263,140,219392,1,2,0:0:0:0:
399,25,219648,5,8,0:0:0:0:
381,209,219775,1,8,0:0:0:0:
253,28,219903,69,0,0:0:0:0:
253,28,220031,1,0,0:0:0:0:
171,160,220158,5,0,0:0:0:0:
171,160,220286,1,0,0:0:0:0:
145,62,220414,69,0,0:0:0:0:
145,62,220542,1,0,0:0:0:0:
171,160,220669,5,0,0:0:0:0:
171,160,220797,1,0,0:0:0:0:
14,177,220924,69,8,0:0:0:0:
14,177,221052,1,0,0:0:0:0:
23,273,221179,5,0,0:0:0:0:
23,273,221307,1,0,0:0:0:0:
103,338,221434,69,0,0:0:0:0:
103,338,221562,1,0,0:0:0:0:
208,329,221689,6,0,L|239:284,1,52.5,14|0,0:0|2:0,0:0:0:0:
225,200,222710,69,14,0:0:0:0:
223,189,222773,1,0,0:0:0:0:
222,179,222837,1,0,0:0:0:0:
222,168,222901,1,0,0:0:0:0:
224,158,222965,1,0,0:0:0:0:
226,148,223029,1,0,0:0:0:0:
229,138,223092,1,0,0:0:0:0:
233,128,223156,1,0,0:0:0:0:
239,119,223220,1,0,0:0:0:0:
245,110,223284,1,0,0:0:0:0:
252,102,223348,1,0,0:0:0:0:
259,95,223412,1,0,0:0:0:0:
267,89,223475,1,0,0:0:0:0:
276,83,223539,1,0,0:0:0:0:
286,78,223603,1,0,0:0:0:0:
295,74,223667,1,0,0:0:0:0:
306,72,223731,5,0,0:0:0:0:
316,70,223795,1,0,0:0:0:0:
326,69,223858,1,0,0:0:0:0:
337,69,223922,1,0,0:0:0:0:
347,70,223986,1,0,0:0:0:0:
357,73,224050,1,0,0:0:0:0:
367,76,224114,1,0,0:0:0:0:
377,80,224178,1,0,0:0:0:0:
386,85,224241,1,0,0:0:0:0:
395,91,224305,1,0,0:0:0:0:
403,98,224369,1,0,0:0:0:0:
410,105,224433,1,0,0:0:0:0:
417,114,224497,1,0,0:0:0:0:
422,122,224561,1,0,0:0:0:0:
427,132,224624,1,0,0:0:0:0:
431,142,224688,1,0,0:0:0:0:
434,152,224752,69,8,0:0:0:0:
425,157,224815,1,0,0:0:0:0:
415,162,224879,1,0,0:0:0:0:
406,166,224943,1,0,0:0:0:0:
396,170,225007,1,0,0:0:0:0:
386,172,225071,1,0,0:0:0:0:
375,173,225134,1,0,0:0:0:0:
365,174,225198,1,0,0:0:0:0:
354,173,225262,1,0,0:0:0:0:
344,172,225326,1,0,0:0:0:0:
334,170,225390,1,0,0:0:0:0:
324,166,225454,1,0,0:0:0:0:
314,162,225517,1,0,0:0:0:0:
305,157,225581,1,0,0:0:0:0:
296,151,225645,1,0,0:0:0:0:
288,145,225709,1,0,0:0:0:0:
280,138,225774,6,0,L|252:97,1,49,14|0,0:0|2:0,0:0:0:0:
240,13,226284,1,4,0:0:0:0:
240,13,226795,69,14,0:0:0:0:
223,7,226858,1,0,0:0:0:0:
206,4,226922,1,0,0:0:0:0:
188,3,226986,1,0,0:0:0:0:
171,5,227050,1,0,0:0:0:0:
154,10,227114,1,0,0:0:0:0:
138,18,227177,1,0,0:0:0:0:
124,28,227241,1,0,0:0:0:0:
111,39,227305,1,0,0:0:0:0:
100,53,227369,1,0,0:0:0:0:
92,68,227433,1,0,0:0:0:0:
86,85,227497,1,0,0:0:0:0:
82,102,227560,1,0,0:0:0:0:
81,119,227624,1,0,0:0:0:0:
83,137,227688,1,0,0:0:0:0:
88,154,227752,1,0,0:0:0:0:
95,170,227816,5,0,0:0:0:0:
104,184,227880,1,0,0:0:0:0:
116,197,227943,1,0,0:0:0:0:
129,208,228007,1,0,0:0:0:0:
145,217,228071,1,0,0:0:0:0:
161,224,228135,1,0,0:0:0:0:
178,228,228199,1,0,0:0:0:0:
195,229,228263,1,0,0:0:0:0:
213,227,228327,69,0,0:0:0:0:
240,223,228390,1,0,0:0:0:0:
268,226,228454,1,0,0:0:0:0:
294,237,228518,1,0,0:0:0:0:
316,253,228582,1,0,0:0:0:0:
334,275,228646,1,0,0:0:0:0:
346,300,228709,1,0,0:0:0:0:
351,327,228773,1,0,0:0:0:0:
349,355,228837,5,6,0:0:0:0:
349,355,229093,1,8,0:3:0:0:
361,328,229156,1,8,0:3:0:0:
381,306,229220,1,8,0:3:0:0:
407,292,229284,1,8,0:3:0:0:
436,286,229348,69,4,0:3:0:0:
437,282,229411,1,4,0:3:0:0:
438,279,229475,1,4,0:3:0:0:
439,276,229539,1,4,0:3:0:0:
440,272,229603,1,4,0:3:0:0:
211,243,229731,1,8,0:0:0:0:
367,193,229859,6,0,L|375:141,1,52.5,14|0,0:0|2:0,0:0:0:0:
347,50,230880,69,8,0:0:0:0:
340,41,230943,1,0,0:0:0:0:
332,34,231007,1,0,0:0:0:0:
324,27,231071,1,0,0:0:0:0:
315,22,231135,1,0,0:0:0:0:
306,17,231199,1,0,0:0:0:0:
296,14,231262,1,0,0:0:0:0:
286,12,231326,1,0,0:0:0:0:
275,10,231390,1,0,0:0:0:0:
265,10,231454,1,0,0:0:0:0:
254,12,231518,1,0,0:0:0:0:
244,14,231582,1,0,0:0:0:0:
234,17,231645,1,0,0:0:0:0:
225,22,231709,1,0,0:0:0:0:
216,28,231773,1,0,0:0:0:0:
208,34,231837,1,0,0:0:0:0:
200,41,231901,5,0,0:0:0:0:
194,50,231965,1,0,0:0:0:0:
188,59,232028,1,0,0:0:0:0:
184,68,232092,1,0,0:0:0:0:
180,78,232156,1,0,0:0:0:0:
178,88,232220,1,0,0:0:0:0:
177,99,232284,1,0,0:0:0:0:
177,109,232348,1,0,0:0:0:0:
178,119,232411,1,0,0:0:0:0:
180,130,232475,1,0,0:0:0:0:
184,140,232539,1,0,0:0:0:0:
188,149,232603,1,0,0:0:0:0:
194,158,232667,1,0,0:0:0:0:
200,166,232731,1,0,0:0:0:0:
208,174,232794,1,0,0:0:0:0:
216,180,232858,1,0,0:0:0:0:
225,186,232923,69,8,0:0:0:0:
220,195,232986,1,0,0:0:0:0:
215,204,233050,1,0,0:0:0:0:
208,212,233114,1,0,0:0:0:0:
201,220,233178,1,0,0:0:0:0:
193,227,233242,1,0,0:0:0:0:
185,233,233305,1,0,0:0:0:0:
175,238,233369,1,0,0:0:0:0:
166,242,233433,1,0,0:0:0:0:
156,245,233497,1,0,0:0:0:0:
145,247,233561,1,0,0:0:0:0:
135,248,233625,1,0,0:0:0:0:
125,248,233688,1,0,0:0:0:0:
114,247,233752,1,0,0:0:0:0:
104,244,233816,1,0,0:0:0:0:
94,241,233880,1,0,0:0:0:0:
84,237,233944,5,14,0:0:0:0:
31,132,234327,1,0,0:0:0:0:
0,268,234710,1,0,0:0:0:0:
111,93,234965,69,8,0:0:0:0:
128,90,235028,1,0,0:0:0:0:
145,91,235092,1,0,0:0:0:0:
162,94,235156,1,0,0:0:0:0:
179,100,235220,1,0,0:0:0:0:
194,109,235284,1,0,0:0:0:0:
207,120,235347,1,0,0:0:0:0:
218,134,235411,1,0,0:0:0:0:
227,149,235475,1,0,0:0:0:0:
233,165,235539,1,0,0:0:0:0:
236,181,235603,1,0,0:0:0:0:
243,196,235667,1,0,0:0:0:0:
252,212,235731,1,0,0:0:0:0:
263,225,235795,1,0,0:0:0:0:
276,237,235859,1,0,0:0:0:0:
291,245,235922,1,0,0:0:0:0:
308,251,235986,5,0,0:0:0:0:
325,254,236050,1,0,0:0:0:0:
342,254,236114,1,0,0:0:0:0:
359,251,236178,1,0,0:0:0:0:
376,245,236242,1,0,0:0:0:0:
391,236,236305,1,0,0:0:0:0:
404,225,236369,1,0,0:0:0:0:
415,211,236433,1,0,0:0:0:0:
424,196,236497,69,0,0:0:0:0:
434,169,236560,1,0,0:0:0:0:
436,142,236624,1,0,0:0:0:0:
431,114,236688,1,0,0:0:0:0:
419,89,236752,1,0,0:0:0:0:
401,68,236816,1,0,0:0:0:0:
378,53,236879,1,0,0:0:0:0:
351,45,236943,1,0,0:0:0:0:
323,44,237007,5,0,0:0:0:0:
323,44,237263,1,4,0:3:0:0:
322,47,237326,1,4,0:3:0:0:
321,50,237390,1,4,0:3:0:0:
321,54,237454,1,4,0:3:0:0:
320,57,237518,1,4,0:3:0:0:
422,30,237646,1,12,0:3:0:0:
230,169,237774,69,8,0:0:0:0:
443,222,237901,1,8,0:0:0:0:
225,53,238029,5,0,0:0:0:0:
225,53,238157,1,0,0:0:0:0:
230,169,238284,69,0,0:0:0:0:
230,169,238412,1,0,0:0:0:0:
320,148,238540,5,0,0:0:0:0:
320,148,238668,1,0,0:0:0:0:
230,169,238795,69,0,0:0:0:0:
230,169,238923,1,0,0:0:0:0:
350,286,239050,5,8,0:0:0:0:
350,286,239178,1,0,0:0:0:0:
432,238,239305,69,0,0:0:0:0:
432,238,239433,1,0,0:0:0:0:
455,149,239560,5,0,0:0:0:0:
455,149,239688,1,0,0:0:0:0:
270,48,239815,70,0,L|246:128,1,70,4|0,0:0|0:0,0:0:0:0:
346,200,240070,2,0,L|367:132,1,70
249,56,240325,2,0,L|225:136,1,70,4|0,0:0|0:0,0:0:0:0:
325,208,240580,2,0,L|346:140,1,70
169,193,240836,5,4,0:0:0:0:
168,198,240899,1,0,0:0:0:0:
167,203,240963,1,0,0:0:0:0:
208,300,241091,69,0,0:0:0:0:
208,300,241219,1,0,0:0:0:0:
117,371,241346,5,4,0:0:0:0:
116,376,241410,1,0,0:0:0:0:
115,381,241474,1,0,0:0:0:0:
26,321,241602,69,0,0:0:0:0:
26,321,241730,1,0,0:0:0:0:
51,211,241857,6,0,B|97:166|97:166|155:162,1,105,6|0,0:0|2:0,0:0:0:0:
166,110,242112,2,0,B|98:114|98:114|17:68,1,157.500006008148,6|0,0:0|2:0,0:0:0:0:
5,5,242368,2,0,B|71:44|71:44|203:7,1,210,6|0,0:0|2:0,0:0:0:0:
224,49,242623,69,8,0:0:0:0:
250,91,242687,1,8,0:0:0:0:
276,132,242751,1,8,0:0:0:0:
302,174,242815,1,8,0:0:0:0:
328,215,242878,6,0,B|364:71|364:71|277:133|277:133|433:145|433:145|409:242,1,490,6|0,0:0|0:0,0:0:0:0:
411,237,243389,1,0,0:0:0:0:
404,253,243453,1,0,0:0:0:0:
395,268,243517,1,0,0:0:0:0:
383,280,243581,1,0,0:0:0:0:
368,290,243645,1,0,0:0:0:0:
352,297,243708,1,0,0:0:0:0:
335,300,243772,1,0,0:0:0:0:
318,300,243836,1,0,0:0:0:0:
300,296,243900,70,0,L|226:266,1,70,14|0,0:0|0:0,0:0:0:0:
201,148,244155,1,0,0:0:0:0:
201,148,244283,1,0,0:0:0:0:
129,283,244410,1,4,0:0:0:0:
129,283,244538,1,0,0:0:0:0:
98,152,244666,2,0,L|120:104,1,52.5,0|0,0:0|2:0,0:0:0:0:
160,64,244921,6,0,L|90:59,2,70,4|0|0,0:0|0:0|0:0,0:0:0:0:
297,38,245304,1,4,0:0:0:0:
366,115,245432,2,0,L|335:182,1,70
301,31,245687,1,4,0:0:0:0:
372,121,245815,2,0,L|341:188,1,70,0|8,0:0|0:0,0:0:0:0:
305,24,246070,1,4,0:0:0:0:
378,127,246198,2,0,L|347:194,1,70
309,17,246453,69,4,0:0:0:0:
309,17,246581,1,8,0:3:0:0:
437,39,246708,5,4,0:3:0:0:
437,39,246836,1,4,0:3:0:0:
261,145,246963,70,0,L|177:140,1,70,4|0,0:0|0:0,0:0:0:0:
144,21,247219,2,0,L|215:24,1,70
246,161,247474,2,0,L|162:156,1,70,4|0,0:0|0:0,0:0:0:0:
129,38,247729,2,0,L|200:41,1,70
348,190,247985,5,4,0:0:0:0:
348,190,248113,1,0,0:0:0:0:
347,295,248239,69,0,0:0:0:0:
347,295,248367,1,0,0:0:0:0:
458,319,248496,5,4,0:0:0:0:
459,324,248559,1,0,0:0:0:0:
460,329,248623,1,0,0:0:0:0:
512,234,248750,69,0,0:0:0:0:
512,234,248878,1,0,0:0:0:0:
457,135,249006,6,0,B|410:104|410:104|340:101,1,105,6|0,0:0|2:0,0:0:0:0:
386,187,249261,2,0,B|368:132|368:132|252:132,1,157.500006008148,6|0,0:0|2:0,0:0:0:0:
307,223,249517,2,0,B|288:162|288:162|127:162,1,210,6|0,0:0|2:0,0:0:0:0:
186,115,249772,69,8,0:0:0:0:
200,162,249836,1,8,0:0:0:0:
215,209,249900,1,8,0:0:0:0:
230,255,249963,1,8,0:0:0:0:
246,302,250027,6,0,B|100:375|100:375|192:384|192:384|147:253|147:253|39:205,1,490,6|0,0:0|0:0,0:0:0:0:
61,196,250537,1,0,0:0:0:0:
63,179,250602,1,0,0:0:0:0:
66,162,250666,1,0,0:0:0:0:
68,144,250730,1,0,0:0:0:0:
71,127,250794,1,0,0:0:0:0:
73,110,250857,1,0,0:0:0:0:
76,92,250921,1,0,0:0:0:0:
78,75,250985,1,0,0:0:0:0:
81,58,251049,70,0,L|167:47,1,70,14|0,0:0|0:0,0:0:0:0:
298,159,251304,1,0,0:0:0:0:
298,159,251559,1,4,0:0:0:0:
126,285,251815,2,0,L|153:341,1,52.5,0|0,0:0|2:0,0:0:0:0:
236,328,252070,53,4,0:0:0:0:
241,314,252155,1,8,0:0:0:0:
248,302,252240,1,8,0:0:0:0:
231,256,252325,2,0,L|193:209,2,46.6666666666667,8|8|8,0:0|0:0|0:0,0:0:0:0:
330,254,252580,5,0,0:0:0:0:
353,248,252666,1,0,0:0:0:0:
404,283,252751,1,4,0:0:0:0:
432,219,252836,69,4,0:0:0:0:
431,205,252921,1,8,0:0:0:0:
430,191,253006,1,8,0:0:0:0:
372,152,253091,5,2,0:0:0:0:
380,125,253176,1,0,0:0:0:0:
346,68,253261,1,4,0:0:0:0:
306,13,253346,69,4,0:0:0:0:
292,18,253432,1,8,0:0:0:0:
279,25,253517,1,0,0:0:0:0:
245,70,253602,5,8,0:0:0:0:
212,59,253687,1,8,0:0:0:0:
154,21,253772,69,2,0:0:0:0:
159,67,253857,1,0,0:0:0:0:
164,113,253942,1,0,0:0:0:0:
169,159,254027,1,0,0:0:0:0:
174,205,254112,21,6,0:0:0:0:
355,106,254239,1,0,0:0:0:0:
78,95,254367,1,0,0:0:0:0:
323,223,254494,1,0,0:0:0:0:
323,223,254877,6,0,P|273:196|241:66,1,183.750007009506,0|0,0:0|2:0,0:0:0:0:
266,31,255388,1,0,0:0:0:0:
429,184,255643,2,0,P|412:284|325:336,1,210.000008010865,12|4,0:0|0:0,0:0:0:0:
150,174,256409,2,0,P|198:160|255:176,1,105.000004005432,0|4,0:0|0:0,0:0:0:0:
325,336,256920,1,0,0:0:0:0:
113,342,257175,70,0,P|92:296|97:238,2,105.000004005432,4|0|4,0:0|0:0|0:0,0:0:0:0:
325,235,257941,2,0,P|346:188|344:136,1,105.000004005432,0|4,0:0|0:0,0:0:0:0:
223,14,258452,1,0,0:0:0:0:
199,277,258707,1,12,0:0:0:0:
199,277,259218,21,0,0:0:0:0:
215,201,259281,1,0,0:0:0:0:
176,135,259345,1,0,0:0:0:0:
102,113,259409,1,0,0:0:0:0:
33,147,259473,53,8,0:0:0:0:
33,147,259729,1,8,0:0:0:0:
33,147,259984,1,8,0:0:0:0:
137,325,260112,1,8,0:0:0:0:
192,98,260239,5,6,0:0:0:0:
46,256,260367,1,0,0:0:0:0:
79,36,260494,1,0,0:0:0:0:
207,252,260622,1,0,0:0:0:0:
207,252,261005,70,0,P|224:198|353:168,1,183.750007009506,0|0,0:0|2:0,0:0:0:0:
388,203,261516,1,0,0:0:0:0:
245,0,261771,2,0,P|163:44|146:168,1,210.000008010865,12|4,0:0|0:0,0:0:0:0:
388,203,262537,2,0,P|401:155|386:98,1,105.000004005432,0|4,0:0|0:0,0:0:0:0:
242,109,263048,1,0,0:0:0:0:
285,374,263303,6,0,P|328:298|323:263,1,105.000004005432,4|8,0:0|0:0,0:0:0:0:
211,183,263814,1,12,0:0:0:0:
207,183,263877,1,8,0:0:0:0:
203,184,263941,1,8,0:0:0:0:
199,185,264005,1,8,0:0:0:0:
195,186,264069,69,0,0:0:0:0:
228,289,264324,1,4,0:0:0:0:
322,98,264580,1,0,0:0:0:0:
72,311,264835,1,12,0:0:0:0:
72,311,265346,6,0,P|42:243|83:133,1,157.500006008148,4|0,0:0|2:0,0:0:0:0:
167,73,265601,1,4,0:0:0:0:
167,73,266112,1,8,0:0:0:0:
300,320,266367,69,4,0:0:0:0:
148,159,266494,1,0,0:0:0:0:
139,349,266622,1,0,0:0:0:0:
279,125,266750,1,0,0:0:0:0:
279,125,267133,6,0,P|306:174|438:182,1,183.750007009506,0|0,0:0|2:0,0:0:0:0:
474,145,267644,1,0,0:0:0:0:
204,206,267899,2,0,P|173:148|205:44,1,157.500006008148,12|8,0:0|0:0,0:0:0:0:
194,60,268346,1,8,0:0:0:0:
197,58,268409,1,4,0:0:0:0:
292,258,268665,2,0,P|256:293|200:308,1,105.000004005432,8|4,0:0|0:0,0:0:0:0:
47,222,269176,1,0,0:0:0:0:
267,127,269431,70,0,P|288:81|283:23,1,105.000004005432,4|0,0:0|0:0,0:0:0:0:
77,38,269941,1,12,0:0:0:0:
77,41,270004,1,8,0:0:0:0:
78,45,270068,1,8,0:0:0:0:
79,49,270132,1,8,0:0:0:0:
80,53,270197,2,0,P|102:98|151:129,1,105.000004005432,0|4,0:0|0:0,0:0:0:0:
380,74,270708,1,0,0:0:0:0:
220,305,270963,1,12,0:0:0:0:
220,305,271474,21,0,0:0:0:0:
235,229,271537,1,0,0:0:0:0:
297,183,271601,1,0,0:0:0:0:
373,188,271665,1,0,0:0:0:0:
427,243,271729,69,8,0:0:0:0:
427,243,271984,1,8,0:0:0:0:
427,243,272239,1,8,0:0:0:0:
369,51,272367,1,8,0:0:0:0:
325,275,272494,69,4,0:0:0:0:
198,77,272622,1,0,0:0:0:0:
439,119,272750,1,0,0:0:0:0:
161,193,272877,1,0,0:0:0:0:
161,193,273260,6,0,P|221:160|321:222,1,183.750007009506,0|0,0:0|2:0,0:0:0:0:
325,275,273771,1,0,0:0:0:0:
90,354,274026,2,0,P|42:273|89:158,1,210.000008010865,12|4,0:0|0:0,0:0:0:0:
260,329,274792,2,0,P|223:364|173:379,1,105.000004005432,8|4,0:0|0:0,0:0:0:0:
77,169,275303,1,0,0:0:0:0:
259,245,275558,70,0,P|335:230|395:114,2,210.000008010865,4|4|4,0:0|0:0|0:0,0:0:0:0:
119,67,276835,1,0,0:0:0:0:
172,317,277090,2,0,L|312:336,1,131.25000500679,8|0,0:0|2:0,0:0:0:0:
323,330,277473,1,8,0:0:0:0:
136,223,277601,5,8,0:0:0:0:
394,196,277729,1,8,0:0:0:0:
182,16,277856,69,6,0:0:0:0:
182,16,278367,1,8,0:0:0:0:
224,242,278494,1,8,0:0:0:0:
342,7,278622,6,0,L|419:1,2,70,4|0|0,0:0|0:0|0:0,0:0:0:0:
161,149,279388,1,0,0:0:0:0:
138,122,279643,1,2,0:0:0:0:
115,94,279899,1,2,0:0:0:0:
39,311,280154,69,12,0:0:0:0:
247,309,280409,2,0,L|269:232,1,70,8|0,0:0|0:0,0:0:0:0:
413,118,280920,1,4,0:0:0:0:
421,280,281175,1,8,0:0:0:0:
387,290,281431,1,2,0:0:0:0:
288,40,281686,6,0,L|212:8,2,70,4|0|0,0:0|0:0|0:0,0:0:0:0:
309,225,282452,1,4,0:0:0:0:
274,221,282707,1,2,0:0:0:0:
239,218,282963,1,2,0:0:0:0:
53,363,283218,69,8,0:0:0:0:
12,161,283473,2,0,L|63:143,1,52.5,4|0,0:0|2:0,0:0:0:0:
89,143,283729,1,0,0:0:0:0:
236,2,283984,5,4,0:0:0:0:
236,2,284239,1,2,0:0:0:0:
219,161,284367,1,2,0:0:0:0:
311,94,284494,1,2,0:0:0:0:
219,161,284622,1,2,0:0:0:0:
399,220,284750,70,0,L|443:149,2,70,4|0|0,0:0|0:0|0:0,0:0:0:0:
228,318,285517,1,4,0:0:0:0:
197,300,285772,1,2,0:0:0:0:
166,282,286027,1,2,0:0:0:0:
297,107,286283,6,0,L|280:32,2,70,12|0|0,0:0|0:0|0:0,0:0:0:0:
410,272,287049,1,4,0:0:0:0:
455,116,287304,1,8,0:0:0:0:
447,81,287559,1,2,0:0:0:0:
295,243,287815,70,0,L|304:317,2,70,4|0|0,0:0|0:0|0:0,0:0:0:0:
165,67,288581,1,4,0:0:0:0:
133,81,288836,1,2,0:0:0:0:
101,95,289091,1,2,0:0:0:0:
120,296,289347,22,0,L|165:286,1,35,12|12,0:3|0:3,0:0:0:0:
189,194,289474,1,8,0:0:0:0:
209,181,289537,1,8,0:0:0:0:
233,174,289601,1,8,0:0:0:0:
257,173,289665,1,8,0:0:0:0:
281,179,289730,2,0,L|334:207,1,35
412,350,289857,5,8,0:0:0:0:
461,300,289921,1,8,0:0:0:0:
504,245,289985,69,2,0:0:0:0:
487,231,290048,1,2,0:0:0:0:
473,216,290112,1,2,0:0:0:0:
461,199,290176,1,2,0:0:0:0:
467,158,290240,5,8,0:0:0:0:
453,142,290303,1,8,0:0:0:0:
437,128,290367,1,8,0:0:0:0:
419,117,290431,1,8,0:0:0:0:
373,124,290495,69,2,0:0:0:0:
348,99,290558,1,2,0:0:0:0:
339,66,290622,1,2,0:0:0:0:
347,32,290686,1,2,0:0:0:0:
372,8,290750,1,2,0:0:0:0:
405,0,290814,1,2,0:0:0:0:
439,8,290877,5,2,0:0:0:0:
225,294,297259,37,0,0:0:0:0:
215,291,297323,2,0,L|220:233,1,52.4999983978272
323,256,298025,1,0,0:0:0:0:
333,253,298089,2,0,L|330:196,1,52.4999983978272
283,129,298791,1,0,0:0:0:0:
231,57,299047,6,0,L|164:50,2,62.9999980773926,4|0|0,0:0|0:0|0:0,0:0:0:0:
377,126,301259,2,0,L|366:160,1,27.9999991455078
434,212,301600,2,0,L|460:185,2,27.9999991455078
394,335,302111,70,0,L|350:344,1,41.9999987182618
394,335,305174,5,2,0:0:0:0:
331,264,305302,2,0,L|356:221,1,35,8|8,0:0|0:0,0:0:0:0:
371,342,305557,1,2,0:0:0:0:
308,271,305685,2,0,L|333:228,1,35,8|8,0:0|0:0,0:0:0:0:
280,361,305940,69,8,0:0:0:0:
278,364,306004,1,8,0:0:0:0:
276,367,306068,1,8,0:0:0:0:
188,221,306196,5,8,0:0:0:0:
174,331,306323,2,0,L|131:344,1,35,12|0,0:3|0:0,0:0:0:0:
44,291,306579,1,2,0:0:0:0:
184,186,306706,2,0,L|188:230,1,35,8|2,0:0|0:0,0:0:0:0:
73,86,306962,1,8,0:0:0:0:
0,217,307089,1,8,0:0:0:0:
162,104,307217,69,0,0:0:0:0:
73,86,307345,2,0,P|106:31|153:11,1,105.000004005432
162,104,307728,1,0,0:0:0:0:
141,13,307855,2,0,P|201:20|233:44,1,78.7500030040742,0|0,0:0|2:0,0:0:0:0:
240,51,308111,1,8,0:0:0:0:
394,0,308238,6,0,L|401:60,1,52.5000020027161,8|0,0:0|0:0,0:0:0:0:
394,0,308494,1,2,0:0:0:0:
482,71,308621,2,0,P|465:108|447:125,2,52.5000020027161,2|0|0,0:0|0:0|0:0,0:0:0:0:
318,73,309004,1,2,0:0:0:0:
375,136,309132,1,8,0:0:0:0:
233,61,309259,70,0,L|217:120,1,52.5000020027161,2|0,0:0|0:0,0:0:0:0:
265,207,309515,1,0,0:0:0:0:
265,207,309770,1,0,0:0:0:0:
294,150,309898,1,0,0:0:0:0:
297,132,310153,1,8,0:0:0:0:
367,275,310281,5,8,0:0:0:0:
265,207,310408,2,0,P|222:215|174:271,1,105.000004005432,2|0,0:0|0:0,0:0:0:0:
177,342,310791,1,0,0:0:0:0:
25,192,311047,1,2,0:0:0:0:
116,172,311174,1,8,0:0:0:0:
117,177,311238,1,8,0:0:0:0:
120,181,311302,69,0,0:0:0:0:
25,192,311430,2,0,P|45:237|112:277,1,105.000004005432
120,181,311813,1,0,0:0:0:0:
88,270,311940,2,0,P|133:275|182:252,1,78.7500030040742,0|0,0:0|2:0,0:0:0:0:
188,248,312196,1,8,0:0:0:0:
309,313,312323,6,0,L|292:373,1,52.5000020027161,8|0,0:0|0:0,0:0:0:0:
309,313,312579,1,2,0:0:0:0:
441,360,312706,2,0,P|464:326|470:302,2,52.5000020027161,2|0|0,0:0|0:0|0:0,0:0:0:0:
445,236,313089,1,2,0:0:0:0:
389,296,313217,1,8,0:0:0:0:
467,158,313345,69,2,0:0:0:0:
360,207,313472,1,0,0:0:0:0:
343,209,313728,1,0,0:0:0:0:
376,102,313855,2,0,L|436:84,2,52.5000020027161
313,26,314238,1,8,0:0:0:0:
255,171,314366,5,8,0:0:0:0:
218,81,314494,2,0,P|169:62|102:83,1,105.000004005432,2|0,0:0|0:0,0:0:0:0:
140,201,314877,2,0,L|162:148,1,52.5000020027161
118,71,315132,1,2,0:0:0:0:
255,171,315259,1,8,0:0:0:0:
54,152,315387,69,2,0:0:0:0:
140,201,315515,1,0,0:0:0:0:
153,192,315770,1,8,0:0:0:0:
151,302,315898,1,0,0:0:0:0:
221,251,316025,2,0,P|275:270|305:312,1,105.000004005432,4|0,0:0|0:0,0:0:0:0:
255,171,316408,5,8,0:0:0:0:
369,237,316536,2,0,L|386:293,1,52.5000020027161,4|0,0:0|0:0,0:0:0:0:
478,171,316791,2,0,L|461:227,1,52.5000020027161,2|0,0:0|0:0,0:0:0:0:
369,237,317047,1,4,0:0:0:0:
382,104,317174,2,0,L|399:160,1,52.5000020027161,2|0,0:0|0:0,0:0:0:0:
438,33,317430,69,2,0:0:0:0:
382,104,317557,1,4,0:0:0:0:
349,20,317685,2,0,L|296:8,1,52.5000020027161
192,55,317940,1,0,0:0:0:0:
284,111,318068,1,4,0:0:0:0:
299,96,318323,1,8,0:0:0:0:
263,225,318451,5,8,0:0:0:0:
191,149,318579,2,0,P|140:150|91:179,1,105.000004005432,6|0,0:0|0:0,0:0:0:0:
67,274,318962,1,0,0:0:0:0:
166,249,319089,1,0,0:0:0:0:
96,369,319217,1,2,0:0:0:0:
261,336,319345,1,8,0:0:0:0:
67,274,319472,69,2,0:0:0:0:
166,249,319600,2,0,P|188:214|190:141,1,105.000004005432,4|8,0:0|0:0,0:0:0:0:
112,81,319983,1,8,0:0:0:0:
192,151,320111,2,0,P|191:203|166:249,1,105.000004005432,4|8,0:0|0:0,0:0:0:0:
361,295,320494,5,8,0:0:0:0:
261,336,320621,2,0,L|268:273,1,52.5000020027161,4|0,0:0|0:0,0:0:0:0:
388,344,320877,2,0,L|381:281,1,52.5000020027161,2|0,0:0|0:0,0:0:0:0:
242,275,321132,1,0,0:0:0:0:
332,208,321259,2,0,L|306:157,1,52.5000020027161,2|8,0:0|0:0,0:0:0:0:
161,108,321515,69,2,0:0:0:0:
172,221,321642,1,4,0:0:0:0:
161,243,321898,1,0,0:0:0:0:
90,160,322025,1,0,0:0:0:0:
50,263,322153,1,4,0:0:0:0:
62,282,322408,1,8,0:0:0:0:
0,143,322536,6,0,L|24:87,1,52.5000020027161,8|8,0:0|0:0,0:0:0:0:
94,57,322791,1,8,0:0:0:0:
90,160,322919,1,4,0:3:0:0:
229,63,323047,1,8,0:0:0:0:
176,139,323174,1,2,0:0:0:0:
265,148,323302,1,4,0:3:0:0:
90,160,323430,1,8,0:0:0:0:
215,243,323557,69,6,0:0:0:0:
215,243,323813,1,0,0:0:0:0:
298,240,323940,1,0,0:0:0:0:
355,178,324068,1,0,0:0:0:0:
270,49,324196,1,4,0:0:0:0:
341,94,324323,2,0,L|407:91,1,52.5000020027161,0|8,0:0|0:0,0:0:0:0:
265,148,324579,6,0,L|199:145,1,52.5000020027161,8|4,0:0|0:0,0:0:0:0:
146,222,324834,1,0,0:0:0:0:
114,121,324962,2,0,P|74:144|44:215,1,105.000004005432,2|0,0:0|0:0,0:0:0:0:
125,314,325345,1,2,0:0:0:0:
146,222,325472,1,8,0:0:0:0:
220,333,325600,70,0,P|213:358|199:380,2,52.5000020027161,2|4|0,0:0|0:0|0:0,0:0:0:0:
220,333,326111,1,0,0:0:0:0:
304,363,326238,2,0,P|337:338|353:259,1,105.000004005432,4|0,0:0|0:0,0:0:0:0:
482,359,326621,5,8,0:0:0:0:
408,195,326749,2,0,P|375:220|359:299,1,105.000004005432,2|0,0:0|0:0,0:0:0:0:
507,198,327132,2,0,L|496:133,1,52.5000020027161,0|4,0:0|0:0,0:0:0:0:
385,104,327387,1,2,0:0:0:0:
408,195,327515,1,8,0:0:0:0:
277,110,327642,70,0,P|283:70|301:38,2,52.5000020027161,2|4|0,0:0|0:0|0:0,0:0:0:0:
247,216,328025,2,0,P|253:256|271:288,2,52.5000020027161,8|0|4,0:0|0:0|0:0,0:0:0:0:
188,126,328408,1,0,0:0:0:0:
197,40,328536,1,8,0:0:0:0:
247,216,328664,6,0,P|199:231|130:217,1,105.000004005432,8|0,0:0|0:0,0:0:0:0:
343,222,329047,2,0,P|323:268|268:312,1,105.000004005432,2|0,0:0|0:0,0:0:0:0:
431,186,329430,2,0,L|439:250,1,52.5000020027161,2|8,0:0|0:0,0:0:0:0:
472,95,329685,69,2,0:0:0:0:
365,83,329813,1,4,0:0:0:0:
356,67,330068,2,0,P|336:116|279:144,1,105.000004005432,0|4,0:0|0:0,0:0:0:0:
212,128,330451,1,0,0:0:0:0:
292,141,330579,1,0,0:0:0:0:
133,164,330706,5,8,0:0:0:0:
221,221,330834,2,0,P|225:269|183:330,1,105.000004005432,0|8,0:0|0:0,0:0:0:0:
54,347,331217,2,0,L|42:285,1,52.5000020027161,0|4,0:0|0:0,0:0:0:0:
132,250,331472,1,2,0:0:0:0:
0,207,331600,1,8,0:0:0:0:
111,133,331728,69,0,0:0:0:0:
111,133,331984,1,0,0:0:0:0:
191,153,332111,1,0,0:0:0:0:
246,216,332239,1,0,0:0:0:0:
166,355,332367,1,4,0:0:0:0:
231,298,332494,2,0,L|298:296,1,52.5000020027161,0|8,0:0|0:0,0:0:0:0:
132,250,332750,6,0,L|66:247,1,52.5000020027161,8|4,0:0|0:0,0:0:0:0:
17,172,333005,1,0,0:0:0:0:
191,153,333133,2,0,P|220:117|224:40,1,105.000004005432,2|0,0:0|0:0,0:0:0:0:
94,0,333516,1,2,0:0:0:0:
141,75,333643,1,8,0:0:0:0:
16,92,333771,70,0,P|5:68|2:42,2,52.5000020027161,2|4|0,0:0|0:0|0:0,0:0:0:0:
16,92,334282,1,0,0:0:0:0:
141,75,334409,2,0,P|163:109|151:189,1,105.000004005432,4|0,0:0|0:0,0:0:0:0:
13,294,334792,5,8,0:0:0:0:
60,209,334920,2,0,P|93:234|109:313,1,105.000004005432,2|0,0:0|0:0,0:0:0:0:
238,361,335303,2,0,L|232:295,1,52.5000020027161,0|4,0:0|0:0,0:0:0:0:
250,214,335558,1,2,0:0:0:0:
161,171,335686,1,8,0:0:0:0:
291,134,335813,70,0,P|297:94|315:62,2,52.5000020027161,2|4|0,0:0|0:0|0:0,0:0:0:0:
338,207,336196,2,0,P|332:247|314:279,2,52.5000020027161,8|0|4,0:0|0:0|0:0,0:0:0:0:
395,126,336579,1,0,0:0:0:0:
432,217,336707,1,8,0:0:0:0:
291,134,336835,6,0,P|240:136|180:173,1,105.000004005432,8|0,0:0|0:0,0:0:0:0:
166,67,337217,2,0,P|127:95|94:156,1,105.000004005432,2|0,0:0|0:0,0:0:0:0:
10,104,337601,2,0,L|3:156,1,52.5000020027161,2|8,0:0|0:0,0:0:0:0:
133,227,337856,69,2,0:0:0:0:
28,252,337984,1,4,0:0:0:0:
20,263,338238,2,0,P|67:284|103:329,1,105.000004005432,8|4,0:0|0:0,0:0:0:0:
201,304,338621,1,0,0:0:0:0:
133,227,338749,1,8,0:0:0:0:
391,182,338876,5,8,0:0:0:0:
310,214,339004,1,8,0:0:0:0:
310,223,339067,1,8,0:0:0:0:
311,233,339131,1,8,0:0:0:0:
311,243,339195,1,8,0:0:0:0:
312,254,339259,1,2,0:0:0:0:
231,130,339387,69,8,0:0:0:0:
221,220,339515,1,2,0:0:0:0:
64,82,339642,5,2,0:0:0:0:
100,324,339770,1,0,0:0:0:0:
166,54,339898,70,0,P|209:35|268:37,1,105,14|0,0:0|2:0,0:0:0:0:
342,83,340919,1,4,0:0:0:0:
370,163,341430,1,10,0:0:0:0:
367,247,341940,5,8,0:0:0:0:
117,127,342196,1,8,0:0:0:0:
117,127,342706,1,2,0:0:0:0:
189,321,342962,1,8,0:0:0:0:
260,119,343217,2,0,L|311:111,1,49,4|0,0:0|2:0,0:0:0:0:
355,121,343728,1,4,0:0:0:0:
103,12,343983,69,4,0:0:0:0:
103,12,345004,53,8,0:0:0:0:
101,32,345089,1,8,0:0:0:0:
99,53,345174,1,8,0:0:0:0:
97,74,345259,1,8,0:0:0:0:
95,95,345344,1,8,0:0:0:0:
142,119,345430,5,8,0:0:0:0:
145,146,345515,1,8,0:0:0:0:
148,174,345600,1,8,0:0:0:0:
151,202,345685,1,8,0:0:0:0:
154,230,345770,1,8,0:0:0:0:
157,258,345855,1,8,0:0:0:0:
160,286,345940,1,8,0:0:0:0:
163,313,346025,6,0,L|236:319,1,52.5000020027161,6|8,0:0|0:0,0:0:0:0:
345,219,346281,2,0,L|272:225,1,52.5000020027161,4|8,0:0|0:0,0:0:0:0:
197,52,346536,5,8,0:3:0:0:
230,37,346599,1,8,0:3:0:0:
267,33,346663,1,8,0:3:0:0:
302,41,346727,1,8,0:3:0:0:
330,102,346791,1,4,0:0:0:0:
330,102,347047,69,4,0:3:0:0:
349,110,347110,1,4,0:3:0:0:
369,114,347174,1,4,0:3:0:0:
390,114,347238,1,4,0:3:0:0:
443,69,347302,1,4,0:0:0:0:
443,69,347557,21,8,0:0:0:0:
388,93,347620,1,8,0:0:0:0:
361,145,347684,1,8,0:0:0:0:
371,203,347748,1,8,0:0:0:0:
415,243,347812,5,0,0:0:0:0:
429,226,347876,1,0,0:0:0:0:
440,206,347940,1,0,0:0:0:0:
446,185,348004,1,0,0:0:0:0:
447,162,348068,54,0,P|429:126|374:91,1,105,14|0,0:0|2:0,0:0:0:0:
288,87,349089,1,4,0:0:0:0:
218,144,349600,1,10,0:0:0:0:
213,232,350110,69,8,0:0:0:0:
506,195,350366,1,8,0:0:0:0:
506,195,350876,1,2,0:0:0:0:
228,30,351132,1,8,0:0:0:0:
317,262,351387,2,0,L|279:301,1,49,4|0,0:0|2:0,0:0:0:0:
240,316,351898,1,4,0:0:0:0:
40,89,352153,5,4,0:0:0:0:
40,89,353174,37,8,0:0:0:0:
60,84,353259,1,8,0:0:0:0:
81,80,353344,1,8,0:0:0:0:
113,28,353430,5,0,0:0:0:0:
163,43,353515,1,0,0:0:0:0:
220,7,353600,1,12,0:3:0:0:
282,37,353685,69,8,0:0:0:0:
287,64,353770,1,8,0:0:0:0:
292,92,353855,1,8,0:0:0:0:
297,119,353940,1,8,0:0:0:0:
302,147,354025,1,8,0:0:0:0:
307,174,354110,1,8,0:0:0:0:
312,202,354196,22,0,L|254:223,1,52.5000020027161,6|4,0:0|0:0,0:0:0:0:
112,108,354451,2,0,L|170:129,1,52.5000020027161,4|8,0:0|0:0,0:0:0:0:
107,287,354706,5,8,0:0:0:0:
117,311,354769,1,8,0:0:0:0:
132,332,354833,1,8,0:0:0:0:
152,349,354897,1,8,0:0:0:0:
175,361,354962,2,0,L|232:329,1,52.5000020027161,6|4,0:0|0:0,0:0:0:0:
332,182,355217,69,8,0:0:0:0:
358,184,355280,1,8,0:0:0:0:
382,194,355344,1,8,0:0:0:0:
403,209,355408,1,8,0:0:0:0:
417,274,355472,1,6,0:0:0:0:
417,274,355728,21,8,0:3:0:0:
374,245,355791,1,8,0:3:0:0:
353,197,355855,1,8,0:3:0:0:
363,146,355919,1,8,0:3:0:0:
398,108,355983,5,0,0:0:0:0:
400,112,356046,1,0,0:0:0:0:
402,117,356110,1,0,0:0:0:0:
404,122,356174,1,0,0:0:0:0:
406,127,356238,54,0,P|360:120|304:68,1,105,6|0,0:0|2:0,0:0:0:0:
260,89,356494,2,0,P|337:151|458:160,1,210,0|0,0:0|2:0,0:0:0:0:
509,20,356749,1,0,0:0:0:0:
207,359,357259,69,12,0:0:0:0:
207,359,357387,1,0,0:0:0:0:
155,276,357515,5,0,0:0:0:0:
155,276,357643,1,0,0:0:0:0:
160,178,357770,69,4,0:0:0:0:
160,178,357898,1,0,0:0:0:0:
228,107,358025,5,0,0:0:0:0:
228,107,358153,1,0,0:0:0:0:
371,215,358281,69,4,0:0:0:0:
371,215,358409,1,0,0:0:0:0:
429,160,358536,5,0,0:0:0:0:
429,160,358664,1,0,0:0:0:0:
487,105,358791,69,4,0:0:0:0:
487,105,358919,1,0,0:0:0:0:
413,27,359047,5,0,0:0:0:0:
396,31,359110,1,0,0:0:0:0:
379,36,359174,1,0,0:0:0:0:
362,41,359238,1,0,0:0:0:0:
330,84,359302,69,12,0:0:0:0:
313,80,359365,1,0,0:0:0:0:
296,75,359429,1,0,0:0:0:0:
279,70,359493,1,0,0:0:0:0:
241,21,359557,5,0,0:0:0:0:
241,21,359685,1,0,0:0:0:0:
146,47,359813,69,4,0:0:0:0:
146,47,359941,1,0,0:0:0:0:
87,125,360068,5,0,0:0:0:0:
87,125,360196,1,0,0:0:0:0:
81,223,360323,70,0,P|136:285|264:285,1,161.000003070831,4|0,0:0|0:0,0:0:0:0:
386,132,360579,1,4,0:0:0:0:
386,132,360834,5,8,0:0:0:0:
330,91,360897,1,8,0:0:0:0:
261,91,360961,1,8,0:0:0:0:
205,132,361025,1,8,0:0:0:0:
183,197,361089,69,0,0:0:0:0:
206,203,361152,1,0,0:0:0:0:
231,202,361216,1,0,0:0:0:0:
254,195,361280,1,0,0:0:0:0:
275,182,361345,5,4,0:0:0:0:
276,188,361408,1,0,0:0:0:0:
278,195,361472,1,0,0:0:0:0:
279,202,361536,1,0,0:0:0:0:
281,209,361600,1,0,0:0:0:0:
283,216,361664,1,0,0:0:0:0:
284,222,361727,1,0,0:0:0:0:
286,229,361791,1,0,0:0:0:0:
287,236,361855,69,12,0:0:0:0:
252,212,361918,1,0,0:0:0:0:
217,188,361982,1,0,0:0:0:0:
183,164,362046,1,0,0:0:0:0:
148,140,362110,1,0,0:0:0:0:
114,116,362174,1,0,0:0:0:0:
79,92,362237,1,0,0:0:0:0:
45,68,362301,1,0,0:0:0:0:
10,44,362365,5,4,0:0:0:0:
10,44,362494,1,0,0:0:0:0:
0,142,362621,69,0,0:0:0:0:
0,142,362750,1,0,0:0:0:0:
58,219,362876,5,4,0:0:0:0:
58,219,363005,1,0,0:0:0:0:
158,226,363132,69,0,0:0:0:0:
173,217,363195,1,0,0:0:0:0:
188,209,363259,1,0,0:0:0:0:
204,201,363323,1,0,0:0:0:0:
216,149,363387,5,12,0:0:0:0:
233,152,363450,1,0,0:0:0:0:
250,156,363514,1,0,0:0:0:0:
267,159,363578,1,0,0:0:0:0:
300,213,363642,69,0,0:0:0:0:
300,213,363771,1,0,0:0:0:0:
396,234,363898,5,4,0:0:0:0:
396,234,364025,1,0,0:0:0:0:
506,60,364153,69,8,0:0:0:0:
303,368,364408,6,0,L|254:359,1,49,4|0,0:0|2:0,0:0:0:0:
167,371,364919,1,4,0:0:0:0:
167,371,365430,69,12,0:0:0:0:
167,371,365557,1,0,0:0:0:0:
186,276,365685,5,0,0:0:0:0:
186,276,365814,1,0,0:0:0:0:
138,190,365940,69,4,0:0:0:0:
138,190,366069,1,0,0:0:0:0:
46,156,366196,5,0,0:0:0:0:
46,156,366323,1,0,0:0:0:0:
31,314,366451,69,4,0:0:0:0:
31,314,366579,1,0,0:0:0:0:
108,295,366706,5,0,0:0:0:0:
108,295,366834,1,0,0:0:0:0:
186,276,366961,69,4,0:0:0:0:
186,276,367089,1,0,0:0:0:0:
241,197,367217,5,0,0:0:0:0:
234,180,367280,1,0,0:0:0:0:
227,164,367344,1,0,0:0:0:0:
221,148,367408,1,0,0:0:0:0:
264,126,367472,69,12,0:0:0:0:
270,109,367535,1,0,0:0:0:0:
277,93,367599,1,0,0:0:0:0:
283,77,367663,1,0,0:0:0:0:
246,24,367728,5,0,0:0:0:0:
246,24,367856,1,0,0:0:0:0:
340,0,367983,69,4,0:0:0:0:
340,0,368111,1,0,0:0:0:0:
430,40,368238,5,0,0:0:0:0:
430,40,368366,1,0,0:0:0:0:
462,134,368494,70,0,P|395:205|315:217,1,161.000003070831,4|0,0:0|0:0,0:0:0:0:
170,70,368749,1,4,0:0:0:0:
170,70,369004,5,8,0:0:0:0:
201,131,369067,1,8,0:0:0:0:
193,200,369131,1,8,0:0:0:0:
148,252,369195,1,8,0:0:0:0:
82,272,369259,69,0,0:0:0:0:
77,247,369322,1,0,0:0:0:0:
79,223,369386,1,0,0:0:0:0:
86,200,369450,1,0,0:0:0:0:
99,179,369515,5,4,0:0:0:0:
94,173,369578,1,0,0:0:0:0:
90,167,369642,1,0,0:0:0:0:
86,162,369706,1,0,0:0:0:0:
82,156,369770,1,0,0:0:0:0:
78,150,369834,1,0,0:0:0:0:
74,145,369897,1,0,0:0:0:0:
70,139,369961,1,0,0:0:0:0:
65,133,370025,69,12,0:0:0:0:
106,138,370088,1,0,0:0:0:0:
148,144,370152,1,0,0:0:0:0:
189,150,370216,1,0,0:0:0:0:
231,156,370280,1,0,0:0:0:0:
272,162,370344,1,0,0:0:0:0:
314,167,370407,1,0,0:0:0:0:
356,173,370471,1,0,0:0:0:0:
397,179,370536,5,4,0:0:0:0:
397,179,370664,1,0,0:0:0:0:
362,86,370791,69,0,0:0:0:0:
362,86,370919,1,0,0:0:0:0:
267,61,371047,5,4,0:0:0:0:
267,61,371175,1,0,0:0:0:0:
184,125,371302,69,0,0:0:0:0:
180,142,371365,1,0,0:0:0:0:
177,159,371429,1,0,0:0:0:0:
174,176,371493,1,0,0:0:0:0:
217,208,371557,5,12,0:0:0:0:
220,225,371620,1,0,0:0:0:0:
223,242,371684,1,0,0:0:0:0:
226,259,371748,1,0,0:0:0:0:
180,298,371813,69,0,0:0:0:0:
180,298,371941,1,0,0:0:0:0:
84,286,372068,5,4,0:0:0:0:
84,286,372196,1,0,0:0:0:0:
34,203,372323,69,8,0:0:0:0:
34,203,372451,1,0,0:0:0:0:
48,103,372579,5,4,0:0:0:0:
58,100,372642,1,0,0:0:0:0:
68,98,372706,1,0,0:0:0:0:
78,96,372770,1,0,0:0:0:0:
88,93,372834,1,0,0:0:0:0:
99,91,372898,1,0,0:0:0:0:
109,89,372961,1,0,0:0:0:0:
119,86,373025,1,0,0:0:0:0:
129,84,373089,2,0,L|133:37,7,35
190,162,373600,70,0,L|183:211,1,35,8|0,0:0|0:0,0:0:0:0:
204,155,373728,2,0,L|197:204,1,35
262,96,373855,6,0,L|257:61,1,35
276,103,373983,2,0,L|271:68,1,35
292,189,374111,70,0,L|285:238,1,35
306,182,374239,2,0,L|299:231,1,35
364,123,374366,6,0,L|359:88,1,35
378,130,374494,2,0,L|373:95,1,35
409,214,374621,69,0,0:0:0:0:
409,224,374684,1,0,0:0:0:0:
410,234,374748,1,0,0:0:0:0:
411,245,374812,1,0,0:0:0:0:
412,255,374876,2,0,L|459:263,7,35
344,326,375387,5,0,0:0:0:0:
326,329,375450,1,0,0:0:0:0:
309,333,375514,1,0,0:0:0:0:
292,336,375578,1,0,0:0:0:0:
256,294,375642,69,8,0:0:0:0:
238,290,375705,1,0,0:0:0:0:
221,286,375769,1,0,0:0:0:0:
204,283,375833,1,0,0:0:0:0:
153,323,375898,6,0,L|92:327,1,35
162,342,376025,2,0,L|101:346,1,35
34,294,376153,70,0,L|-27:290,1,35
43,275,376281,2,0,L|-18:271,1,35
114,217,376408,6,0,L|175:213,1,35
105,198,376536,2,0,L|166:194,1,35
22,150,376664,69,4,0:0:0:0:
43,275,376791,1,8,0:0:0:0:
136,105,376919,1,4,0:0:0:0:
136,105,377175,5,8,0:0:0:0:
156,170,377238,1,8,0:0:0:0:
213,207,377302,1,8,0:0:0:0:
281,196,377366,1,8,0:0:0:0:
326,144,377431,69,0,0:0:0:0:
299,153,377494,1,0,0:0:0:0:
278,171,377558,1,0,0:0:0:0:
264,195,377622,1,0,0:0:0:0:
259,223,377686,6,0,L|254:274,1,35,2|8,0:0|0:0,0:0:0:0:
336,357,377814,2,0,L|332:322,1,35,2|8,0:0|0:0,0:0:0:0:
250,212,377941,2,0,L|245:263,1,35,2|8,0:0|0:0,0:0:0:0:
352,352,378069,2,0,L|348:317,1,35,2|8,0:0|0:0,0:0:0:0:
393,153,378197,70,0,L|397:203,1,35,2|8,0:0|0:0,0:0:0:0:
232,378,378324,2,0,L|234:344,1,35,2|8,0:0|0:0,0:0:0:0:
408,146,378452,2,0,L|412:196,1,35,2|8,0:0|0:0,0:0:0:0:
217,373,378580,2,0,L|219:339,1,35,2|8,0:0|0:0,0:0:0:0:
328,74,378707,5,4,0:0:0:0:
317,71,378770,1,0,0:0:0:0:
307,68,378834,1,0,0:0:0:0:
297,65,378898,1,0,0:0:0:0:
287,63,378962,1,0,0:0:0:0:
277,60,379026,1,0,0:0:0:0:
267,57,379089,1,0,0:0:0:0:
257,54,379153,1,0,0:0:0:0:
246,52,379217,1,4,0:0:0:0:
236,49,379281,1,0,0:0:0:0:
226,46,379345,1,0,0:0:0:0:
216,43,379409,1,0,0:0:0:0:
193,73,379472,69,0,0:0:0:0:
176,78,379537,1,0,0:0:0:0:
159,83,379601,1,0,0:0:0:0:
142,88,379665,1,0,0:0:0:0:
117,59,379729,5,8,0:0:0:0:
100,54,379792,1,0,0:0:0:0:
83,49,379856,1,0,0:0:0:0:
66,44,379920,1,0,0:0:0:0:
20,71,379984,70,0,L|11:119,1,35
8,74,380112,2,0,L|-1:122,1,35
84,151,380239,6,0,L|93:199,1,35
96,154,380367,2,0,L|105:202,1,35
0,265,380495,69,8,0:0:0:0:
0,265,380750,5,4,0:0:0:0:
10,266,380813,1,0,0:0:0:0:
20,268,380877,1,0,0:0:0:0:
31,270,380941,1,0,0:0:0:0:
41,272,381005,1,0,0:0:0:0:
51,274,381069,1,0,0:0:0:0:
62,275,381132,1,0,0:0:0:0:
72,277,381196,1,0,0:0:0:0:
82,279,381260,2,0,L|86:328,7,35
151,210,381771,70,0,L|143:170,1,35,8|0,0:0|0:0,0:0:0:0:
164,199,381899,2,0,L|156:159,1,35
210,285,382026,6,0,L|202:325,1,35
223,296,382154,2,0,L|215:336,1,35
260,207,382282,70,0,L|252:167,1,35
273,196,382408,2,0,L|265:156,1,35
319,282,382537,6,0,L|311:322,1,35
332,293,382665,2,0,L|324:333,1,35
386,187,382792,69,0,0:0:0:0:
385,176,382855,1,0,0:0:0:0:
384,166,382919,1,0,0:0:0:0:
383,155,382983,1,0,0:0:0:0:
382,145,383048,2,0,L|436:132,7,35
274,103,383558,5,0,0:0:0:0:
266,118,383621,1,0,0:0:0:0:
258,134,383685,1,0,0:0:0:0:
250,149,383749,1,0,0:0:0:0:
285,181,383814,69,8,0:0:0:0:
292,196,383877,1,0,0:0:0:0:
300,212,383941,1,0,0:0:0:0:
308,227,384005,1,0,0:0:0:0:
286,269,384069,6,0,L|261:311,1,35
292,300,384197,2,0,L|267:342,1,35
390,305,384324,70,0,L|415:347,1,35
384,336,384452,2,0,L|409:378,1,35
484,288,384580,6,0,L|509:246,1,35
478,257,384706,2,0,L|503:215,1,35
435,112,384835,69,4,0:0:0:0:
353,231,384963,1,8,0:0:0:0:
263,77,385090,1,4,0:0:0:0:
263,77,385346,5,8,0:0:0:0:
222,131,385409,1,8,0:0:0:0:
231,199,385473,1,8,0:0:0:0:
286,240,385537,1,8,0:0:0:0:
353,231,385601,69,0,0:0:0:0:
332,212,385664,1,0,0:0:0:0:
306,201,385728,1,0,0:0:0:0:
278,199,385792,1,0,0:0:0:0:
251,205,385856,6,0,L|216:227,1,35,2|8,0:0|0:0,0:0:0:0:
74,170,385984,2,0,L|111:182,1,35,2|8,0:0|0:0,0:0:0:0:
267,214,386112,2,0,L|232:236,1,35,2|8,0:0|0:0,0:0:0:0:
69,151,386238,2,0,L|106:163,1,35,2|8,0:0|0:0,0:0:0:0:
302,109,386367,70,0,L|261:114,1,35,2|8,0:0|0:0,0:0:0:0:
60,288,386495,2,0,L|100:291,1,35,2|8,0:0|0:0,0:0:0:0:
307,93,386622,2,0,L|266:98,1,35,2|8,0:0|0:0,0:0:0:0:
52,310,386750,2,0,L|92:313,1,35,2|8,0:0|0:0,0:0:0:0:
403,127,386877,5,0,0:0:0:0:
405,137,386940,1,0,0:0:0:0:
407,147,387004,1,0,0:0:0:0:
409,157,387068,1,0,0:0:0:0:
411,168,387132,1,0,0:0:0:0:
413,178,387196,1,0,0:0:0:0:
416,188,387259,1,0,0:0:0:0:
418,198,387323,1,0,0:0:0:0:
420,209,387387,1,0,0:0:0:0:
422,219,387451,1,0,0:0:0:0:
424,229,387515,1,0,0:0:0:0:
426,239,387579,1,0,0:0:0:0:
459,286,387643,69,0,0:0:0:0:
443,294,387706,1,0,0:0:0:0:
428,303,387770,1,0,0:0:0:0:
413,312,387834,1,0,0:0:0:0:
355,286,387899,5,8,0:0:0:0:
339,278,387962,1,0,0:0:0:0:
324,269,388026,1,0,0:0:0:0:
309,260,388090,1,0,0:0:0:0:
250,267,388154,70,0,L|235:321,1,35
308,139,388282,2,0,L|323:193,1,35
171,209,388409,5,8,0:0:0:0:
105,190,388472,1,8,0:0:0:0:
68,132,388536,1,8,0:0:0:0:
79,65,388600,1,8,0:0:0:0:
132,22,388664,1,8,0:0:0:0:
132,22,388919,5,14,0:0:0:0:
109,64,388983,1,8,0:0:0:0:
112,113,389047,1,2,0:0:0:0:
140,152,389111,1,8,0:0:0:0:
184,172,389174,1,2,0:0:0:0:
232,166,389237,1,8,0:0:0:0:
269,135,389302,1,2,0:0:0:0:
286,89,389366,1,8,0:0:0:0:
325,57,389430,1,2,0:0:0:0:
373,48,389493,1,8,0:0:0:0:
419,63,389557,1,2,0:0:0:0:
453,98,389621,1,8,0:0:0:0:
466,144,389684,1,2,0:0:0:0:
456,192,389748,1,8,0:0:0:0:
424,229,389812,1,2,0:0:0:0:
379,246,389876,1,8,0:0:0:0:
331,240,389940,5,2,0:0:0:0:
285,257,390003,1,8,0:0:0:0:
252,293,390068,1,2,0:0:0:0:
239,339,390131,1,8,0:0:0:0:
206,373,390195,1,2,0:0:0:0:
159,384,390259,1,8,0:0:0:0:
112,376,390323,1,2,0:0:0:0:
76,346,390387,1,8,0:0:0:0:
60,300,390451,1,2,0:0:0:0:
68,253,390515,1,8,0:0:0:0:
99,215,390579,1,2,0:0:0:0:
145,198,390642,1,8,0:0:0:0:
174,161,390706,1,2,0:0:0:0:
180,113,390770,1,8,0:0:0:0:
159,70,390834,1,2,0:0:0:0:
117,44,390898,1,8,0:0:0:0:
69,45,390961,69,2,0:0:0:0:
29,71,391025,1,8,0:0:0:0:
9,115,391089,1,2,0:0:0:0:
15,163,391153,1,8,0:0:0:0:
46,200,391217,1,2,0:0:0:0:
92,215,391280,1,8,0:0:0:0:
142,207,391345,1,2,0:0:0:0:
187,220,391408,1,8,0:0:0:0:
222,251,391472,6,0,P|240:282|247:316,1,70,2|8,0:0|0:0,0:0:0:0:
366,125,391600,2,0,P|347:95|320:72,1,70,2|8,0:0|0:0,0:0:0:0:
163,309,391728,2,0,P|168:343|163:378,1,70,2|8,0:0|0:0,0:0:0:0:
285,150,391855,2,0,P|257:128|224:116,1,70,2|8,0:0|0:0,0:0:0:0:
322,363,391983,69,2,0:0:0:0:
366,383,392046,1,8,0:0:0:0:
414,377,392110,1,2,0:0:0:0:
452,348,392174,1,8,0:0:0:0:
469,303,392238,1,6,0:0:0:0:
461,255,392302,1,8,0:0:0:0:
429,218,392365,1,2,0:0:0:0:
383,204,392429,1,8,0:0:0:0:
336,215,392494,5,8,0:0:0:0:
410,215,392557,1,8,0:0:0:0:
455,156,392621,1,8,0:0:0:0:
435,84,392685,1,8,0:0:0:0:
363,57,392749,69,0,0:0:0:0:
359,70,392812,1,0,0:0:0:0:
357,84,392876,1,0,0:0:0:0:
358,98,392940,1,0,0:0:0:0:
362,111,393004,5,12,0:0:0:0:
336,47,393067,1,0,0:0:0:0:
277,12,393131,1,0,0:0:0:0:
208,20,393195,1,0,0:0:0:0:
159,68,393259,70,0,P|146:103|145:138,1,70,8|0,0:0|0:0,0:0:0:0:
402,320,393387,2,0,P|395:283|379:252,1,70,8|0,0:0|0:0,0:0:0:0:
65,116,393515,2,0,P|68:153|81:185,1,70,8|0,0:0|0:0,0:0:0:0:
460,228,393642,2,0,P|438:197|410:176,1,70,8|0,0:0|0:0,0:0:0:0:
0,199,393770,2,0,P|18:231|44:254,1,70,8|0,0:0|0:0,0:0:0:0:
473,120,393898,2,0,P|440:101|406:93,1,70,8|0,0:0|0:0,0:0:0:0:
0,338,394025,5,8,0:0:0:0:
62,348,394088,1,0,0:0:0:0:
117,316,394152,1,8,0:0:0:0:
131,256,394216,1,0,0:0:0:0:
110,189,394280,1,8,0:0:0:0:
125,120,394345,1,0,0:0:0:0:
173,71,394409,1,8,0:0:0:0:
241,54,394473,1,0,0:0:0:0:
306,76,394537,1,8,0:0:0:0:
350,129,394600,1,0,0:0:0:0:
360,198,394664,1,8,0:0:0:0:
332,261,394728,1,0,0:0:0:0:
275,299,394792,1,8,0:0:0:0:
205,301,394855,1,0,0:0:0:0:
146,265,394919,1,8,0:0:0:0:
78,256,394983,1,0,0:0:0:0:
15,286,395047,70,0,P|4:322|5:374,1,70,12|0,0:0|0:0,0:0:0:0:
113,89,395174,2,0,P|98:54|64:15,1,70,8|0,0:0|0:0,0:0:0:0:
179,271,395302,1,8,0:0:0:0:
217,327,395366,1,0,0:0:0:0:
257,379,395430,6,0,P|291:364|330:330,1,70,12|0,0:0|0:0,0:0:0:0:
97,168,395557,2,0,P|59:169|10:188,1,70,8|0,0:0|0:0,0:0:0:0:
326,157,395685,1,8,0:0:0:0:
378,112,395749,1,0,0:0:0:0:
432,68,395813,70,0,P|463:88|496:128,1,70,12|0,0:0|0:0,0:0:0:0:
484,332,395940,2,0,P|495:296|493:244,1,70,8|0,0:0|0:0,0:0:0:0:
297,72,396068,5,12,0:0:0:0:
245,117,396131,1,0,0:0:0:0:
240,185,396195,1,8,0:0:0:0:
284,237,396259,1,0,0:0:0:0:
352,243,396323,69,10,0:0:0:0:
355,229,396387,1,2,0:0:0:0:
356,215,396451,1,2,0:0:0:0:
354,201,396515,1,2,0:0:0:0:
350,188,396579,5,8,0:0:0:0:
320,256,396642,1,8,0:0:0:0:
355,321,396706,1,8,0:0:0:0:
428,334,396770,1,8,0:0:0:0:
483,285,396834,1,2,0:0:0:0:
483,285,397090,69,14,0:0:0:0:
440,308,397152,1,8,0:0:0:0:
391,308,397217,1,2,0:0:0:0:
349,285,397280,1,8,0:0:0:0:
322,244,397345,1,2,0:0:0:0:
317,196,397408,1,8,0:0:0:0:
332,150,397472,1,2,0:0:0:0:
332,101,397536,1,8,0:0:0:0:
312,57,397601,1,2,0:0:0:0:
276,24,397664,1,8,0:0:0:0:
230,10,397729,1,2,0:0:0:0:
181,15,397791,1,8,0:0:0:0:
139,39,397856,1,2,0:0:0:0:
111,78,397919,1,8,0:0:0:0:
100,126,397984,1,2,0:0:0:0:
111,173,398047,1,8,0:0:0:0:
139,213,398112,5,2,0:0:0:0:
181,237,398174,1,8,0:0:0:0:
203,280,398239,1,2,0:0:0:0:
199,328,398302,1,8,0:0:0:0:
171,367,398367,1,2,0:0:0:0:
126,384,398430,1,8,0:0:0:0:
78,376,398494,1,2,0:0:0:0:
42,345,398557,1,8,0:0:0:0:
28,299,398622,69,6,0:0:0:0:
75,289,398685,1,8,0:0:0:0:
123,298,398749,1,2,0:0:0:0:
165,323,398813,1,8,0:0:0:0:
195,361,398877,1,2,0:0:0:0:
240,378,398941,1,8,0:0:0:0:
287,370,399005,1,2,0:0:0:0:
325,339,399069,1,8,0:0:0:0:
341,294,399132,6,0,P|337:241|327:215,1,70,2|8,0:0|0:0,0:0:0:0:
118,145,399259,2,0,P|131:196|145:220,1,70,2|8,0:0|0:0,0:0:0:0:
429,225,399387,69,6,0:0:0:0:
412,179,399450,1,8,0:0:0:0:
377,145,399514,1,2,0:0:0:0:
330,132,399578,1,8,0:0:0:0:
283,141,399642,6,0,P|250:173|238:202,1,70,2|8,0:0|0:0,0:0:0:0:
439,371,399770,2,0,P|435:325|421:297,1,70,2|8,0:0|0:0,0:0:0:0:
206,278,399898,69,6,0:0:0:0:
163,301,399961,1,8,0:0:0:0:
115,300,400025,1,2,0:0:0:0:
73,275,400089,1,8,0:0:0:0:
51,232,400153,5,2,0:0:0:0:
52,184,400217,1,8,0:0:0:0:
78,143,400280,1,2,0:0:0:0:
122,121,400344,1,8,0:0:0:0:
170,123,400408,1,6,0:0:0:0:
210,151,400472,1,8,0:0:0:0:
232,194,400536,1,2,0:0:0:0:
229,243,400600,1,8,0:0:0:0:
203,283,400664,69,8,0:0:0:0:
187,210,400727,1,8,0:0:0:0:
236,154,400791,1,8,0:0:0:0:
310,160,400855,1,8,0:0:0:0:
352,226,400919,5,0,0:0:0:0:
339,231,400982,1,0,0:0:0:0:
325,235,401046,1,0,0:0:0:0:
311,237,401110,1,0,0:0:0:0:
298,235,401174,69,12,0:0:0:0:
353,194,401237,1,0,0:0:0:0:
422,197,401301,1,8,0:0:0:0:
475,156,401366,1,0,0:0:0:0:
488,89,401430,1,8,0:0:0:0:
453,30,401494,1,0,0:0:0:0:
388,8,401558,1,8,0:0:0:0:
325,35,401621,1,0,0:0:0:0:
296,97,401685,6,0,P|282:133|250:168,1,70,8|0,0:0|0:0,0:0:0:0:
111,367,401813,2,0,P|89:339|77:306,1,70,8|0,0:0|0:0,0:0:0:0:
373,62,401940,2,0,P|378:100|368:146,1,70,8|0,0:0|0:0,0:0:0:0:
0,340,402068,2,0,P|-4:305|1:271,1,70,8|0,0:0|0:0,0:0:0:0:
429,202,402196,69,8,0:0:0:0:
425,271,402259,1,0,0:0:0:0:
389,330,402323,1,8,0:0:0:0:
329,364,402387,1,0,0:0:0:0:
260,364,402451,1,8,0:0:0:0:
199,330,402515,1,0,0:0:0:0:
162,272,402578,1,8,0:0:0:0:
159,203,402642,1,0,0:0:0:0:
121,144,402706,6,0,P|81:123|43:121,1,70,8|0,0:0|0:0,0:0:0:0:
334,317,402834,2,0,P|378:307|408:284,1,70,8|0,0:0|0:0,0:0:0:0:
78,41,402962,2,0,P|32:42|-1:60,1,70,8|0,0:0|0:0,0:0:0:0:
434,371,403089,2,0,P|467:340|482:305,1,70,8|0,0:0|0:0,0:0:0:0:
9,202,403217,69,4,0:0:0:0:
13,243,403280,1,8,0:3:0:0:
33,280,403344,1,8,0:3:0:0:
65,306,403408,1,8,0:3:0:0:
105,317,403472,1,8,0:3:0:0:
147,312,403536,1,8,0:3:0:0:
176,263,403600,5,4,0:0:0:0:
202,255,403663,1,4,0:3:0:0:
230,254,403727,1,4,0:3:0:0:
258,260,403791,1,4,0:3:0:0:
283,273,403855,1,4,0:3:0:0:
304,291,403919,1,4,0:3:0:0:
304,343,403983,70,0,L|222:383,3,70,8|0|0|0,0:0|0:0|0:0|0:0,0:0:0:0:
455,327,404238,5,8,0:0:0:0:
477,292,404302,1,8,0:3:0:0:
483,250,404365,1,8,0:3:0:0:
472,211,404429,1,8,0:3:0:0:
444,179,404493,1,8,0:3:0:0:
406,163,404557,1,8,0:3:0:0:
349,184,404621,69,8,0:0:0:0:
321,184,404684,1,4,0:3:0:0:
294,177,404748,1,4,0:3:0:0:
270,163,404812,1,4,0:3:0:0:
252,142,404876,1,4,0:3:0:0:
240,116,404940,1,4,0:3:0:0:
285,67,405004,5,8,0:0:0:0:
311,130,405067,1,8,0:0:0:0:
295,197,405131,1,8,0:0:0:0:
242,240,405195,1,8,0:0:0:0:
173,244,405260,69,6,0:0:0:0:
173,230,405323,1,0,0:0:0:0:
174,216,405387,1,0,0:0:0:0:
177,202,405451,1,0,0:0:0:0:
181,188,405515,1,0,0:0:0:0:
186,176,405579,1,0,0:0:0:0:
193,163,405642,1,0,0:0:0:0:
200,152,405706,1,0,0:0:0:0:
209,141,405770,1,4,0:0:0:0:
219,131,405834,1,0,0:0:0:0:
230,122,405898,1,0,0:0:0:0:
242,114,405962,1,0,0:0:0:0:
254,108,406025,1,0,0:0:0:0:
267,102,406089,1,0,0:0:0:0:
280,98,406153,1,0,0:0:0:0:
294,95,406217,1,0,0:0:0:0:
308,94,406281,5,8,0:0:0:0:
303,107,406344,1,0,0:0:0:0:
300,120,406408,1,0,0:0:0:0:
300,134,406472,1,0,0:0:0:0:
301,148,406536,1,0,0:0:0:0:
305,162,406600,1,0,0:0:0:0:
310,175,406663,1,0,0:0:0:0:
318,187,406727,1,0,0:0:0:0:
327,197,406791,69,4,0:0:0:0:
313,192,406855,1,0,0:0:0:0:
300,189,406919,1,0,0:0:0:0:
286,187,406983,1,0,0:0:0:0:
272,187,407047,1,0,0:0:0:0:
258,188,407111,1,0,0:0:0:0:
244,191,407174,1,0,0:0:0:0:
231,194,407238,1,0,0:0:0:0:
199,186,407302,5,4,0:0:0:0:
187,178,407365,1,0,0:0:0:0:
175,171,407429,1,0,0:0:0:0:
163,163,407493,1,0,0:0:0:0:
102,170,407557,2,0,L|43:191,7,35,4|0|0|0|0|0|0|0,0:0|0:0|0:0|0:0|0:0|0:0|0:0|0:0,0:0:0:0:
128,72,408068,2,0,L|105:23,3,35,4|0|0|0,0:0|0:0|0:0|0:0,0:0:0:0:
155,262,408323,69,8,0:0:0:0:
167,270,408387,1,0,0:0:0:0:
179,277,408451,1,0,0:0:0:0:
191,285,408514,1,4,0:0:0:0:
218,329,408579,2,0,L|204:371,3,35,4|0|0|0,0:0|0:0|0:0|0:0,0:0:0:0:
275,224,408834,2,0,L|261:182,3,35,4|0|0|0,0:0|0:0|0:0|0:0,0:0:0:0:
314,347,409089,2,0,L|300:389,3,35,4|0|0|0,0:0|0:0|0:0|0:0,0:0:0:0:
375,194,409345,5,4,0:0:0:0:
374,180,409408,1,0,0:0:0:0:
372,166,409472,1,0,0:0:0:0:
368,152,409536,1,0,0:0:0:0:
362,139,409600,1,0,0:0:0:0:
355,127,409664,1,0,0:0:0:0:
347,116,409727,1,0,0:0:0:0:
337,106,409791,1,0,0:0:0:0:
326,98,409855,1,0,0:0:0:0:
314,91,409919,1,0,0:0:0:0:
301,85,409983,1,0,0:0:0:0:
288,81,410047,1,0,0:0:0:0:
274,79,410110,1,0,0:0:0:0:
260,78,410174,1,0,0:0:0:0:
246,80,410238,1,0,0:0:0:0:
232,83,410302,1,0,0:0:0:0:
219,87,410366,69,8,0:0:0:0:
224,99,410429,1,0,0:0:0:0:
231,112,410493,1,0,0:0:0:0:
239,123,410557,1,0,0:0:0:0:
249,132,410621,1,0,0:0:0:0:
261,141,410685,1,0,0:0:0:0:
273,147,410748,1,0,0:0:0:0:
286,152,410812,1,0,0:0:0:0:
300,155,410876,1,0,0:0:0:0:
314,156,410940,1,0,0:0:0:0:
328,155,411004,1,0,0:0:0:0:
341,153,411068,1,0,0:0:0:0:
355,148,411131,1,0,0:0:0:0:
367,142,411195,1,0,0:0:0:0:
379,134,411259,1,0,0:0:0:0:
389,124,411323,1,0,0:0:0:0:
444,100,411387,5,0,0:0:0:0:
450,112,411450,1,0,0:0:0:0:
456,125,411514,1,0,0:0:0:0:
462,137,411578,1,0,0:0:0:0:
440,194,411642,2,0,L|427:227,7,35,4|0|0|0|0|0|0|0,0:0|0:0|0:0|0:0|0:0|0:0|0:0|0:0,0:0:0:0:
512,54,412153,2,0,L|485:24,3,35,4|0|0|0,0:0|0:0|0:0|0:0,0:0:0:0:
509,258,412408,69,8,0:0:0:0:
500,269,412471,1,0,0:0:0:0:
492,280,412535,1,0,0:0:0:0:
483,291,412599,1,0,0:0:0:0:
479,340,412664,2,0,L|517:351,3,35,4|0|0|0,0:0|0:0|0:0|0:0,0:0:0:0:
379,284,412919,5,0,0:0:0:0:
365,285,412982,1,0,0:0:0:0:
351,287,413046,1,0,0:0:0:0:
337,289,413110,1,0,0:0:0:0:
299,269,413174,2,0,L|310:206,3,35,4|0|0|0,0:0|0:0|0:0|0:0,0:0:0:0:
223,372,413430,69,4,0:0:0:0:
209,373,413493,1,0,0:0:0:0:
195,373,413557,1,0,0:0:0:0:
181,372,413621,1,0,0:0:0:0:
167,368,413685,1,0,0:0:0:0:
154,363,413749,1,0,0:0:0:0:
142,357,413812,1,0,0:0:0:0:
130,349,413876,1,0,0:0:0:0:
120,340,413940,1,4,0:0:0:0:
111,329,414004,1,0,0:0:0:0:
103,317,414068,1,0,0:0:0:0:
96,305,414132,1,0,0:0:0:0:
91,292,414195,1,0,0:0:0:0:
88,278,414259,1,0,0:0:0:0:
87,264,414323,1,0,0:0:0:0:
87,250,414387,1,0,0:0:0:0:
89,237,414451,5,8,0:0:0:0:
100,245,414514,1,0,0:0:0:0:
112,252,414578,1,0,0:0:0:0:
125,257,414642,1,0,0:0:0:0:
138,261,414706,1,0,0:0:0:0:
152,262,414770,1,0,0:0:0:0:
166,263,414833,1,0,0:0:0:0:
180,261,414897,1,0,0:0:0:0:
194,258,414961,69,4,0:0:0:0:
199,270,415025,1,0,0:0:0:0:
206,282,415089,1,0,0:0:0:0:
215,293,415153,1,0,0:0:0:0:
226,302,415217,1,0,0:0:0:0:
237,310,415281,1,0,0:0:0:0:
250,316,415344,1,0,0:0:0:0:
263,320,415408,1,0,0:0:0:0:
313,311,415472,5,4,0:0:0:0:
318,298,415535,1,0,0:0:0:0:
324,285,415599,1,0,0:0:0:0:
330,272,415663,1,0,0:0:0:0:
384,241,415728,2,0,L|441:254,7,35,4|0|0|0|0|0|0|0,0:0|0:0|0:0|0:0|0:0|0:0|0:0|0:0,0:0:0:0:
253,216,416238,2,0,L|196:229,3,35,4|0|0|0,0:0|0:0|0:0|0:0,0:0:0:0:
396,156,416494,69,8,0:0:0:0:
392,142,416557,1,0,0:0:0:0:
389,128,416621,1,0,0:0:0:0:
386,115,416685,1,0,0:0:0:0:
418,75,416749,2,0,L|465:69,3,35,4|0|0|0,0:0|0:0|0:0|0:0,0:0:0:0:
300,42,417004,2,0,L|253:36,3,35,4|0|0|0,0:0|0:0|0:0|0:0,0:0:0:0:
477,151,417259,2,0,L|524:145,3,35,4|0|0|0,0:0|0:0|0:0|0:0,0:0:0:0:
275,127,417515,5,4,0:0:0:0:
261,126,417578,1,0,0:0:0:0:
247,128,417642,1,0,0:0:0:0:
233,132,417706,1,0,0:0:0:0:
220,138,417770,1,0,0:0:0:0:
208,145,417834,1,0,0:0:0:0:
198,154,417897,1,0,0:0:0:0:
188,164,417961,1,0,0:0:0:0:
180,176,418025,69,4,0:0:0:0:
170,165,418088,1,0,0:0:0:0:
162,154,418152,1,0,0:0:0:0:
156,141,418216,1,0,0:0:0:0:
152,128,418280,1,0,0:0:0:0:
150,114,418344,1,0,0:0:0:0:
151,100,418407,1,0,0:0:0:0:
154,86,418471,1,0,0:0:0:0:
158,73,418536,5,12,0:0:0:0:
144,73,418599,1,0,0:0:0:0:
130,76,418663,1,0,0:0:0:0:
116,80,418727,1,0,0:0:0:0:
104,86,418791,1,0,0:0:0:0:
92,94,418855,1,0,0:0:0:0:
81,103,418918,1,0,0:0:0:0:
72,113,418982,1,0,0:0:0:0:
64,124,419047,69,4,0:0:0:0:
75,131,419110,1,0,0:0:0:0:
85,141,419174,1,0,0:0:0:0:
94,151,419238,1,0,0:0:0:0:
102,163,419302,1,0,0:0:0:0:
107,176,419366,1,0,0:0:0:0:
111,190,419429,1,0,0:0:0:0:
112,204,419493,1,0,0:0:0:0:
112,218,419557,6,0,L|98:309,1,70,6|8,0:0|0:0,0:0:0:0:
272,356,419685,1,8,0:0:0:0:
317,302,419748,1,8,0:0:0:0:
362,249,419812,1,8,0:0:0:0:
407,195,419876,1,8,0:0:0:0:
453,142,419940,70,0,L|436:61,1,70,4|8,0:0|0:0,0:0:0:0:
196,120,420068,1,8,0:0:0:0:
238,175,420131,1,8,0:0:0:0:
281,230,420195,1,8,0:0:0:0:
324,286,420259,1,8,0:0:0:0:
366,341,420323,5,2,0:0:0:0:
352,272,420387,1,8,0:0:0:0:
339,203,420451,1,8,0:0:0:0:
325,134,420515,1,8,0:0:0:0:
312,66,420579,69,8,0:0:0:0:
277,127,420642,1,8,0:0:0:0:
243,187,420706,1,8,0:0:0:0:
208,248,420770,1,8,0:0:0:0:
174,309,420834,5,8,0:3:0:0:
141,296,420897,1,8,0:3:0:0:
114,274,420961,1,8,0:3:0:0:
97,244,421025,1,8,0:3:0:0:
90,209,421089,69,4,0:3:0:0:
88,215,421152,1,4,0:3:0:0:
86,222,421216,1,4,0:3:0:0:
84,229,421280,1,4,0:3:0:0:
82,236,421344,1,4,0:3:0:0:
0,49,421472,1,0,0:0:0:0:
10,323,421600,54,0,L|47:362,1,52.5,6|0,0:0|2:0,0:0:0:0:
131,372,422621,5,12,0:0:0:0:
131,372,422749,1,0,0:0:0:0:
219,349,422876,69,0,0:0:0:0:
219,349,423004,1,0,0:0:0:0:
279,278,423132,5,4,0:0:0:0:
279,278,423260,1,0,0:0:0:0:
291,185,423387,69,0,0:0:0:0:
291,185,423515,1,0,0:0:0:0:
155,214,423642,5,4,0:0:0:0:
155,214,423770,1,0,0:0:0:0:
105,140,423898,69,0,0:0:0:0:
105,140,424026,1,0,0:0:0:0:
55,66,424153,5,4,0:0:0:0:
55,66,424281,1,0,0:0:0:0:
145,14,424408,69,0,0:0:0:0:
161,20,424471,1,0,0:0:0:0:
177,26,424535,1,0,0:0:0:0:
193,33,424599,1,0,0:0:0:0:
231,83,424664,5,8,0:0:0:0:
247,76,424727,1,0,0:0:0:0:
263,70,424791,1,0,0:0:0:0:
279,63,424855,1,0,0:0:0:0:
308,11,424919,69,0,0:0:0:0:
308,11,425047,1,0,0:0:0:0:
406,24,425174,5,4,0:0:0:0:
406,24,425302,1,0,0:0:0:0:
453,106,425430,69,0,0:0:0:0:
453,106,425558,1,0,0:0:0:0:
407,199,425685,6,0,P|313:238|224:206,1,161.000003070831,4|0,0:0|0:0,0:0:0:0:
103,35,425940,1,4,0:0:0:0:
103,35,426196,69,8,0:3:0:0:
128,58,426259,1,8,0:3:0:0:
144,89,426323,1,8,0:3:0:0:
147,124,426387,1,8,0:3:0:0:
99,150,426451,5,0,0:0:0:0:
93,173,426514,1,0,0:0:0:0:
93,198,426578,1,0,0:0:0:0:
99,222,426642,1,0,0:0:0:0:
110,243,426706,69,4,0:0:0:0:
108,249,426769,1,0,0:0:0:0:
106,256,426833,1,0,0:0:0:0:
104,263,426897,1,0,0:0:0:0:
102,270,426961,1,0,0:0:0:0:
101,276,427025,1,0,0:0:0:0:
99,283,427088,1,0,0:0:0:0:
97,290,427152,1,0,0:0:0:0:
95,297,427217,5,12,0:0:0:0:
128,271,427280,1,0,0:0:0:0:
161,246,427344,1,0,0:0:0:0:
195,220,427408,1,0,0:0:0:0:
228,195,427472,1,0,0:0:0:0:
261,169,427536,1,0,0:0:0:0:
295,144,427599,1,0,0:0:0:0:
328,118,427663,1,0,0:0:0:0:
362,93,427727,69,4,0:0:0:0:
362,93,427855,1,0,0:0:0:0:
311,18,427983,5,0,0:0:0:0:
311,18,428111,1,0,0:0:0:0:
213,12,428238,69,4,0:0:0:0:
213,12,428366,1,0,0:0:0:0:
142,79,428494,5,0,0:0:0:0:
139,96,428557,1,0,0:0:0:0:
137,113,428621,1,0,0:0:0:0:
134,130,428685,1,0,0:0:0:0:
180,160,428749,69,12,0:0:0:0:
182,177,428812,1,0,0:0:0:0:
184,194,428876,1,0,0:0:0:0:
187,211,428940,1,0,0:0:0:0:
136,253,429004,5,0,0:0:0:0:
136,253,429132,1,0,0:0:0:0:
168,342,429259,69,4,0:0:0:0:
168,342,429387,1,0,0:0:0:0:
0,185,429515,5,8,0:0:0:0:
336,189,429770,70,0,L|343:141,1,49,4|0,0:0|2:0,0:0:0:0:
397,69,430281,1,4,0:0:0:0:
397,69,430791,5,12,0:0:0:0:
397,69,430919,1,0,0:0:0:0:
457,143,431047,69,0,0:0:0:0:
457,143,431175,1,0,0:0:0:0:
457,236,431302,5,4,0:0:0:0:
457,236,431430,1,0,0:0:0:0:
403,318,431557,69,0,0:0:0:0:
403,318,431685,1,0,0:0:0:0:
286,225,431813,5,4,0:0:0:0:
286,225,431941,1,0,0:0:0:0:
255,136,432068,69,0,0:0:0:0:
255,136,432196,1,0,0:0:0:0:
221,46,432323,5,4,0:0:0:0:
221,46,432451,1,0,0:0:0:0:
110,17,432579,69,0,0:0:0:0:
105,34,432642,1,0,0:0:0:0:
101,51,432706,1,0,0:0:0:0:
97,68,432770,1,0,0:0:0:0:
140,100,432834,5,12,0:0:0:0:
144,117,432897,1,0,0:0:0:0:
148,134,432961,1,0,0:0:0:0:
152,151,433025,1,0,0:0:0:0:
110,199,433089,69,0,0:0:0:0:
110,199,433217,1,0,0:0:0:0:
194,254,433345,5,4,0:0:0:0:
194,254,433473,1,0,0:0:0:0:
289,222,433600,69,0,0:0:0:0:
289,222,433728,1,0,0:0:0:0:
323,120,433855,6,0,P|405:75|511:127,1,161.000003070831,4|0,0:0|0:0,0:0:0:0:
512,334,434111,1,4,0:0:0:0:
512,334,434366,69,8,0:0:0:0:
443,337,434429,1,8,0:0:0:0:
389,295,434493,1,8,0:0:0:0:
375,228,434557,1,8,0:0:0:0:
408,168,434621,5,0,0:0:0:0:
430,176,434684,1,0,0:0:0:0:
451,189,434748,1,0,0:0:0:0:
469,206,434812,1,0,0:0:0:0:
483,226,434876,69,4,0:0:0:0:
483,219,434939,1,0,0:0:0:0:
484,212,435003,1,0,0:0:0:0:
484,205,435067,1,0,0:0:0:0:
485,198,435131,1,0,0:0:0:0:
485,191,435195,1,0,0:0:0:0:
486,184,435258,1,0,0:0:0:0:
486,177,435322,1,0,0:0:0:0:
487,170,435387,5,12,0:0:0:0:
448,186,435450,1,0,0:0:0:0:
410,203,435514,1,0,0:0:0:0:
371,220,435578,1,0,0:0:0:0:
333,237,435642,1,0,0:0:0:0:
294,254,435706,1,0,0:0:0:0:
256,270,435769,1,0,0:0:0:0:
217,287,435833,1,0,0:0:0:0:
179,304,435897,69,4,0:0:0:0:
179,304,436025,1,0,0:0:0:0:
108,235,436153,5,0,0:0:0:0:
108,235,436281,1,0,0:0:0:0:
111,130,436408,69,4,0:0:0:0:
111,130,436536,1,0,0:0:0:0:
185,56,436664,5,0,0:0:0:0:
202,53,436727,1,0,0:0:0:0:
219,51,436791,1,0,0:0:0:0:
237,49,436855,1,0,0:0:0:0:
268,101,436919,69,12,0:0:0:0:
285,103,436982,1,0,0:0:0:0:
302,105,437046,1,0,0:0:0:0:
320,107,437110,1,0,0:0:0:0:
371,72,437174,5,0,0:0:0:0:
371,72,437302,1,0,0:0:0:0:
460,104,437430,69,4,0:0:0:0:
460,104,437558,1,0,0:0:0:0:
485,308,437685,5,8,0:0:0:0:
188,136,437940,70,0,P|142:139|96:178,1,105,6|0,0:0|2:0,0:0:0:0:
90,242,438961,1,4,0:0:0:0:
90,242,440238,53,2,0:0:0:0:
111,285,440323,1,2,0:0:0:0:
132,328,440408,1,2,0:0:0:0:
215,354,440493,2,0,L|211:279,5,46.6666666666667,8|8|8|8|8|8,0:0|0:0|0:0|0:0|0:0|0:0,0:0:0:0:
337,364,441003,21,8,0:0:0:0:
189,152,441131,1,8,0:0:0:0:
442,262,441259,2,0,L|473:189,1,70
469,197,441769,1,8,0:0:0:0:
328,26,441897,1,8,0:0:0:0:
319,251,442025,6,0,L|268:266,1,49,6|0,0:0|2:0,0:0:0:0:
191,239,442535,1,4,0:0:0:0:
191,239,443046,69,12,0:0:0:0:
191,239,443174,1,0,0:0:0:0:
96,222,443301,5,0,0:0:0:0:
96,222,443429,1,0,0:0:0:0:
61,134,443557,69,4,0:0:0:0:
61,134,443685,1,0,0:0:0:0:
107,44,443812,5,0,0:0:0:0:
107,44,443940,1,0,0:0:0:0:
206,30,444067,70,0,P|254:64|251:127,1,105,6|0,0:0|2:0,0:0:0:0:
228,153,444323,2,0,P|268:114|356:166,1,157.500006008148,6|0,0:0|2:0,0:0:0:0:
349,213,444579,2,0,P|370:143|486:207,1,210,6|0,0:0|2:0,0:0:0:0:
483,236,444834,5,8,0:0:0:0:
452,297,444898,1,8,0:0:0:0:
395,336,444962,1,8,0:0:0:0:
326,342,445026,1,8,0:0:0:0:
262,314,445089,70,0,B|202:278|163:187|187:156|203:127|262:120|330:179|333:227|297:273|204:270|145:249|162:271|113:215|110:205|109:190|120:136,1,490,6|0,0:0|2:0,0:0:0:0:
120,144,445600,1,0,0:0:0:0:
129,129,445664,1,0,0:0:0:0:
139,115,445728,1,0,0:0:0:0:
151,102,445792,1,0,0:0:0:0:
165,91,445856,1,0,0:0:0:0:
180,83,445919,1,0,0:0:0:0:
197,77,445983,1,0,0:0:0:0:
214,73,446047,1,0,0:0:0:0:
231,71,446111,6,0,L|321:80,1,70,10|0,0:0|0:0,0:0:0:0:
430,304,446366,1,0,0:0:0:0:
430,304,446620,1,4,0:0:0:0:
485,173,446876,2,0,L|469:122,1,52.5,0|0,0:0|2:0,0:0:0:0:
488,94,447132,70,0,L|392:111,1,70
345,238,447387,2,0,L|412:225,1,70
353,23,447642,1,4,0:0:0:0:
326,152,447770,1,4,0:0:0:0:
353,23,447898,2,0,L|257:40,1,70
224,208,448153,6,0,L|229:306,1,70,8|0,0:0|0:0,0:0:0:0:
39,232,448408,2,0,L|35:162,1,70
240,123,448664,69,4,0:0:0:0:
100,62,448791,1,4,0:0:0:0:
224,208,448918,5,8,0:0:0:0:
152,0,449046,1,8,0:0:0:0:
118,269,449174,70,0,L|164:291,1,49,6|0,0:0|2:0,0:0:0:0:
248,288,449684,1,4,0:0:0:0:
248,288,450195,5,12,0:0:0:0:
248,288,450323,1,0,0:0:0:0:
323,347,450450,69,0,0:0:0:0:
323,347,450578,1,0,0:0:0:0:
419,335,450706,5,4,0:0:0:0:
419,335,450834,1,0,0:0:0:0:
482,261,450962,69,0,0:0:0:0:
482,261,451089,1,0,0:0:0:0:
484,163,451216,6,0,P|428:148|377:182,1,105,6|0,0:0|2:0,0:0:0:0:
355,240,451472,2,0,P|398:178|370:108,1,157.500006008148,6|0,0:0|2:0,0:0:0:0:
402,45,451728,2,0,P|346:92|225:47,1,210,6|0,0:0|2:0,0:0:0:0:
170,14,451982,69,8,0:0:0:0:
102,21,452046,1,8,0:0:0:0:
54,70,452110,1,8,0:0:0:0:
47,138,452174,1,8,0:0:0:0:
86,195,452238,6,0,B|164:222|175:175|195:152|191:129|181:112|163:97|134:100|134:100|123:123|138:151|171:173|197:202|213:212|231:225|231:228|230:231|251:263|257:295|209:343,1,490,6|0,0:0|2:0,0:0:0:0:
203,349,452748,1,0,0:0:0:0:
189,360,452812,1,0,0:0:0:0:
174,367,452876,1,0,0:0:0:0:
157,371,452940,1,0,0:0:0:0:
139,372,453004,1,0,0:0:0:0:
122,369,453067,1,0,0:0:0:0:
106,362,453131,1,0,0:0:0:0:
92,352,453195,1,0,0:0:0:0:
80,339,453259,70,0,L|41:251,1,70,10|0,0:0|0:0,0:0:0:0:
125,94,453515,1,0,0:0:0:0:
125,94,453769,1,4,0:0:0:0:
223,202,454025,2,0,L|212:262,1,52.5,0|0,0:0|2:0,0:0:0:0:
182,282,454281,6,0,L|273:315,1,70
279,126,454536,2,0,L|214:103,1,70
365,297,454791,2,0,L|456:330,1,70
430,114,455046,2,0,L|365:91,1,70
160,203,455302,70,0,L|124:143,1,70,8|0,0:0|0:0,0:0:0:0:
252,9,455557,2,0,L|287:69,1,70
261,260,455813,5,4,0:3:0:0:
261,260,455940,1,4,0:3:0:0:
391,196,456068,69,2,0:0:0:0:
391,196,456195,1,2,0:0:0:0:
221,137,456323,6,0,L|137:141,1,70,4|0,0:0|0:0,0:0:0:0:
104,260,456579,2,0,L|175:256,1,70
206,120,456834,2,0,L|122:124,1,70,4|0,0:0|0:0,0:0:0:0:
89,243,457089,2,0,L|160:239,1,70
345,160,457345,69,4,0:0:0:0:
346,165,457408,1,0,0:0:0:0:
347,170,457472,1,0,0:0:0:0:
443,223,457600,5,0,0:0:0:0:
443,223,457728,1,0,0:0:0:0:
443,325,457855,69,4,0:0:0:0:
442,330,457918,1,0,0:0:0:0:
441,335,457982,1,0,0:0:0:0:
343,374,458111,5,0,0:0:0:0:
343,374,458239,1,0,0:0:0:0:
244,326,458366,70,0,B|206:299|206:299|145:289,1,105,6|0,0:0|2:0,0:0:0:0:
106,324,458621,2,0,B|168:257|168:257|160:172,1,157.500006008148,6|0,0:0|0:0,0:0:0:0:
80,182,458876,2,0,B|162:193|162:193|317:107,1,210,6|0,0:0|0:0,0:0:0:0:
293,68,459132,5,8,0:0:0:0:
307,114,459195,1,8,0:0:0:0:
322,161,459259,1,8,0:0:0:0:
337,208,459323,1,8,0:0:0:0:
351,255,459387,70,0,B|477:106|477:106|383:83|383:83|454:303,1,490,6|0,0:0|0:0,0:0:0:0:
438,288,459898,1,0,0:0:0:0:
430,303,459962,1,0,0:0:0:0:
419,317,460026,1,0,0:0:0:0:
406,328,460090,1,0,0:0:0:0:
391,337,460154,1,0,0:0:0:0:
374,343,460217,1,0,0:0:0:0:
357,346,460281,1,0,0:0:0:0:
340,345,460345,1,0,0:0:0:0:
323,341,460408,6,0,L|253:320,1,70,14|0,0:0|0:0,0:0:0:0:
131,145,460664,1,0,0:0:0:0:
131,145,460919,1,4,0:0:0:0:
351,255,461175,2,0,L|373:207,1,52.5,0|0,0:0|2:0,0:0:0:0:
373,152,461430,70,0,L|450:204,2,70,4|0|0,0:0|0:0|0:0,0:0:0:0:
203,181,461813,1,4,0:0:0:0:
164,85,461941,2,0,L|216:32,1,70
196,186,462196,1,4,0:0:0:0:
160,77,462324,2,0,L|212:24,1,70,0|8,0:0|0:0,0:0:0:0:
190,191,462579,1,4,0:0:0:0:
157,69,462707,2,0,L|209:16,1,70
190,191,462962,5,4,0:0:0:0:
190,191,463090,1,8,0:3:0:0:
64,118,463217,69,4,0:3:0:0:
64,118,463345,1,4,0:3:0:0:
262,99,463473,6,0,L|335:127,1,70,4|0,0:0|0:0,0:0:0:0:
331,265,463728,2,0,L|265:240,1,70
292,80,463983,70,0,L|365:108,1,70,4|0,0:0|0:0,0:0:0:0:
404,232,464238,1,0,0:0:0:0:
455,81,464366,1,8,0:0:0:0:
496,268,464494,6,0,L|462:350,1,70,12|0,0:0|0:0,0:0:0:0:
292,318,464749,69,0,0:0:0:0:
292,318,464876,1,0,0:0:0:0:
243,236,465004,5,4,0:0:0:0:
245,230,465068,1,0,0:0:0:0:
247,224,465132,1,0,0:0:0:0:
133,228,465260,69,0,0:0:0:0:
133,228,465387,1,0,0:0:0:0:
74,315,465515,6,0,B|45:284|45:284|46:219,1,105,6|0,0:0|2:0,0:0:0:0:
133,228,465770,2,0,B|58:182|58:182|58:65,1,157.500006008148,6|0,0:0|2:0,0:0:0:0:
149,134,466025,2,0,B|20:94|20:94|22:-13,1,210,6|0,0:0|2:0,0:0:0:0:
0,3,466281,69,8,0:0:0:0:
46,17,466344,1,8,0:0:0:0:
93,31,466408,1,8,0:0:0:0:
140,45,466472,1,8,0:0:0:0:
187,60,466536,6,0,B|288:23|288:23|219:192|219:192|333:122|333:122|322:220,1,490,6|0,0:0|0:0,0:0:0:0:
322,204,467046,1,0,0:0:0:0:
320,221,467110,1,0,0:0:0:0:
317,239,467174,1,0,0:0:0:0:
315,256,467238,1,0,0:0:0:0:
313,273,467302,1,0,0:0:0:0:
310,291,467365,1,0,0:0:0:0:
308,308,467429,1,0,0:0:0:0:
306,325,467493,1,0,0:0:0:0:
303,343,467557,70,0,L|399:337,1,70,14|0,0:0|0:0,0:0:0:0:
477,150,467813,1,0,0:0:0:0:
477,150,468068,1,4,0:0:0:0:
288,258,468324,2,0,L|281:205,1,52.5,0|0,0:0|2:0,0:0:0:0:
317,155,468579,5,0,0:0:0:0:
216,41,468706,1,8,0:0:0:0:
213,43,468770,1,8,0:0:0:0:
210,45,468834,53,8,0:0:0:0:
144,188,469004,1,8,0:0:0:0:
99,141,469089,70,0,L|66:212,1,46.6666666666667
123,307,469260,1,4,0:0:0:0:
183,274,469345,1,4,0:0:0:0:
247,241,469430,5,8,0:0:0:0:
265,255,469515,1,8,0:0:0:0:
285,268,469600,1,8,0:0:0:0:
304,282,469685,1,8,0:0:0:0:
366,277,469770,1,12,0:3:0:0:
428,270,469855,70,0,L|459:325,2,46.6666666666667,8|8|8,0:0|0:0|0:0,0:0:0:0:
487,132,470111,5,8,0:0:0:0:
476,66,470196,1,8,0:0:0:0:
423,19,470281,69,0,0:0:0:0:
395,23,470366,1,0,0:0:0:0:
367,28,470451,1,0,0:0:0:0:
340,33,470536,1,0,0:0:0:0:
279,3,470621,21,6,0:0:0:0:
384,216,470748,1,0,0:0:0:0:
171,70,470876,1,0,0:0:0:0:
162,297,471003,1,0,0:0:0:0:
162,297,471386,6,0,P|218:288|269:167,1,183.750007009506,0|0,0:0|2:0,0:0:0:0:
257,126,471897,1,0,0:0:0:0:
38,192,472152,2,0,P|4:104|71:0,1,210.000008010865,12|4,0:0|0:0,0:0:0:0:
221,225,472918,2,0,P|171:229|117:204,1,105.000004005432,0|4,0:0|0:0,0:0:0:0:
128,72,473429,1,0,0:0:0:0:
324,184,473557,1,8,0:0:0:0:
331,190,473621,1,8,0:0:0:0:
330,188,473684,70,0,P|333:239|313:287,2,105.000004005432,4|0|4,0:0|0:0|0:0,0:0:0:0:
165,288,474450,2,0,P|170:339|198:383,1,105.000004005432,0|4,0:0|0:0,0:0:0:0:
435,363,474961,1,0,0:0:0:0:
221,225,475216,1,12,0:0:0:0:
221,225,475727,21,4,0:0:0:0:
291,255,475790,1,0,0:0:0:0:
363,228,475854,1,0,0:0:0:0:
398,160,475918,1,0,0:0:0:0:
375,86,475982,53,8,0:0:0:0:
375,86,476238,1,8,0:0:0:0:
375,86,476493,1,8,0:0:0:0:
495,302,476621,1,8,0:0:0:0:
208,185,476748,5,6,0:0:0:0:
473,176,476876,1,0,0:0:0:0:
307,367,477003,1,0,0:0:0:0:
248,73,477131,1,0,0:0:0:0:
248,73,477514,70,0,P|296:100|316:232,1,183.750007009506,0|0,0:0|2:0,0:0:0:0:
305,269,478025,1,0,0:0:0:0:
146,90,478280,2,0,P|53:103|11:161,1,157.500006008148,12|8,0:0|0:0,0:0:0:0:
15,153,478727,1,8,0:0:0:0:
15,157,478791,1,8,0:0:0:0:
214,183,479046,2,0,P|227:231|212:288,1,105.000004005432,0|4,0:0|0:0,0:0:0:0:
13,337,479557,1,0,0:0:0:0:
172,91,479812,5,4,0:0:0:0:
214,183,480068,1,8,0:0:0:0:
276,106,480323,2,0,P|311:167|309:220,2,105.000004005432,12|0|4,0:0|0:0|0:0,0:0:0:0:
253,349,481089,1,0,0:0:0:0:
389,76,481344,1,12,0:0:0:0:
389,76,481855,70,0,P|393:149|317:238,1,157.500006008148,4|0,0:0|2:0,0:0:0:0:
206,274,482110,1,4,0:0:0:0:
206,274,482621,1,8,0:0:0:0:
233,24,482876,5,4,0:0:0:0:
350,218,483003,1,0,0:0:0:0:
81,118,483131,1,0,0:0:0:0:
356,93,483259,1,0,0:0:0:0:
356,93,483642,70,0,P|298:103|231:214,1,183.750007009506,0|0,0:0|2:0,0:0:0:0:
234,263,484153,1,0,0:0:0:0:
457,148,484408,2,0,P|466:71|427:3,1,157.500006008148,12|8,0:0|0:0,0:0:0:0:
424,2,484855,1,8,0:0:0:0:
420,1,484918,1,4,0:0:0:0:
350,218,485174,2,0,P|299:230|249:217,1,105.000004005432,8|4,0:0|0:0,0:0:0:0:
150,40,485684,1,0,0:0:0:0:
180,280,485940,6,0,P|165:329|129:367,1,105.000004005432,4|0,0:0|0:0,0:0:0:0:
5,156,486450,1,8,0:0:0:0:
7,152,486514,1,8,0:0:0:0:
8,148,486578,1,8,0:0:0:0:
10,145,486642,1,8,0:0:0:0:
12,141,486706,2,0,P|58:119|110:122,1,105.000004005432,0|4,0:0|0:0,0:0:0:0:
316,362,487217,1,0,0:0:0:0:
188,41,487472,1,12,0:0:0:0:
188,41,487982,5,4,0:0:0:0:
216,112,488045,1,0,0:0:0:0:
191,185,488109,1,0,0:0:0:0:
124,224,488173,1,0,0:0:0:0:
49,211,488237,53,8,0:0:0:0:
49,211,488493,1,8,0:0:0:0:
49,211,488748,1,8,0:0:0:0:
279,49,488876,1,8,0:0:0:0:
229,340,489003,5,4,0:0:0:0:
111,122,489131,1,0,0:0:0:0:
73,379,489259,1,0,0:0:0:0:
274,171,489386,1,0,0:0:0:0:
274,171,489769,70,0,P|301:220|433:227,1,183.750007009506,0|0,0:0|2:0,0:0:0:0:
459,197,490280,1,0,0:0:0:0:
193,249,490535,2,0,P|167:167|233:62,1,210.000008010865,12|4,0:0|0:0,0:0:0:0:
501,104,491301,2,0,P|504:52|483:5,1,105.000004005432,8|4,0:0|0:0,0:0:0:0:
323,88,491812,1,0,0:0:0:0:
436,357,491940,1,8,0:0:0:0:
440,356,492003,1,8,0:0:0:0:
444,355,492067,6,0,P|481:289|401:192,2,210.000008010865,4|4|4,0:0|0:0|0:0,0:0:0:0:
495,114,493344,1,0,0:0:0:0:
274,278,493599,70,0,L|229:135,1,131.25000500679,8|0,0:0|2:0,0:0:0:0:
235,149,493982,1,8,0:0:0:0:
235,145,494046,1,8,0:0:0:0:
235,141,494110,5,8,0:0:0:0:
149,354,494238,1,8,0:0:0:0:
359,99,494365,69,6,0:0:0:0:
359,99,494876,1,8,0:0:0:0:
87,131,495003,1,8,0:0:0:0:
355,309,495131,5,4,0:0:0:0:
299,165,495259,1,0,0:0:0:0:
219,340,495386,1,0,0:0:0:0:
367,293,495514,69,0,0:0:0:0:
278,147,495642,1,4,0:0:0:0:
225,352,495769,1,0,0:0:0:0:
406,190,495897,5,0,0:0:0:0:
182,221,496025,1,0,0:0:0:0:
224,87,496152,1,4,0:0:0:0:
410,178,496280,69,0,0:0:0:0:
167,233,496408,1,0,0:0:0:0:
200,82,496535,1,0,0:0:0:0:
367,293,496663,5,12,0:0:0:0:
311,106,496791,1,0,0:0:0:0:
177,329,496918,1,0,0:0:0:0:
89,70,497046,1,0,0:0:0:0:
45,240,497174,1,4,0:0:0:0:
200,82,497301,1,0,0:0:0:0:
177,329,497429,70,0,B|208:369|251:359|294:345|276:270|277:272|276:268|302:191|356:177|426:207|445:263,1,367.500014019013,8|0,0:0|2:0,0:0:0:0:
439,353,497940,1,0,0:0:0:0:
506,161,498067,1,0,0:0:0:0:
306,301,498195,6,0,P|282:252|234:207,1,105.000004005432,4|0,0:0|0:0,0:0:0:0:
107,71,498450,2,0,P|242:77|306:113,1,175
114,192,498706,2,0,P|67:220|26:271,1,105.000004005432,4|0,0:0|0:0,0:0:0:0:
190,374,498961,69,0,0:0:0:0:
190,374,499089,1,0,0:0:0:0:
43,348,499216,5,4,0:0:0:0:
43,348,499344,1,0,0:0:0:0:
190,374,499472,69,0,0:0:0:0:
190,374,499600,1,0,0:0:0:0:
114,192,499727,2,0,P|163:122|303:156,1,210.000008010865,12|0,0:0|0:0,0:0:0:0:
372,262,500110,1,0,0:0:0:0:
325,35,500238,21,0,0:0:0:0:
249,26,500302,1,0,0:0:0:0:
187,72,500366,1,0,0:0:0:0:
174,148,500430,1,0,0:0:0:0:
216,213,500493,1,8,0:0:0:0:
216,213,500748,22,0,P|266:174|324:171,2,70.0000026702882,8|0|0,0:0|0:0|0:0,0:0:0:0:
183,338,501003,1,8,0:0:0:0:
100,349,501089,1,0,0:0:0:0:
28,292,501174,1,0,0:0:0:0:
28,191,501259,22,0,P|95:132|142:128,1,105.000004005432,4|0,0:0|0:0,0:0:0:0:
295,275,501514,2,0,P|247:253|215:212,1,105.000004005432
363,0,501769,2,0,P|377:50|366:100,1,105.000004005432,4|0,0:0|0:0,0:0:0:0:
34,45,502025,6,0,P|133:23|218:96,1,175
237,343,502280,2,0,P|159:379|77:355,1,175,4|0,0:0|0:0,0:0:0:0:
107,128,502535,1,0,0:0:0:0:
107,128,502663,1,0,0:0:0:0:
385,312,502791,70,0,P|439:226|400:121,1,175,12|0,0:0|0:0,0:0:0:0:
191,0,503046,2,0,P|182:85|234:153,1,175
471,66,503301,1,4,0:0:0:0:
471,66,503429,1,0,0:0:0:0:
288,274,503557,6,0,P|203:282|130:235,1,175,8|0,0:0|0:0,0:0:0:0:
289,2,503812,2,0,P|338:71|334:158,1,175,4|0,0:0|0:0,0:0:0:0:
24,264,504067,2,0,P|39:180|107:128,1,175
373,272,504323,69,4,0:0:0:0:
234,153,504450,1,0,0:0:0:0:
429,155,504578,1,0,0:0:0:0:
293,332,504706,1,0,0:0:0:0:
296,89,504833,1,4,0:0:0:0:
500,266,504961,1,0,0:0:0:0:
195,298,505089,5,0,0:0:0:0:
391,63,505216,1,0,0:0:0:0:
293,332,505344,1,4,0:0:0:0:
296,89,505472,1,0,0:0:0:0:
373,272,505599,1,0,0:0:0:0:
429,155,505727,1,0,0:0:0:0:
153,170,505855,69,4,0:0:0:0:
282,242,505982,1,0,0:0:0:0:
169,84,506110,1,0,0:0:0:0:
282,242,506238,1,0,0:0:0:0:
227,17,506365,1,6,0:0:0:0:
282,242,506493,1,0,0:0:0:0:
58,181,506621,6,0,P|61:92|125:1,1,183.750007009506,6|0,0:0|2:0,0:0:0:0:
227,17,507131,1,8,0:0:0:0:
227,17,507386,37,4,0:0:0:0:
231,72,507471,1,0,0:0:0:0:
264,115,507556,1,0,0:0:0:0:
331,132,507642,5,0,0:0:0:0:
354,182,507727,1,0,0:0:0:0:
347,235,507812,1,0,0:0:0:0:
271,246,507897,69,4,0:0:0:0:
203,260,507982,1,0,0:0:0:0:
155,310,508067,1,0,0:0:0:0:
81,347,508152,5,0,0:0:0:0:
29,301,508237,1,0,0:0:0:0:
17,234,508322,1,0,0:0:0:0:
75,169,508408,69,4,0:0:0:0:
149,133,508493,1,0,0:0:0:0:
182,58,508578,1,0,0:0:0:0:
251,2,508663,5,0,0:0:0:0:
330,22,508748,1,0,0:0:0:0:
373,92,508833,1,0,0:0:0:0:
355,190,508918,6,0,P|399:303|438:331,1,140,12|0,0:0|0:0,0:0:0:0:
500,130,509174,2,0,P|476:11|442:-23,1,140
177,259,509429,2,0,P|271:334|319:339,1,140,4|0,0:0|0:0,0:0:0:0:
285,83,509684,2,0,B|240:87|213:110|195:150|195:150|184:59|184:59|156:123|93:126|32:111|19:28,1,420.000016021729,8|0,0:0|0:0,0:0:0:0:
102,336,510450,5,4,0:0:0:0:
114,151,510578,1,0,0:0:0:0:
13,261,510706,1,0,0:0:0:0:
131,234,510833,1,0,0:0:0:0:
4,132,510961,69,4,0:0:0:0:
210,129,511089,1,0,0:0:0:0:
102,336,511216,1,0,0:0:0:0:
93,65,511344,1,0,0:0:0:0:
241,253,511472,5,4,0:0:0:0:
281,65,511599,1,0,0:0:0:0:
320,221,511727,1,0,0:0:0:0:
210,129,511855,1,0,0:0:0:0:
389,122,511982,69,4,0:0:0:0:
389,122,512110,1,0,0:0:0:0:
439,211,512238,5,0,0:0:0:0:
439,211,512365,1,0,0:0:0:0:
210,129,512493,5,4,0:0:0:0:
172,197,512556,1,0,0:0:0:0:
179,274,512620,1,0,0:0:0:0:
226,335,512684,1,0,0:0:0:0:
300,359,512748,53,8,0:0:0:0:
300,359,513003,1,8,0:0:0:0:
300,359,513259,1,8,0:0:0:0:
301,131,513386,1,8,0:0:0:0:
160,350,513514,53,4,0:0:0:0:
111,352,513599,1,0,0:0:0:0:
65,333,513684,1,0,0:0:0:0:
29,290,513769,1,0,0:0:0:0:
18,233,513855,1,0,0:0:0:0:
41,173,513940,1,0,0:0:0:0:
98,134,514025,1,4,0:0:0:0:
175,138,514110,1,0,0:0:0:0:
233,198,514195,1,0,0:0:0:0:
259,284,514280,5,0,0:0:0:0:
319,338,514365,1,0,0:0:0:0:
391,349,514450,1,0,0:0:0:0:
453,331,514535,1,4,0:0:0:0:
497,290,514620,1,0,0:0:0:0:
512,236,514706,1,0,0:0:0:0:
508,186,514791,2,0,P|454:121|368:119,1,140.000005340576,0|0,0:0|2:0,0:0:0:0:
273,263,515046,69,12,0:0:0:0:
229,286,515131,1,0,0:0:0:0:
173,281,515216,1,0,0:0:0:0:
126,238,515301,1,0,0:0:0:0:
120,170,515386,1,0,0:0:0:0:
170,111,515472,1,0,0:0:0:0:
254,115,515557,5,4,0:0:0:0:
325,150,515642,1,0,0:0:0:0:
379,110,515727,1,0,0:0:0:0:
376,47,515812,1,8,0:0:0:0:
333,13,515897,1,0,0:0:0:0:
285,18,515982,1,0,0:0:0:0:
261,37,516067,5,6,0:0:0:0:
261,37,516195,1,2,0:0:0:0:
374,133,516323,5,2,0:0:0:0:
374,133,516451,1,2,0:0:0:0:
148,112,516578,70,0,B|68:163|63:218|88:278|131:280|157:281|157:281|184:282|206:232|193:181|193:181|166:198|149:218|139:255|145:294|145:294|180:351|224:362|263:354|302:333|302:333|346:306|404:303|459:334,1,787.500030040742,4|0,0:0|2:0,0:0:0:0:
465,380,517599,2,0,B|384:326|397:249|460:195|508:200|508:200|476:274|359:229|332:171|348:89,1,490,4|0,0:0|2:0,0:0:0:0:
382,6,518110,5,8,0:0:0:0:
259,164,518238,1,0,0:0:0:0:
437,136,518365,1,0,0:0:0:0:
265,43,518493,1,0,0:0:0:0:
349,239,518620,5,8,0:0:0:0:
343,300,518683,1,8,0:0:0:0:
306,351,518747,1,8,0:0:0:0:
249,374,518811,1,8,0:0:0:0:
187,365,518876,54,0,B|133:326|120:268|135:230|143:189|143:189|65:132|19:148|10:198|19:245|64:272|144:192|144:192|161:138|178:117|175:80|153:37|109:19,1,661.500002523422,4|0,0:0|2:0,0:0:0:0:
119,25,519386,1,0,0:0:0:0:
101,19,519450,1,0,0:0:0:0:
83,16,519514,1,0,0:0:0:0:
64,18,519578,1,0,0:0:0:0:
46,23,519642,6,0,B|0:80|1:124|36:168|83:185|130:181|158:152|175:117|175:117|199:170|208:191|208:191|234:127|279:112|327:112|361:130|383:184|383:184|423:223|483:228|507:204|521:168|514:139|494:97|444:83|406:109|383:184|383:184|389:200|394:238|403:270|424:292|454:309|495:299|495:299|462:313|444:325|418:351|402:373|402:373|346:328|328:303|311:263|313:222|300:206|300:206|282:215|286:253|250:272|230:288|184:279|164:268|141:244|141:244|100:252|68:251|35:237|6:220|6:220|32:254|35:297|1:359,1,1890.00000720978,4|0,0:0|0:0,0:0:0:0:
232,41,521174,1,12,0:0:0:0:
256,192,521429,12,0,531897,0:0:0:0:
