osu file format v14

[General]
AudioFilename: audio.mp3
AudioLeadIn: 0
PreviewTime: 48294
Countdown: 0
SampleSet: Soft
StackLeniency: 0.7
Mode: 0
LetterboxInBreaks: 0
WidescreenStoryboard: 1

[Editor]
DistanceSpacing: 0.6
BeatDivisor: 4
GridSize: 32
TimelineZoom: 3.799999

[Metadata]
Title:Black Rover
TitleUnicode:Black Rover
Artist:Black Clover
ArtistUnicode:Black Clover
Creator:S1cK
Version:AR10
Source:
Tags:
BeatmapID:1660733
BeatmapSetID:790793

[Difficulty]
HPDrainRate:5.2
CircleSize:3.8
OverallDifficulty:9.6
ApproachRate:10
SliderMultiplier:2.02
SliderTickRate:1

[Events]
//Background and Video events
0,0,"910284.jpg",0,0
//Break Periods
//Storyboard Layer 0 (Background)
//Storyboard Layer 1 (Fail)
//Storyboard Layer 2 (Pass)
//Storyboard Layer 3 (Foreground)
//Storyboard Sound Samples

[TimingPoints]
1022,294.117647058824,4,2,22,42,1,0
1022,-238.095238095238,4,2,22,42,0,0
5727,294.117647058824,4,2,22,42,1,0
5727,-238.095238095238,4,2,22,42,0,0
7333,-100,4,2,22,52,0,0
7344,255.31914893617,4,2,22,42,1,0
7471,303.030303030303,4,2,22,42,1,0
7622,283.018867924528,4,2,22,42,1,0
7763,294.117647058824,4,2,22,42,1,0
7901,-98.0392156862745,4,2,22,72,0,0
7918,329.67032967033,4,2,22,72,1,0
8247,294.117647058824,4,2,22,72,1,0
8368,294.117647058824,4,2,22,72,1,0
8368,-89.2857142857143,4,2,22,72,0,0
8956,-98.0392156862745,4,2,22,72,0,0
9250,294.117647058824,4,2,22,72,1,0
10279,-98.0392156862745,4,2,22,72,0,0
17485,-121.951219512195,4,2,22,52,0,0
18930,-121.951219512195,4,2,22,52,0,0
19827,-121.951219512195,4,2,22,52,0,0
22193,-121.951219512195,4,2,22,52,0,0
22474,-121.951219512195,4,2,22,52,0,0
23058,-121.951219512195,4,2,22,52,0,0
24530,-121.951219512195,4,2,22,52,0,0
26004,294.117647058824,4,2,22,52,1,0
26724,-98.0392156862745,4,2,22,62,0,0
26897,294.117647058824,4,2,22,62,1,0
26897,-98.0392156862745,4,2,22,62,0,0
33441,-98.0392156862745,4,2,22,5,0,0
33514,-98.0392156862745,4,2,22,62,0,0
36283,-161.290322580645,4,2,22,52,0,0
45695,-454.545454545455,4,2,22,42,0,0
47333,-98.0392156862745,4,2,22,72,0,0
47921,-81.9672131147541,4,2,22,82,0,0
48289,-98.0392156862745,4,2,22,82,0,0
56282,-89.2857142857143,4,2,22,82,0,0
57311,-81.9672131147541,4,2,22,82,0,0
57752,-98.0392156862745,4,2,22,82,0,0
65694,-89.2857142857143,4,2,22,82,0,0
66897,-81.9672131147541,4,2,22,92,0,1
71598,-81.9672131147541,4,2,22,92,0,1
72768,294.117647058824,4,2,22,92,1,1
76310,294.117647058824,4,2,22,92,1,1
76310,-454.545454545455,4,2,22,62,0,0
76341,-100,4,2,22,62,0,0
77444,-238.095238095238,4,2,22,62,0,0
78620,-121.951219512195,4,2,22,62,0,0
78930,-121.951219512195,4,2,22,62,0,0
79523,-121.951219512195,4,2,22,62,0,0
79812,-121.951219512195,4,2,22,62,0,0
80975,-121.951219512195,4,2,22,62,0,0
84955,-121.951219512195,4,2,22,62,0,0
85679,-121.951219512195,4,2,22,52,0,0
86415,-121.951219512195,4,2,22,5,0,0

[Colours]
Combo1 : 224,214,214
Combo2 : 255,17,17
Combo3 : 135,255,47
Combo4 : 36,244,255

[HitObjects]
256,192,66602,5,10,0:0:0:0:
320,128,66749,5,0,1:0:0:0:
192,256,66897,1,8,0:0:0:0:
416,192,67044,5,0,1:0:0:0:
96,192,67191,1,10,0:0:0:0:
352,288,67338,5,0,1:0:0:0:
160,96,67485,1,10,0:0:0:0:
288,320,67632,5,2,1:0:0:0:
224,32,67779,1,8,0:0:0:0:
192,256,67926,5,2,1:0:0:0:
416,32,68073,1,10,0:0:0:0:
480,224,68221,5,0,1:0:0:0:
320,32,68368,1,8,0:0:0:0:
416,288,68515,5,2,1:0:0:0:
224,64,68662,1,8,0:0:0:0:
352,288,68808,5,0,1:0:0:0:
128,96,68955,1,10,0:0:0:0:
256,320,69102,5,0,1:0:0:0:
352,128,69249,1,8,0:0:0:0:
416,320,69397,5,2,1:0:0:0:
480,128,69544,1,10,0:0:0:0:
320,352,69691,5,0,1:0:0:0:
224,160,69838,1,10,0:0:0:0:
416,256,69985,5,2,1:0:0:0:
320,64,70132,1,8,0:0:0:0:
320,320,70279,5,2,1:0:0:0:
192,160,70426,1,10,0:0:0:0:
448,160,70573,5,2,1:0:0:0:
160,64,70721,1,10,0:0:0:0:
416,256,70868,5,2,1:0:0:0:
96,256,71015,1,8,0:0:0:0:
352,224,71161,5,0,1:0:0:0:
96,128,71309,1,10,0:0:0:0:
264,348,71456,5,0,1:0:0:0:
279,40,71603,1,8,0:0:0:0:
349,324,71750,5,0,1:0:0:0:
356,58,71897,1,10,0:0:0:0:
234,359,72044,5,0,1:0:0:0:
243,33,72191,1,8,0:0:0:0:
375,314,72338,5,0,1:0:0:0:
127,148,72474,1,10,0:0:0:0:
398,70,72620,5,0,1:0:0:0:
128,256,72767,1,8,0:0:0:0:
384,128,72914,5,0,1:0:0:0:
160,96,73061,1,10,0:2:0:0:
384,256,73209,5,0,1:0:0:0:
101,229,73356,1,8,0:0:0:0:
320,160,73503,5,0,1:0:0:0:
137,21,73650,1,10,0:0:0:0:
229,323,73797,5,0,1:0:0:0:
429,44,73944,1,8,0:0:0:0:
88,119,74091,5,0,1:0:0:0:
366,357,74238,1,10,0:0:0:0:
345,44,74385,5,0,1:0:0:0:
57,255,74532,1,8,0:0:0:0:
411,140,74679,5,0,1:0:0:0:
88,119,74826,1,10,0:0:0:0:
396,221,74973,5,0,1:0:0:0:
57,255,75120,1,8,0:0:0:0:
384,128,75268,5,0,1:0:0:0:
128,32,75414,1,10,0:0:0:0:
256,352,75561,5,0,1:0:0:0:
416,32,75709,1,0,0:0:0:0:
96,320,75856,5,0,0:0:0:0:
