osu file format v14

[General]
AudioFilename: audio.mp3
AudioLeadIn: 0
PreviewTime: -1
Countdown: 1
SampleSet: None
StackLeniency: 0.7
Mode: 0
LetterboxInBreaks: 0
WidescreenStoryboard: 1

[Editor]
Bookmarks: 13026,16759,30396,40134,53121,82666,86887
DistanceSpacing: 1
BeatDivisor: 2
GridSize: 4
TimelineZoom: 1

[Metadata]
Title:Black Rover (Swing Arrangement)
TitleUnicode:Black Rover (Swing Arrangement)
Artist:Black Clover (Will Stetson)
ArtistUnicode:Black Clover (Will Stetson)
Creator:Coldrod
Version:Normal
Source:
Tags:
BeatmapID:2289882
BeatmapSetID:1095622

[Difficulty]
HPDrainRate:4
CircleSize:3
OverallDifficulty:5
ApproachRate:5
SliderMultiplier:0.999999999999998
SliderTickRate:1

[Events]
//Background and Video events
0,0,"bg.jpg",0,0
//Break Periods
//Storyboard Layer 0 (Background)
//Storyboard Layer 1 (Fail)
//Storyboard Layer 2 (Pass)
//Storyboard Layer 3 (Foreground)
//Storyboard Layer 4 (Overlay)
//Storyboard Sound Samples

[TimingPoints]
1173,324.675324675325,4,1,0,100,1,0
73900,-100,4,1,0,100,0,1

[Colours]
Combo1 : 255,108,108
Combo2 : 103,103,103
Combo3 : 222,219,180
Combo4 : 173,158,199

[HitObjects]
256,192,198,12,0,6043,0:0:0:0:
55,343,7666,6,0,P|32:292|70:203,2,150
151,369,8965,6,0,B|198:355|198:355|283:378,1,99.9999999999998
346,380,9614,2,0,P|328:332|365:248,1,99.9999999999998
434,266,10263,2,0,P|446:215|422:140,1,99.9999999999998
407,79,10913,2,0,B|289:50|339:133|182:78,2,200
498,38,12536,1,0,0:0:0:0:
444,122,12861,1,0,0:0:0:0:
487,211,13185,1,0,0:0:0:0:
418,284,13510,2,0,P|380:244|293:245,1,99.9999999999998
238,221,14160,6,0,L|254:352,1,99.9999999999998
168,377,14809,2,0,P|141:310|163:263,1,99.9999999999998
228,226,15458,1,0,0:0:0:0:
175,140,15783,2,0,B|246:126|246:126|320:163,2,150
70,351,19354,6,0,P|87:294|66:240,1,99.9999999999998
38,163,20004,6,0,P|87:149|151:176,1,99.9999999999998
209,226,20653,1,0,0:0:0:0:
221,126,20978,2,0,L|232:18,1,99.9999999999998
328,13,21627,2,0,L|330:148,1,99.9999999999998
334,212,22276,1,0,0:0:0:0:
156,358,22926,6,0,P|171:274|132:192,2,150
255,365,24224,2,0,P|309:342|372:357,1,99.9999999999998
446,370,24874,2,0,P|454:308|424:245,1,99.9999999999998
499,190,25523,6,0,P|428:140|367:233,2,200
445,274,27147,1,0,0:0:0:0:
302,134,27796,6,0,L|187:134,1,99.9999999999998
113,87,28445,2,0,P|88:153|117:202,1,99.9999999999998
150,262,29095,1,0,0:0:0:0:
197,174,29419,2,0,P|240:212|208:371,1,200
136,358,30393,6,0,P|76:340|29:365,1,99.9999999999998
17,379,30880,2,0,P|-2:306|32:248,1,99.9999999999998
46,257,31367,1,0,0:0:0:0:
93,168,31692,2,0,L|217:169,1,99.9999999999998
293,172,32341,1,0,0:0:0:0:
378,353,32991,6,0,B|357:303|357:303|372:212,1,99.9999999999998
413,249,33478,2,0,P|416:175|397:145,1,99.9999999999998
370,117,33965,1,0,0:0:0:0:
280,72,34289,2,0,L|176:70,1,99.9999999999998
79,69,34939,1,0,0:0:0:0:
44,265,35588,6,0,P|148:255|192:212,2,150
329,356,37211,1,0,0:0:0:0:
329,356,37536,2,0,B|267:221|389:261|306:103,2,249.999999999999
28,363,40134,6,0,P|47:299|13:169,2,200
135,194,42082,1,0,0:0:0:0:
282,329,42731,6,0,P|254:261|287:182,1,150
326,181,43380,2,0,L|435:180,2,99.9999999999998
233,142,44354,1,0,0:0:0:0:
167,217,44679,1,0,0:0:0:0:
11,342,45328,6,0,P|62:272|169:318,1,200
237,362,46302,2,0,P|264:314|239:238,1,99.9999999999998
207,185,46952,2,0,P|294:159|362:250,1,200
456,202,47926,6,0,P|472:279|450:329,1,99.9999999999998
395,366,48575,2,0,L|270:357,1,99.9999999999998
195,353,49224,1,0,0:0:0:0:
275,160,49874,1,0,0:0:0:0:
256,192,50523,12,0,53121,0:0:0:0:
81,207,53445,6,0,P|40:126|116:35,1,200
177,98,54419,6,0,L|292:96,1,99.9999999999998
365,143,55069,2,0,B|375:91|375:91|355:33,2,99.9999999999998
356,242,56043,2,0,P|423:222|477:249,1,99.9999999999998
463,328,56692,6,0,P|380:343|345:332,1,99.9999999999998
273,377,57341,2,0,P|258:281|291:227,1,150
326,215,57991,1,0,0:0:0:0:
273,130,58315,1,0,0:0:0:0:
192,190,58640,2,0,L|81:190,1,99.9999999999998
1,368,59614,6,0,B|117:334|77:417|225:377,3,200
391,348,62211,6,0,L|379:215,1,99.9999999999998
288,204,62861,2,0,L|303:320,1,99.9999999999998
240,383,63510,1,0,0:0:0:0:
209,289,63835,6,0,P|186:220|212:173,1,99.9999999999998
358,82,64809,6,0,L|252:79,1,99.9999999999998
216,107,65296,2,0,L|89:104,1,99.9999999999998
65,106,65783,1,0,0:0:0:0:
60,205,66108,6,0,L|57:328,1,99.9999999999998
138,363,66757,2,0,L|141:248,1,99.9999999999998
156,164,67406,2,0,P|239:180|374:122,2,200
59,191,69030,6,0,P|35:123|53:77,1,99.9999999999998
124,42,69679,2,0,L|239:41,2,99.9999999999998
62,120,70653,1,0,0:0:0:0:
156,164,70978,1,0,0:0:0:0:
226,93,71302,2,0,B|256:142|256:142|232:324,1,200
412,381,72601,6,0,B|345:214|453:272|393:82,1,299.999999999999
299,60,73900,6,0,P|325:113|311:169,1,99.9999999999998
250,223,74549,2,0,L|273:329,1,99.9999999999998
357,370,75198,2,0,P|433:363|474:341,2,99.9999999999998
257,355,76173,1,0,0:0:0:0:
175,296,76497,6,0,L|39:298,1,99.9999999999998
15,378,77147,2,0,P|-8:320|13:272,1,99.9999999999998
53,205,77796,2,0,P|80:265|66:314,1,99.9999999999998
141,371,78445,2,0,B|193:361|193:361|280:382,1,99.9999999999998
338,379,79095,1,0,0:0:0:0:
408,308,79419,1,0,0:0:0:0:
358,221,79744,6,0,L|231:222,1,99.9999999999998
174,276,80393,1,0,0:0:0:0:
87,212,80718,1,0,0:0:0:0:
134,128,81043,2,0,L|243:127,1,99.9999999999998
318,181,81692,2,0,P|338:133|309:51,1,99.9999999999998
241,33,82341,2,0,P|224:88|247:147,1,99.9999999999998
318,181,82991,6,0,P|355:105|237:42,1,200
97,124,84289,2,0,B|62:189|62:189|84:345,2,200
186,79,85913,1,0,0:0:0:0:
257,148,86237,1,0,0:0:0:0:
341,94,86562,1,0,0:0:0:0:
438,116,86887,5,0,0:0:0:0:
398,207,87211,6,0,L|414:320,1,99.9999999999998
225,379,88185,2,0,P|196:301|230:215,2,150
321,353,89484,6,0,P|389:380|458:358,1,150
509,357,90134,1,0,0:0:0:0:
420,311,90458,1,0,0:0:0:0:
353,236,90783,6,0,P|397:213|477:237,2,99.9999999999998
201,366,92082,1,0,0:0:0:0:
256,192,92731,12,0,95978,0:0:0:0:
