osu file format v14

[General]
AudioFilename: audio.mp3
AudioLeadIn: 0
PreviewTime: 216060
Countdown: 0
SampleSet: None
StackLeniency: 0.5
Mode: 0
LetterboxInBreaks: 0
WidescreenStoryboard: 0

[Editor]
DistanceSpacing: 1
BeatDivisor: 1
GridSize: 4
TimelineZoom: 1

[Metadata]
Title:Moon
TitleUnicode:Moon
Artist:Bjork
ArtistUnicode:Björk
Creator:sonic8889
Version:17/8
Source:
Tags:moon Björk bjork
BeatmapID:993816
BeatmapSetID:464138

[Difficulty]
HPDrainRate:8
CircleSize:7
OverallDifficulty:7
ApproachRate:8
SliderMultiplier:1.4
SliderTickRate:1

[Events]
//Background and Video events
0,0,"yes.png",0,0
//Break Periods
//Storyboard Layer 0 (Background)
//Storyboard Layer 1 (Fail)
//Storyboard Layer 2 (Pass)
//Storyboard Layer 3 (Foreground)
//Storyboard Sound Samples

[TimingPoints]
1230,359.281437125748,7,2,0,61,1,0
21036,359.281437125748,7,2,0,61,1,0
40842,359.281437125748,7,2,0,61,1,0
60648,359.281437125748,7,2,0,61,1,0
84781,359.281437125748,7,2,0,61,1,0
104562,359.281437125748,7,2,0,61,1,0
126868,359.281437125748,7,2,0,61,1,0
144880,359.281437125748,7,2,0,61,1,0
164682,359.281437125748,7,2,0,61,1,0
186287,359.281437125748,7,2,0,61,1,0
206779,359.281437125748,7,2,0,61,1,0
216060,-100,7,2,0,61,0,0
219017,359.281437125748,7,2,0,61,1,0
224797,359.281437125748,7,2,0,61,1,0
231295,359.281437125748,7,2,0,61,1,0
236645,359.281437125748,7,2,0,61,1,0
237759,359.281437125748,7,2,0,61,1,0
265794,359.281437125748,7,2,0,61,1,0
281980,359.281437125748,7,2,0,61,1,0
287769,359.281437125748,7,2,0,61,1,0
306128,359.281437125748,7,2,0,61,1,0
324492,359.281437125748,7,2,0,61,1,0

[Colours]
Combo1 : 255,255,255
Combo2 : 116,116,116

[HitObjects]
248,124,1230,5,0,0:0:0:0:
184,84,1589,1,0,0:0:0:0:
128,40,1948,1,0,0:0:0:0:
92,108,2307,1,0,0:0:0:0:
144,184,2667,1,0,0:0:0:0:
84,196,3026,1,0,0:0:0:0:
36,248,3385,1,0,0:0:0:0:
40,308,3744,1,0,0:0:0:0:
152,368,4104,1,0,0:0:0:0:
208,372,4463,1,0,0:0:0:0:
264,316,4822,1,0,0:0:0:0:
288,240,5182,1,0,0:0:0:0:
216,180,5541,1,0,0:0:0:0:
152,224,5900,1,0,0:0:0:0:
104,172,6259,1,0,0:0:0:0:
104,172,6619,1,0,0:0:0:0:
104,172,6978,1,0,0:0:0:0:
264,124,7337,5,0,0:0:0:0:
328,84,7696,1,0,0:0:0:0:
384,40,8055,1,0,0:0:0:0:
420,108,8414,1,0,0:0:0:0:
368,184,8774,1,0,0:0:0:0:
428,196,9133,1,0,0:0:0:0:
476,248,9492,1,0,0:0:0:0:
472,308,9851,1,0,0:0:0:0:
360,368,10211,1,0,0:0:0:0:
304,372,10570,1,0,0:0:0:0:
248,316,10929,1,0,0:0:0:0:
224,240,11289,1,0,0:0:0:0:
296,180,11648,1,0,0:0:0:0:
360,224,12007,1,0,0:0:0:0:
408,172,12366,1,0,0:0:0:0:
408,172,12726,1,0,0:0:0:0:
408,172,13085,1,0,0:0:0:0:
248,124,13445,5,0,0:0:0:0:
184,84,13804,1,0,0:0:0:0:
128,40,14163,1,0,0:0:0:0:
92,108,14522,1,0,0:0:0:0:
144,184,14882,1,0,0:0:0:0:
84,196,15241,1,0,0:0:0:0:
36,248,15600,1,0,0:0:0:0:
40,308,15959,1,0,0:0:0:0:
152,368,16319,1,0,0:0:0:0:
208,372,16678,1,0,0:0:0:0:
264,316,17037,1,0,0:0:0:0:
288,240,17397,1,0,0:0:0:0:
216,180,17756,1,0,0:0:0:0:
152,224,18115,1,0,0:0:0:0:
104,172,18474,1,0,0:0:0:0:
104,172,18834,1,0,0:0:0:0:
104,172,19193,1,0,0:0:0:0:
264,124,19553,5,0,0:0:0:0:
328,84,19912,1,0,0:0:0:0:
384,40,20271,1,0,0:0:0:0:
420,108,20630,1,0,0:0:0:0:
368,184,21036,1,2,2:2:0:0:
428,196,21395,1,2,2:2:0:0:
476,248,21754,1,2,2:2:0:0:
472,308,22113,1,2,2:2:0:0:
360,368,22473,1,2,2:2:0:0:
304,372,22832,1,2,2:2:0:0:
248,316,23191,1,2,2:2:0:0:
224,240,23551,1,2,2:2:0:0:
296,180,23910,1,2,2:2:0:0:
360,224,24269,1,2,2:2:0:0:
408,172,24628,1,2,2:2:0:0:
408,172,24988,1,2,2:2:0:0:
408,172,25347,1,2,2:2:0:0:
248,124,25706,5,2,2:2:0:0:
184,84,26065,1,2,2:2:0:0:
128,40,26424,1,2,2:2:0:0:
92,108,26783,1,2,2:2:0:0:
144,184,27143,1,2,2:2:0:0:
84,196,27502,1,2,2:2:0:0:
36,248,27861,1,2,2:2:0:0:
40,308,28220,1,2,2:2:0:0:
152,368,28580,1,2,2:2:0:0:
208,372,28939,1,2,2:2:0:0:
264,316,29298,1,2,2:2:0:0:
288,240,29658,1,2,2:2:0:0:
216,180,30017,1,2,2:2:0:0:
152,224,30376,1,2,2:2:0:0:
104,172,30735,1,2,2:2:0:0:
104,172,31095,1,2,2:2:0:0:
104,172,31454,1,2,2:2:0:0:
264,124,31814,5,2,2:2:0:0:
328,84,32173,1,2,2:2:0:0:
384,40,32532,1,2,2:2:0:0:
420,108,32891,1,2,2:2:0:0:
368,184,33251,1,2,2:2:0:0:
428,196,33610,1,2,2:2:0:0:
476,248,33969,1,2,2:2:0:0:
472,308,34328,1,2,2:2:0:0:
360,368,34688,1,2,2:2:0:0:
304,372,35047,1,2,2:2:0:0:
248,316,35406,1,2,2:2:0:0:
224,240,35766,1,2,2:2:0:0:
296,180,36125,1,2,2:2:0:0:
360,224,36484,1,2,2:2:0:0:
408,172,36843,1,2,2:2:0:0:
408,172,37203,1,2,2:2:0:0:
408,172,37562,1,2,2:2:0:0:
248,124,37922,5,2,2:2:0:0:
184,84,38281,1,2,2:2:0:0:
128,40,38640,1,2,2:2:0:0:
92,108,38999,1,2,2:2:0:0:
144,184,39359,1,2,2:2:0:0:
84,196,39718,1,2,2:2:0:0:
36,248,40077,1,2,2:2:0:0:
40,308,40436,1,2,2:2:0:0:
152,368,40842,1,2,2:2:0:0:
208,372,41201,1,2,2:2:0:0:
264,316,41560,1,2,2:2:0:0:
288,240,41920,1,2,2:2:0:0:
216,180,42279,1,2,2:2:0:0:
152,224,42638,1,2,2:2:0:0:
104,172,42997,1,2,2:2:0:0:
104,172,43357,1,2,2:2:0:0:
104,172,43716,1,2,2:2:0:0:
264,124,44075,5,2,2:2:0:0:
328,84,44434,1,2,2:2:0:0:
384,40,44793,1,2,2:2:0:0:
420,108,45152,1,2,2:2:0:0:
368,184,45512,1,2,2:2:0:0:
428,196,45871,1,2,2:2:0:0:
476,248,46230,1,2,2:2:0:0:
472,308,46589,1,2,2:2:0:0:
360,368,46949,1,2,2:2:0:0:
304,372,47308,1,2,2:2:0:0:
248,316,47667,1,2,2:2:0:0:
224,240,48027,1,2,2:2:0:0:
296,180,48386,1,2,2:2:0:0:
360,224,48745,1,2,2:2:0:0:
408,172,49104,1,2,2:2:0:0:
408,172,49464,1,2,2:2:0:0:
408,172,49823,1,2,2:2:0:0:
248,124,50183,5,2,2:2:0:0:
184,84,50542,1,2,2:2:0:0:
128,40,50901,1,2,2:2:0:0:
92,108,51260,1,2,2:2:0:0:
144,184,51620,1,2,2:2:0:0:
84,196,51979,1,2,2:2:0:0:
36,248,52338,1,2,2:2:0:0:
40,308,52697,1,2,2:2:0:0:
152,368,53057,1,2,2:2:0:0:
208,372,53416,1,2,2:2:0:0:
264,316,53775,1,2,2:2:0:0:
288,240,54135,1,2,2:2:0:0:
216,180,54494,1,2,2:2:0:0:
152,224,54853,1,2,2:2:0:0:
104,172,55212,1,2,2:2:0:0:
104,172,55572,1,2,2:2:0:0:
104,172,55931,1,2,2:2:0:0:
264,124,56291,5,2,2:2:0:0:
328,84,56650,1,2,2:2:0:0:
384,40,57009,1,2,2:2:0:0:
420,108,57368,1,2,2:2:0:0:
368,184,57728,1,2,2:2:0:0:
428,196,58087,1,2,2:2:0:0:
476,248,58446,1,2,2:2:0:0:
472,308,58805,1,2,2:2:0:0:
360,368,59165,1,2,2:2:0:0:
304,372,59524,1,2,2:2:0:0:
248,316,59883,1,2,2:2:0:0:
224,240,60243,1,2,2:2:0:0:
296,180,60648,1,2,2:2:0:0:
360,224,61007,1,2,2:2:0:0:
408,172,61366,1,2,2:2:0:0:
408,172,61726,1,2,2:2:0:0:
408,172,62085,1,2,2:2:0:0:
248,124,62444,5,2,2:2:0:0:
184,84,62803,1,2,2:2:0:0:
128,40,63162,1,2,2:2:0:0:
92,108,63521,1,2,2:2:0:0:
144,184,63881,1,2,2:2:0:0:
84,196,64240,1,2,2:2:0:0:
36,248,64599,1,2,2:2:0:0:
40,308,64958,1,2,2:2:0:0:
152,368,65318,1,2,2:2:0:0:
208,372,65677,1,2,2:2:0:0:
264,316,66036,1,2,2:2:0:0:
288,240,66396,1,2,2:2:0:0:
216,180,66755,1,2,2:2:0:0:
152,224,67114,1,2,2:2:0:0:
104,172,67473,1,2,2:2:0:0:
104,172,67833,1,2,2:2:0:0:
104,172,68192,1,2,2:2:0:0:
260,184,68552,6,2,P|420:216|332:52,1,420,4|10,1:1|3:3,2:0:0:0:
368,184,69989,1,2,3:3:0:0:
428,196,70348,1,2,3:3:0:0:
476,248,70707,1,2,3:3:0:0:
472,308,71066,1,2,3:3:0:0:
360,368,71426,1,2,3:3:0:0:
304,372,71785,1,2,3:3:0:0:
248,316,72144,1,2,3:3:0:0:
224,240,72504,5,14,3:3:0:0:
268,224,72863,1,2,3:3:0:0:
316,224,73222,1,2,3:3:0:0:
364,244,73581,1,2,3:3:0:0:
416,248,73941,1,2,3:3:0:0:
460,240,74300,1,2,3:3:0:0:
476,272,74659,1,2,3:3:0:0:
440,308,75019,1,2,3:3:0:0:
420,304,75378,1,2,3:3:0:0:
380,296,75737,1,2,3:3:0:0:
288,240,76097,5,12,3:3:0:0:
244,224,76456,1,2,3:3:0:0:
196,224,76815,1,2,3:3:0:0:
148,244,77174,1,2,3:3:0:0:
96,248,77534,1,2,3:3:0:0:
52,240,77893,1,2,3:3:0:0:
36,272,78252,1,2,3:3:0:0:
72,308,78612,1,2,3:3:0:0:
92,304,78971,1,2,3:3:0:0:
132,296,79330,1,2,3:3:0:0:
224,240,79689,5,12,3:3:0:0:
268,224,80048,1,2,3:3:0:0:
316,224,80409,1,2,3:3:0:0:
364,244,80768,1,2,3:3:0:0:
416,248,81128,1,2,3:3:0:0:
460,240,81487,1,2,3:3:0:0:
476,272,81846,1,2,3:3:0:0:
440,308,82204,1,2,3:3:0:0:
420,304,82565,1,2,3:3:0:0:
380,296,82924,1,2,3:3:0:0:
288,240,83283,5,12,3:3:0:0:
244,224,83642,1,2,3:3:0:0:
196,224,84001,1,2,3:3:0:0:
148,244,84360,1,2,3:3:0:0:
96,248,84781,1,2,3:3:0:0:
52,240,85140,1,2,3:3:0:0:
36,272,85499,1,2,3:3:0:0:
72,308,85859,1,2,3:3:0:0:
92,304,86218,1,2,3:3:0:0:
132,296,86577,1,2,3:3:0:0:
224,240,86937,5,12,3:3:0:0:
268,224,87296,1,2,3:3:0:0:
316,224,87655,1,2,3:3:0:0:
364,244,88014,1,2,3:3:0:0:
416,248,88374,1,2,3:3:0:0:
460,240,88733,1,2,3:3:0:0:
476,272,89092,1,2,3:3:0:0:
440,308,89452,1,2,3:3:0:0:
420,304,89811,1,2,3:3:0:0:
380,296,90170,1,2,3:3:0:0:
288,240,90529,5,14,3:3:0:0:
244,224,90888,1,2,3:3:0:0:
196,224,91247,1,2,3:3:0:0:
148,244,91606,1,2,3:3:0:0:
96,248,91966,1,2,3:3:0:0:
52,240,92325,1,2,3:3:0:0:
36,272,92684,1,2,3:3:0:0:
96,232,93044,5,2,3:3:0:0:
140,240,93403,1,2,3:3:0:0:
144,296,93763,1,4,3:3:0:0:
200,252,94122,1,2,3:3:0:0:
212,240,94481,1,2,3:3:0:0:
232,228,94841,1,2,3:3:0:0:
260,216,95200,1,2,3:3:0:0:
196,240,95559,1,4,3:3:0:0:
200,264,95919,1,2,3:3:0:0:
188,304,96278,1,2,3:3:0:0:
184,328,96637,1,2,3:3:0:0:
140,352,96996,1,2,3:3:0:0:
108,320,97356,1,4,3:3:0:0:
156,300,97715,1,2,3:3:0:0:
180,284,98074,1,2,3:3:0:0:
208,284,98434,1,2,3:3:0:0:
244,272,98793,1,2,3:3:0:0:
272,264,99152,5,4,3:3:0:0:
264,224,99511,1,2,3:3:0:0:
220,232,99871,1,2,3:3:0:0:
180,216,100230,1,4,3:3:0:0:
120,168,100589,1,4,3:3:0:0:
232,152,100949,1,4,3:3:0:0:
204,276,101308,1,4,3:3:0:0:
164,112,101667,1,4,3:3:0:0:
208,264,102026,1,6,3:3:0:0:
408,56,102386,1,6,3:3:0:0:
24,32,102745,1,6,3:3:0:0:
400,344,103104,1,6,3:3:0:0:
364,312,103464,1,0,3:3:0:0:
352,316,103823,1,2,3:3:0:0:
312,312,104182,1,2,3:3:0:0:
288,192,104562,1,0,0:0:0:0:
192,208,104921,1,0,0:0:0:0:
112,168,105280,5,4,0:0:0:0:
196,144,105639,1,4,0:0:0:0:
128,200,105999,1,4,0:0:0:0:
312,184,106358,1,4,0:0:0:0:
312,184,106717,1,4,0:0:0:0:
212,248,107076,1,4,0:0:0:0:
408,232,107436,1,4,0:0:0:0:
424,328,107795,1,4,0:0:0:0:
260,176,108154,1,4,0:0:0:0:
236,204,108514,1,4,0:0:0:0:
236,204,108873,1,4,0:0:0:0:
236,204,109232,1,4,0:0:0:0:
208,200,109591,1,4,0:0:0:0:
196,144,109951,1,4,0:0:0:0:
200,112,110310,1,4,0:0:0:0:
200,112,110669,1,4,0:0:0:0:
192,256,111029,1,4,0:0:0:0:
208,112,111388,5,4,0:0:0:0:
164,288,111747,1,4,0:0:0:0:
280,148,112106,1,4,3:3:0:0:
148,276,112466,1,4,3:3:0:0:
316,280,112825,1,4,3:3:0:0:
340,180,113184,1,4,3:3:0:0:
168,164,113544,1,4,3:3:0:0:
304,48,113903,1,4,3:3:0:0:
128,308,114262,1,4,3:3:0:0:
160,304,114621,1,4,3:3:0:0:
200,296,114981,1,4,3:3:0:0:
160,280,115340,1,4,3:3:0:0:
152,312,115699,1,0,2:2:0:0:
188,276,116059,1,0,2:2:0:0:
192,316,116418,1,0,2:2:0:0:
160,304,116777,1,0,2:2:0:0:
156,272,117136,1,0,2:2:0:0:
216,296,117496,5,0,0:0:0:0:
164,316,117855,1,0,0:0:0:0:
128,228,118214,1,4,0:0:0:0:
232,164,118573,1,0,0:0:0:0:
168,260,118933,1,0,0:0:0:0:
244,148,119292,1,4,0:0:0:0:
160,280,119651,1,0,0:0:0:0:
136,136,120011,1,4,0:0:0:0:
104,288,120370,1,4,0:0:0:0:
112,284,120729,1,0,0:0:0:0:
124,284,121088,1,0,0:0:0:0:
172,272,121448,1,0,0:0:0:0:
208,276,121807,1,0,0:0:0:0:
224,272,122166,1,0,0:0:0:0:
224,272,122526,1,0,0:0:0:0:
224,272,122885,1,0,0:0:0:0:
152,272,123244,1,0,0:0:0:0:
152,172,123603,5,0,0:0:0:0:
140,300,123963,1,4,0:0:0:0:
236,192,124322,1,4,3:3:0:0:
128,304,124681,1,4,3:3:0:0:
272,176,125041,1,4,3:3:0:0:
104,144,125400,1,4,3:3:0:0:
104,304,125759,1,4,3:3:0:0:
196,168,126118,1,4,3:3:0:0:
152,224,126478,1,4,3:3:0:0:
188,112,126868,5,2,0:0:0:0:
96,84,127227,1,2,0:0:0:0:
20,52,127586,1,2,0:0:0:0:
0,184,127945,1,2,0:0:0:0:
132,184,128305,1,2,0:0:0:0:
28,260,128664,1,2,0:0:0:0:
28,260,129023,1,2,0:0:0:0:
244,344,129382,1,2,0:0:0:0:
320,344,129742,1,2,0:0:0:0:
388,272,130101,1,2,0:0:0:0:
288,224,130460,1,2,0:0:0:0:
416,176,130820,1,2,0:0:0:0:
236,148,131179,1,2,0:0:0:0:
384,120,131538,1,2,0:0:0:0:
228,88,131897,1,2,0:0:0:0:
384,76,132257,1,2,0:0:0:0:
236,216,132616,1,2,0:0:0:0:
228,212,132975,5,12,0:0:0:0:
152,152,133814,1,4,0:0:0:0:
240,268,134412,2,2,P|392:256|304:92,1,350,4|4,0:3|0:3,2:2:0:0:
212,168,135850,5,0,0:0:0:0:
212,168,136568,1,0,0:0:0:0:
88,192,136927,5,4,3:3:0:0:
276,176,137287,1,4,3:3:0:0:
232,52,137646,1,4,3:3:0:0:
136,280,138005,1,4,3:3:0:0:
60,36,138365,1,4,3:3:0:0:
220,300,138724,1,4,3:3:0:0:
392,100,139083,1,4,3:3:0:0:
144,212,139442,1,4,3:3:0:0:
76,92,139802,1,4,3:3:0:0:
336,252,140161,1,0,0:0:0:0:
312,260,140520,5,0,0:0:0:0:
280,240,140879,1,0,0:0:0:0:
120,176,141239,1,0,0:0:0:0:
176,176,141598,1,0,0:0:0:0:
236,176,141957,1,0,0:0:0:0:
176,296,142317,1,0,0:0:0:0:
240,120,142676,1,0,0:0:0:0:
240,120,143035,5,0,0:0:0:0:
212,200,143394,1,0,0:0:0:0:
256,200,143754,1,0,0:0:0:0:
320,152,144113,1,0,0:0:0:0:
300,132,144472,1,0,0:0:0:0:
324,112,144881,5,4,0:0:0:0:
416,84,145240,1,0,0:0:0:0:
492,52,145599,1,0,0:0:0:0:
512,184,145958,1,0,0:0:0:0:
380,184,146318,1,0,0:0:0:0:
484,260,146677,1,0,0:0:0:0:
484,260,147036,1,0,0:0:0:0:
268,344,147395,1,0,0:0:0:0:
192,344,147755,1,0,0:0:0:0:
124,272,148114,1,0,0:0:0:0:
224,224,148473,1,0,0:0:0:0:
96,176,148833,1,4,3:3:0:0:
372,176,149192,1,4,3:3:0:0:
40,76,149551,1,4,3:3:0:0:
440,104,149910,1,4,3:3:0:0:
124,80,150270,1,4,3:3:0:0:
392,304,150629,1,4,3:3:0:0:
308,128,150988,5,4,3:3:0:0:
96,84,151347,1,4,3:3:0:0:
20,52,151706,1,0,0:0:0:0:
0,184,152065,1,0,0:0:0:0:
132,184,152425,1,0,0:0:0:0:
28,260,152784,1,0,0:0:0:0:
28,260,153143,1,0,0:0:0:0:
244,344,153502,1,0,0:0:0:0:
320,344,153863,1,0,0:0:0:0:
388,272,154221,1,0,0:0:0:0:
288,224,154580,1,0,0:0:0:0:
416,176,154940,1,0,0:0:0:0:
236,148,155299,1,0,0:0:0:0:
384,120,155658,1,0,0:0:0:0:
228,88,156017,1,0,0:0:0:0:
236,216,156856,1,0,0:0:0:0:
96,100,157454,6,0,P|48:252|256:204,1,420,2|0,0:0|0:0,0:0:0:0:
28,260,158892,1,0,0:0:0:0:
28,260,159251,1,0,0:0:0:0:
244,344,159610,1,0,0:0:0:0:
320,344,159970,1,0,0:0:0:0:
388,272,160329,1,0,0:0:0:0:
288,224,160688,1,0,0:0:0:0:
416,176,161048,1,4,3:3:0:0:
152,136,161407,1,4,3:3:0:0:
432,104,161766,1,4,3:3:0:0:
128,68,162125,1,4,3:3:0:0:
464,68,162485,1,4,3:3:0:0:
176,244,162844,1,4,3:3:0:0:
340,120,163204,5,4,3:3:0:0:
96,84,163563,1,4,3:3:0:0:
20,52,163922,1,0,0:0:0:0:
0,184,164281,1,0,0:0:0:0:
132,184,164682,1,4,0:0:0:0:
28,260,165041,1,0,0:0:0:0:
28,260,165400,1,0,0:0:0:0:
244,344,165759,1,0,0:0:0:0:
320,344,166119,1,0,0:0:0:0:
388,272,166478,1,0,0:0:0:0:
288,224,166837,1,0,0:0:0:0:
416,176,167197,1,0,0:0:0:0:
236,148,167556,1,0,0:0:0:0:
384,120,167915,1,0,0:0:0:0:
228,88,168274,1,0,0:0:0:0:
384,76,168634,1,4,0:0:0:0:
236,216,168993,1,4,0:0:0:0:
324,112,169352,5,0,0:0:0:0:
416,84,169711,1,0,0:0:0:0:
492,52,170070,1,0,0:0:0:0:
512,184,170429,1,0,0:0:0:0:
380,184,170789,1,0,0:0:0:0:
484,260,171148,1,0,0:0:0:0:
484,260,171507,1,0,0:0:0:0:
268,344,171866,1,0,0:0:0:0:
192,344,172226,1,0,0:0:0:0:
124,272,172585,1,0,0:0:0:0:
224,224,172944,1,0,0:0:0:0:
96,176,173304,1,4,3:3:0:0:
408,192,173663,1,4,3:3:0:0:
72,104,174022,1,4,3:3:0:0:
352,96,174381,1,4,3:3:0:0:
60,76,174741,1,4,3:3:0:0:
360,272,175100,1,4,3:3:0:0:
204,176,175460,5,4,3:3:0:0:
416,84,175819,1,4,3:3:0:0:
492,52,176178,1,0,0:0:0:0:
512,184,176537,1,0,0:0:0:0:
380,184,176897,1,0,0:0:0:0:
484,260,177256,1,0,0:0:0:0:
484,260,177615,1,0,0:0:0:0:
268,344,177974,5,4,0:0:0:0:
192,344,178334,1,4,0:0:0:0:
124,272,178693,1,4,0:0:0:0:
224,224,179052,1,4,0:0:0:0:
96,176,179412,1,4,0:0:0:0:
268,344,179771,5,2,0:0:0:0:
192,344,180131,1,2,0:0:0:0:
124,272,180490,1,2,0:0:0:0:
224,224,180849,1,2,0:0:0:0:
96,176,181209,1,2,0:0:0:0:
268,344,181568,5,8,0:0:0:0:
192,344,181928,1,8,0:0:0:0:
124,272,182287,1,8,0:0:0:0:
224,224,182646,1,8,0:0:0:0:
96,176,183006,1,8,0:0:0:0:
336,344,183364,5,14,3:3:0:0:
192,344,183724,1,14,3:3:0:0:
72,248,184083,1,14,3:3:0:0:
308,204,184442,1,14,3:3:0:0:
48,160,184802,1,0,0:0:0:0:
40,144,185161,1,0,0:0:0:0:
40,144,185520,1,0,0:0:0:0:
40,140,185879,1,0,0:0:0:0:
152,128,186287,1,4,0:0:0:0:
96,200,186646,1,4,0:0:0:0:
120,120,187005,1,4,0:0:0:0:
184,80,187364,1,4,0:0:0:0:
192,120,187724,1,4,0:0:0:0:
172,136,188083,1,4,0:0:0:0:
120,104,188442,1,4,0:0:0:0:
120,104,188801,1,4,0:0:0:0:
112,48,189161,1,4,0:0:0:0:
96,148,189520,5,4,0:0:0:0:
228,120,189879,5,0,0:0:0:0:
96,84,190238,1,0,0:0:0:0:
20,52,190597,1,0,0:0:0:0:
0,184,190956,1,0,0:0:0:0:
132,184,191316,1,0,0:0:0:0:
28,260,191675,1,0,0:0:0:0:
28,260,192034,1,4,0:0:0:0:
244,344,192393,1,4,0:0:0:0:
320,344,192754,1,4,0:0:0:0:
388,272,193112,1,4,0:0:0:0:
288,224,193471,1,4,3:3:0:0:
444,224,193831,1,4,3:3:0:0:
236,148,194190,1,4,3:3:0:0:
456,116,194549,1,4,3:3:0:0:
176,72,194908,1,4,3:3:0:0:
476,84,195268,1,4,3:3:0:0:
152,240,195627,1,4,3:3:0:0:
408,260,195987,5,4,3:3:0:0:
96,84,196346,1,4,3:3:0:0:
20,52,196705,1,0,0:0:0:0:
0,184,197064,1,0,0:0:0:0:
132,184,197424,1,0,0:0:0:0:
28,260,197783,1,0,0:0:0:0:
28,260,198142,1,0,0:0:0:0:
244,344,198501,1,0,0:0:0:0:
320,344,198862,1,0,0:0:0:0:
388,272,199220,1,0,0:0:0:0:
288,224,199579,1,0,0:0:0:0:
416,176,199939,1,4,0:0:0:0:
236,148,200298,1,4,0:0:0:0:
384,120,200657,1,4,0:0:0:0:
228,88,201016,1,4,0:0:0:0:
384,76,201376,1,4,0:0:0:0:
236,216,201735,1,4,0:0:0:0:
284,120,202095,5,0,0:0:0:0:
416,84,202454,1,0,0:0:0:0:
492,52,202813,1,0,0:0:0:0:
512,184,203172,1,0,0:0:0:0:
380,184,203532,1,0,0:0:0:0:
252,168,203891,2,0,B|344:184|376:268,2,140,2|0|0,0:0|0:0|0:0,1:1:0:0:
256,156,205328,2,0,P|180:152|100:328,1,280,0|0,0:0|0:0,1:0:0:0:
144,312,206779,2,0,B|176:156|200:308|216:48|244:376|264:152|232:188|264:200|288:48|280:352|360:356|456:148,1,420,0|0,1:0|1:0,1:0:0:0:
288,192,208934,5,0,0:0:0:0:
128,88,209653,2,2,P|140:156|220:140,2,140,2|6|14,0:0|0:0|0:0,1:0:0:0:
184,176,211090,1,0,0:0:0:0:
504,376,211808,1,4,0:0:0:0:
272,156,212527,2,0,B|184:288|152:192|152:88|252:64|368:76|420:156|408:248|300:324,1,420,2|0,0:0|0:0,0:0:0:0:
180,274,213964,6,0,P|96:146|135:124,1,245
124,128,214683,2,6,P|176:196|252:192,2,140,0|0|0,0:0|0:0|0:0,0:0:0:0:
156,292,216120,1,4,0:0:0:0:
192,132,216479,1,4,0:0:0:0:
212,312,216838,1,4,0:0:0:0:
156,292,217198,1,4,0:0:0:0:
192,144,217557,2,2,B|60:232|72:200|20:124|88:20|252:20|316:120|120:312,1,560,14|0,0:0|3:3,0:0:0:0:
256,292,219376,5,4,3:3:0:0:
296,144,219735,1,4,3:3:0:0:
272,356,220094,1,4,3:3:0:0:
296,32,220454,1,4,3:3:0:0:
296,384,220813,2,0,P|100:328|136:120,1,420,4|0,0:0|0:0,0:0:0:0:
200,256,222250,1,4,0:0:0:0:
312,180,223328,1,0,0:0:0:0:
220,60,223687,2,0,P|416:116|380:324,1,420,4|0,0:0|0:0,0:0:0:0:
176,324,225156,5,4,3:3:0:0:
188,20,225515,1,4,3:3:0:0:
168,324,225874,1,4,3:3:0:0:
204,20,226234,1,4,3:3:0:0:
160,384,226593,1,4,3:3:0:0:
232,0,226952,2,0,P|172:144|256:156,1,280,0|14,0:0|0:0,0:0:0:0:
280,384,228389,2,0,P|340:240|256:228,1,280,0|14,0:0|0:0,0:0:0:0:
75,283,229467,6,0,P|310:182|383:59,1,385
376,80,230545,6,14,B|253:0|52:60|86:237|277:309|385:232|412:81|428:70|437:66|442:65|459:62|481:193|391:291|261:322|125:235|-12:40,1,1120,14|0,0:0|0:0,0:0:0:0:
416,84,233809,1,0,0:0:0:0:
492,52,234168,1,0,0:0:0:0:
512,184,234527,1,0,0:0:0:0:
380,184,234887,1,0,0:0:0:0:
484,260,235246,1,0,0:0:0:0:
484,260,235605,1,0,0:0:0:0:
268,344,235964,1,0,0:0:0:0:
192,344,236324,1,0,0:0:0:0:
124,272,236645,1,4,0:0:0:0:
176,200,237004,1,4,0:0:0:0:
96,176,237363,1,4,0:0:0:0:
188,112,237759,5,0,0:0:0:0:
96,84,238118,1,0,0:0:0:0:
20,52,238477,1,0,0:0:0:0:
0,184,238836,1,0,0:0:0:0:
132,184,239196,1,0,0:0:0:0:
28,260,239555,1,0,0:0:0:0:
28,260,239914,1,0,0:0:0:0:
244,344,240273,1,0,0:0:0:0:
320,344,240633,1,0,0:0:0:0:
388,272,240992,1,0,0:0:0:0:
288,224,241351,1,0,0:0:0:0:
416,176,241711,1,0,0:0:0:0:
104,192,242070,1,4,3:3:0:0:
440,104,242429,1,4,3:3:0:0:
160,96,242788,1,4,3:3:0:0:
452,76,243148,1,4,3:3:0:0:
324,112,243507,5,4,3:3:0:0:
416,84,243866,1,4,3:3:0:0:
492,52,244225,1,4,3:3:0:0:
512,184,244584,1,0,0:0:0:0:
380,184,244944,1,0,0:0:0:0:
484,260,245303,1,0,0:0:0:0:
484,260,245662,1,0,0:0:0:0:
268,344,246021,1,0,0:0:0:0:
192,344,246381,1,0,0:0:0:0:
124,272,246740,1,0,0:0:0:0:
224,224,247099,1,0,0:0:0:0:
96,176,247459,1,0,0:0:0:0:
208,204,247818,1,4,3:3:0:0:
72,104,248177,1,4,3:3:0:0:
352,96,248536,1,4,3:3:0:0:
60,76,248896,1,4,3:3:0:0:
188,112,249256,5,4,3:3:0:0:
96,84,249615,1,4,3:3:0:0:
20,52,249974,1,4,3:3:0:0:
0,184,250333,1,0,0:0:0:0:
132,184,250693,1,0,0:0:0:0:
28,260,251052,1,0,0:0:0:0:
28,260,251411,1,0,0:0:0:0:
244,344,251770,1,0,0:0:0:0:
320,344,252130,1,0,0:0:0:0:
388,272,252489,1,0,0:0:0:0:
288,224,252848,1,4,3:3:0:0:
416,176,253208,1,4,3:3:0:0:
104,192,253567,1,4,3:3:0:0:
440,104,253926,1,4,3:3:0:0:
160,96,254285,1,4,3:3:0:0:
452,76,254645,1,4,3:3:0:0:
324,112,255004,5,4,3:3:0:0:
416,84,255363,1,4,3:3:0:0:
492,52,255722,1,0,0:0:0:0:
424,192,256081,5,4,0:0:0:0:
380,188,256441,1,0,0:0:0:0:
348,192,256800,1,0,0:0:0:0:
304,204,257159,1,0,0:0:0:0:
268,224,257518,1,0,0:0:0:0:
424,192,257878,5,4,0:0:0:0:
380,188,258238,1,0,0:0:0:0:
348,192,258597,1,0,0:0:0:0:
304,204,258956,1,0,0:0:0:0:
268,224,259315,1,0,0:0:0:0:
432,36,259675,5,4,3:3:0:0:
380,188,260035,1,0,0:0:0:0:
348,192,260394,1,0,0:0:0:0:
304,204,260753,1,0,0:0:0:0:
268,224,261112,1,0,0:0:0:0:
424,192,261471,5,4,0:0:0:0:
380,188,261831,1,0,0:0:0:0:
348,192,262190,1,0,0:0:0:0:
304,204,262549,1,0,0:0:0:0:
268,224,262908,1,0,0:0:0:0:
308,32,263267,5,4,3:3:0:0:
380,188,263627,1,0,0:0:0:0:
348,192,263986,1,0,0:0:0:0:
304,204,264345,1,0,0:0:0:0:
268,224,264704,1,0,0:0:0:0:
424,192,265063,5,4,0:0:0:0:
380,188,265423,1,0,0:0:0:0:
348,192,265794,1,0,0:0:0:0:
304,204,266153,1,0,0:0:0:0:
268,224,266512,1,0,0:0:0:0:
512,44,266871,5,4,3:3:0:0:
380,188,267231,1,0,0:0:0:0:
348,192,267590,1,0,0:0:0:0:
304,204,267949,1,0,0:0:0:0:
268,224,268308,1,0,0:0:0:0:
424,192,268668,5,4,0:0:0:0:
380,188,269028,1,0,0:0:0:0:
348,192,269387,1,0,0:0:0:0:
304,204,269746,1,0,0:0:0:0:
268,224,270105,1,0,0:0:0:0:
308,0,270464,5,4,3:3:0:0:
380,188,270824,1,0,0:0:0:0:
348,192,271183,1,0,0:0:0:0:
304,204,271542,1,0,0:0:0:0:
268,224,271901,1,0,0:0:0:0:
424,192,272261,5,4,0:0:0:0:
380,188,272621,1,0,0:0:0:0:
348,192,272980,1,0,0:0:0:0:
304,204,273339,1,0,0:0:0:0:
268,224,273698,1,0,0:0:0:0:
512,0,274057,5,4,3:3:0:0:
380,188,274417,1,0,0:0:0:0:
348,192,274776,1,0,0:0:0:0:
304,204,275135,1,0,0:0:0:0:
268,224,275494,1,0,0:0:0:0:
424,192,275853,5,4,0:0:0:0:
380,188,276213,1,0,0:0:0:0:
348,192,276572,1,0,0:0:0:0:
304,204,276931,1,0,0:0:0:0:
268,224,277290,1,0,0:0:0:0:
296,0,277650,5,4,3:3:0:0:
380,188,278010,1,0,0:0:0:0:
348,192,278369,1,0,0:0:0:0:
304,204,278728,1,0,0:0:0:0:
268,224,279087,1,0,0:0:0:0:
424,192,279446,5,4,0:0:0:0:
380,188,279806,1,0,0:0:0:0:
348,192,280165,1,0,0:0:0:0:
304,204,280524,1,0,0:0:0:0:
268,224,280883,1,0,0:0:0:0:
424,192,281243,5,4,0:0:0:0:
380,188,281603,1,0,0:0:0:0:
324,112,281980,5,4,0:0:0:0:
416,84,282339,1,4,0:0:0:0:
492,52,282698,1,12,0:0:0:0:
512,184,283057,1,12,0:0:0:0:
380,184,283417,1,14,0:0:0:0:
484,260,283776,1,14,0:0:0:0:
484,260,284135,1,0,0:0:0:0:
268,344,284494,1,0,0:0:0:0:
192,344,284854,1,0,0:0:0:0:
124,272,285213,1,0,0:0:0:0:
224,224,285572,1,0,0:0:0:0:
96,176,285932,1,0,0:0:0:0:
272,208,286291,1,0,0:0:0:0:
116,108,286650,1,0,0:0:0:0:
280,128,287009,1,0,0:0:0:0:
132,52,287369,1,0,0:0:0:0:
324,312,287769,1,4,3:3:0:0:
388,92,288128,5,4,3:3:0:0:
76,72,288487,1,4,3:3:0:0:
20,52,288846,1,4,3:3:0:0:
0,184,289205,1,0,0:0:0:0:
132,184,289565,1,0,0:0:0:0:
28,260,289924,1,0,0:0:0:0:
28,260,290283,1,0,0:0:0:0:
244,344,290642,1,0,0:0:0:0:
320,344,291002,1,0,0:0:0:0:
388,272,291361,1,0,0:0:0:0:
288,224,291720,1,0,0:0:0:0:
416,176,292080,1,0,0:0:0:0:
240,208,292439,1,0,0:0:0:0:
396,108,292798,1,0,0:0:0:0:
232,128,293157,1,0,0:0:0:0:
380,52,293517,1,0,0:0:0:0:
244,384,293876,1,4,3:3:0:0:
40,136,294236,5,4,3:3:0:0:
408,160,294595,1,4,3:3:0:0:
492,52,294954,1,4,3:3:0:0:
512,184,295313,1,0,0:0:0:0:
380,184,295673,1,0,0:0:0:0:
484,260,296032,1,0,0:0:0:0:
484,260,296391,1,0,0:0:0:0:
268,344,296750,1,0,0:0:0:0:
192,344,297110,1,0,0:0:0:0:
124,272,297469,1,0,0:0:0:0:
224,224,297828,1,0,0:0:0:0:
96,176,298188,1,0,0:0:0:0:
272,208,298547,1,0,0:0:0:0:
116,108,298906,1,0,0:0:0:0:
280,128,299265,1,0,0:0:0:0:
132,52,299625,1,0,0:0:0:0:
32,384,299984,1,4,3:3:0:0:
412,316,300343,5,4,3:3:0:0:
180,80,300702,1,4,3:3:0:0:
20,52,301061,1,4,3:3:0:0:
0,184,301420,1,0,0:0:0:0:
132,184,301780,1,0,0:0:0:0:
28,260,302139,1,0,0:0:0:0:
28,260,302498,1,0,0:0:0:0:
244,344,302857,1,0,0:0:0:0:
320,344,303217,1,0,0:0:0:0:
388,272,303576,1,0,0:0:0:0:
288,224,303935,1,4,3:3:0:0:
464,208,304295,1,4,3:3:0:0:
224,208,304654,1,4,3:3:0:0:
432,92,305013,1,4,3:3:0:0:
84,140,305372,1,4,3:3:0:0:
420,36,305732,1,4,3:3:0:0:
72,256,306128,1,4,3:3:0:0:
156,100,306487,5,4,3:3:0:0:
416,84,306846,1,4,3:3:0:0:
492,52,307205,1,0,0:0:0:0:
512,184,307564,1,0,0:0:0:0:
380,184,307924,1,0,0:0:0:0:
484,260,308283,1,0,0:0:0:0:
484,260,308642,1,0,0:0:0:0:
268,344,309001,1,0,0:0:0:0:
192,344,309361,1,0,0:0:0:0:
124,272,309720,1,0,0:0:0:0:
224,224,310079,1,4,3:3:0:0:
16,140,310439,1,4,3:3:0:0:
340,248,310798,1,4,3:3:0:0:
52,76,311157,1,4,3:3:0:0:
368,136,311516,1,4,3:3:0:0:
112,40,311876,1,4,3:3:0:0:
340,196,312235,5,4,3:3:0:0:
88,184,312594,1,4,3:3:0:0:
20,52,312953,1,0,0:0:0:0:
0,184,313312,1,0,0:0:0:0:
132,184,313672,1,0,0:0:0:0:
28,260,314031,1,0,0:0:0:0:
28,260,314390,1,0,0:0:0:0:
244,344,314749,1,0,0:0:0:0:
320,344,315109,1,0,0:0:0:0:
388,272,315468,1,0,0:0:0:0:
288,224,315827,1,0,0:0:0:0:
416,176,316187,1,4,3:3:0:0:
168,288,316546,1,4,3:3:0:0:
440,92,316905,1,4,3:3:0:0:
108,160,317264,1,4,3:3:0:0:
420,48,317624,1,4,3:3:0:0:
92,208,317983,1,4,3:3:0:0:
296,196,318343,6,14,L|232:344,3,140
136,232,320139,1,10,0:0:0:0:
360,268,320858,2,8,P|436:216|452:144,4,140
112,68,323014,1,6,0:0:0:0:
176,256,323732,5,2,0:0:0:0:
200,104,324092,1,2,0:0:0:0:
124,280,324451,1,2,0:0:0:0:
152,248,324851,1,8,0:0:0:0:
212,264,325210,1,8,0:0:0:0:
208,312,325569,1,8,0:0:0:0:
220,212,326288,5,4,0:0:0:0:
360,268,327006,6,6,P|436:216|452:144,4,140
72,144,329162,5,8,0:0:0:0:
104,136,329881,1,4,0:0:0:0:
128,208,330240,1,8,0:0:0:0:
128,256,330599,1,6,0:0:0:0:
144,240,330959,1,4,0:0:0:0:
164,136,331318,1,8,0:0:0:0:
395,384,331677,2,0,P|489:232|142:359,1,980,0|0,0:0|0:0,1:1:0:0:
