osu file format v14

[General]
AudioFilename: audio.mp3
AudioLeadIn: 0
PreviewTime: 66809
Countdown: 0
SampleSet: Soft
StackLeniency: 0.5
Mode: 0
LetterboxInBreaks: 1
WidescreenStoryboard: 1

[Editor]
DistanceSpacing: 1.6
BeatDivisor: 4
GridSize: 8
TimelineZoom: 1

[Metadata]
Title:Clear Rose
TitleUnicode:Clear Rose
Artist:bizen
ArtistUnicode:bizen
Creator:Kite
Version:Lunatic
Source:
Tags:
BeatmapID:1839536
BeatmapSetID:879645

[Difficulty]
HPDrainRate:5
CircleSize:4.2
OverallDifficulty:8
ApproachRate:9
SliderMultiplier:1.9
SliderTickRate:1

[Events]
//Background and Video events
0,0,"BGK.jpg",0,0
//Break Periods
//Storyboard Layer 0 (Background)
//Storyboard Layer 1 (Fail)
//Storyboard Layer 2 (Pass)
//Storyboard Layer 3 (Foreground)
//Storyboard Sound Samples

[TimingPoints]
603,344.827586206897,4,2,1,60,1,0
23706,-133.333333333333,4,2,1,60,0,0
25430,-100,4,2,1,60,0,0
25861,-133.333333333333,4,2,1,60,0,0
28189,-100,4,2,1,60,0,0
28534,-133.333333333333,4,2,1,60,0,0
30947,-100,4,2,1,60,0,0
31292,-133.333333333333,4,2,1,60,0,0
33706,-100,4,2,1,60,0,0
56120,-133.333333333333,4,2,1,60,0,0
58534,-100,4,2,1,60,0,0
58878,-133.333333333333,4,2,1,60,0,0
61292,-100,4,2,1,60,0,0
61637,-133.333333333333,4,2,1,60,0,0
64051,-100,4,2,1,60,0,0
64396,-133.333333333333,4,2,1,60,0,0
66809,-95.2380952380952,4,2,1,60,0,0
88878,-90.9090909090909,4,2,1,60,0,1
110947,-100,4,2,1,60,0,0
116551,-100,4,2,1,5,0,0

[Colours]
Combo1 : 28,153,227
Combo2 : 194,61,162

[HitObjects]
61,237,603,6,0,P|57:284|59:333,1,95
106,167,861,1,0,0:0:0:0:
106,167,947,2,0,P|96:218|94:263,1,95,8|0,0:0|0:0,0:0:0:0:
273,150,1292,1,0,0:0:0:0:
273,150,1465,2,0,P|270:102|260:56,1,95,0|8,0:0|0:0,0:0:0:0:
374,303,1809,2,0,P|383:255|385:208,1,95
202,365,2154,6,0,P|183:279|179:176,1,190
202,45,2671,1,0,0:0:0:0:
101,85,2844,1,0,0:0:0:0:
303,85,3016,1,8,0:0:0:0:
202,45,3189,1,0,0:0:0:0:
395,67,3361,6,0,P|348:71|296:87,1,95
473,108,3620,1,0,0:0:0:0:
473,108,3706,2,0,P|427:95|373:92,1,95,8|0,0:0|0:0,0:0:0:0:
212,160,4051,1,0,0:0:0:0:
320,137,4223,2,0,P|230:114|121:130,1,190
212,160,4913,5,0,0:0:0:0:
320,137,5085,2,0,P|230:114|121:130,1,190
33,173,5603,1,0,0:0:0:0:
17,283,5775,1,8,0:0:0:0:
5,153,5947,1,0,0:0:0:0:
39,316,6120,6,0,P|110:336|194:267,1,190,0|8,0:0|0:0,0:0:0:0:
216,179,6637,2,0,P|194:273|274:339,1,190
414,231,7154,1,8,0:0:0:0:
378,362,7327,1,0,0:0:0:0:
370,159,7499,6,0,P|413:145|463:158,1,95
352,174,7844,2,0,L|257:161,1,95,8|0,0:0|0:0,0:0:0:0:
158,64,8189,1,0,0:0:0:0:
69,206,8361,1,0,0:0:0:0:
259,78,8534,1,8,0:0:0:0:
77,118,8706,1,0,0:0:0:0:
220,231,8878,6,0,P|228:292|225:331,1,95
221,342,9223,1,8,0:0:0:0:
289,173,9396,2,0,P|306:231|309:270,1,95
350,101,9740,1,0,0:0:0:0:
192,48,9913,2,0,L|93:55,1,95,8|0,0:0|0:0,0:0:0:0:
18,184,10258,2,0,L|117:191,1,95
255,287,10603,5,8,0:0:0:0:
128,331,10775,1,0,0:0:0:0:
243,251,10947,1,0,0:0:0:0:
379,232,11120,1,0,0:0:0:0:
235,218,11292,1,8,0:0:0:0:
88,249,11465,1,0,0:0:0:0:
237,184,11637,6,0,B|265:138|246:82|246:82|214:55|213:0,1,190,0|8,0:0|0:0,0:0:0:0:
155,205,12154,2,0,P|207:263|312:221,1,190
334,166,12585,1,0,0:0:0:0:
334,166,12671,1,8,0:0:0:0:
403,226,12844,1,0,0:0:0:0:
455,126,13016,6,0,P|463:73|459:25,1,95
403,226,13361,1,8,0:0:0:0:
341,139,13534,2,0,P|270:106|187:171,1,190
181,279,14051,1,8,0:0:0:0:
72,209,14223,1,0,0:0:0:0:
190,305,14396,6,0,L|296:288,1,95
181,279,14740,1,8,0:0:0:0:
326,358,14913,2,0,P|362:292|297:211,1,190
121,255,15430,1,8,0:0:0:0:
148,134,15603,1,0,0:0:0:0:
174,14,15775,1,0,0:0:0:0:
187,9,16120,5,8,0:0:0:0:
161,129,16292,1,0,0:0:0:0:
134,250,16465,2,0,L|144:346,1,95
41,172,16809,1,8,0:0:0:0:
161,129,16982,1,0,0:0:0:0:
134,250,17154,6,0,P|184:305|286:278,1,190,0|8,0:0|0:0,0:0:0:0:
269,147,17671,2,0,B|219:125|161:129|161:129|114:111|103:76,1,190
265,57,18189,2,0,P|280:98|268:148,1,95,8|0,0:0|0:0,0:0:0:0:
169,267,18534,5,0,0:0:0:0:
327,250,18706,1,0,0:0:0:0:
316,288,18878,1,8,0:0:0:0:
304,322,19051,1,0,0:0:0:0:
169,267,19223,1,0,0:0:0:0:
327,250,19396,1,0,0:0:0:0:
148,250,19568,1,8,0:0:0:0:
316,288,19740,1,0,0:0:0:0:
125,228,19913,6,0,B|111:164|111:164|117:135,1,95
196,36,20258,1,8,0:0:0:0:
189,177,20430,2,0,B|205:241|205:241|223:264,1,95
315,336,20775,1,0,0:0:0:0:
371,221,20947,2,8,P|438:194|418:278,1,190,8|0,0:0|0:0,0:0:0:0:
371,233,21465,1,0,0:0:0:0:
314,142,21637,5,8,0:0:0:0:
357,38,21809,1,0,0:0:0:0:
285,132,21982,1,0,0:0:0:0:
168,162,22154,1,0,0:0:0:0:
48,160,22327,1,8,0:0:0:0:
166,186,22499,1,0,0:0:0:0:
247,255,22671,6,0,P|310:284|405:225,1,190,0|8,0:0|0:0,0:0:0:0:
404,197,23189,1,0,0:0:0:0:
404,197,23534,1,0,0:0:0:0:
481,262,23706,2,0,P|483:300|479:333,1,71.2500027179719,8|0,0:0|0:0,0:0:0:0:
391,184,24051,2,0,P|389:146|393:113,1,71.2500027179719
397,204,24396,1,8,0:0:0:0:
493,95,24568,2,0,P|495:57|491:24,1,71.2500027179719
490,115,24913,1,0,0:0:0:0:
397,204,25085,1,8,0:0:0:0:
260,241,25258,1,0,0:0:0:0:
117,195,25430,6,0,P|85:130|165:57,1,190,0|8,0:0|0:0,0:0:0:0:
181,64,25947,1,0,0:0:0:0:
181,64,26292,1,0,0:0:0:0:
266,126,26465,2,0,P|303:129|336:117,1,71.2500027179719,8|0,0:0|0:0,0:0:0:0:
186,163,26809,2,0,P|210:191|241:206,1,71.2500027179719
181,64,27154,1,8,0:0:0:0:
103,132,27327,2,0,P|100:169|112:202,1,71.2500027179719
193,282,27671,1,0,0:0:0:0:
312,310,27844,1,8,0:0:0:0:
421,288,28016,1,0,0:0:0:0:
503,205,28189,6,0,P|517:123|422:97,1,190,0|8,0:0|0:0,0:0:0:0:
413,104,28706,1,0,0:0:0:0:
413,104,29051,1,0,0:0:0:0:
334,169,29223,2,0,L|328:248,1,71.2500027179719,8|0,0:0|0:0,0:0:0:0:
250,109,29568,2,0,L|244:30,1,71.2500027179719
243,19,29913,1,8,0:0:0:0:
179,190,30085,2,0,L|173:269,1,71.2500027179719
95,134,30430,1,0,0:0:0:0:
179,190,30603,1,8,0:0:0:0:
286,205,30775,1,0,0:0:0:0:
397,171,30947,6,0,P|425:95|338:49,1,190,0|8,0:0|0:0,0:0:0:0:
321,58,31465,1,0,0:0:0:0:
321,58,31809,1,0,0:0:0:0:
245,142,31982,2,0,P|238:176|248:210,1,71.2500027179719,8|0,0:0|0:0,0:0:0:0:
399,214,32327,2,0,P|372:191|337:182,1,71.2500027179719
320,184,32671,1,8,0:0:0:0:
427,310,32844,2,0,P|460:298|484:272,1,71.2500027179719
396,311,33189,1,0,0:0:0:0:
284,332,33361,1,8,0:0:0:0:
171,311,33534,1,0,0:0:0:0:
77,245,33706,6,0,P|64:193|116:128,1,142.5,0|0,0:0|3:0,0:0:0:0:
140,200,34051,2,0,P|185:209|230:192,1,95,8|0,0:0|0:0,0:0:0:0:
336,113,34396,1,0,0:0:0:0:
336,113,34568,2,0,L|430:128,1,95,0|8,0:0|0:0,0:0:0:0:
400,42,34913,6,0,B|327:31|327:31|276:37|276:37|211:28,1,190
98,11,35430,1,8,0:0:0:0:
48,122,35603,1,0,0:0:0:0:
170,110,35775,2,0,P|217:110|265:123,1,95
121,210,36120,2,0,P|166:197|214:197,1,95,8|0,0:0|0:0,0:0:0:0:
236,331,36465,6,0,P|165:321|101:289,1,142.5,0|0,0:0|3:0,0:0:0:0:
121,210,36809,2,0,P|166:197|214:197,1,95,8|0,0:0|0:0,0:0:0:0:
348,226,37154,1,0,0:0:0:0:
301,149,37327,2,0,P|256:125|209:118,1,95,0|8,0:0|0:0,0:0:0:0:
288,275,37671,2,0,P|350:305|423:222,1,190
423,127,38189,1,8,0:0:0:0:
367,42,38361,1,0,0:0:0:0:
445,122,38534,2,0,P|459:191|414:309,1,190,0|8,0:0|0:0,0:0:0:0:
336,349,39051,1,0,0:0:0:0:
273,240,39223,6,0,P|199:218|149:309,1,190,0|8,0:0|0:0,0:0:0:0:
151,348,39740,2,0,P|137:261|216:195,1,190
308,188,40258,1,8,0:0:0:0:
405,215,40430,1,0,0:0:0:0:
472,287,40603,5,0,0:0:0:0:
389,243,40775,1,0,0:0:0:0:
286,232,40947,1,8,0:0:0:0:
188,249,41120,1,0,0:0:0:0:
91,292,41292,2,0,P|83:328|95:384,1,95
40,220,41637,2,0,P|17:249|4:305,1,95,8|0,0:0|0:0,0:0:0:0:
260,286,41982,6,0,P|268:235|249:194,1,95
245,306,42327,1,8,0:0:0:0:
250,196,42499,2,0,P|207:167|161:167,1,95
245,306,42844,1,0,0:0:0:0:
334,330,43016,1,8,0:0:0:0:
426,357,43189,6,0,P|478:349|463:234,1,190
379,206,43706,1,8,0:0:0:0:
265,215,43878,1,0,0:0:0:0:
160,271,44051,1,0,0:0:0:0:
233,175,44223,1,0,0:0:0:0:
340,121,44396,1,8,0:0:0:0:
465,118,44568,1,0,0:0:0:0:
383,24,44740,6,0,B|324:6|271:38|271:38|232:42|201:14,1,190,0|8,0:0|0:0,0:0:0:0:
340,121,45258,2,0,P|403:126|466:118,1,126.666666666667,0|0,0:0|3:0,0:0:0:0:
462,192,45603,2,0,P|414:198|367:197,1,95,0|8,0:3|0:0,0:3:0:0:
266,179,45947,1,0,0:0:0:0:
169,197,46120,1,0,0:0:0:0:
70,170,46292,6,0,P|28:124|108:42,1,190
117,43,46982,1,0,0:0:0:0:
193,132,47154,1,8,0:0:0:0:
301,67,47327,1,0,0:0:0:0:
181,147,47499,6,0,B|149:183|155:236|185:265|185:265|187:295|165:327,1,190,0|8,0:0|0:0,0:0:0:0:
250,203,48016,2,0,P|313:198|362:240,1,126.666666666667,0|0,0:0|3:0,0:0:0:0:
375,318,48361,1,0,0:0:0:0:
464,268,48534,1,8,0:0:0:0:
497,166,48706,1,0,0:0:0:0:
481,63,48878,1,0,0:0:0:0:
397,124,49051,6,0,P|346:133|309:108,1,95,0|8,0:0|0:0,0:0:0:0:
265,52,49309,1,0,0:0:0:0:
265,52,49396,2,0,P|299:117|212:168,1,190
119,124,49913,1,8,0:0:0:0:
23,175,50085,1,0,0:0:0:0:
112,239,50258,5,0,0:0:0:0:
130,258,50603,2,0,B|162:271|192:266|192:266|245:285|245:285|283:278|316:293,1,190,8|0,0:0|0:0,0:0:0:0:
407,355,51120,1,0,0:0:0:0:
355,231,51292,2,0,P|310:211|258:210,1,95,8|0,0:0|0:0,0:0:0:0:
407,355,51637,1,0,0:0:0:0:
466,211,51809,1,0,0:0:0:0:
479,304,51982,1,8,0:0:0:0:
390,153,52154,6,0,P|394:90|505:96,1,190
493,191,52671,1,8,0:0:0:0:
479,304,52844,1,0,0:0:0:0:
390,153,53016,6,0,P|330:130|293:138,1,95
403,169,53361,1,8,0:0:0:0:
281,276,53534,2,0,P|234:278|192:257,1,95
300,269,53878,1,0,0:0:0:0:
366,343,54051,1,8,0:0:0:0:
403,250,54223,6,0,B|430:186|388:132|388:132|383:97|403:71,1,190
314,201,54740,2,0,P|263:213|225:195,1,95,8|0,0:0|0:0,0:0:0:0:
150,253,55085,1,0,0:0:0:0:
133,158,55258,1,0,0:0:0:0:
173,61,55430,1,8,0:0:0:0:
266,23,55603,1,0,0:0:0:0:
361,38,55775,6,0,P|397:108|309:155,1,190,0|8,0:0|0:0,0:0:0:0:
296,151,56292,1,0,0:0:0:0:
296,151,56637,1,0,0:0:0:0:
328,244,56809,2,0,P|332:280|324:315,1,71.2500027179719,8|0,0:0|0:0,0:0:0:0:
237,219,57154,2,0,P|254:187|281:163,1,71.2500027179719
232,244,57499,1,8,0:0:0:0:
140,183,57671,2,0,P|129:148|131:112,1,71.2500027179719
150,198,58016,1,0,0:0:0:0:
232,244,58189,1,8,0:0:0:0:
328,244,58361,1,0,0:0:0:0:
425,181,58534,6,0,P|441:129|336:80,1,190,0|8,0:0|0:0,0:0:0:0:
323,95,59051,1,0,0:0:0:0:
323,95,59396,1,0,0:0:0:0:
239,179,59568,2,0,P|202:186|165:178,1,71.2500027179719,8|0,0:0|0:0,0:0:0:0:
325,206,59913,2,0,P|303:237|271:257,1,71.2500027179719
257,267,60258,1,8,0:0:0:0:
403,163,60430,2,0,P|410:200|401:237,1,71.2500027179719
386,137,60775,1,0,0:0:0:0:
302,73,60947,1,8,0:0:0:0:
199,55,61120,1,0,0:0:0:0:
85,71,61292,6,0,P|29:117|83:205,1,190,0|8,0:0|0:0,0:0:0:0:
108,205,61809,1,0,0:0:0:0:
108,205,62154,1,0,0:0:0:0:
177,297,62327,2,0,B|178:329|178:329|167:375,1,71.2500027179719,8|0,0:0|0:0,0:0:0:0:
82,270,62671,2,0,B|88:237|88:237|111:197,1,71.2500027179719
76,293,63016,1,8,0:0:0:0:
32,177,63189,2,0,B|47:147|47:147|79:114,1,71.2500027179719
30,197,63534,1,0,0:0:0:0:
76,293,63706,1,8,0:0:0:0:
183,333,63878,1,0,0:0:0:0:
312,302,64051,6,0,P|334:234|240:195,1,190,0|8,0:0|0:0,0:0:0:0:
225,209,64568,1,0,0:0:0:0:
225,209,64913,1,0,0:0:0:0:
128,277,65085,2,0,P|119:317|127:348,1,71.2500027179719,8|0,0:0|0:0,0:0:0:0:
220,189,65430,2,0,L|202:118,1,71.2500027179719
225,209,65775,1,8,0:0:0:0:
314,311,65947,2,0,P|348:322|385:315,1,71.2500027179719
472,249,66292,1,0,0:0:0:0:
358,295,66465,2,0,P|323:300|289:289,1,71.2500027179719,8|0,0:0|0:0,0:0:0:0:
309,58,66809,5,0,0:0:0:0:
470,82,66982,1,0,0:0:0:0:
314,93,67154,1,8,0:0:0:0:
462,116,67327,1,0,0:0:0:0:
319,127,67499,1,0,0:0:0:0:
455,149,67671,1,0,0:0:0:0:
323,163,67844,1,8,0:0:0:0:
455,149,68016,1,0,0:0:0:0:
462,116,68102,1,0,0:0:0:0:
470,82,68189,5,0,0:0:0:0:
481,338,68534,1,8,0:0:0:0:
225,349,68878,1,0,0:0:0:0:
214,93,69223,1,8,0:0:0:0:
330,252,69568,5,0,0:0:0:0:
225,349,69740,1,0,0:0:0:0:
237,255,69913,1,8,0:0:0:0:
392,315,70085,1,0,0:0:0:0:
330,252,70258,1,0,0:0:0:0:
156,295,70430,1,0,0:0:0:0:
237,255,70603,1,8,0:0:0:0:
92,165,70775,1,0,0:0:0:0:
88,247,70947,5,0,0:0:0:0:
239,72,71292,1,8,0:0:0:0:
383,253,71637,2,0,P|473:256|480:166,1,199.499993911743,0|8,0:0|0:0,0:0:0:0:
380,73,72154,1,0,0:0:0:0:
380,73,72240,1,0,0:0:0:0:
380,73,72327,5,0,0:0:0:0:
402,150,72499,1,0,0:0:0:0:
247,111,72671,1,8,0:0:0:0:
303,54,72844,1,0,0:0:0:0:
347,208,73016,1,0,0:0:0:0:
269,188,73189,1,0,0:0:0:0:
380,73,73361,1,8,0:0:0:0:
402,150,73534,1,0,0:0:0:0:
247,111,73706,5,0,0:0:0:0:
185,172,73878,1,0,0:0:0:0:
172,258,74051,1,8,0:0:0:0:
206,342,74223,1,0,0:0:0:0:
100,203,74396,1,0,0:0:0:0:
431,250,74740,1,8,0:0:0:0:
409,273,75085,5,0,0:0:0:0:
323,309,75258,1,0,0:0:0:0:
224,307,75430,1,8,0:0:0:0:
140,257,75603,1,0,0:0:0:0:
111,171,75775,1,0,0:0:0:0:
179,234,75948,1,0,0:0:0:0:
273,265,76120,1,8,0:0:0:0:
369,246,76293,1,0,0:0:0:0:
443,200,76465,1,0,0:0:0:0:
347,219,76638,1,0,0:0:0:0:
253,188,76810,1,8,0:0:0:0:
185,125,76983,1,0,0:0:0:0:
165,20,77154,5,0,0:0:0:0:
66,326,77499,1,8,0:0:0:0:
39,95,77844,5,0,0:0:0:0:
134,212,78016,1,0,0:0:0:0:
24,128,78189,1,8,0:0:0:0:
161,185,78361,1,0,0:0:0:0:
25,168,78534,1,0,0:0:0:0:
174,144,78706,1,0,0:0:0:0:
41,200,78878,1,8,0:0:0:0:
174,144,79051,1,0,0:0:0:0:
161,185,79137,1,0,0:0:0:0:
134,212,79223,5,0,0:0:0:0:
446,135,79568,1,8,0:0:0:0:
252,18,79913,1,0,0:0:0:0:
328,329,80258,1,8,0:0:0:0:
363,69,80603,5,0,0:0:0:0:
481,218,80775,1,0,0:0:0:0:
501,138,80947,1,8,0:0:0:0:
339,240,81120,1,0,0:0:0:0:
350,155,81292,1,0,0:0:0:0:
437,378,81465,1,0,0:0:0:0:
457,298,81637,1,8,0:0:0:0:
328,329,81809,1,0,0:0:0:0:
481,218,81982,5,0,0:0:0:0:
330,38,82327,1,8,0:0:0:0:
164,204,82671,2,0,P|98:206|93:91,1,199.499993911743,0|8,0:0|0:0,0:0:0:0:
180,25,83189,1,0,0:0:0:0:
180,25,83275,1,0,0:0:0:0:
180,25,83361,5,0,0:0:0:0:
301,113,83534,1,0,0:0:0:0:
263,41,83706,1,8,0:0:0:0:
265,189,83878,1,0,0:0:0:0:
374,71,84051,1,0,0:0:0:0:
221,115,84223,1,0,0:0:0:0:
301,113,84396,1,8,0:0:0:0:
159,66,84568,1,0,0:0:0:0:
345,183,84740,5,0,0:0:0:0:
301,113,84913,1,0,0:0:0:0:
263,41,85085,1,8,0:0:0:0:
221,115,85258,1,0,0:0:0:0:
182,188,85430,1,0,0:0:0:0:
467,130,85775,1,8,0:0:0:0:
386,277,86120,5,0,0:0:0:0:
394,187,86292,1,0,0:0:0:0:
325,351,86465,1,8,0:0:0:0:
386,277,86637,1,0,0:0:0:0:
435,361,86809,1,0,0:0:0:0:
300,244,86982,1,0,0:0:0:0:
394,187,87154,1,8,0:0:0:0:
386,277,87327,1,0,0:0:0:0:
477,259,87499,5,0,0:0:0:0:
394,187,87671,1,0,0:0:0:0:
365,95,87844,1,8,0:0:0:0:
397,5,88016,1,0,0:0:0:0:
303,173,88189,1,0,0:0:0:0:
80,34,88534,1,8,0:0:0:0:
48,225,88878,5,0,0:0:0:0:
213,158,89051,1,0,0:0:0:0:
37,193,89223,1,8,0:0:0:0:
219,189,89396,1,0,0:0:0:0:
27,162,89568,1,0,0:0:0:0:
228,224,89740,1,0,0:0:0:0:
18,132,89913,1,8,0:0:0:0:
228,224,90085,1,0,0:0:0:0:
219,189,90172,1,0,0:0:0:0:
213,158,90258,5,0,0:0:0:0:
50,363,90603,1,8,0:0:0:0:
388,333,90947,1,0,0:0:0:0:
94,58,91292,1,8,0:0:0:0:
410,39,91637,5,0,0:0:0:0:
450,238,91809,1,0,0:0:0:0:
483,158,91982,1,8,0:0:0:0:
296,284,92154,1,0,0:0:0:0:
383,308,92327,1,0,0:0:0:0:
256,109,92499,1,0,0:0:0:0:
251,192,92671,1,8,0:0:0:0:
410,39,92844,1,0,0:0:0:0:
323,27,93016,5,0,0:0:0:0:
465,316,93361,1,8,0:0:0:0:
119,236,93706,2,0,P|41:284|103:351,1,209.000006378174,0|8,0:0|0:0,0:0:0:0:
246,331,94223,1,0,0:0:0:0:
246,331,94309,1,0,0:0:0:0:
246,331,94396,5,0,0:0:0:0:
303,211,94568,1,0,0:0:0:0:
338,300,94740,1,8,0:0:0:0:
223,160,94913,1,0,0:0:0:0:
303,211,95085,1,0,0:0:0:0:
139,197,95258,1,0,0:0:0:0:
223,160,95430,1,8,0:0:0:0:
289,95,95603,1,0,0:0:0:0:
215,259,95775,5,0,0:0:0:0:
149,102,95947,1,0,0:0:0:0:
139,197,96120,1,8,0:0:0:0:
93,280,96292,1,0,0:0:0:0:
19,347,96465,1,0,0:0:0:0:
344,209,96809,1,8,0:0:0:0:
64,61,97154,5,0,0:0:0:0:
145,122,97327,1,0,0:0:0:0:
240,144,97499,1,8,0:0:0:0:
339,142,97671,1,0,0:0:0:0:
429,108,97844,5,0,0:0:0:0:
346,175,98016,1,0,0:0:0:0:
241,212,98189,1,8,0:0:0:0:
130,220,98361,1,0,0:0:0:0:
21,204,98534,5,0,0:0:0:0:
123,268,98706,1,0,0:0:0:0:
241,289,98878,1,8,0:0:0:0:
355,283,99051,1,0,0:0:0:0:
466,240,99223,5,0,0:0:0:0:
293,24,99568,1,8,0:0:0:0:
123,268,99913,5,0,0:0:0:0:
80,100,100085,1,0,0:0:0:0:
95,273,100258,1,8,0:0:0:0:
106,92,100430,1,0,0:0:0:0:
67,280,100603,1,0,0:0:0:0:
132,85,100775,1,0,0:0:0:0:
41,287,100947,1,8,0:0:0:0:
80,100,101120,1,0,0:0:0:0:
106,92,101206,1,0,0:0:0:0:
132,85,101292,5,0,0:0:0:0:
283,309,101637,1,8,0:0:0:0:
475,102,101982,1,0,0:0:0:0:
510,377,102327,1,8,0:0:0:0:
411,37,102671,5,0,0:0:0:0:
335,239,102844,1,0,0:0:0:0:
422,207,103016,1,8,0:0:0:0:
215,128,103189,1,0,0:0:0:0:
255,208,103361,1,0,0:0:0:0:
331,6,103534,1,0,0:0:0:0:
244,38,103706,1,8,0:0:0:0:
451,117,103879,1,0,0:0:0:0:
411,37,104051,5,0,0:0:0:0:
350,349,104396,1,8,0:0:0:0:
88,161,104740,2,0,P|72:109|184:105,1,209.000006378174,0|8,0:0|0:0,0:0:0:0:
179,254,105258,1,0,0:0:0:0:
179,254,105344,1,0,0:0:0:0:
179,254,105430,5,0,0:0:0:0:
245,182,105603,1,0,0:0:0:0:
255,358,105775,1,8,0:0:0:0:
285,271,105947,1,0,0:0:0:0:
165,369,106120,1,0,0:0:0:0:
346,346,106292,1,0,0:0:0:0:
285,271,106465,1,8,0:0:0:0:
245,182,106637,1,0,0:0:0:0:
255,358,106809,5,0,0:0:0:0:
375,257,106982,1,0,0:0:0:0:
285,271,107154,1,8,0:0:0:0:
195,260,107327,1,0,0:0:0:0:
111,221,107499,1,0,0:0:0:0:
267,38,107844,1,8,0:0:0:0:
450,204,108189,5,0,0:0:0:0:
474,308,108361,1,0,0:0:0:0:
371,276,108534,1,8,0:0:0:0:
483,312,108706,1,0,0:0:0:0:
339,168,108878,5,0,0:0:0:0:
267,247,109050,1,0,0:0:0:0:
235,144,109223,1,8,0:0:0:0:
272,259,109396,1,0,0:0:0:0:
127,129,109568,5,0,0:0:0:0:
151,233,109740,1,0,0:0:0:0:
48,201,109913,1,8,0:0:0:0:
160,237,110085,1,0,0:0:0:0:
23,100,110258,5,0,0:0:0:0:
190,357,110603,1,8,0:0:0:0:
362,166,110947,6,0,P|380:115|274:90,1,190,0|8,0:0|0:0,0:0:0:0:
227,161,111465,1,0,0:0:0:0:
217,257,111637,1,0,0:0:0:0:
190,357,111809,2,0,P|145:376|101:366,1,95,0|8,0:0|0:0,0:0:0:0:
233,251,112154,2,0,B|282:241|333:285|333:285|372:298|415:285,1,190
495,253,112671,1,8,0:0:0:0:
481,350,112844,1,0,0:0:0:0:
427,189,113016,5,0,0:0:0:0:
412,285,113189,1,0,0:0:0:0:
498,63,113361,1,8,0:0:0:0:
512,159,113534,1,0,0:0:0:0:
400,24,113706,6,0,P|336:6|251:88,1,190,0|8,0:0|0:0,0:0:0:0:
228,182,114223,1,0,0:0:0:0:
141,235,114396,1,0,0:0:0:0:
41,235,114568,2,0,P|19:190|24:141,1,95,0|8,0:0|0:0,0:0:0:0:
140,273,114913,2,0,P|192:305|314:275,1,190
371,198,115430,1,8,0:0:0:0:
157,49,115775,1,0,0:0:0:0:
85,340,116120,1,8,0:0:0:0:
69,318,116465,5,0,0:0:0:0:
256,192,116551,12,0,119016,3:0:0:0:
