osu file format v14

[General]
AudioFilename: audio.mp3
AudioLeadIn: 0
PreviewTime: -1
Countdown: 1
SampleSet: Soft
StackLeniency: 0.7
Mode: 0
LetterboxInBreaks: 0
WidescreenStoryboard: 0

[Editor]
DistanceSpacing: 1
BeatDivisor: 4
GridSize: 4
TimelineZoom: 1

[Metadata]
Title:Rin to Shite Saku Hana no Gotoku ~Hinabita edtion~
TitleUnicode:凛として咲く花の如く~ひなビタ♪ edition~
Artist:Bitter Sweets
ArtistUnicode:日向美ビタースイーツ♪
Creator:blueloniess
Version:bluelon
Source:ひなビタ♪
Tags:blueloniess practice streams
BeatmapID:2015231
BeatmapSetID:962427

[Difficulty]
HPDrainRate:4
CircleSize:4
OverallDifficulty:9
ApproachRate:9.6
SliderMultiplier:1.8
SliderTickRate:1

[Events]
//Background and Video events
0,0,"(180).jpg",0,0
//Break Periods
//Storyboard Layer 0 (Background)
//Storyboard Layer 1 (Fail)
//Storyboard Layer 2 (Pass)
//Storyboard Layer 3 (Foreground)
//Storyboard Sound Samples

[TimingPoints]
12,368.098159509202,4,1,0,100,1,0
1484,-100,4,1,2,70,0,0
17680,-133.333333333333,4,1,2,70,0,0
28723,-133.333333333333,4,1,2,70,0,0
29459,-100,4,1,2,70,0,0
41238,-50,4,2,1,70,0,1
54490,-83.3333333333333,4,2,1,70,0,0
54858,-100,4,2,1,70,0,0
55134,-133.333333333333,4,2,1,70,0,0
55778,-133.333333333333,4,1,2,70,0,0
56238,-133.333333333333,4,2,1,70,0,0
56515,-100,4,2,1,70,0,0
57159,-100,4,1,2,70,0,0
57435,-100,4,2,1,70,0,0
58907,-83.3333333333333,4,2,1,70,0,0
60011,-133.333333333333,4,2,1,70,0,0
61852,-100,4,1,2,70,0,0
73631,-133.333333333333,4,2,1,70,0,0
82465,-100,4,2,1,70,0,0
83202,-133.333333333333,4,2,1,70,0,0
84674,-133.333333333333,4,1,2,70,0,0
85410,-100,4,1,2,70,0,0
97189,-83.3333333333333,4,2,1,70,0,0
97558,-83.3333333333333,4,1,2,70,0,0
98662,-83.3333333333333,4,2,1,70,0,0
99030,-83.3333333333333,4,1,2,70,0,0
108969,-50,4,2,1,70,0,1
132527,-55.5555555555556,4,2,1,70,0,1
145778,-100,4,2,1,70,0,0

[HitObjects]
54,48,1484,5,6,0:0:0:0:
227,104,1668,1,0,0:0:0:0:
227,104,1760,1,0,0:0:0:0:
227,104,1852,1,8,0:0:0:0:
54,161,2036,1,0,0:0:0:0:
54,161,2128,1,0,0:0:0:0:
54,161,2220,1,2,0:0:0:0:
161,13,2404,1,0,0:0:0:0:
161,13,2496,1,0,0:0:0:0:
161,13,2588,1,8,0:0:0:0:
161,196,2772,1,0,0:0:0:0:
54,48,2956,5,2,0:0:0:0:
227,104,3140,1,0,0:0:0:0:
54,161,3324,1,8,0:0:0:0:
85,192,3416,1,0,0:0:0:0:
98,235,3508,1,0,0:0:0:0:
91,279,3600,1,0,0:0:0:0:
66,315,3692,1,2,0:0:0:0:
0,242,3877,1,0,0:0:0:0:
136,223,4061,6,0,B|242:188|242:188|294:254|294:254|314:175|314:175|389:149|389:149|322:105|322:105|322:26|322:26|260:76|260:76|186:51|186:51|212:125|212:125|159:198,1,810,12|0,0:0|0:0,0:0:0:0:
321,27,5901,5,6,0:0:0:0:
294,252,6085,1,0,0:0:0:0:
388,148,6269,5,8,0:0:0:0:
161,196,6453,1,0,0:0:0:0:
294,252,6637,5,2,0:0:0:0:
294,252,6729,1,0,0:0:0:0:
294,252,6821,1,0,0:0:0:0:
294,252,6913,1,0,0:0:0:0:
294,252,7005,5,8,0:0:0:0:
186,52,7189,1,0,0:0:0:0:
321,27,7373,5,2,0:0:0:0:
321,27,7558,1,2,0:0:0:0:
294,252,7742,1,10,0:0:0:0:
294,252,7926,1,2,0:0:0:0:
186,52,8110,1,8,0:0:0:0:
388,148,8294,1,2,0:0:0:0:
161,196,8478,1,10,0:0:0:0:
321,27,8662,1,0,0:0:0:0:
294,252,8846,5,6,0:0:0:0:
69,225,9030,1,0,0:0:0:0:
173,319,9214,5,8,0:0:0:0:
125,92,9398,1,0,0:0:0:0:
69,225,9582,5,2,0:0:0:0:
69,225,9674,1,0,0:0:0:0:
69,225,9766,1,0,0:0:0:0:
69,225,9858,1,0,0:0:0:0:
69,225,9950,1,8,0:0:0:0:
269,117,10134,1,0,0:0:0:0:
125,92,10318,5,2,0:0:0:0:
294,252,10502,1,2,0:0:0:0:
294,252,10594,1,0,0:0:0:0:
294,252,10686,1,8,0:0:0:0:
69,225,10870,1,2,0:0:0:0:
69,225,10962,1,0,0:0:0:0:
69,225,11054,1,8,0:0:0:0:
269,117,11238,1,2,0:0:0:0:
269,117,11423,1,8,0:0:0:0:
125,92,11606,1,0,0:0:0:0:
294,252,11791,5,6,0:0:0:0:
173,319,11975,1,0,0:0:0:0:
125,92,12159,5,8,0:0:0:0:
269,116,12343,1,0,0:0:0:0:
69,225,12527,5,2,0:0:0:0:
269,116,12711,1,0,0:0:0:0:
269,116,12803,1,0,0:0:0:0:
269,116,12895,5,8,0:0:0:0:
429,272,13079,1,0,0:0:0:0:
294,252,13263,5,2,0:0:0:0:
294,252,13448,1,2,0:0:0:0:
392,47,13632,1,10,0:0:0:0:
392,47,13816,1,2,0:0:0:0:
429,272,14000,1,2,0:0:0:0:
269,116,14184,1,0,0:0:0:0:
499,144,14368,1,10,0:0:0:0:
294,252,14552,1,0,0:0:0:0:
392,47,14735,5,6,0:0:0:0:
499,144,14919,1,0,0:0:0:0:
294,252,15104,5,8,0:0:0:0:
429,272,15288,1,0,0:0:0:0:
269,116,15472,1,2,0:0:0:0:
269,116,15564,1,0,0:0:0:0:
269,116,15656,1,0,0:0:0:0:
269,116,15748,1,0,0:0:0:0:
269,116,15840,1,8,0:0:0:0:
499,144,16024,1,0,0:0:0:0:
392,47,16208,5,6,0:0:0:0:
125,92,16392,1,2,0:0:0:0:
125,92,16484,1,0,0:0:0:0:
125,92,16576,1,8,0:0:0:0:
294,252,16760,1,2,0:0:0:0:
294,252,16852,1,0,0:0:0:0:
294,252,16944,2,0,L|388:252,1,90,8|0,0:0|0:0,0:0:0:0:
384,252,17220,1,0,0:0:0:0:
384,252,17312,1,8,0:0:0:0:
269,116,17496,1,0,0:0:0:0:
154,219,17680,6,0,P|168:308|184:346,1,101.250003862381,6|0,0:0|0:0,0:0:0:0:
219,335,18048,2,0,L|313:335,1,67.5000025749208,10|0,0:0|0:0,0:0:0:0:
384,252,18416,2,0,P|364:315|389:376,1,135.000005149842,2|8,0:0|0:0,0:0:0:0:
461,307,18969,1,0,0:0:0:0:
432,171,19153,6,0,P|371:156|301:203,2,135.000005149842,2|8|2,0:0|0:0|0:0,0:0:0:0:
384,252,20073,1,0,0:0:0:0:
310,189,20257,2,0,L|311:91,1,67.5000025749208,8|0,0:0|0:0,0:0:0:0:
416,0,20625,6,0,P|444:56|411:112,1,135.000005149842,6|8,0:0|0:0,0:0:0:0:
310,121,21177,1,0,0:0:0:0:
231,56,21361,2,0,P|180:27|140:26,1,67.5000025749208,2|0,0:0|0:0,0:0:0:0:
164,126,21729,2,0,P|119:117|85:127,1,67.5000025749208,8|0,0:0|0:0,0:0:0:0:
184,275,22097,6,0,B|252:275|252:275|276:248,1,101.250003862381,6|0,0:0|0:0,0:0:0:0:
139,213,22465,2,0,P|117:238|107:270,1,67.5000025749208,8|0,0:0|0:0,0:0:0:0:
225,335,22834,2,0,P|258:295|274:246,1,101.250003862381,2|0,0:0|0:0,0:0:0:0:
273,249,23202,2,0,L|357:249,1,67.5000025749208,8|0,0:0|0:0,0:0:0:0:
187,127,23570,2,0,P|153:166|137:215,1,101.250003862381,6|0,0:0|0:0,0:0:0:0:
138,212,23938,2,0,L|54:212,1,67.5000025749208,8|0,0:0|0:0,0:0:0:0:
32,118,24306,5,2,0:0:0:0:
113,57,24490,1,0,0:0:0:0:
187,127,24674,1,8,0:0:0:0:
268,66,24858,1,0,0:0:0:0:
423,107,25042,6,0,P|383:137|333:139,1,101.250003862381,6|0,0:0|0:0,0:0:0:0:
334,140,25410,2,0,L|331:220,1,67.5000025749208,8|0,0:0|0:0,0:0:0:0:
392,383,25778,2,0,P|426:327|416:262,1,135.000005149842,2|8,0:0|0:0,0:0:0:0:
331,207,26331,1,0,0:0:0:0:
236,303,26515,6,0,P|285:313|336:310,1,101.250003862381,6|0,0:0|0:0,0:0:0:0:
336,310,26883,2,0,P|294:326|262:352,1,67.5000025749208,8|0,0:0|0:0,0:0:0:0:
181,374,27251,2,0,P|98:343|51:307,1,135.000005149842,2|8,0:0|0:0,0:0:0:0:
5,231,27803,1,0,0:0:0:0:
99,194,27987,6,0,P|158:216|191:241,2,101.250003862381,6|0|8,0:0|0:0|0:0,0:0:0:0:
5,231,28723,1,2,0:0:0:0:
5,231,28815,1,0,0:0:0:0:
5,231,28907,1,0,0:0:0:0:
51,382,29091,2,0,L|60:315,1,67.5000025749208,8|0,0:1|0:1,0:1:0:0:
98,95,29459,6,0,L|111:5,1,90,6|0,0:1|0:1,0:1:0:0:
111,5,29735,1,0,0:0:0:0:
111,5,29827,1,8,0:0:0:0:
197,143,30011,1,0,0:0:0:0:
99,194,30196,2,0,P|39:171|6:146,1,90,2|0,0:0|0:0,0:0:0:0:
18,156,30472,1,0,0:0:0:0:
18,156,30564,1,8,0:0:0:0:
197,143,30748,1,0,0:0:0:0:
296,191,30932,6,0,L|282:280,1,90,6|0,0:1|0:1,0:1:0:0:
282,281,31208,1,0,0:0:0:0:
282,281,31300,1,8,0:0:0:0:
197,143,31484,1,0,0:0:0:0:
295,92,31669,2,0,P|354:114|387:139,1,90,2|0,0:0|0:0,0:0:0:0:
375,130,31945,1,0,0:0:0:0:
375,130,32037,1,8,0:0:0:0:
197,143,32221,1,0,0:0:0:0:
98,95,32404,6,0,L|111:5,1,90,6|0,0:1|0:1,0:1:0:0:
295,92,32772,1,8,0:0:0:0:
197,143,32956,1,0,0:0:0:0:
197,143,33048,1,0,0:0:0:0:
197,143,33140,2,0,L|210:53,1,90,2|0,0:1|0:1,0:1:0:0:
375,130,33508,1,8,0:0:0:0:
282,279,33692,1,0,0:0:0:0:
99,194,33877,6,0,P|159:217|192:242,1,90,6|0,0:0|0:0,0:0:0:0:
375,130,34245,2,0,P|325:170|286:186,1,90,8|0,0:0|0:0,0:0:0:0:
289,367,34613,2,0,P|278:303|284:262,1,90,2|0,0:0|0:0,0:0:0:0:
281,278,34889,1,0,0:0:0:0:
281,278,34981,1,8,0:0:0:0:
418,310,35165,1,0,0:0:0:0:
466,90,35349,6,0,P|466:157|431:214,1,135,6|0,0:0|0:0,0:0:0:0:
302,78,35717,2,0,P|341:99|374:129,1,90,8|0,0:0|0:0,0:0:0:0:
128,191,36085,2,0,P|220:166|312:185,1,180,2|8,0:0|0:0,0:0:0:0:
256,326,36637,1,0,0:0:0:0:
92,314,36821,6,0,P|92:247|127:190,1,135,6|0,0:0|0:0,0:0:0:0:
256,326,37189,2,0,P|216:304|183:274,1,90,8|0,0:0|0:0,0:0:0:0:
430,213,37557,2,0,P|338:238|246:219,1,180,2|8,0:0|0:0,0:0:0:0:
127,190,38109,1,0,0:0:0:0:
23,28,38294,6,0,P|10:70|22:130,1,90,6|0,0:0|0:0,0:0:0:0:
15,115,38570,1,0,0:0:0:0:
15,115,38662,1,8,0:0:0:0:
127,190,38846,1,0,0:0:0:0:
302,78,39030,2,0,P|268:47|229:26,1,90,2|0,0:0|0:0,0:0:0:0:
229,26,39306,1,0,0:0:0:0:
229,26,39398,1,8,0:0:0:0:
256,223,39582,1,0,0:0:0:0:
439,143,39766,5,6,0:0:0:0:
229,26,39950,1,0,0:0:0:0:
184,32,40042,1,0,0:0:0:0:
139,39,40134,1,8,0:0:0:0:
94,47,40226,1,0,0:0:0:0:
50,56,40318,2,0,L|47:103,2,45,0|0|14,0:0|0:0|0:0,0:0:0:0:
50,56,40870,1,2,0:0:0:0:
50,56,41238,6,0,L|36:271,1,180,6|0,0:0|0:0,0:0:0:0:
81,315,41515,1,0,0:0:0:0:
149,257,41607,2,0,B|242:242|221:299|325:270,1,180,8|0,0:0|0:0,0:0:0:0:
274,195,41883,1,0,0:0:0:0:
177,333,41975,2,0,P|279:360|379:325,1,180,2|0,0:0|0:0,0:0:0:0:
423,291,42251,1,0,0:0:0:0:
423,291,42343,2,0,P|441:239|439:173,1,90,8|0,0:0|0:0,0:0:0:0:
371,149,42527,2,0,P|355:190|350:235,1,90
489,79,42711,6,0,L|346:59,1,90,2|0,0:0|0:0,0:0:0:0:
304,16,42895,2,0,L|214:28,1,90
29,91,43079,6,0,L|118:78,1,90,8|0,0:0|0:0,0:0:0:0:
214,28,43263,2,0,L|303:40,1,90
489,79,43447,1,2,0:0:0:0:
464,164,43539,1,0,0:0:0:0:
395,219,43631,1,8,0:0:0:0:
306,226,43723,1,0,0:0:0:0:
230,181,43815,2,0,P|134:170|57:253,1,180,8|0,0:0|0:0,0:0:0:0:
46,304,44091,1,0,0:0:0:0:
46,304,44183,6,0,B|95:330|95:330|232:292,1,180,6|0,0:0|0:0,0:0:0:0:
399,174,44459,1,0,0:0:0:0:
399,174,44551,6,0,B|350:148|350:148|213:186,1,180,8|0,0:0|0:0,0:0:0:0:
400,270,44827,1,0,0:0:0:0:
479,225,44919,2,0,P|494:175|470:114,1,90,2|0,0:0|0:0,0:0:0:0:
438,61,45104,2,0,P|402:23|337:13,1,90
277,8,45288,2,0,P|226:20|185:71,1,90,8|0,0:0|0:0,0:0:0:0:
146,118,45472,2,0,P|131:167|155:228,1,90
214,296,45656,6,0,B|305:330|305:260|413:304,1,180,6|0,0:0|0:0,0:0:0:0:
348,376,45932,1,0,0:0:0:0:
259,225,46024,2,0,L|258:117,1,90,8|0,0:0|0:0,0:0:0:0:
341,100,46208,2,0,L|340:189,1,90
214,296,46392,1,2,0:0:0:0:
132,262,46484,1,0,0:0:0:0:
90,184,46576,1,8,0:0:0:0:
107,97,46668,1,0,0:0:0:0:
175,41,46760,2,0,P|233:29|292:47,1,90,8|0,0:0|0:0,0:0:0:0:
428,92,46944,2,0,P|384:104|340:99,1,90
259,314,47128,6,0,L|257:134,1,180,6|0,0:0|0:0,0:0:0:0:
340,99,47404,1,0,0:0:0:0:
262,33,47496,2,0,P|218:29|175:41,1,90,8|0,0:0|0:0,0:0:0:0:
124,115,47680,2,0,P|119:159|131:202,1,90
314,218,47864,2,0,P|280:139|191:168,1,180,2|0,0:0|0:0,0:0:0:0:
108,291,48140,1,0,0:0:0:0:
187,349,48232,2,0,P|204:275|188:231,1,90,8|0,0:0|0:0,0:0:0:0:
314,218,48416,2,0,P|312:262|328:304,1,90
441,372,48600,6,0,L|450:282,1,90,2|0,0:0|0:0,0:0:0:0:
411,200,48785,2,0,L|401:110,1,90
283,45,48969,6,0,L|273:134,1,90,8|0,0:0|0:0,0:0:0:0:
313,217,49154,2,0,L|322:306,1,90
483,108,49337,1,10,0:0:0:0:
414,55,49429,1,0,0:0:0:0:
327,66,49521,1,8,0:0:0:0:
273,135,49613,1,0,0:0:0:0:
245,220,49705,1,10,0:0:0:0:
192,290,49797,1,0,0:0:0:0:
105,301,49889,1,8,0:0:0:0:
35,247,49981,1,0,0:0:0:0:
3,162,50073,6,0,B|109:133|82:210|224:145,1,180,14|0,0:0|0:0,0:0:0:0:
245,220,50349,1,0,0:0:0:0:
273,135,50441,2,0,P|261:71|216:21,1,90,8|0,0:0|0:0,0:0:0:0:
167,10,50625,2,0,P|146:49|142:94,1,90
245,220,50809,2,0,P|331:217|361:113,1,180,2|0,0:0|0:0,0:0:0:0:
388,52,51085,1,0,0:0:0:0:
297,50,51177,2,0,P|276:89|272:134,1,90,8|0,0:0|0:0,0:0:0:0:
331,218,51361,2,0,P|370:238|415:242,1,90
297,50,51545,6,0,P|257:29|212:25,1,90,6|0,0:0|0:0,0:0:0:0:
123,36,51729,2,0,P|85:60|59:96,1,90
52,186,51913,2,0,P|54:230|72:271,1,90,8|0,0:0|0:0,0:0:0:0:
245,220,52097,2,0,P|242:175|224:134,1,90
151,208,52281,5,2,0:0:0:0:
168,294,52373,1,0,0:0:0:0:
234,352,52465,1,0,0:0:0:0:
322,357,52557,1,0,0:0:0:0:
395,307,52650,2,0,P|415:259|405:191,3,90,8|0|0|0,0:0|0:0|0:0|0:0,0:0:0:0:
453,60,53018,5,14,0:0:0:0:
373,21,53110,1,0,0:0:0:0:
288,46,53202,1,8,0:0:0:0:
241,120,53294,1,0,0:0:0:0:
255,207,53386,1,10,0:0:0:0:
341,219,53478,1,0,0:0:0:0:
397,153,53570,1,8,0:0:0:0:
371,71,53662,1,0,0:0:0:0:
288,48,53754,5,10,0:0:0:0:
200,49,53846,1,0,0:0:0:0:
134,107,53938,1,8,0:0:0:0:
122,195,54030,1,0,0:0:0:0:
170,269,54122,2,0,L|279:263,1,90,10|0,0:0|0:0,0:0:0:0:
486,158,54306,2,0,L|377:151,1,90,8|0,0:0|0:0,0:0:0:0:
122,195,54490,6,0,L|121:343,1,107.999996704102,14|0,0:0|0:0,0:0:0:0:
151,258,54766,1,0,0:0:0:0:
151,258,54858,2,0,L|151:375,1,90,8|0,0:0|0:0,0:0:0:0:
243,346,55134,6,0,P|301:347|336:300,1,101.250003862381,6|2,0:0|0:0,0:0:0:0:
409,351,55502,1,2,0:0:0:0:
409,351,55594,2,0,L|422:407,1,33.7500012874604,2|2,0:0|0:0,0:0:0:0:
443,278,55778,1,0,0:0:0:0:
443,278,55870,1,0,0:0:0:0:
443,278,55962,5,0,0:0:0:0:
331,150,56146,1,0,0:0:0:0:
331,150,56238,2,0,P|288:140|242:154,1,67.5000025749208,2|0,0:0|0:0,0:0:0:0:
130,238,56515,2,0,P|212:267|289:225,1,180,12|0,0:0|0:0,0:0:0:0:
102,162,57021,2,0,L|90:150|49:141,1,22.5,2|10,0:0|0:0,0:0:0:0:
102,162,57159,2,0,L|46:177,2,45
209,184,57435,6,0,L|209:64,1,90,6|0,0:0|0:0,0:0:0:0:
209,94,57711,1,0,0:0:0:0:
209,94,57803,1,8,0:0:0:0:
319,15,57987,1,0,0:0:0:0:
319,15,58079,1,0,0:0:0:0:
319,15,58171,2,0,L|319:105,1,90,2|0,0:0|0:0,0:0:0:0:
319,105,58447,1,0,0:0:0:0:
319,105,58539,1,8,0:0:0:0:
412,202,58723,1,0,0:0:0:0:
267,276,58907,6,0,P|205:265|152:281,1,107.999996704102,6|0,0:0|0:0,0:0:0:0:
93,319,59183,1,0,0:0:0:0:
93,319,59275,2,0,L|85:379,3,53.9999983520508,8|0|0|0,0:0|0:0|0:0|0:0,0:0:0:0:
3,215,59643,5,2,0:0:0:0:
92,56,59827,1,0,0:0:0:0:
172,221,60011,6,0,B|222:267|300:266|300:266|412:304|375:432|244:364|300:269|300:269|312:217|346:198|346:198|370:229|426:224|426:224|407:195,1,607.500023174287,2|2,0:0|0:0,0:0:0:0:
331,106,61852,5,6,0:0:0:0:
158,50,62036,1,0,0:0:0:0:
265,15,62220,5,8,0:0:0:0:
158,163,62404,1,0,0:0:0:0:
158,50,62588,5,2,0:0:0:0:
158,50,62680,1,0,0:0:0:0:
158,50,62772,1,0,0:0:0:0:
158,50,62864,1,0,0:0:0:0:
158,50,62956,1,8,0:0:0:0:
265,198,63140,1,0,0:0:0:0:
158,163,63324,5,2,0:0:0:0:
331,106,63508,1,2,0:0:0:0:
265,198,63692,1,8,0:0:0:0:
158,50,63877,1,2,0:0:0:0:
265,15,64061,1,2,0:0:0:0:
158,163,64245,1,2,0:0:0:0:
48,17,64429,1,8,0:0:0:0:
158,50,64613,1,0,0:0:0:0:
158,163,64797,5,6,0:0:0:0:
331,220,64981,1,0,0:0:0:0:
265,128,65165,5,8,0:0:0:0:
158,276,65350,1,0,0:0:0:0:
265,311,65534,5,2,0:0:0:0:
265,311,65625,1,0,0:0:0:0:
265,311,65717,1,0,0:0:0:0:
265,311,65809,1,0,0:0:0:0:
265,311,65901,1,8,0:0:0:0:
158,163,66085,1,0,0:0:0:0:
48,309,66269,5,2,0:0:0:0:
158,276,66453,1,2,0:0:0:0:
158,276,66545,1,0,0:0:0:0:
158,276,66637,1,8,0:0:0:0:
158,163,66821,5,2,0:0:0:0:
158,163,66913,1,0,0:0:0:0:
158,163,67005,1,8,0:0:0:0:
48,309,67189,1,0,0:0:0:0:
265,311,67373,2,0,L|391:302,1,90,10|0,0:0|0:0,0:0:0:0:
500,109,67742,5,6,0:0:0:0:
313,170,67926,1,0,0:0:0:0:
429,207,68110,5,8,0:0:0:0:
313,48,68294,1,0,0:0:0:0:
429,10,68478,5,2,0:0:0:0:
429,10,68570,1,0,0:0:0:0:
429,10,68662,1,0,0:0:0:0:
429,10,68754,1,0,0:0:0:0:
429,10,68846,1,8,0:0:0:0:
313,170,69030,1,0,0:0:0:0:
500,109,69214,5,2,0:0:0:0:
313,48,69398,1,2,0:0:0:0:
429,207,69582,1,8,0:0:0:0:
429,207,69766,1,2,0:0:0:0:
429,10,69950,1,2,0:0:0:0:
313,170,70134,1,2,0:0:0:0:
500,109,70318,1,8,0:0:0:0:
313,48,70502,1,0,0:0:0:0:
83,207,70686,5,6,0:0:0:0:
199,48,70870,1,0,0:0:0:0:
12,109,71054,5,8,0:0:0:0:
199,170,71238,1,0,0:0:0:0:
83,10,71422,5,2,0:0:0:0:
83,10,71515,1,0,0:0:0:0:
83,10,71607,1,0,0:0:0:0:
83,10,71699,1,0,0:0:0:0:
83,10,71791,1,8,0:0:0:0:
83,207,71975,1,0,0:0:0:0:
199,48,72159,5,6,0:0:0:0:
12,109,72343,1,2,0:0:0:0:
12,109,72435,1,0,0:0:0:0:
12,109,72527,1,8,0:0:0:0:
199,170,72711,1,2,0:0:0:0:
199,170,72803,1,0,0:0:0:0:
199,170,72895,1,8,0:0:0:0:
429,10,73079,1,0,0:0:0:0:
425,32,73171,1,0,0:0:0:0:
422,54,73263,1,0,0:0:0:0:
419,76,73355,1,0,0:0:0:0:
416,99,73447,1,0,0:0:0:0:
413,121,73539,1,0,0:0:0:0:
409,137,73631,6,0,B|404:153|404:153|408:169|408:169|403:182|403:182|407:192|407:192|400:203|400:203|406:222|406:222|399:258|399:258|386:281|414:318|383:336|343:342|309:336|289:326|251:306|230:262|259:215|285:163|338:178|333:243,1,472.500018024445,6|0,0:0|0:0,0:0:0:0:
488,137,75104,6,0,L|465:360,1,202.500007724762,2|0,0:0|0:0,0:0:0:0:
366,326,75840,2,0,P|325:318|237:364,1,135.000005149842
243,355,76392,1,0,0:0:0:0:
53,349,76576,6,0,B|58:333|58:333|54:317|54:317|59:304|59:304|55:294|55:294|62:283|62:283|56:264|56:264|63:228|63:228|76:205|48:168|79:150|119:144|153:150|173:160|211:180|232:224|203:271|177:323|124:308|129:243,1,472.500018024445,6|0,0:0|0:0,0:0:0:0:
1,144,78048,2,0,L|15:59,1,67.5000025749208,2|0,0:0|0:0,0:0:0:0:
12,78,78324,1,0,0:0:0:0:
12,78,78416,2,0,B|86:58|140:101|140:101|197:142|285:89,1,270.000010299683
343,102,79337,1,0,0:0:0:0:
343,102,79521,6,0,B|343:47|312:5|233:-12|151:55|196:144|196:144|227:210|279:189|275:324|275:324,1,472.500018024445,6|0,0:0|0:0,0:0:0:0:
343,102,80993,2,0,B|377:59|428:46|500:82|521:186|430:227|430:227|365:258|337:209|256:317|256:317,1,472.500018024445,6|0,0:0|0:0,0:0:0:0:
41,210,82465,6,0,P|49:112|193:30,1,270,6|0,0:0|0:0,0:0:0:0:
114,204,83202,2,0,P|133:117|233:125,1,202.500007724762,6|0,0:0|0:0,0:0:0:0:
180,173,83938,5,6,0:0:0:0:
180,173,84214,1,0,0:0:0:0:
180,173,84490,1,2,0:2:0:0:
287,123,84674,1,2,0:0:0:0:
287,123,84766,1,0,0:0:0:0:
287,123,84858,1,0,0:0:0:0:
315,238,85042,1,8,0:0:0:0:
341,217,85134,1,0,0:0:0:0:
373,207,85226,1,0,0:0:0:0:
406,205,85318,1,0,0:0:0:0:
449,216,85410,6,0,P|470:265|436:347,1,135,6|0,0:0|0:0,0:0:0:0:
301,316,85778,1,8,0:0:0:0:
256,306,85870,1,0,0:0:0:0:
211,310,85962,1,0,0:0:0:0:
169,327,86054,1,0,0:0:0:0:
127,345,86146,2,0,P|71:328|39:249,1,135,2|0,0:0|0:0,0:0:0:0:
61,102,86515,1,8,0:0:0:0:
101,82,86607,1,0,0:0:0:0:
145,81,86699,1,0,0:0:0:0:
186,100,86791,1,0,0:0:0:0:
214,135,86883,6,0,P|278:134|324:48,1,135,2|0,0:0|0:0,0:0:0:0:
360,59,87251,2,0,P|423:60|469:146,1,135,8|0,0:0|0:0,0:0:0:0:
495,187,87619,2,0,B|424:212|439:148|333:196,1,135,2|0,0:0|0:0,0:0:0:0:
373,338,87987,2,0,P|394:290|397:245,1,90,8|0,0:0|0:0,0:0:0:0:
214,135,88355,6,0,B|154:153|102:136|102:136|130:181,1,135,2|0,0:0|0:0,0:0:0:0:
278,225,88723,1,8,0:0:0:0:
307,191,88815,1,0,0:0:0:0:
321,148,88907,1,0,0:0:0:0:
317,104,88999,1,0,0:0:0:0:
299,63,89091,2,0,P|255:40|169:89,1,135,2|0,0:0|0:0,0:0:0:0:
113,154,89459,1,8,0:0:0:0:
122,198,89551,1,0,0:0:0:0:
131,241,89643,1,0,0:0:0:0:
140,284,89735,1,0,0:0:0:0:
147,328,89827,6,0,P|224:308|258:244,1,135,2|0,0:0|0:0,0:0:0:0:
242,169,90196,2,0,P|306:179|345:232,1,135,8|0,0:0|0:0,0:0:0:0:
400,370,90564,2,0,P|341:334|352:226,1,180,2|8,0:0|0:0,0:0:0:0:
411,286,91116,1,0,0:0:0:0:
272,374,91300,5,2,0:0:0:0:
230,357,91392,1,0,0:0:0:0:
186,348,91484,1,0,0:0:0:0:
141,346,91576,1,0,0:0:0:0:
98,358,91668,5,8,0:0:0:0:
64,328,91760,1,0,0:0:0:0:
48,286,91852,1,0,0:0:0:0:
51,242,91944,1,0,0:0:0:0:
77,206,92036,5,2,0:0:0:0:
96,187,92128,1,0,0:0:0:0:
112,165,92220,1,0,0:0:0:0:
123,141,92312,1,0,0:0:0:0:
129,114,92404,5,8,0:0:0:0:
128,92,92496,1,0,0:0:0:0:
122,70,92588,1,0,0:0:0:0:
111,51,92680,1,0,0:0:0:0:
96,34,92772,5,2,0:0:0:0:
85,42,92864,1,0,0:0:0:0:
76,52,92956,1,0,0:0:0:0:
68,63,93048,1,0,0:0:0:0:
62,75,93140,5,8,0:0:0:0:
58,88,93232,1,0,0:0:0:0:
57,101,93324,1,0,0:0:0:0:
57,115,93416,1,0,0:0:0:0:
60,128,93508,5,2,0:0:0:0:
75,150,93600,1,0,0:0:0:0:
96,166,93692,1,0,0:0:0:0:
122,174,93784,1,0,0:0:0:0:
149,172,93877,5,8,0:0:0:0:
178,160,93969,1,0,0:0:0:0:
209,153,94061,1,0,0:0:0:0:
240,152,94153,1,0,0:0:0:0:
271,156,94245,5,2,0:0:0:0:
307,161,94337,1,0,0:0:0:0:
342,156,94429,1,0,0:0:0:0:
374,139,94521,1,0,0:0:0:0:
399,114,94613,5,8,0:0:0:0:
416,82,94705,1,0,0:0:0:0:
422,47,94797,1,0,0:0:0:0:
417,11,94889,1,0,0:0:0:0:
373,20,94981,5,2,0:0:0:0:
360,63,95073,1,0,0:0:0:0:
356,107,95165,1,0,0:0:0:0:
362,152,95257,1,0,0:0:0:0:
377,194,95349,1,8,0:0:0:0:
400,232,95441,1,0,0:0:0:0:
431,265,95533,1,0,0:0:0:0:
468,290,95625,1,0,0:0:0:0:
479,247,95717,5,2,0:0:0:0:
443,206,95809,1,0,0:0:0:0:
397,178,95901,1,0,0:0:0:0:
345,165,95993,1,0,0:0:0:0:
291,167,96085,1,8,0:0:0:0:
241,186,96177,1,0,0:0:0:0:
198,219,96269,1,0,0:0:0:0:
167,263,96361,1,0,0:0:0:0:
151,314,96453,5,2,0:0:0:0:
207,278,96545,1,0,0:0:0:0:
239,219,96637,1,0,0:0:0:0:
239,152,96729,1,0,0:0:0:0:
206,94,96821,2,0,P|152:78|94:93,1,90,10|0,0:0|0:0,0:0:0:0:
25,278,97189,6,4,P|104:274|130:123,1,215.999993408203,4|2,0:0|0:0,0:0:0:0:
62,190,97742,1,0,0:0:0:0:
220,252,97926,2,0,L|347:252,1,107.999996704102,8|0,0:0|0:0,0:0:0:0:
481,153,98294,2,0,L|373:153,1,107.999996704102,2|0,0:0|0:0,0:0:0:0:
327,251,98662,6,4,P|353:350|454:370,1,215.999993408203,4|2,0:0|0:0,0:0:0:0:
417,282,99215,1,0,0:0:0:0:
259,344,99399,2,0,L|132:344,1,107.999996704102,8|0,0:0|0:0,0:0:0:0:
0,245,99767,2,0,L|108:245,1,107.999996704102,2|0,0:0|0:0,0:0:0:0:
327,251,100134,5,4,0:0:0:0:
259,344,100318,1,2,0:0:0:0:
259,344,100410,1,0,0:0:0:0:
259,344,100502,1,8,0:0:0:0:
108,245,100686,1,0,0:0:0:0:
206,77,100870,2,0,P|220:141|208:184,1,107.999996704102,2|0,0:0|0:0,0:0:0:0:
108,245,101238,2,0,L|108:112,1,107.999996704102,8|0,0:0|0:0,0:0:0:0:
7,79,101607,6,0,P|-7:130|3:182,1,107.999996704102,6|0,0:0|0:0,0:0:0:0:
3,183,101883,1,0,0:0:0:0:
3,183,101975,1,8,0:0:0:0:
108,137,102159,1,0,0:0:0:0:
200,266,102343,1,2,0:0:0:0:
304,219,102527,1,0,0:0:0:0:
304,219,102619,1,0,0:0:0:0:
304,219,102711,1,8,0:0:0:0:
408,341,102895,1,0,0:0:0:0:
461,97,103079,6,0,P|485:173|467:251,1,161.999995056153,6|0,0:0|0:0,0:0:0:0:
365,128,103447,2,0,P|363:64|412:10,1,107.999996704102,8|0,0:0|0:0,0:0:0:0:
304,219,103815,2,0,P|217:230|148:110,1,215.999993408203,2|8,0:0|0:0,0:0:0:0:
206,45,104367,1,0,0:0:0:0:
49,167,104551,6,0,P|24:90|43:13,1,161.999995056153,6|0,0:0|0:0,0:0:0:0:
145,136,104919,2,0,P|147:200|98:254,1,107.999996704102,8|0,0:0|0:0,0:0:0:0:
206,45,105287,2,0,P|293:34|362:154,1,215.999993408203,2|8,0:0|0:0,0:0:0:0:
304,219,105840,1,0,0:0:0:0:
163,325,106024,6,0,L|31:325,1,107.999996704102,6|0,0:0|0:0,0:0:0:0:
55,325,106300,1,0,0:0:0:0:
55,325,106392,1,8,0:0:0:0:
145,136,106576,1,0,0:0:0:0:
304,219,106760,2,0,P|322:290|308:336,1,107.999996704102,2|0,0:0|0:0,0:0:0:0:
314,322,107036,1,0,0:0:0:0:
314,322,107128,1,8,0:0:0:0:
124,235,107312,1,0,0:0:0:0:
242,127,107496,5,2,0:0:0:0:
292,110,107588,1,0,0:0:0:0:
345,118,107680,1,0,0:0:0:0:
388,150,107772,1,0,0:0:0:0:
411,199,107864,2,0,L|411:264,3,53.9999983520508,8|0|0|0,0:0|0:0|0:0|0:0,0:0:0:0:
411,199,108232,5,2,0:0:0:0:
411,199,108600,1,2,0:0:0:0:
411,199,108969,6,0,L|411:19,1,180,6|0,0:0|0:0,0:0:0:0:
249,146,109245,1,0,0:0:0:0:
249,146,109337,2,0,P|322:78|250:33,1,180,8|0,0:0|0:0,0:0:0:0:
156,100,109613,1,0,0:0:0:0:
156,100,109705,2,0,P|171:214|284:245,1,180,2|0,0:0|0:0,0:0:0:0:
249,146,109981,1,0,0:0:0:0:
211,40,110073,2,0,P|168:19|97:42,1,90,8|0,0:0|0:0,0:0:0:0:
72,117,110257,2,0,P|115:96|186:119,1,90
154,186,110441,6,0,L|57:264,1,90,2|0,0:0|0:0,0:0:0:0:
199,277,110625,2,0,L|218:400,1,90
301,283,110809,2,0,L|417:328,1,90,8|0,0:0|0:0,0:0:0:0:
358,197,110993,2,0,L|455:120,1,90
284,92,111177,1,2,0:0:0:0:
211,40,111269,1,0,0:0:0:0:
123,44,111361,1,8,0:0:0:0:
55,100,111453,1,0,0:0:0:0:
35,186,111545,2,0,P|48:288|174:328,1,180,8|0,0:0|0:0,0:0:0:0:
199,277,111821,1,0,0:0:0:0:
199,277,111913,6,0,B|327:259|327:259|378:305,1,180,6|0,0:0|0:0,0:0:0:0:
282,183,112189,1,0,0:0:0:0:
282,183,112281,6,0,B|154:201|154:201|103:155,1,180,8|0,0:0|0:0,0:0:0:0:
55,100,112558,1,0,0:0:0:0:
123,44,112650,2,0,L|234:38,1,90,2|0,0:0|0:0,0:0:0:0:
373,96,112834,2,0,L|262:90,1,90
116,167,113018,2,0,L|205:154,1,90,8|0,0:0|0:0,0:0:0:0:
371,187,113202,2,0,L|260:181,1,90
116,167,113386,6,0,P|140:78|264:45,1,180,2|0,0:0|0:0,0:0:0:0:
283,91,113662,1,0,0:0:0:0:
335,17,113754,2,0,P|369:69|349:163,1,90,8|0,0:0|0:0,0:0:0:0:
231,166,113938,2,0,P|197:114|217:20,1,90
489,65,114122,1,2,0:0:0:0:
482,152,114214,1,0,0:0:0:0:
417,211,114306,1,8,0:0:0:0:
329,210,114398,1,0,0:0:0:0:
231,166,114490,2,0,P|197:218|217:312,1,90,8|0,0:0|0:0,0:0:0:0:
325,359,114674,2,0,P|314:315|287:280,1,90
66,358,114858,6,0,B|165:393|134:310|285:363,1,180,6|0,0:0|0:0,0:0:0:0:
325,359,115134,1,0,0:0:0:0:
414,356,115226,2,0,P|427:312|418:251,1,90,8|0,0:0|0:0,0:0:0:0:
503,226,115410,2,0,P|471:192|414:170,1,90
287,280,115594,2,0,P|364:323|401:196,1,180,2|0,0:0|0:0,0:0:0:0:
432,173,115870,1,0,0:0:0:0:
339,117,115962,2,0,P|325:163|354:256,1,90,8|0,0:0|0:0,0:0:0:0:
500,89,116146,2,0,P|502:44|488:1,1,90
321,11,116331,6,0,L|201:29,1,90,2|0,0:0|0:0,0:0:0:0:
131,45,116515,2,0,L|87:158,1,90
66,226,116699,2,0,L|142:321,1,90,8|0,0:0|0:0,0:0:0:0:
191,372,116883,2,0,L|311:354,1,90
375,342,117067,1,10,0:0:0:0:
420,265,117159,1,0,0:0:0:0:
426,176,117251,1,8,0:0:0:0:
389,95,117343,1,0,0:0:0:0:
319,40,117435,1,8,0:0:0:0:
231,24,117527,1,0,0:0:0:0:
146,50,117619,1,8,0:0:0:0:
83,113,117711,1,0,0:0:0:0:
72,202,117803,6,0,P|157:265|247:220,1,180,6|0,0:0|0:0,0:0:0:0:
286,184,118079,1,0,0:0:0:0:
227,114,118171,2,0,P|187:134|163:172,1,90,8|0,0:0|0:0,0:0:0:0:
136,262,118355,2,0,P|133:306|153:346,1,90
402,309,118539,2,0,B|363:269|363:269|240:283,1,180,2|0,0:0|0:0,0:0:0:0:
331,364,118815,1,0,0:0:0:0:
402,309,118907,2,0,P|422:269|419:224,1,90,8|0,0:0|0:0,0:0:0:0:
378,144,119091,2,0,P|353:106|313:86,1,90
227,114,119275,6,0,P|187:134|163:172,3,90,2|0|8|0,0:0|0:0|0:0|0:0,0:0:0:0:
98,108,119643,2,0,P|73:145|70:189,3,90,8|0|8|0,0:0|0:0|0:0|0:0,0:0:0:0:
136,262,120011,1,2,0:0:0:0:
136,262,120380,1,2,0:0:0:0:
136,262,120748,6,0,L|329:245,1,180,6|0,0:0|0:0,0:0:0:0:
404,237,121024,1,0,0:0:0:0:
493,227,121116,2,0,L|500:316,1,90,8|0,0:0|0:0,0:0:0:0:
404,237,121300,2,0,L|396:147,1,90
388,57,121484,2,0,B|337:26|275:42|275:42|274:84|237:101,1,180,2|0,0:0|0:0,0:0:0:0:
184,30,121760,1,0,0:0:0:0:
124,98,121852,2,0,P|80:99|36:88,1,90,8|0,0:0|0:0,0:0:0:0:
188,160,122036,2,0,P|168:199|136:231,1,90
16,356,122220,6,0,P|31:314|61:281,1,90,2|0,0:0|0:0,0:0:0:0:
136,231,122404,2,0,P|179:222|223:231,1,90
315,246,122588,2,0,P|344:280|358:322,1,90,8|0,0:0|0:0,0:0:0:0:
225,384,122772,2,0,P|195:349|181:307,1,90
136,231,122956,1,2,0:0:0:0:
153,143,123048,1,0,0:0:0:0:
209,74,123140,1,8,0:0:0:0:
292,40,123232,1,0,0:0:0:0:
379,60,123324,2,0,B|373:121|373:121|404:179|404:179|390:312,1,180,8|0,0:0|0:0,0:0:0:0:
315,246,123600,1,0,0:0:0:0:
315,246,123692,6,0,P|203:242|124:228,1,180,2|0,0:0|0:0,0:0:0:0:
153,143,123969,1,0,0:0:0:0:
46,183,124061,2,0,P|45:276|65:305,1,90,8|0,0:0|0:0,0:0:0:0:
139,318,124245,2,0,P|146:273|135:230,1,90
122,60,124429,6,0,P|130:104|153:143,1,90,2|0,0:0|0:0,0:0:0:0:
136,230,124613,2,0,P|178:245|222:245,1,90
267,323,124797,2,0,P|301:294|323:255,1,90,8|0,0:0|0:0,0:0:0:0:
307,91,124981,2,0,P|272:119|250:158,1,90
323,255,125165,6,0,B|393:255|393:255|436:227|436:227|494:227,1,180,2|0,0:0|0:0,0:0:0:0:
460,310,125441,1,0,0:0:0:0:
365,175,125533,2,0,L|366:79,1,90,8|0,0:0|0:0,0:0:0:0:
451,57,125717,2,0,L|450:153,1,90
494,227,125901,1,2,0:0:0:0:
459,308,125993,1,0,0:0:0:0:
384,356,126085,1,8,0:0:0:0:
296,354,126177,1,0,0:0:0:0:
224,301,126269,2,0,P|183:274|106:282,1,90,8|0,0:0|0:0,0:0:0:0:
47,213,126453,2,0,P|91:206|128:181,1,90,8|0,0:0|0:0,0:0:0:0:
112,37,126637,6,0,P|34:50|60:125,1,180,2|0,0:0|0:0,0:0:0:0:
128,181,126913,1,0,0:0:0:0:
201,129,127005,2,0,P|218:85|216:11,1,90,8|0,0:0|0:0,0:0:0:0:
330,94,127189,2,0,P|324:50|305:10,1,90
201,129,127373,6,0,P|194:225|229:309,1,180,2|0,0:0|0:0,0:0:0:0:
296,354,127650,1,0,0:0:0:0:
318,266,127742,2,0,P|367:248|432:250,1,90,8|0,0:0|0:0,0:0:0:0:
450,146,127926,2,0,P|408:129|363:125,1,90
201,129,128110,6,0,L|121:186,1,90,2|0,0:0|0:0,0:0:0:0:
154,284,128294,2,0,L|184:377,1,90
288,379,128478,2,0,L|386:379,1,90,8|0,0:0|0:0,0:0:0:0:
417,279,128662,2,0,L|447:185,1,90
363,125,128846,2,0,L|283:67,3,90,2|0|0|0,0:0|0:0|0:0|0:0,0:0:0:0:
444,193,129214,2,0,L|417:279,1,90,8|0,0:0|0:0,0:0:0:0:
378,379,129398,2,0,L|288:379,1,90
181,369,129582,6,0,L|125:197,1,180,2|0,0:0|0:0,0:0:0:0:
98,112,129858,1,0,0:0:0:0:
166,54,129950,2,0,P|186:114|172:165,1,90,8|0,0:0|0:0,0:0:0:0:
30,169,130134,2,0,P|9:108|23:57,1,90
273,64,130318,6,0,L|328:235,1,180,2|0,0:0|0:0,0:0:0:0:
356,321,130594,1,0,0:0:0:0:
288,379,130686,2,0,P|267:318|281:267,1,90,8|0,0:0|0:0,0:0:0:0:
424,264,130870,2,0,P|444:324|430:375,1,90
183,139,131054,5,2,0:0:0:0:
244,75,131146,1,0,0:0:0:0:
331,58,131238,1,8,0:0:0:0:
411,95,131330,1,0,0:0:0:0:
456,172,131423,1,8,0:0:0:0:
369,188,131515,1,0,0:0:0:0:
288,151,131607,1,8,0:0:0:0:
244,74,131699,1,0,0:0:0:0:
193,0,131791,2,0,P|143:-5|89:8,3,90,2|0|8|0,0:0|0:0|0:0|0:0,0:0:0:0:
12,83,132159,2,0,P|56:88|100:80,3,90,8|0|8|0,0:0|0:0|0:0|0:0,0:0:0:0:
100,80,132527,6,0,L|86:295,1,161.999995056153,2|0,0:0|0:0,0:0:0:0:
178,106,132803,1,0,0:0:0:0:
178,106,132895,2,0,L|164:321,1,161.999995056153,8|0,0:0|0:0,0:0:0:0:
181,347,133171,1,0,0:0:0:0:
181,347,133263,2,0,P|262:378|342:319,1,161.999995056153,2|0,0:0|0:0,0:0:0:0:
344,267,133539,1,0,0:0:0:0:
344,267,133631,2,0,L|334:106,1,161.999995056153,8|0,0:0|0:0,0:0:0:0:
422,241,133907,1,0,0:0:0:0:
422,241,133999,6,0,L|414:125,1,80.9999975280763,2|0,0:0|0:0,0:0:0:0:
334,105,134183,2,0,L|341:220,1,80.9999975280763
416,160,134367,6,0,L|408:44,1,80.9999975280763,8|0,0:0|0:0,0:0:0:0:
339,185,134551,2,0,L|346:300,1,80.9999975280763
416,160,134735,2,0,P|353:104|268:224,1,242.999992584229,2|0,0:0|0:0,0:0:0:0:
258,196,135104,2,0,P|201:113|115:163,1,161.999995056153,8|0,0:0|0:0,0:0:0:0:
41,226,135380,1,0,0:0:0:0:
40,225,135472,6,0,B|155:225|155:225|184:188,1,161.999995056153,6|0,0:0|0:0,0:0:0:0:
164,301,135748,1,0,0:0:0:0:
164,301,135840,6,0,B|49:301|49:301|20:338,1,161.999995056153,8|0,0:0|0:0,0:0:0:0:
256,376,136116,1,0,0:0:0:0:
256,376,136208,2,0,L|461:376,1,161.999995056153,2|0,0:0|0:0,0:0:0:0:
491,295,136484,1,0,0:0:0:0:
491,295,136576,2,0,L|410:295,1,80.9999975280763,8|0,0:0|0:0,0:0:0:0:
329,297,136760,2,0,L|248:297,1,80.9999975280763
164,301,136944,6,0,P|125:267|112:214,1,80.9999975280763,2|0,0:0|0:0,0:0:0:0:
155,171,137128,2,0,P|194:205|207:258,1,80.9999975280763
329,297,137312,6,0,P|368:263|381:210,1,80.9999975280763,8|0,0:0|0:0,0:0:0:0:
338,167,137496,2,0,P|299:201|286:254,1,80.9999975280763
448,171,137680,2,0,P|397:76|228:134,1,242.999992584229,2|0,0:0|0:0,0:0:0:0:
273,75,138048,2,0,P|173:45|70:78,1,161.999995056153,8|0,0:0|0:0,0:0:0:0:
0,149,138324,1,0,0:0:0:0:
0,149,138416,6,0,P|100:179|203:146,1,161.999995056153,2|0,0:0|0:0,0:0:0:0:
194,99,138692,1,0,0:0:0:0:
273,75,138785,2,0,P|283:134|268:183,1,80.9999975280763,8|0,0:0|0:0,0:0:0:0:
360,158,138969,2,0,P|356:117|366:78,1,80.9999975280763
439,43,139153,2,0,P|452:122|443:202,1,161.999995056153,2|0,0:0|0:0,0:0:0:0:
424,281,139429,1,0,0:0:0:0:
353,241,139521,2,0,P|274:256|301:341,1,161.999995056153,8|0,0:0|0:0,0:0:0:0:
331,384,139797,1,0,0:0:0:0:
277,323,139889,6,0,P|221:291|171:293,1,80.9999975280763,2|0,0:0|0:0,0:0:0:0:
129,263,140073,2,0,P|63:262|21:289,1,80.9999975280763
243,127,140257,6,0,P|203:122|165:133,1,80.9999975280763,8|0,0:0|0:0,0:0:0:0:
84,148,140441,2,0,P|47:164|19:193,1,80.9999975280763
277,220,140625,1,2,0:0:0:0:
334,165,140717,1,0,0:0:0:0:
332,87,140809,1,8,0:0:0:0:
273,35,140901,1,0,0:0:0:0:
194,18,140993,2,0,L|106:18,3,80.9999975280763,8|0|8|0,0:0|0:0|0:0|0:0,0:0:0:0:
49,67,141361,6,0,P|31:153|85:296,1,242.999992584229,2|0,0:0|0:0,0:0:0:0:
150,340,141729,1,8,0:0:0:0:
150,340,141821,2,0,L|245:336,1,80.9999975280763
311,334,142005,1,0,0:0:0:0:
311,334,142097,2,0,B|411:309|357:379|505:326,1,161.999995056153,2|0,0:0|0:0,0:0:0:0:
422,271,142373,1,0,0:0:0:0:
422,271,142465,2,0,P|414:227|432:184,1,80.9999975280763,8|0,0:0|0:0,0:0:0:0:
448,114,142650,2,0,P|459:75|451:36,1,80.9999975280763
367,69,142834,6,0,L|286:57,1,80.9999975280763,2|0,0:0|0:0,0:0:0:0:
167,34,143018,2,0,L|131:106,1,80.9999975280763
73,213,143202,2,0,L|131:269,1,80.9999975280763,8|0,0:0|0:0,0:0:0:0:
215,358,143386,2,0,L|286:319,1,80.9999975280763
396,268,143570,2,0,L|381:188,1,80.9999975280763,2|0,0:0|0:0,0:0:0:0:
167,34,143754,2,0,L|131:106,1,80.9999975280763
215,358,143938,2,0,L|286:319,1,80.9999975280763,8|0,0:0|0:0,0:0:0:0:
367,69,144122,2,0,L|286:57,1,80.9999975280763
73,213,144306,5,2,0:0:0:0:
143,253,144398,1,0,0:0:0:0:
222,239,144490,1,8,0:0:0:0:
274,177,144582,1,0,0:0:0:0:
274,96,144674,1,8,0:0:0:0:
222,34,144766,1,0,0:0:0:0:
143,20,144858,1,8,0:0:0:0:
73,60,144950,1,0,0:0:0:0:
45,136,145042,5,10,0:0:0:0:
73,213,145134,1,0,0:0:0:0:
143,253,145226,1,8,0:0:0:0:
222,239,145318,1,0,0:0:0:0:
274,177,145410,2,0,L|274:81,3,80.9999975280763,8|0|8|0,0:0|0:0|0:0|0:0,0:0:0:0:
274,177,145778,5,6,0:0:0:0:
