osu file format v14

[General]
AudioFilename: The Other side of sorrow piano version.mp3
AudioLeadIn: 0
PreviewTime: 51959
Countdown: 0
SampleSet: Soft
StackLeniency: 0.7
Mode: 2
LetterboxInBreaks: 0
WidescreenStoryboard: 0

[Editor]
DistanceSpacing: 1.2
BeatDivisor: 2
GridSize: 4
TimelineZoom: 1

[Metadata]
Title:Kanashimi no Mukougawa (Piano Version)
TitleUnicode:悲しみの向こう側 (Piano Version)
Artist:Bitter Sweet Entertainment
ArtistUnicode:Bitter Sweet Entertainment
Creator:JBHyperion
Version:Salad
Source:永恆的賽妮亞
Tags:悲傷的另一面 The Other Side of Sorrow Eternal Senia Holy Priest Sis Magaleta Sacred Sanctum Fallen rpg arpg sister piano score magic bomb mbomb RPGツクール - 音素材集 vol.00 -
BeatmapID:937657
BeatmapSetID:435287

[Difficulty]
HPDrainRate:4
CircleSize:4
OverallDifficulty:6.4
ApproachRate:6.4
SliderMultiplier:1.2
SliderTickRate:1

[Events]
//Background and Video events
0,0,"SeniaMagaleta.jpg",0,0
//Break Periods
//Storyboard Layer 0 (Background)
//Storyboard Layer 1 (Fail)
//Storyboard Layer 2 (Pass)
//Storyboard Layer 3 (Foreground)
//Storyboard Sound Samples

[TimingPoints]
68,405.405405405405,4,2,1,45,1,0
13040,-100,4,2,1,55,0,0
24392,-100,4,2,1,65,0,0
45676,-100,4,2,1,50,0,0
50338,-100,4,2,1,57,0,0
51959,-100,4,2,1,65,0,1
58446,-100,4,2,1,57,0,1
64932,-100,4,2,1,65,0,0
65135,-100,4,2,1,50,0,0
71419,422.535211267606,4,2,1,40,1,0
73954,437.956204379562,4,2,1,40,1,0
74829,434.782608695652,4,2,1,40,1,0
75698,441.176470588235,4,2,1,40,1,0
76580,468.75,4,2,1,50,1,0
78220,500,4,2,1,45,1,0
78595,750,4,2,1,45,1,0
78970,-100,4,2,1,40,0,0
79345,-100,4,2,1,35,0,0
79720,-100,4,2,1,30,0,0
80095,-100,4,2,1,25,0,0
80470,-100,4,2,1,20,0,0
80845,-100,4,2,1,15,0,0
81220,-100,4,2,1,10,0,0
81595,-100,4,2,1,5,0,0

[Colours]
Combo1 : 255,200,80
Combo2 : 115,115,185
Combo3 : 255,70,70
Combo4 : 200,125,100

[HitObjects]
424,144,68,6,0,L|301:117,1,120,2|0,0:0|0:0,0:0:0:0:
449,233,878,2,0,L|513:253,2,60
389,233,1486,1,0,0:0:0:0:
297,237,1689,6,0,P|243:229|209:169,1,120,2|0,0:0|0:0,0:0:0:0:
353,69,2500,2,0,P|395:82|433:148,1,120
204,144,3311,5,2,0:0:0:0:
373,189,3716,2,0,P|428:200|484:248,2,120
144,192,4932,6,0,P|88:224|64:272,1,120,2|0,0:0|0:0,0:0:0:0:
244,268,5743,2,0,L|298:240,1,60,8|0,0:0|0:0,0:0:0:0:
208,192,6149,2,0,L|144:192,1,60
240,192,6554,6,0,P|296:172|340:116,1,120,2|0,0:0|0:0,0:0:0:0:
192,96,7365,2,0,L|124:96,1,60
252,96,7973,1,0,0:0:0:0:
160,96,8176,6,0,P|120:128|160:168,1,120,2|0,0:0|0:0,0:0:0:0:
304,168,8986,2,0,P|360:188|388:248,1,120
316,240,9595,1,0,0:0:0:0:
228,240,9797,6,0,L|99:230,1,120,2|0,0:0|0:0,0:0:0:0:
252,352,10608,2,0,L|344:268,1,120
100,248,11419,5,2,0:0:0:0:
220,248,11824,2,0,L|278:208,1,60
180,176,12230,2,0,L|119:137,2,60,8|0|0,0:0|0:0|0:0,0:0:0:0:
252,176,12838,1,0,0:0:0:0:
408,176,13040,6,0,P|466:201|500:260,1,120,2|0,0:0|0:0,0:0:0:0:
316,284,13851,2,0,L|297:223,1,60
444,284,14459,1,0,0:0:0:0:
348,284,14662,6,0,L|210:267,1,120,2|0,0:0|0:0,0:0:0:0:
84,192,15473,2,0,L|24:192,2,60
156,192,16081,1,0,0:0:0:0:
252,192,16284,5,2,0:0:0:0:
108,108,16689,2,0,P|143:66|218:42,2,120
372,104,17905,5,2,0:0:0:0:
228,192,18311,2,0,L|164:232,1,60
260,272,18716,2,0,L|324:272,2,60,8|0|0,0:0|0:0|0:0,0:0:0:0:
176,272,19324,1,0,0:0:0:0:
332,344,19527,6,0,P|380:320|396:256,1,120,2|0,0:0|0:0,0:0:0:0:
324,256,20135,1,0,0:0:0:0:
228,256,20338,2,0,L|168:256,1,60,8|0,0:0|0:0,0:0:0:0:
312,256,20946,1,0,0:0:0:0:
204,256,21149,6,0,P|150:270|108:320,1,120,2|0,0:0|0:0,0:0:0:0:
180,348,21757,1,0,0:0:0:0:
288,344,21960,2,0,L|356:344,1,60,8|0,0:0|0:0,0:0:0:0:
204,260,22567,1,0,0:0:0:0:
356,256,22770,6,0,P|409:242|456:192,1,120,2|0,0:0|0:0,0:0:0:0:
308,192,23581,2,0,L|236:192,2,60,8|0|0,0:0|0:0|0:0,0:0:0:0:
368,192,24189,1,0,0:0:0:0:
236,124,24392,5,2,0:0:0:0:
404,64,24797,2,0,L|468:64,1,60
308,124,25203,2,0,L|244:124,2,60,8|0|0,0:0|0:0|0:0,0:0:0:0:
368,124,25811,1,0,0:0:0:0:
200,124,26013,6,0,P|144:132|136:196,1,120,4|0,0:0|0:0,0:0:0:0:
200,188,26622,1,0,0:0:0:0:
296,188,26824,2,0,L|356:188,1,60
212,188,27432,1,0,0:0:0:0:
116,188,27635,6,0,P|64:204|36:264,1,120,2|0,0:0|0:0,0:0:0:0:
112,260,28243,2,0,P|165:252|216:200,1,120
124,140,29054,1,0,0:0:0:0:
220,140,29257,6,0,P|276:184|268:248,1,120,2|0,0:0|0:0,0:0:0:0:
208,296,29865,2,0,P|260:324|340:308,1,120
480,192,30676,1,0,0:0:0:0:
312,192,30878,6,0,L|248:192,2,60,2|0|0,0:0|0:0|0:0,0:0:0:0:
384,192,31486,1,0,0:0:0:0:
276,120,31689,2,0,L|204:120,1,60,8|0,0:0|0:0,0:0:0:0:
108,120,32095,1,0,0:0:0:0:
192,120,32297,1,0,0:0:0:0:
348,120,32500,6,0,P|428:144|456:168,1,120,2|0,0:0|0:0,0:0:0:0:
384,212,33108,1,0,0:0:0:0:
276,212,33311,2,0,L|212:212,1,60
360,212,33919,1,0,0:0:0:0:
252,212,34122,6,0,P|196:200|156:148,1,120,2|0,0:0|0:0,0:0:0:0:
228,152,34730,1,0,0:0:0:0:
336,152,34932,2,0,P|367:157|400:172,1,60
236,232,35540,1,0,0:0:0:0:
388,232,35743,5,2,0:0:0:0:
220,232,36149,2,0,P|170:208|148:144,2,120
484,192,37365,6,0,L|408:192,1,60,2|0,0:0|0:0,0:0:0:0:
332,136,37770,2,0,L|264:136,1,60
424,256,38176,2,0,L|496:256,2,60,8|0|0,0:0|0:0|0:0,0:0:0:0:
332,256,38784,1,0,0:0:0:0:
164,256,38986,6,0,P|104:240|68:196,1,120,2|0,0:0|0:0,0:0:0:0:
260,192,39797,2,0,L|320:156,1,60
156,160,40405,1,0,0:0:0:0:
264,160,40608,6,0,P|320:176|364:240,1,120,2|0,0:0|0:0,0:0:0:0:
280,224,41216,1,0,0:0:0:0:
172,224,41419,2,0,L|94:223,1,60
268,224,42027,1,0,0:0:0:0:
116,224,42230,6,0,P|60:244|32:312,1,120,2|0,0:0|0:0,0:0:0:0:
188,296,43040,2,0,L|256:296,2,60
108,296,43649,1,0,0:0:0:0:
264,296,43851,5,2,0:0:0:0:
420,296,44257,2,0,L|368:248,1,60
238,192,44662,2,0,L|298:192,1,60,8|0,0:0|0:0,0:0:0:0:
376,116,45067,2,0,L|316:116,1,60
140,116,45473,5,2,0:0:0:0:
292,192,45878,2,0,L|312:272,1,60
192,248,46284,2,0,L|180:328,1,60
280,304,46892,1,0,0:0:0:0:
176,192,47094,5,2,0:0:0:0:
340,192,47500,2,0,L|365:114,1,60
256,132,47905,2,0,L|208:92,2,60
172,136,48513,1,0,0:0:0:0:
328,132,48716,5,2,0:0:0:0:
148,136,49122,2,0,P|96:154|72:224,2,120
228,136,50135,1,0,0:0:0:0:
72,136,50338,5,2,0:0:0:0:
264,136,50743,2,0,L|336:136,1,60
228,136,51149,1,8,0:0:0:0:
312,136,51351,1,0,0:0:0:0:
204,136,51554,2,0,L|132:136,1,60
324,228,51959,5,4,0:0:0:0:
204,136,52365,2,0,L|168:84,1,60
288,136,52770,2,0,L|343:104,1,60,8|0,0:0|0:0,0:0:0:0:
148,136,53379,1,0,0:0:0:0:
300,136,53581,5,2,0:0:0:0:
464,192,53987,2,0,L|408:224,1,60
304,221,54392,2,0,L|240:221,2,60,8|0|0,0:0|0:0|0:0,0:0:0:0:
384,220,55000,1,0,0:0:0:0:
232,220,55203,6,0,L|120:264,1,120,2|0,0:0|0:0,0:0:0:0:
288,264,56013,2,0,L|348:307,2,60,8|0|0,0:0|0:0|0:0,0:0:0:0:
208,264,56622,1,0,0:0:0:0:
376,264,56824,6,0,L|404:202,3,60,2|0|0|0,0:0|0:0|0:0|0:0,0:0:0:0:
292,264,57635,2,0,L|220:264,2,60,8|0|0,0:0|0:0|0:0,0:0:0:0:
352,264,58243,1,0,0:0:0:0:
192,264,58446,5,4,0:0:0:0:
312,192,58852,2,0,L|376:192,1,60
264,136,59257,2,0,L|248:72,1,60,8|0,0:0|0:0,0:0:0:0:
104,76,59865,1,0,0:0:0:0:
249,77,60067,5,2,0:0:0:0:
57,193,60473,2,0,L|41:253,1,60
149,249,60878,2,0,L|193:305,1,60,8|0,0:0|0:0,0:0:0:0:
341,297,61486,1,0,0:0:0:0:
192,296,61689,5,2,0:0:0:0:
294,295,62095,2,0,L|224:272,1,60
348,296,62500,2,0,L|424:296,2,60,8|0|0,0:0|0:0|0:0,0:0:0:0:
268,296,63108,1,0,0:0:0:0:
100,248,63311,6,0,L|36:248,1,60,2|0,0:0|0:0,0:0:0:0:
124,184,63716,2,0,L|76:147,1,60
240,184,64122,2,0,L|300:184,2,60,8|0|0,0:0|0:0|0:0,0:0:0:0:
160,184,64730,1,0,0:0:0:0:
340,184,64932,5,4,0:0:0:0:
484,184,65338,1,0,0:0:0:0:
316,260,65743,2,0,L|256:260,1,60
112,260,66351,1,0,0:0:0:0:
208,260,66554,6,0,P|261:270|312:316,1,120,2|0,0:0|0:0,0:0:0:0:
140,352,67365,2,0,L|76:352,1,60
224,256,67973,1,0,0:0:0:0:
320,252,68176,6,0,P|372:238|420:188,1,120,2|0,0:0|0:0,0:0:0:0:
208,152,68986,2,0,L|144:190,2,60
292,148,69595,1,0,0:0:0:0:
448,148,69797,6,0,P|488:192|500:256,1,120,2|0,0:0|0:0,0:0:0:0:
332,292,70608,2,0,L|272:272,1,60,8|0,0:0|0:0,0:0:0:0:
360,212,71014,2,0,L|396:148,1,60
228,156,71419,5,2,0:0:0:0:
84,156,71841,1,0,0:0:0:0:
252,240,72264,2,0,L|315:240,1,60
192,240,72897,1,0,0:0:0:0:
292,144,73109,6,0,P|356:152|404:212,1,120,2|0,0:0|0:0,0:0:0:0:
240,296,73954,2,0,L|108:292,1,120
48,292,74610,1,0,0:0:0:0:
188,192,74829,6,0,P|244:168|272:104,1,120,2|0,0:0|0:0,0:0:0:0:
412,228,75698,2,0,P|431:273|500:308,1,120
396,308,76359,1,0,0:0:0:0:
208,308,76580,6,0,L|72:308,1,120,2|0,0:0|0:0,0:0:0:0:
148,232,77283,1,0,0:0:0:0:
340,192,77517,2,0,L|416:180,2,60,8|0|0,0:0|0:0|0:0,0:0:0:0:
216,192,78220,1,0,0:0:0:0:
472,192,78595,5,4,0:0:0:0:
256,192,78970,12,0,81595,0:0:0:0:
