osu file format v14

[General]
AudioFilename: The Other side of sorrow piano version.mp3
AudioLeadIn: 0
PreviewTime: 51959
Countdown: 0
SampleSet: Soft
StackLeniency: 0.7
Mode: 2
LetterboxInBreaks: 0
WidescreenStoryboard: 0

[Editor]
DistanceSpacing: 1.4
BeatDivisor: 4
GridSize: 4
TimelineZoom: 1.9

[Metadata]
Title:Kanashimi no Mukougawa (Piano Version)
TitleUnicode:悲しみの向こう側 (Piano Version)
Artist:Bitter Sweet Entertainment
ArtistUnicode:Bitter Sweet Entertainment
Creator:JBHyperion
Version:Eternal
Source:永恆的賽妮亞
Tags:悲傷的另一面 The Other Side of Sorrow Eternal Senia Holy Priest Sis Magaleta Sacred Sanctum Fallen rpg arpg sister piano score magic bomb mbomb RPGツクール - 音素材集 vol.00 -
BeatmapID:937653
BeatmapSetID:435287

[Difficulty]
HPDrainRate:6
CircleSize:5
OverallDifficulty:8.2
ApproachRate:8.2
SliderMultiplier:1.8
SliderTickRate:1

[Events]
//Background and Video events
0,0,"SeniaMagaleta.jpg",0,0
//Break Periods
//Storyboard Layer 0 (Background)
//Storyboard Layer 1 (Fail)
//Storyboard Layer 2 (Pass)
//Storyboard Layer 3 (Foreground)
//Storyboard Sound Samples

[TimingPoints]
68,405.405405405405,4,2,1,45,1,0
13040,-100,4,2,1,55,0,0
24392,-100,4,2,1,65,0,0
45676,-100,4,2,1,50,0,0
50338,-100,4,2,1,57,0,0
51959,-80,4,2,1,65,0,1
58446,-80,4,2,1,57,0,1
64932,-100,4,2,1,65,0,0
65135,-100,4,2,1,50,0,0
71419,422.535211267606,4,2,1,40,1,0
73954,437.956204379562,4,2,1,40,1,0
74829,434.782608695652,4,2,1,40,1,0
75698,441.176470588235,4,2,1,40,1,0
76580,468.75,4,2,1,50,1,0
78220,500,4,2,1,45,1,0
78595,750,4,2,1,45,1,0
78970,-100,4,2,1,40,0,0
79345,-100,4,2,1,35,0,0
79720,-100,4,2,1,30,0,0
80095,-100,4,2,1,25,0,0
80470,-100,4,2,1,20,0,0
80845,-100,4,2,1,15,0,0
81220,-100,4,2,1,10,0,0
81595,-100,4,2,1,5,0,0

[Colours]
Combo1 : 255,200,80
Combo2 : 115,115,185
Combo3 : 255,70,70
Combo4 : 200,125,100

[HitObjects]
184,188,68,5,2,0:0:0:0:
364,188,473,2,0,L|368:88,1,90,0|0,0:0|0:0,0:0:0:0:
240,96,878,2,0,L|168:32,2,90,0|0|0,0:0|0:0|0:0,0:0:0:0:
348,96,1486,1,0,0:0:0:0:
95,96,1689,5,2,0:0:0:0:
311,96,2095,2,0,L|335:184,1,90,0|0,0:0|0:0,0:0:0:0:
207,188,2500,2,0,L|155:288,1,90,0|0,0:0|0:0,0:0:0:0:
3,216,2905,2,0,L|79:268,1,90,0|0,0:0|0:0,0:0:0:0:
331,268,3311,5,2,0:0:0:0:
151,268,3716,2,0,L|83:208,2,90,0|0|0,0:0|0:0|0:0,0:0:0:0:
259,268,4324,2,0,L|355:268,1,90,0|0,0:0|0:0,0:0:0:0:
167,268,4730,1,0,0:0:0:0:
455,268,4932,5,2,0:0:0:0:
240,268,5338,2,0,L|172:208,1,90
332,209,5743,2,0,L|416:173,2,90,8|0|0,0:0|0:0|0:0,0:0:0:0:
172,208,6351,1,0,0:0:0:0:
428,208,6554,6,0,P|464:160|380:112,1,180,2|0,0:0|0:0,0:0:0:0:
275,112,7162,1,0,0:0:0:0:
411,112,7365,2,0,L|467:40,1,90,0|0,0:0|0:0,0:0:0:0:
355,112,7770,1,0,0:0:0:0:
191,112,7973,1,0,0:0:0:0:
444,116,8176,6,0,P|432:176|324:232,1,180,2|0,0:0|0:0,0:0:0:0:
228,236,8784,1,0,0:0:0:0:
392,232,8986,2,0,L|476:276,2,90,0|0|0,0:0|0:0|0:0,0:0:0:0:
284,232,9595,1,0,0:0:0:0:
16,228,9797,5,2,0:0:0:0:
200,232,10202,2,0,L|268:172,2,90
92,228,10810,1,0,0:0:0:0:
228,232,11013,1,0,0:0:0:0:
47,228,11216,1,0,0:0:0:0:
335,232,11419,6,0,L|427:232,1,90,2|0,0:0|0:0,0:0:0:0:
243,152,11825,2,0,L|163:112,1,90
287,112,12230,1,8,0:0:0:0:
187,112,12433,1,0,0:0:0:0:
306,112,12636,1,0,0:0:0:0:
145,112,12838,1,0,0:0:0:0:
416,112,13041,5,2,0:0:0:0:
235,112,13446,2,0,L|163:168,1,90,0|0,0:0|0:0,0:0:0:0:
299,164,13851,2,0,L|387:192,2,90,0|0|0,0:0|0:0|0:0,0:0:0:0:
135,164,14459,1,0,0:0:0:0:
388,164,14662,5,2,0:0:0:0:
207,164,15067,2,0,L|295:196,1,90,0|0,0:0|0:0,0:0:0:0:
155,196,15473,1,0,0:0:0:0:
84,283,15676,1,0,0:0:0:0:
194,305,15878,1,0,0:0:0:0:
359,304,16081,1,0,0:0:0:0:
106,308,16284,5,2,0:0:0:0:
287,304,16689,2,0,L|307:216,1,90,0|0,0:0|0:0,0:0:0:0:
443,216,17095,2,0,L|411:116,1,90,0|0,0:0|0:0,0:0:0:0:
279,132,17500,1,0,0:0:0:0:
440,132,17703,1,0,0:0:0:0:
171,132,17905,5,2,0:0:0:0:
388,132,18311,2,0,L|300:168,1,90
160,192,18716,2,0,L|244:228,2,90,8|0|0,0:0|0:0|0:0,0:0:0:0:
15,192,19324,1,0,0:0:0:0:
287,192,19527,6,0,P|355:237|299:285,1,180,2|0,0:0|0:0,0:0:0:0:
183,284,20135,1,0,0:0:0:0:
347,284,20338,2,0,L|431:240,2,90,8|0|0,0:0|0:0|0:0,0:0:0:0:
183,284,20946,1,0,0:0:0:0:
436,280,21149,6,0,P|487:260|475:152,1,180,2|0,0:0|0:0,0:0:0:0:
359,152,21757,1,0,0:0:0:0:
484,96,21959,1,8,0:0:0:0:
340,96,22162,2,0,L|244:96,1,90
76,96,22567,1,0,0:0:0:0:
332,96,22770,5,2,0:0:0:0:
79,96,23176,2,0,L|-1:148,2,90,0|0|8,0:0|0:0|0:0,0:0:0:0:
187,96,23784,1,0,0:0:0:0:
59,96,23986,1,0,0:0:0:0:
239,96,24189,1,0,0:0:0:0:
495,96,24392,6,0,L|407:128,1,90,2|0,0:0|0:0,0:0:0:0:
247,192,24797,1,0,0:0:0:0:
427,192,25000,1,0,0:0:0:0:
155,192,25203,2,0,L|51:192,2,90,8|0|0,0:0|0:0|0:0,0:0:0:0:
336,192,25811,1,0,0:0:0:0:
48,192,26013,5,4,0:0:0:0:
264,192,26419,2,0,L|360:192,1,90
172,144,26824,2,0,L|71:146,1,90
192,36,27230,1,0,0:0:0:0:
300,36,27432,1,0,0:0:0:0:
100,88,27635,6,0,P|28:120|64:204,1,180,2|0,0:0|0:0,0:0:0:0:
180,200,28243,1,0,0:0:0:0:
20,200,28446,2,0,P|3:245|22:282,1,90
136,248,28851,1,0,0:0:0:0:
300,248,29054,1,0,0:0:0:0:
100,248,29257,6,0,P|30:222|56:136,1,180,2|0,0:0|0:0,0:0:0:0:
164,136,29865,1,0,0:0:0:0:
344,136,30067,1,0,0:0:0:0:
452,136,30270,1,0,0:0:0:0:
320,136,30473,1,0,0:0:0:0:
500,136,30676,1,0,0:0:0:0:
212,136,30878,6,0,L|116:136,2,90,2|0|0,0:0|0:0|0:0,0:0:0:0:
376,136,31486,1,0,0:0:0:0:
123,216,31689,2,0,L|203:272,2,90,8|0|0,0:0|0:0|0:0,0:0:0:0:
287,216,32297,1,0,0:0:0:0:
34,216,32500,6,0,P|4:168|88:108,1,180,2|0,0:0|0:0,0:0:0:0:
212,108,33108,1,0,0:0:0:0:
68,108,33311,1,0,0:0:0:0:
248,108,33513,2,0,P|292:116|332:152,1,90,0|0,0:0|0:0,0:0:0:0:
144,144,33919,1,0,0:0:0:0:
326,143,34122,6,0,P|364:192|284:248,1,180,2|0,0:0|0:0,0:0:0:0:
148,248,34730,1,0,0:0:0:0:
292,248,34932,1,0,0:0:0:0:
112,248,35135,2,0,L|20:272,1,90
160,300,35541,1,0,0:0:0:0:
412,304,35743,6,0,P|496:276|512:192,1,180,2|0,0:0|0:0,0:0:0:0:
376,192,36351,1,0,0:0:0:0:
240,192,36553,1,0,0:0:0:0:
424,192,36757,2,0,L|512:156,1,90,0|0,0:0|0:0,0:0:0:0:
328,156,37162,1,0,0:0:0:0:
75,156,37365,6,0,B|31:156|31:156|4:116,1,90,2|0,0:0|0:0,0:0:0:0:
131,96,37770,1,0,0:0:0:0:
311,96,37973,1,0,0:0:0:0:
39,192,38176,2,0,L|127:228,1,90,8|0,0:0|0:0,0:0:0:0:
260,228,38581,1,0,0:0:0:0:
88,224,38784,1,0,0:0:0:0:
413,230,38986,6,0,P|473:222|429:138,1,180,2|0,0:0|0:0,0:0:0:0:
312,140,39595,1,0,0:0:0:0:
420,140,39797,1,0,0:0:0:0:
240,140,40000,2,0,L|156:108,1,90,0|0,0:0|0:0,0:0:0:0:
336,108,40405,1,0,0:0:0:0:
148,108,40608,6,0,P|68:144|60:240,1,180,2|0,0:0|0:0,0:0:0:0:
184,224,41217,1,0,0:0:0:0:
20,296,41419,2,0,L|104:344,2,90
164,296,42027,1,0,0:0:0:0:
420,300,42230,6,0,P|496:260|460:192,1,180,2|0,0:0|0:0,0:0:0:0:
333,192,42838,1,0,0:0:0:0:
185,192,43040,1,0,0:0:0:0:
349,192,43243,1,0,0:0:0:0:
217,192,43446,1,0,0:0:0:0:
397,192,43649,1,0,0:0:0:0:
145,192,43851,6,0,L|129:100,1,90,2|0,0:0|0:0,0:0:0:0:
293,100,44257,1,0,0:0:0:0:
113,104,44459,1,0,0:0:0:0:
385,192,44662,2,0,L|401:100,1,90,8|0,0:0|0:0,0:0:0:0:
236,104,45068,1,0,0:0:0:0:
408,104,45270,1,0,0:0:0:0:
117,104,45473,6,0,P|65:124|129:192,1,180,2|0,0:0|0:0,0:0:0:0:
248,196,46081,1,0,0:0:0:0:
68,196,46284,2,0,L|48:288,1,90,0|0,0:0|0:0,0:0:0:0:
264,284,46892,1,0,0:0:0:0:
68,284,47095,6,0,P|4:252|44:168,1,180,2|0,0:0|0:0,0:0:0:0:
168,168,47703,1,0,0:0:0:0:
328,168,47905,2,0,L|248:128,1,90,0|0,0:0|0:0,0:0:0:0:
140,128,48311,1,0,0:0:0:0:
276,128,48513,1,0,0:0:0:0:
20,128,48716,6,0,P|24:212|108:224,1,180,2|0,0:0|0:0,0:0:0:0:
232,224,49324,1,0,0:0:0:0:
88,224,49526,1,0,0:0:0:0:
272,224,49730,2,0,L|360:260,1,90,0|0,0:0|0:0,0:0:0:0:
176,260,50135,1,0,0:0:0:0:
429,256,50338,6,0,L|445:164,1,90,2|0,0:0|0:0,0:0:0:0:
317,168,50743,1,0,0:0:0:0:
64,168,50946,1,0,0:0:0:0:
337,168,51149,2,0,L|429:136,1,90,8|0,0:0|0:0,0:0:0:0:
240,140,51554,1,0,0:0:0:0:
496,140,51757,1,0,0:0:0:0:
200,140,51959,5,4,0:0:0:0:
448,140,52365,2,0,L|464:252,1,112.5,0|0,0:0|0:0,0:0:0:0:
304,252,52770,2,0,L|288:364,1,112.5,8|0,0:0|0:0,0:0:0:0:
128,192,53176,1,0,0:0:0:0:
320,192,53378,1,0,0:0:0:0:
40,192,53581,6,0,P|68:92|176:76,1,225,2|0,0:0|0:0,0:0:0:0:
284,128,54189,1,0,0:0:0:0:
108,128,54392,2,0,L|200:64,2,112.5,8|0|0,0:0|0:0|0:0,0:0:0:0:
312,128,55000,1,0,0:0:0:0:
32,128,55203,6,0,L|12:244,1,112.5,2|0,0:0|0:0,0:0:0:0:
192,240,55608,2,0,L|281:316,1,112.5,0|0,0:0|0:0,0:0:0:0:
424,312,56013,1,8,0:0:0:0:
232,312,56216,1,0,0:0:0:0:
368,312,56419,2,0,L|468:256,1,112.5,0|0,0:0|0:0,0:0:0:0:
148,312,56824,6,0,L|36:312,1,112.5,2|0,0:0|0:0,0:0:0:0:
320,220,57230,2,0,L|432:220,1,112.5,0|0,0:0|0:0,0:0:0:0:
208,192,57635,1,8,0:0:0:0:
332,140,57838,1,0,0:0:0:0:
176,192,58040,1,0,0:0:0:0:
492,192,58243,1,0,0:0:0:0:
176,192,58446,5,4,0:0:0:0:
444,304,58851,2,0,L|460:192,1,112.5,0|0,0:0|0:0,0:0:0:0:
300,192,59256,2,0,L|388:96,1,112.5,8|0,0:0|0:0,0:0:0:0:
216,108,59662,1,0,0:0:0:0:
420,104,59864,1,0,0:0:0:0:
138,104,60067,6,0,P|72:176|160:236,1,225,2|0,0:0|0:0,0:0:0:0:
310,216,60676,1,0,0:0:0:0:
138,216,60878,2,0,L|22:244,2,112.5,8|0|0,0:0|0:0|0:0,0:0:0:0:
330,216,61486,1,0,0:0:0:0:
50,216,61689,6,0,B|14:188|14:188|74:140,1,112.5,2|0,0:0|0:0,0:0:0:0:
246,140,62095,2,0,B|282:112|282:112|222:64,1,112.5,0|0,0:0|0:0,0:0:0:0:
86,68,62499,1,8,0:0:0:0:
254,68,62702,1,0,0:0:0:0:
62,68,62905,2,0,L|162:124,1,112.5,0|0,0:0|0:0,0:0:0:0:
442,120,63310,6,0,L|330:120,1,112.5,2|0,0:0|0:0,0:0:0:0:
46,188,63716,2,0,L|158:188,1,112.5,0|0,0:0|0:0,0:0:0:0:
362,244,64122,1,8,0:0:0:0:
238,296,64325,1,0,0:0:0:0:
394,244,64527,1,0,0:0:0:0:
68,248,64729,1,0,0:0:0:0:
338,248,64932,6,0,P|406:232|470:140,1,180,4|0,0:0|0:0,0:0:0:0:
350,148,65540,1,0,0:0:0:0:
494,148,65743,2,0,L|422:88,2,90,0|0|0,0:0|0:0|0:0,0:0:0:0:
378,148,66351,1,0,0:0:0:0:
125,148,66554,6,0,P|61:180|129:244,1,180,2|0,0:0|0:0,0:0:0:0:
230,248,67162,1,0,0:0:0:0:
102,248,67365,1,0,0:0:0:0:
246,248,67567,2,0,L|334:224,1,90,0|0,0:0|0:0,0:0:0:0:
168,192,67973,1,0,0:0:0:0:
423,188,68176,5,2,0:0:0:0:
188,192,68581,2,0,L|156:96,1,90,0|0,0:0|0:0,0:0:0:0:
284,108,68986,1,0,0:0:0:0:
140,108,69189,2,0,L|208:40,1,90,0|0,0:0|0:0,0:0:0:0:
368,44,69595,1,0,0:0:0:0:
100,44,69797,6,0,L|8:44,1,90,2|0,0:0|0:0,0:0:0:0:
192,108,70203,2,0,L|292:108,1,90,0|0,0:0|0:0,0:0:0:0:
100,180,70608,1,8,0:0:0:0:
244,180,70811,1,0,0:0:0:0:
388,180,71013,1,0,0:0:0:0:
208,180,71216,1,0,0:0:0:0:
468,184,71419,6,0,P|484:232|388:292,1,180,2|0,0:0|0:0,0:0:0:0:
268,296,72052,1,0,0:0:0:0:
412,296,72264,2,0,L|504:256,2,90,0|0|0,0:0|0:0|0:0,0:0:0:0:
288,296,72897,1,0,0:0:0:0:
80,292,73109,6,0,P|24:280|60:192,1,180,2|0,0:0|0:0,0:0:0:0:
196,192,73742,1,0,0:0:0:0:
32,136,73954,2,0,L|8:44,1,90
192,96,74391,2,0,L|248:16,1,90
20,192,74829,6,0,L|112:224,1,90,2|0,0:0|0:0,0:0:0:0:
284,192,75263,2,0,L|224:268,1,90
96,288,75698,1,0,0:0:0:0:
248,336,75918,2,0,B|308:260,1,90
124,336,76359,1,0,0:0:0:0:
396,336,76580,6,0,L|492:336,1,90,2|0,0:0|0:0,0:0:0:0:
308,244,77048,1,0,0:0:0:0:
440,244,77283,1,0,0:0:0:0:
152,192,77517,2,0,L|44:192,1,90,8|0,0:0|0:0,0:0:0:0:
244,192,77986,1,0,0:0:0:0:
76,192,78220,1,0,0:0:0:0:
440,192,78532,6,0,L|464:176,1,22.5,0|4,0:0|0:0,0:0:0:0:
256,192,78970,12,0,81595,0:0:0:0:
