osu file format v14

[General]
AudioFilename: The Other side of sorrow piano version.mp3
AudioLeadIn: 0
PreviewTime: 51959
Countdown: 0
SampleSet: Soft
StackLeniency: 0.7
Mode: 2
LetterboxInBreaks: 0
WidescreenStoryboard: 0

[Editor]
DistanceSpacing: 1.1
BeatDivisor: 2
GridSize: 4
TimelineZoom: 1

[Metadata]
Title:Kanashimi no Mukougawa (Piano Version)
TitleUnicode:悲しみの向こう側 (Piano Version)
Artist:Bitter Sweet Entertainment
ArtistUnicode:Bitter Sweet Entertainment
Creator:JBHyperion
Version:Cup
Source:永恆的賽妮亞
Tags:悲傷的另一面 The Other Side of Sorrow Eternal Senia Holy Priest Sis Magaleta Sacred Sanctum Fallen rpg arpg sister piano score magic bomb mbomb RPGツクール - 音素材集 vol.00 -
BeatmapID:937651
BeatmapSetID:435287

[Difficulty]
HPDrainRate:3
CircleSize:3
OverallDifficulty:5.5
ApproachRate:5.5
SliderMultiplier:0.9
SliderTickRate:1

[Events]
//Background and Video events
0,0,"SeniaMagaleta.jpg",0,0
//Break Periods
//Storyboard Layer 0 (Background)
//Storyboard Layer 1 (Fail)
//Storyboard Layer 2 (Pass)
//Storyboard Layer 3 (Foreground)
//Storyboard Sound Samples

[TimingPoints]
68,405.405405405405,4,2,1,45,1,0
13040,-100,4,2,1,55,0,0
24392,-100,4,2,1,65,0,0
45676,-100,4,2,1,50,0,0
50338,-100,4,2,1,57,0,0
51959,-100,4,2,1,65,0,1
58446,-100,4,2,1,57,0,1
64932,-100,4,2,1,65,0,0
65135,-100,4,2,1,50,0,0
71419,422.535211267606,4,2,1,40,1,0
73954,437.956204379562,4,2,1,40,1,0
74829,434.782608695652,4,2,1,40,1,0
75698,441.176470588235,4,2,1,40,1,0
76580,468.75,4,2,1,50,1,0
78220,500,4,2,1,45,1,0
78595,750,4,2,1,45,1,0
78970,-100,4,2,1,40,0,0
79345,-100,4,2,1,35,0,0
79720,-100,4,2,1,30,0,0
80095,-100,4,2,1,25,0,0
80470,-100,4,2,1,20,0,0
80845,-100,4,2,1,15,0,0
81220,-100,4,2,1,10,0,0
81595,-100,4,2,1,5,0,0

[Colours]
Combo1 : 255,200,80
Combo2 : 115,115,185
Combo3 : 255,70,70
Combo4 : 200,125,100

[HitObjects]
344,88,68,6,0,P|411:136|415:240,1,180,2|0,0:0|0:0,0:0:0:0:
203,232,1689,2,0,P|288:255|378:231,1,180,2|0,0:0|0:0,0:0:0:0:
287,96,2905,1,0,0:0:0:0:
179,100,3311,6,0,P|56:140|112:224,1,270,2|0,0:0|0:0,0:0:0:0:
231,192,4932,2,0,L|320:208,1,90,2|0,0:0|0:0,0:0:0:0:
211,276,5743,2,0,L|145:340,1,90,8|0,0:0|0:0,0:0:0:0:
271,340,6554,6,0,P|339:320|395:224,1,180,2|0,0:0|0:0,0:0:0:0:
179,232,8176,2,0,P|104:208|140:132,1,180,2|0,0:0|0:0,0:0:0:0:
224,132,9392,1,0,0:0:0:0:
116,132,9797,5,2,0:0:0:0:
208,132,10203,2,0,P|273:172|209:200,1,180
319,244,11419,2,0,L|244:296,1,90,2|0,0:0|0:0,0:0:0:0:
135,156,12230,2,0,L|209:208,1,90,8|0,0:0|0:0,0:0:0:0:
335,204,13040,6,0,L|434:172,2,90,2|0|0,0:0|0:0|0:0,0:0:0:0:
119,140,14662,2,0,L|195:216,2,90,2|0|0,0:0|0:0|0:0,0:0:0:0:
211,140,15878,1,0,0:0:0:0:
320,140,16284,5,2,0:0:0:0:
232,140,16689,2,0,P|160:168|128:264,1,180
256,256,17905,2,0,P|298:237|326:197,1,90,2|0,0:0|0:0,0:0:0:0:
216,140,18716,2,0,P|175:122|147:86,1,90,8|0,0:0|0:0,0:0:0:0:
276,64,19527,5,2,0:0:0:0:
188,64,19932,1,0,0:0:0:0:
300,64,20338,1,0,0:0:0:0:
84,144,21149,1,2,0:0:0:0:
172,144,21554,1,0,0:0:0:0:
60,144,21960,1,8,0:0:0:0:
276,192,22770,5,2,0:0:0:0:
368,192,23176,2,0,L|449:230,2,90,0|8|0,0:0|0:0|0:0,0:0:0:0:
232,272,24392,1,2,0:0:0:0:
348,268,24797,2,0,P|392:263|429:238,2,90,0|8|0,0:0|0:0|0:0,0:0:0:0:
204,272,26013,5,4,0:0:0:0:
104,272,26419,1,0,0:0:0:0:
220,272,26824,1,0,0:0:0:0:
20,192,27635,2,0,P|84:140|156:192,1,180,2|0,0:0|0:0,0:0:0:0:
32,144,28851,1,0,0:0:0:0:
168,236,29257,5,2,0:0:0:0:
268,236,29662,2,0,P|340:272|304:348,1,180
172,348,30878,2,0,L|264:348,1,90,2|0,0:0|0:0,0:0:0:0:
144,348,31689,2,0,L|50:306,1,90,8|0,0:0|0:0,0:0:0:0:
196,272,32500,6,0,L|264:208,2,90,2|0|0,0:0|0:0|0:0,0:0:0:0:
376,192,34122,2,0,P|436:248|372:288,1,180,2|0,0:0|0:0,0:0:0:0:
276,192,35338,1,0,0:0:0:0:
160,192,35743,6,0,P|99:194|76:28,1,270,2|0,0:0|0:0,0:0:0:0:
208,108,37365,2,0,P|252:93|303:108,1,90,2|0,0:0|0:0,0:0:0:0:
176,192,38176,2,0,L|120:272,1,90,8|0,0:0|0:0,0:0:0:0:
260,304,38986,6,0,P|302:318|346:311,2,90,2|0|0,0:0|0:0|0:0,0:0:0:0:
60,192,40608,2,0,B|156:148,1,90,2|0,0:0|0:0,0:0:0:0:
240,72,41419,2,0,B|140:72,1,90
268,156,42230,6,0,P|332:179|385:224,2,135,2|0|0,0:0|0:0|0:0,0:0:0:0:
132,192,43851,2,0,P|158:227|217:248,1,90,2|0,0:0|0:0,0:0:0:0:
316,224,44662,2,0,B|360:224|360:224|360:276,1,90,8|0,0:0|0:0,0:0:0:0:
224,308,45473,6,0,B|132:308,1,90,2|0,0:0|0:0,0:0:0:0:
188,232,46081,2,0,L|268:192,1,90
416,80,47095,2,0,B|324:80,1,90,2|0,0:0|0:0,0:0:0:0:
272,80,47703,2,0,L|220:156,1,90
384,192,48716,6,0,P|428:197|466:220,1,90,2|0,0:0|0:0,0:0:0:0:
360,300,49527,2,0,P|315:301|276:282,1,90
412,192,50338,1,2,0:0:0:0:
296,192,50743,1,0,0:0:0:0:
432,192,51149,1,8,0:0:0:0:
316,192,51554,1,0,0:0:0:0:
260,192,51757,1,0,0:0:0:0:
200,192,51959,6,0,P|158:207|127:240,1,90,4|0,0:0|0:0,0:0:0:0:
256,272,52770,2,0,P|299:261|333:233,1,90,8|0,0:0|0:0,0:0:0:0:
208,192,53581,2,0,P|174:161|159:119,1,90,2|0,0:0|0:0,0:0:0:0:
36,192,54392,2,0,P|64:232|104:240,1,90,8|0,0:0|0:0,0:0:0:0:
163,240,55000,1,0,0:0:0:0:
224,240,55203,5,2,0:0:0:0:
104,136,55608,2,0,L|12:108,2,90,0|8|0,0:0|0:0|0:0,0:0:0:0:
248,136,56824,1,2,0:0:0:0:
124,136,57230,1,0,0:0:0:0:
248,136,57635,2,0,P|288:153|318:186,1,90,8|0,0:0|0:0,0:0:0:0:
258,188,58243,1,0,0:0:0:0:
196,192,58446,6,0,P|154:176|130:139,1,90,4|0,0:0|0:0,0:0:0:0:
256,152,59257,2,0,L|272:96,1,45
176,236,59865,1,0,0:0:0:0:
240,236,60067,2,0,L|327:260,1,90,2|0,0:0|0:0,0:0:0:0:
220,260,60878,1,0,0:0:0:0:
276,260,61081,2,0,L|368:260,1,90
420,260,61689,6,0,L|520:228,2,90,2|0|0,0:0|0:0|0:0,0:0:0:0:
296,212,62905,1,0,0:0:0:0:
152,212,63311,2,0,P|109:199|71:158,1,90,2|0,0:0|0:0,0:0:0:0:
220,140,64122,1,8,0:0:0:0:
96,60,64527,1,0,0:0:0:0:
156,60,64730,1,0,0:0:0:0:
216,60,64932,6,0,L|312:60,1,90,4|0,0:0|0:0,0:0:0:0:
424,60,65743,1,0,0:0:0:0:
228,144,66554,2,0,P|143:161|110:242,1,180,2|0,0:0|0:0,0:0:0:0:
212,244,67770,1,0,0:0:0:0:
332,244,68176,5,2,0:0:0:0:
216,152,68581,2,0,P|160:108|232:60,1,180
352,152,69797,2,0,P|391:170|417:206,1,90,2|0,0:0|0:0,0:0:0:0:
300,304,70608,2,0,P|263:278|244:238,1,90,8|0,0:0|0:0,0:0:0:0:
364,192,71419,6,0,L|452:176,2,90,2|0|0,0:0|0:0|0:0,0:0:0:0:
164,136,73109,2,0,B|252:120,2,90,2|0|0,0:0|0:0|0:0,0:0:0:0:
272,136,74391,1,0,0:0:0:0:
404,192,74829,6,0,P|398:236|373:273,1,90,2|0,0:0|0:0,0:0:0:0:
268,240,75698,2,0,P|303:267|366:273,1,90
476,192,76580,6,0,L|379:169,1,90,2|0,0:0|0:0,0:0:0:0:
256,172,77517,2,0,L|328:103,1,90,8|0,0:0|0:0,0:0:0:0:
372,60,78220,1,2,0:0:0:0:
236,60,78595,5,4,0:0:0:0:
256,192,78970,12,0,81595,0:0:0:0:
