osu file format v14

[General]
AudioFilename: audio.mp3
AudioLeadIn: 0
PreviewTime: -1
Countdown: 0
SampleSet: None
StackLeniency: 0.6
Mode: 0
LetterboxInBreaks: 0
WidescreenStoryboard: 0

[Editor]
Bookmarks: 41430
DistanceSpacing: 1.6
BeatDivisor: 8
GridSize: 4
TimelineZoom: 2.3

[Metadata]
Title:Ashita no Joe opening
TitleUnicode:Ashita no Joe opening
Artist:Bitou Isao
ArtistUnicode:Bitou Isao
Creator:Miikarusuki
Version:Expert
Source:Ashita no Joe
Tags:Ashita no joe opening 1 Bitou Isao
BeatmapID:2138191
BeatmapSetID:1021964

[Difficulty]
HPDrainRate:8
CircleSize:5
OverallDifficulty:7
ApproachRate:9
SliderMultiplier:2.8
SliderTickRate:4

[Events]
//Background and Video events
Video,0,"Ashita no Joe intro HD.mp4"
0,0,"ashita no joe.jpg",0,0
//Break Periods
//Storyboard Layer 0 (Background)
//Storyboard Layer 1 (Fail)
//Storyboard Layer 2 (Pass)
//Storyboard Layer 3 (Foreground)
//Storyboard Layer 4 (Overlay)
//Storyboard Sound Samples

[TimingPoints]
0,325.909831613254,4,3,0,80,1,0
9940,-400,4,3,0,40,0,0
11080,-100,4,3,0,40,0,0
12466,-200,4,3,0,40,0,0
13879,-100,4,3,0,40,0,0
15480,-200,4,3,0,40,0,0
16662,-100,4,3,0,40,0,0
17517,-200,4,3,0,40,0,0
19024,-100,4,3,0,40,0,0
20410,-200,4,3,0,40,0,0
21550,-100,4,3,0,40,0,0
23125,-200,4,3,0,40,0,0
25746,-100,4,3,0,40,0,0
26398,-133.333333333333,4,3,0,40,0,0
28435,-100,4,3,0,40,0,0
28761,-133.333333333333,4,3,0,40,0,0
29631,-66.6666666666667,4,3,0,40,0,0
31205,-133.333333333333,4,3,0,40,0,0
32020,-66.6666666666667,4,3,0,50,0,0
32590,-100,4,3,0,50,0,0
33202,-66.6666666666667,4,3,0,50,0,0
33853,-66.6666666666667,4,3,0,60,0,0
34627,-66.6666666666667,4,3,0,70,0,0
37683,-50,4,3,0,70,0,0
38824,-66.6666666666667,4,3,0,70,0,0
40229,-50,4,3,0,70,0,0
41838,-66.6666666666667,4,3,0,70,0,0
47379,-133.333333333333,4,3,0,70,0,0
50841,-133.333333333333,4,3,0,40,0,0
51208,-133.333333333333,4,3,0,70,0,0
57115,-100,4,3,0,70,0,0
58256,-66.6666666666667,4,3,0,90,0,0
59671,-100,4,3,0,90,0,0
68155,-50,4,3,0,100,0,0
68807,-133.333333333333,4,3,0,40,0,0

[Colours]
Combo1 : 0,0,255
Combo2 : 255,0,0
Combo3 : 255,194,166

[HitObjects]
448,16,0,5,0,0:0:0:0:
448,152,407,1,4,0:0:0:0:
304,152,733,1,8,0:0:0:0:
304,84,814,1,8,0:0:0:0:
304,16,896,1,8,0:0:0:0:
224,36,1059,2,0,B|164:16|132:16|92:56|60:56|4:24,1,210,2|4,0:0|0:0,0:0:0:0:
368,48,1711,6,0,L|368:136,1,70,4|8,0:0|0:0,0:0:0:0:
264,328,1873,2,0,L|264:228,1,70,4|8,0:0|0:0,0:0:0:0:
264,48,2036,2,0,L|264:140,1,70,4|8,0:0|0:0,0:0:0:0:
180,336,2362,1,0,0:0:0:0:
304,320,2648,5,6,0:0:0:0:
432,324,2973,2,4,P|453:266|405:268,2,105,4|6|4,0:0|0:0|0:0,0:0:0:0:
336,328,3422,1,0,0:0:0:0:
220,328,3666,2,2,P|128:336|64:300,1,140
48,224,3992,1,8,0:0:0:0:
92,112,4236,2,0,L|188:112,1,70,4|8,0:0|0:0,0:0:0:0:
272,188,4399,2,0,L|176:188,1,70,4|8,0:0|0:0,0:0:0:0:
348,256,4562,2,0,L|440:256,1,70,4|8,0:0|0:0,0:0:0:0:
418,256,4888,2,0,L|418:176,1,70,4|8,0:0|0:0,0:0:0:0:
448,88,5255,5,6,0:0:0:0:
332,48,5581,2,0,L|332:176,1,105,4|2,0:0|0:0,0:0:0:0:
192,104,5947,1,8,0:0:0:0:
136,76,6029,1,8,0:0:0:0:
80,48,6110,1,8,0:0:0:0:
48,132,6233,2,0,B|64:224|64:224|40:296,1,140
148,344,6599,1,8,0:0:0:0:
316,304,6803,5,0,0:0:0:0:
336,308,6884,1,0,0:0:0:0:
352,312,6966,1,0,0:0:0:0:
416,316,7169,2,0,L|464:256,1,70,4|8,0:0|0:0,0:0:0:0:
360,140,7495,2,0,L|360:60,1,70,4|8,0:0|0:0,0:0:0:0:
236,240,7821,2,0,L|182:154,1,70
136,344,8147,2,0,L|44:344,1,70
64,80,8514,2,0,L|64:176,1,70
256,192,8636,12,0,9451,0:0:0:0:
144,192,9614,5,0,0:0:0:0:
212,80,9777,1,0,0:0:0:0:
252,316,10103,6,0,B|220:280|256:256|292:216|254:172,1,157.5,0|2,0:0|0:0,0:0:0:0:
168,244,11203,5,0,0:0:0:0:
112,260,11285,1,0,0:0:0:0:
56,240,11366,1,0,0:0:0:0:
44,180,11447,1,0,0:0:0:0:
56,124,11529,2,0,P|48:76|156:48,1,175
204,56,11814,1,0,0:0:0:0:
256,84,11895,1,0,0:0:0:0:
308,108,11977,1,0,0:0:0:0:
360,136,12058,1,0,0:0:0:0:
408,168,12140,2,0,P|448:208|448:252,1,70
456,344,12384,5,0,0:0:0:0:
324,344,12506,2,0,L|192:344,1,122.5
72,168,13158,2,0,P|100:152|104:128,1,52.5
280,80,13484,2,0,P|308:68|328:84,1,52.5
80,40,13810,5,0,0:0:0:0:
44,92,13891,1,0,0:0:0:0:
104,116,13973,1,0,0:0:0:0:
64,184,14095,2,0,B|60:332|72:344|224:340,1,280
288,340,14502,1,0,0:0:0:0:
288,276,14625,1,0,0:0:0:0:
216,268,14706,2,0,B|136:284|120:284|128:104,1,210
156,32,15073,2,0,B|228:8|248:8|220:212,1,245
288,264,15439,5,0,0:0:0:0:
452,292,15725,2,0,B|480:228|480:228|428:168,1,140
217,47,16417,1,0,0:0:0:0:
72,48,16702,2,0,L|72:116,1,35
48,216,17028,1,0,0:0:0:0:
96,200,17110,1,0,0:0:0:0:
144,184,17191,1,0,0:0:0:0:
192,168,17273,1,0,0:0:0:0:
236,152,17354,1,0,0:0:0:0:
52,72,17680,6,0,L|212:72,1,157.5
256,72,18128,2,0,L|384:72,1,122.5
40,88,18658,2,0,L|144:196,1,140
204,268,19065,5,8,0:0:0:0:
244,228,19147,1,8,0:0:0:0:
280,184,19228,1,8,0:0:0:0:
316,140,19310,1,8,0:0:0:0:
128,40,19676,1,10,0:0:0:0:
88,80,19758,1,10,0:0:0:0:
48,120,19839,1,10,0:0:0:0:
56,228,20002,2,2,L|280:340,1,245
432,272,20613,6,0,L|432:192,1,70
68,60,20939,2,0,L|140:60,1,70
60,324,21265,2,0,B|64:288|72:284|112:308|104:288,1,70
420,340,21673,5,0,0:0:0:0:
376,340,21754,1,0,0:0:0:0:
332,340,21836,1,0,0:0:0:0:
284,340,21918,1,0,0:0:0:0:
272,48,22284,1,0,0:0:0:0:
148,216,22447,1,0,0:0:0:0:
216,24,22609,1,0,0:0:0:0:
216,260,22772,1,0,0:0:0:0:
188,64,22935,1,0,0:0:0:0:
24,296,23261,6,2,B|112:340|112:340|156:320,1,140
240,248,23750,1,0,0:0:0:0:
332,304,24239,2,0,B|380:348|380:348|460:312,1,140
252,28,25054,1,4,0:0:0:0:
256,192,25217,1,0,0:0:0:0:
160,144,25869,6,4,P|152:224|228:272,1,175
452,304,26520,6,0,L|248:304,1,183.750007009506,2|4,0:0|0:0,0:0:0:0:
48,44,27131,2,0,L|252:44,1,183.750007009506,2|4,0:0|0:0,0:0:0:0:
44,336,27824,2,0,L|48:172,1,157.500006008148,2|4,0:0|0:0,0:0:0:0:
168,168,28231,2,0,L|260:168,1,78.7500030040742,2|4,0:0|0:0,0:0:0:0:
336,124,28476,1,14,0:0:0:0:
448,340,28883,2,0,L|304:212,1,183.750007009506,2|4,0:0|0:0,0:0:0:0:
248,176,29250,2,2,P|176:92|92:68,1,183.750007009506,2|4,0:0|0:0,0:0:0:0:
60,312,29780,6,0,B|56:236|56:236|144:232,1,157.500006008148
352,216,30065,1,0,0:0:0:0:
220,32,30431,6,0,L|220:292,1,210.000008010865
132,336,30757,2,0,L|132:92,1,210.000008010865
226,245,31083,1,0,0:0:0:0:
192,168,31409,6,0,L|148:116,1,52.5000020027161,4|0,0:0|0:0,0:0:0:0:
368,44,31572,2,0,L|340:108,1,52.5000020027161,4|0,0:0|0:0,0:0:0:0:
440,264,31735,2,0,L|412:200,1,52.5000020027161,4|0,0:0|0:0,0:0:0:0:
232,40,32102,2,0,B|136:120|148:180|92:112|92:112|52:196|64:336,1,420.000016021729,6|4,0:0|0:0,0:0:0:0:
96,72,32672,6,0,L|160:120,1,70,4|0,0:0|0:0,0:0:0:0:
276,256,32835,2,0,L|192:276,1,70,4|0,0:0|0:0,0:0:0:0:
260,144,32998,2,0,L|320:80,1,70,4|0,0:0|0:0,0:0:0:0:
180,344,33405,6,0,B|84:264|124:88|204:32|308:40,1,420.000016021729,6|4,0:0|0:0,0:0:0:0:
416,316,33935,6,0,L|332:232,1,105.000004005432
132,48,34098,2,0,L|272:56,1,105.000004005432
412,68,34302,2,0,B|416:144|356:196|228:236,1,262.500010013581
40,352,34709,6,0,B|176:352|200:344|236:316,1,157.500006008148,6|0,0:0|0:0,0:0:0:0:
432,192,34994,1,6,0:0:0:0:
168,40,35157,1,6,0:0:0:0:
304,320,35320,1,6,0:0:0:0:
108,212,35483,1,6,0:0:0:0:
352,40,35646,1,6,0:0:0:0:
472,112,36338,5,4,0:0:0:0:
344,196,36501,1,4,0:0:0:0:
256,104,36664,1,4,0:0:0:0:
168,200,36827,1,4,0:0:0:0:
64,136,37031,2,6,B|112:56|136:44|136:44|320:36|376:68|416:88,1,367.500014019013,6|2,0:0|0:0,0:0:0:0:
108,324,37479,5,0,0:0:0:0:
152,268,37561,1,0,0:0:0:0:
220,260,37642,1,0,0:0:0:0:
288,248,37724,2,0,P|360:204|380:88,1,140
404,64,37927,1,0,0:0:0:0:
224,32,38131,2,0,B|108:48|72:140|44:256,1,280
360,340,38620,1,0,0:0:0:0:
476,124,38905,6,0,B|396:184|328:116|292:96|164:148,1,315.000012016297,4|2,0:0|0:0,0:0:0:0:
52,292,39353,1,2,0:0:0:0:
132,40,39557,1,2,0:0:0:0:
184,296,39883,2,6,B|272:352|328:276|352:256|504:308,1,315.000012016297,6|2,0:0|0:0,0:0:0:0:
492,196,40249,6,2,B|312:196|312:196|384:160|384:160|136:160|128:140,1,490
280,36,40738,5,0,0:0:0:0:
56,40,40860,1,0,0:0:0:0:
464,316,41186,6,2,B|332:316|332:316|392:276|392:276|212:276|168:264,1,420,6|6,0:0|0:0,0:0:0:0:
120,156,41553,1,4,0:0:0:0:
264,184,41920,6,0,B|366:334|366:334|479:186,2,367.500014019013,6|2|6,0:0|0:0|0:0,0:0:0:0:
388,84,42857,1,4,0:0:0:0:
244,36,43183,2,0,L|76:172,1,210.000008010865,4|0,0:0|0:0,0:0:0:0:
112,284,43508,1,0,0:0:0:0:
368,292,43794,1,0,0:0:0:0:
248,40,44160,2,0,L|64:188,1,210.000008010865,4|0,0:0|0:0,0:0:0:0:
120,328,44608,2,0,L|316:120,1,262.500010013581
272,72,45138,2,0,P|352:44|360:156,1,210.000008010865
444,264,45505,5,0,0:0:0:0:
396,288,45587,1,0,0:0:0:0:
348,300,45668,1,0,0:0:0:0:
296,300,45750,1,0,0:0:0:0:
244,288,45831,1,0,0:0:0:0:
204,256,45913,1,0,0:0:0:0:
168,216,45994,1,0,0:0:0:0:
332,112,46156,1,0,0:0:0:0:
80,96,47419,6,2,B|104:76|144:88|136:108|136:108|148:88|148:88|156:104|156:104|224:140,1,183.750007009506
352,316,47949,2,2,B|308:296|284:316|296:284|296:284|280:308|280:308|284:288|284:288|232:268,1,183.750007009506
456,48,48316,2,0,B|392:76|392:76|368:56|368:56|392:104|392:104|368:88|368:88|344:104|300:112,1,236.250009012223
172,84,49253,1,2,0:0:0:0:
364,112,49538,1,2,0:0:0:0:
328,288,49782,1,2,0:0:0:0:
140,256,50027,1,2,0:0:0:0:
256,60,50434,2,2,B|256:80|240:84|240:84|268:84|268:84|240:96|240:96|268:96|268:96|240:108|240:108|268:108|268:108|240:120|240:120|268:120|268:120,1,210.000008010865
256,188,50923,5,0,0:0:0:0:
256,232,51004,1,0,0:0:0:0:
256,276,51086,1,0,0:0:0:0:
256,320,51167,1,0,0:0:0:0:
256,360,51249,1,0,0:0:0:0:
360,296,51412,1,0,0:0:0:0:
464,228,51575,1,0,0:0:0:0:
432,132,51941,6,0,P|340:76|340:76,1,105.000004005432
300,208,52267,2,0,L|212:152,1,105.000004005432
152,272,52593,2,0,P|48:200|48:200,1,105.000004005432
192,56,53571,2,0,L|192:172,1,105.000004005432
308,356,53897,2,0,L|308:248,1,105.000004005432
100,336,54630,2,0,L|224:336,1,105.000004005432
420,192,54956,2,0,L|308:192,1,105.000004005432
100,52,55282,2,0,L|216:52,1,105.000004005432
432,56,56178,5,2,0:0:0:0:
448,136,56300,1,2,0:0:0:0:
284,80,56463,1,2,0:0:0:0:
156,232,56626,1,2,0:0:0:0:
92,72,56789,1,4,0:0:0:0:
60,220,57156,6,6,B|128:356|128:356|184:312,1,210
252,232,57645,1,6,0:0:0:0:
360,300,57930,2,6,B|412:356|412:356|488:216,1,210,6|2,0:0|0:0,0:0:0:0:
332,56,58419,5,4,0:0:0:0:
188,232,58582,1,4,0:0:0:0:
260,44,58745,5,4,0:0:0:0:
268,244,58908,1,4,0:0:0:0:
196,72,59071,6,0,L|348:240,1,210.000008010865,2|4,0:0|0:0,0:0:0:0:
248,312,59437,1,0,0:0:0:0:
36,192,59763,6,2,B|72:160|88:160|112:220|128:220|168:160|188:160|228:216|244:216|288:160|304:160|336:212|352:212|404:164|420:164|472:192|472:192|484:192,1,455
404,284,60415,1,0,0:0:0:0:
348,304,60496,1,0,0:0:0:0:
292,316,60578,1,0,0:0:0:0:
232,316,60659,1,0,0:0:0:0:
140,292,60782,1,0,0:0:0:0:
376,56,61026,5,4,0:0:0:0:
108,56,61189,1,4,0:0:0:0:
96,196,61352,5,4,0:0:0:0:
392,200,61515,1,4,0:0:0:0:
236,352,61678,6,4,L|236:24,1,315
240,272,62370,1,4,0:0:0:0:
72,64,63022,5,4,0:0:0:0:
256,64,63674,1,4,0:0:0:0:
440,60,64326,1,4,0:0:0:0:
256,64,64978,1,4,0:0:0:0:
72,64,65670,1,0,0:0:0:0:
72,244,65996,5,0,0:0:0:0:
160,344,66281,2,2,B|284:348|288:324|292:256|304:244|316:256|316:256|320:324|324:348|480:344,1,420
464,192,66974,1,4,0:0:0:0:
72,148,67137,2,4,B|88:68|236:48|328:40,1,280
464,192,67789,1,4,0:0:0:0:
360,312,68074,1,4,0:0:0:0:
152,324,68237,2,4,L|400:64,1,350
120,332,69011,6,2,L|224:244,1,131.25000500679
284,320,69418,1,2,0:0:0:0:
372,356,69744,2,2,B|440:296|440:296|392:256|392:256|428:228|428:228|388:184|388:184|424:148|424:148|396:120|396:120|432:84|432:84|392:60|392:60|428:20|428:20,1,498.750019025803
256,192,71252,1,2,0:0:0:0:
256,192,71700,1,2,0:0:0:0:
